osu file format v14

[General]
AudioFilename: The Shining Needle Castle Sinking in the Air.mp3
AudioLeadIn: 0
PreviewTime: 270136
Countdown: 0
SampleSet: Soft
StackLeniency: 0.5
Mode: 0
LetterboxInBreaks: 0
WidescreenStoryboard: 1

[Editor]
Bookmarks: 40394,63907,84664,94880,128772,149528,159745,193637,203366,215528,236447,259799,270177,293366,334879
DistanceSpacing: 0.77
BeatDivisor: 4
GridSize: 4
TimelineZoom: 0.9

[Metadata]
Title:Kuuchuu ni Shizumu Kishinjou ~ Counter-Clock World
TitleUnicode:空中に沈む輝針城 ~ Counter-Clock World
Artist:Demetori
ArtistUnicode:Demetori
Creator:jonathanlfj
Version:Lunatic Collab
Source:東方Project
Tags:Intro: The Shining Needle Castle Sinking in the Air Nyquill Touhou Marathon 東方輝針城 ~ Double Dealing Character 愧人贖悪 Evil People as the True Object of Salvation Stage 5 Theme Seija Kijin 鬼人 正邪 metal arrangement ZUN
BeatmapID:818597
BeatmapSetID:347719

[Difficulty]
HPDrainRate:6
CircleSize:4
OverallDifficulty:8.2
ApproachRate:9
SliderMultiplier:1.7
SliderTickRate:1

[Events]
//Background and Video events
0,0,"wow.jpg",0,0
//Break Periods
2,33884,38011
2,193837,202766
//Storyboard Layer 0 (Background)
//Storyboard Layer 1 (Fail)
//Storyboard Layer 2 (Pass)
//Storyboard Layer 3 (Foreground)
//Storyboard Sound Samples

[TimingPoints]
364,329.127811300055,6,2,1,20,1,0
364,-200,6,2,1,20,0,0
1351,-200,6,2,1,25,0,0
2338,-200,6,2,1,30,0,0
3326,-200,6,2,1,35,0,0
4313,-200,6,2,1,40,0,0
16162,329.67032967033,6,2,1,40,1,0
16162,-200,6,2,1,40,0,0
24074,331.491712707182,6,2,1,40,1,0
24074,-200,6,2,1,40,0,0
26062,348.837209302326,6,2,1,40,1,0
26062,-210,6,2,1,40,0,0
27108,357.142857142857,6,2,1,40,1,0
27108,-230,6,2,1,40,0,0
28179,365.853658536585,6,2,1,40,1,0
28179,-260,6,2,1,40,0,0
29276,400,6,2,1,40,1,0
29276,-300,6,2,1,40,0,0
30476,434.782608695652,6,2,1,40,1,0
30476,-350,6,2,1,40,0,0
31780,476.190476190476,4,2,1,30,1,0
31780,-410,4,2,1,30,0,0
32732,-480,4,2,1,35,0,0
33684,-480,4,2,1,20,0,0
38611,324.324324324324,6,1,1,70,1,0
38611,-500,6,1,1,70,0,0
40232,-500,6,2,1,5,0,0
40394,-133.333333333333,6,1,1,70,0,1
40475,-133.333333333333,6,1,1,70,0,0
40556,324.324324324324,4,1,1,70,1,0
40556,-133.333333333333,4,1,1,70,0,0
40718,-100,4,1,1,70,0,0
42988,-133.333333333333,4,1,1,70,0,0
43312,-100,4,1,1,70,0,0
45583,-133.333333333333,4,1,1,70,0,0
45907,-100,4,1,1,70,0,0
48177,-133.333333333333,4,1,1,70,0,0
48501,-100,4,1,1,70,0,0
50772,-133.333333333333,4,1,1,70,0,0
51096,-100,4,1,1,70,0,0
53366,-133.333333333333,4,1,1,70,0,0
53691,-100,4,1,1,70,0,0
55961,-133.333333333333,4,1,1,70,0,0
56285,-100,4,1,1,70,0,0
58555,-133.333333333333,4,1,1,70,0,0
58880,-100,4,1,1,70,0,0
61312,-125,4,1,1,60,0,0
63907,-100,4,1,1,70,0,0
84664,-111.111111111111,4,1,1,70,0,0
89853,-100,4,1,1,70,0,0
93745,-100,4,1,1,75,0,0
94880,-90.9090909090909,4,1,1,80,0,1
115555,-90.9090909090909,4,1,1,80,0,0
115637,-90.9090909090909,4,1,1,80,0,1
126015,-100,4,1,1,70,0,0
127312,-100,4,1,1,20,0,0
127474,-100,4,1,1,60,0,0
128772,-100,4,1,1,70,0,0
149528,-111.111111111111,4,1,1,70,0,0
154718,-100,4,1,1,70,0,0
158610,-166.666666666667,4,1,1,75,0,0
159745,-90.9090909090909,4,1,1,80,0,1
180420,-90.9090909090909,4,1,1,80,0,0
180501,-125,4,1,1,80,0,1
181312,-100,4,1,1,80,0,1
190880,-100,4,1,1,70,0,0
192177,-100,4,1,1,40,0,0
192339,-125,4,1,1,70,0,0
193637,-125,4,1,1,60,0,0
204015,-125,4,1,1,70,0,0
204664,-166.666666666667,4,1,1,70,0,0
205150,-125,4,1,1,70,0,0
207258,-166.666666666667,4,1,1,70,0,0
207745,-125,4,1,1,70,0,0
209853,-166.666666666667,4,1,1,70,0,0
210339,-125,4,1,1,70,0,0
211961,-100,4,1,1,70,0,0
212447,-111.111111111111,4,1,1,70,0,0
212934,-125,4,1,1,70,0,0
213420,-142.857142857143,4,1,1,70,0,0
214069,-500,4,1,1,50,0,0
215528,-90.9090909090909,4,1,1,80,0,1
236366,-90.9090909090909,4,1,1,80,0,0
236447,-83.3333333333333,4,1,1,80,0,1
242934,-76.9230769230769,4,1,1,80,0,1
243583,-90.9090909090909,4,1,1,80,0,1
258501,-90.9090909090909,4,1,1,80,0,0
259799,-100,4,1,1,70,0,0
264015,-66.6666666666667,4,1,1,70,0,0
264501,-100,4,1,1,70,0,0
264988,-95.2380952380952,4,1,1,70,0,0
270177,324.324324324324,6,1,1,85,1,1
270177,-83.3333333333333,6,1,1,85,0,1
291582,-100,6,1,1,70,0,0
293366,-83.3333333333333,6,1,1,85,0,1
293528,324.324324324324,4,1,1,85,1,1
293528,-83.3333333333333,4,1,1,85,0,1
314041,-83.3333333333333,4,1,1,85,0,0
314122,-83.3333333333333,4,1,1,85,0,1
329690,-100,4,2,1,70,0,0
333582,-200,4,1,1,70,0,0
334879,-125,4,1,1,70,0,0
335203,-90.9090909090909,4,1,1,70,0,0
337473,-125,4,1,1,70,0,0
337798,-90.9090909090909,4,1,1,70,0,0
340068,-125,4,1,1,70,0,0
340392,-90.9090909090909,4,1,1,70,0,0
342663,-125,4,1,1,70,0,0
342987,-90.9090909090909,4,1,1,70,0,0
345257,-111.111111111111,4,1,1,70,0,1
345338,-111.111111111111,4,1,1,70,0,0
345582,-83.3333333333333,4,1,1,70,0,0
347852,-111.111111111111,4,1,1,70,0,0
348176,-83.3333333333333,4,1,1,70,0,0
350446,-111.111111111111,4,1,1,70,0,0
350771,-83.3333333333333,4,1,1,70,0,0
355311,-74.0740740740741,4,1,1,70,0,0
355473,-66.6666666666667,4,1,1,70,0,0

[Colours]
Combo1 : 120,120,120
Combo2 : 136,91,255
Combo3 : 54,124,254
Combo4 : 53,239,249
Combo5 : 255,70,70
Combo6 : 252,119,20
Combo7 : 255,181,70
Combo8 : 174,174,174

[HitObjects]
220,276,364,102,0,L|132:288,2,85,2|0|0,0:0|0:0|0:0,0:0:0:0:
300,244,1351,2,0,L|384:256,2,85,2|0|0,0:0|0:0|0:0,0:0:0:0:
232,192,2338,1,2,0:0:0:0:
284,124,2667,1,0,0:0:0:0:
352,176,2997,1,0,0:0:0:0:
232,192,3326,1,2,0:0:0:0:
232,56,3655,1,0,0:0:0:0:
364,92,3984,1,0,0:0:0:0:
168,112,4313,6,0,P|152:76|152:20,1,85,2|0,0:0|0:0,0:0:0:0:
232,56,4971,1,0,0:0:0:0:
340,188,5300,2,0,P|356:152|356:96,1,85,2|0,0:0|0:0,0:0:0:0:
276,132,5958,1,0,0:0:0:0:
428,184,6288,101,2,0:0:0:0:
444,100,6617,1,0,0:0:0:0:
460,16,6946,1,2,0:0:0:0:
228,92,7275,1,2,0:0:0:0:
328,140,7604,1,0,0:0:0:0:
428,184,7933,1,2,0:0:0:0:
340,248,8263,6,0,L|352:340,2,85,2|0|0,0:0|0:0|0:0,0:0:0:0:
328,140,9250,2,0,L|344:56,2,85,2|0|0,0:0|0:0|0:0,0:0:0:0:
236,208,10237,2,0,P|192:212|140:188,1,85,2|0,0:0|0:0,0:0:0:0:
204,128,10896,1,0,0:0:0:0:
316,244,11225,2,0,P|360:248|412:224,1,85,2|0,0:0|0:0,0:0:0:0:
348,164,11884,1,0,0:0:0:0:
244,292,12212,101,2,0:0:0:0:
236,208,12541,1,0,0:0:0:0:
316,244,12870,1,0,0:0:0:0:
164,260,13199,1,2,0:0:0:0:
308,160,13529,1,0,0:0:0:0:
324,328,13858,1,0,0:0:0:0:
236,208,14187,5,2,0:0:0:0:
388,196,14516,1,0,0:0:0:0:
316,244,14845,1,2,0:0:0:0:
300,74,15174,2,0,L|307:159,1,85,2|0,0:0|0:0,0:0:0:0:
324,328,15833,1,2,0:0:0:0:
232,236,16162,102,0,L|136:228,1,85,2|0,0:0|0:0,0:0:0:0:
68,260,16821,1,0,0:0:0:0:
196,156,17151,2,0,P|204:112|200:68,1,85,2|0,0:0|0:0,0:0:0:0:
140,12,17810,1,0,0:0:0:0:
284,44,18140,2,0,B|328:44|328:44|376:32,2,85,2|0|0,0:0|0:0|0:0,0:0:0:0:
196,156,19129,2,0,B|152:156|152:156|104:144,2,85,2|0|0,0:0|0:0|0:0,0:0:0:0:
304,248,20118,6,0,B|348:248|348:248|387:238,1,85,2|0,0:0|0:0,0:0:0:0:
468,208,20777,1,0,0:0:0:0:
336,164,21107,2,0,B|292:164|292:164|252:173,1,85,2|0,0:0|0:0,0:0:0:0:
172,204,21766,1,0,0:0:0:0:
296,248,22096,101,2,0:0:0:0:
336,164,22425,1,0,0:0:0:0:
280,88,22755,1,2,0:0:0:0:
296,248,23085,1,2,0:0:0:0:
432,160,23414,1,0,0:0:0:0:
280,88,23744,1,2,0:0:0:0:
380,228,24074,6,0,P|416:240|472:236,2,85,2|0|0,0:0|0:0|0:0,0:0:0:0:
380,92,25068,2,0,P|416:80|472:84,1,85,2|0,0:0|0:0,0:0:0:0:
432,160,25731,1,0,0:0:0:0:
304,140,26062,2,0,P|296:116|296:60,2,80.9523809523809,2|0|0,0:0|0:0|0:0,0:0:0:0:
256,232,27108,2,0,P|252:272|240:308,1,73.9130434782609,2|0,0:0|0:0,0:0:0:0:
180,360,27822,1,0,0:0:0:0:
120,248,28179,102,0,L|128:180,1,65.3846153846154,2|0,0:0|0:0,0:0:0:0:
136,106,28910,1,0,0:0:0:0:
304,172,29276,2,0,L|299:238,1,56.6666666666667,2|0,0:0|0:0,0:0:0:0:
293,303,30076,1,0,0:0:0:0:
388,192,30476,6,0,P|388:168|384:136,2,48.5714285714286,2|0|0,0:0|0:0|0:0,0:0:0:0:
304,172,31780,2,0,L|256:176,1,41.4634146341463,2|0,0:0|0:0,0:0:0:0:
262,175,32732,102,0,B|258:196|258:196|263:208|263:208|259:247,1,70.8333333333333,2|0,0:0|0:0,0:0:0:0:
256,276,38611,6,0,B|240:232|256:192|256:192|272:152|256:108,1,170,4|0,0:0|0:0,0:0:0:0:
440,252,40394,6,0,P|376:264|328:224,1,127.500004863739,4|0,0:0|0:0,0:0:0:0:
276,160,40799,1,0,0:0:0:0:
276,160,40880,2,0,P|272:112|268:60,1,85,10|2,0:0|0:0,0:0:0:0:
100,336,41204,2,0,L|116:220,1,85
192,184,41447,1,0,0:0:0:0:
192,184,41528,2,0,P|195:226|198:268,1,85,10|10,0:0|0:0,0:0:0:0:
16,120,41853,6,0,L|4:8,1,85
240,44,42177,1,10,0:0:0:0:
104,136,42339,1,10,0:0:0:0:
144,48,42501,1,0,0:0:0:0:
216,208,42664,1,12,0:2:0:0:
192,124,42826,1,12,0:2:0:0:
116,232,42988,6,0,B|112:288|112:288|116:304|116:304|112:376,1,127.500004863739,4|0,0:0|0:0,0:0:0:0:
192,352,43393,1,0,0:0:0:0:
192,352,43474,2,0,B|236:364|236:364|288:348,1,85,10|2,0:0|0:0,0:0:0:0:
384,192,43799,2,0,B|340:180|340:180|288:196,1,85
224,148,44042,1,0,0:0:0:0:
224,148,44123,2,0,P|216:108|232:44,1,85,10|2,0:0|0:0,0:0:0:0:
148,220,44447,85,4,0:1:0:0:
268,272,44610,1,12,0:2:0:0:
256,140,44772,1,12,0:2:0:0:
280,296,44934,1,0,0:0:0:0:
152,312,45096,1,12,0:2:0:0:
220,188,45258,1,0,0:2:0:0:
292,320,45420,1,8,0:2:0:0:
440,248,45583,6,0,P|455:186|442:125,1,127.500004863739,12|0,0:0|0:0,0:0:0:0:
360,132,45988,1,0,0:0:0:0:
360,132,46069,2,0,B|324:140|324:140|252:128,1,85,10|0,0:0|0:0,0:0:0:0:
88,36,46393,2,0,B|124:28|124:28|196:40,1,85,10|10,0:0|0:0,0:0:0:0:
240,228,46718,1,0,0:0:0:0:
132,284,46880,1,0,0:0:0:0:
132,284,46961,1,0,0:0:0:0:
132,284,47042,6,0,B|116:248|116:248|112:176,1,85,10|0,0:0|0:0,0:0:0:0:
292,24,47366,2,0,B|289:63|289:63|258:128,1,85,10|10,0:0|0:0,0:0:0:0:
64,232,47691,1,0,0:0:0:0:
4,144,47853,1,0,0:0:0:0:
28,40,48015,1,8,0:0:0:0:
176,216,48177,86,0,P|176:280|156:356,1,127.500004863739,4|0,0:0|0:0,0:0:0:0:
161,341,48583,1,0,0:0:0:0:
161,341,48664,1,8,0:0:0:0:
64,232,48826,1,0,0:0:0:0:
64,232,48907,1,0,0:0:0:0:
64,232,48988,1,0,0:0:0:0:
184,112,49150,1,0,0:0:0:0:
184,112,49231,1,0,0:0:0:0:
184,112,49312,1,12,0:0:0:0:
176,216,49474,1,0,0:0:0:0:
108,60,49637,6,0,L|96:8,3,42.5,8|0|0|0,0:0|0:0|0:0|0:0,0:0:0:0:
184,112,49961,2,0,L|172:168,3,42.5,8|0|0|0,3:0|0:0|0:0|0:0,0:0:0:0:
208,24,50285,1,0,0:0:0:0:
280,192,50447,1,0,0:0:0:0:
144,288,50610,1,0,0:0:0:0:
0,192,50772,6,0,P|80:176|140:200,1,127.500004863739,4|0,0:0|0:0,0:0:0:0:
208,232,51177,1,0,0:0:0:0:
224,248,51258,2,0,P|280:248|320:224,1,85,8|0,0:0|0:0,0:0:0:0:
404,212,51501,1,0,0:0:0:0:
424,228,51583,2,0,P|424:296|412:320,1,85
320,344,51826,1,0,0:0:0:0:
296,360,51907,2,0,P|296:292|308:268,1,85,8|0,0:0|0:0,0:0:0:0:
356,180,52150,1,0,0:0:0:0:
372,152,52231,86,0,P|376:100|352:56,1,85
300,16,52474,1,0,0:0:0:0:
300,16,52555,1,8,0:0:0:0:
224,128,52718,1,0,0:0:0:0:
392,80,52880,1,0,0:0:0:0:
232,48,53042,1,12,0:0:0:0:
296,200,53204,1,12,0:0:0:0:
92,152,53366,6,0,B|146:146|146:146|170:154|170:154|218:146,1,127.500004863739,12|0,0:2|0:0,0:0:0:0:
300,124,53772,1,0,0:0:0:0:
300,124,53853,2,0,L|392:132,1,85,8|0,0:0|0:0,0:0:0:0:
412,204,54096,1,0,0:0:0:0:
412,204,54177,2,0,L|524:188,1,85
376,280,54420,1,0,0:0:0:0:
376,280,54501,2,0,L|291:269,1,85,8|0,0:0|0:0,0:0:0:0:
456,292,54826,5,4,0:0:0:0:
216,256,54988,2,8,L|144:248,2,42.5,0|0|12,0:0|0:0|0:2,0:0:0:0:
316,356,55312,1,0,0:0:0:0:
288,124,55474,1,8,0:0:0:0:
272,208,55637,1,8,0:0:0:0:
256,292,55799,1,8,0:0:0:0:
456,292,55961,86,0,P|360:248|332:256,1,127.500004863739,4|0,0:0|0:0,0:0:0:0:
256,292,56366,1,0,0:0:0:0:
256,292,56447,2,0,P|200:292|164:280,1,85,10|0,0:0|0:0,0:0:0:0:
140,268,56691,1,0,0:0:0:0:
112,248,56772,1,2,0:0:0:0:
96,104,56934,1,2,0:0:0:0:
268,28,57096,2,0,P|256:96|224:140,1,85,8|0,0:0|0:0,0:0:0:0:
228,136,57339,1,0,0:0:0:0:
200,156,57420,5,10,0:0:0:0:
36,172,57583,1,0,0:0:0:0:
140,88,57745,1,10,0:0:0:0:
124,248,57907,1,2,0:0:0:0:
200,144,58069,1,0,0:0:0:0:
104,196,58231,1,10,0:0:0:0:
200,248,58393,1,10,0:0:0:0:
12,128,58555,6,0,L|16:272,1,127.500004863739,4|0,0:0|0:0,0:0:0:0:
80,308,58961,1,0,0:0:0:0:
80,308,59042,2,0,L|204:320,1,85,8|0,0:0|0:0,0:0:0:0:
376,224,59366,2,0,L|264:236,1,85
192,164,59610,1,0,0:0:0:0:
192,164,59691,2,0,L|68:152,1,85,8|0,0:0|0:0,0:0:0:0:
308,24,60015,85,0,0:0:0:0:
312,56,60096,1,0,0:0:0:0:
312,88,60177,1,0,0:0:0:0:
304,120,60258,1,0,0:0:0:0:
288,152,60339,1,0,0:0:0:0:
284,184,60420,1,0,0:0:0:0:
288,216,60501,1,0,0:0:0:0:
296,248,60583,1,0,0:0:0:0:
320,272,60664,2,0,P|420:284|448:256,2,127.5
512,220,61312,5,4,0:0:0:0:
512,220,61637,1,2,2:0:0:0:
152,96,61961,1,0,2:0:0:0:
152,96,62285,1,2,2:0:0:0:
428,12,62610,6,0,L|416:108,1,68
364,152,62934,1,0,0:0:0:0:
152,272,63096,2,0,L|168:176,1,68
224,136,63420,1,0,0:0:0:0:
380,312,63583,2,0,L|368:392,1,68
304,244,63907,85,6,0:2:0:0:
332,224,63988,1,0,0:0:0:0:
364,212,64069,1,0,0:0:0:0:
396,212,64150,1,0,0:0:0:0:
428,220,64231,1,8,0:0:0:0:
304,132,64393,2,0,P|240:120|208:20,1,170,0|0,0:0|0:0,0:0:0:0:
416,48,64880,2,0,P|413:91|404:144,1,85,10|2,0:2|0:2,0:0:0:0:
288,272,65204,5,0,2:0:0:0:
192,208,65366,1,0,0:0:0:0:
192,208,65447,1,0,0:0:0:0:
192,208,65528,2,0,B|152:196|152:196|96:204,1,85,8|0,0:0|0:0,0:0:0:0:
20,336,65853,1,2,0:2:0:0:
52,332,65934,1,0,0:0:0:0:
84,328,66015,1,0,0:0:0:0:
116,324,66096,1,0,0:0:0:0:
148,320,66177,2,0,L|244:336,1,85,10|0,0:2|0:0,0:0:0:0:
435,286,66501,6,0,P|365:243|288:272,1,170,2|8,0:2|0:0,0:0:0:0:
132,184,66988,2,0,P|202:141|279:170,1,170,2|0,0:2|0:0,0:0:0:0:
424,88,67474,2,0,L|328:96,1,85,10|0,0:2|0:0,0:0:0:0:
504,168,67799,85,0,2:0:0:0:
424,248,67961,1,2,0:2:0:0:
424,248,68042,1,0,0:0:0:0:
424,248,68123,2,0,P|420:304|424:344,1,85,8|0,0:0|0:0,0:0:0:0:
344,192,68447,2,0,L|356:144,1,42.5,2|0,0:2|0:0,0:0:0:0:
264,232,68610,2,0,L|272:280,1,42.5,0|0,0:0|0:0,0:0:0:0:
188,184,68772,2,0,L|204:92,1,85,12|0,0:2|0:0,0:0:0:0:
380,12,69096,5,6,0:2:0:0:
352,32,69177,1,0,0:0:0:0:
320,40,69258,1,0,0:0:0:0:
288,40,69339,1,0,0:0:0:0:
256,28,69420,1,8,0:0:0:0:
124,112,69583,2,0,P|176:92|276:140,1,170,0|0,0:0|0:0,0:0:0:0:
203,267,70069,2,0,P|193:226|188:184,1,85,10|2,0:2|0:2,0:0:0:0:
148,348,70393,5,2,2:0:0:0:
304,208,70555,1,0,0:0:0:0:
304,208,70637,1,0,0:0:0:0:
304,208,70718,2,0,P|312:148|312:112,1,85,8|0,0:0|0:0,0:0:0:0:
164,56,71042,1,2,0:2:0:0:
148,88,71123,1,0,0:0:0:0:
144,120,71204,1,0,0:0:0:0:
148,152,71285,1,0,0:0:0:0:
160,184,71366,2,0,P|164:236|160:272,1,85,10|0,0:2|0:0,0:0:0:0:
288,348,71691,86,0,B|348:344|348:344|396:320|396:320|452:316,1,170,2|8,0:2|0:0,0:0:0:0:
316,248,72177,2,0,P|292:200|312:80,1,170,2|0,0:2|0:0,0:0:0:0:
428,24,72664,2,0,L|440:136,1,85,10|0,0:2|0:0,0:0:0:0:
420,288,72988,5,0,2:0:0:0:
316,248,73150,1,2,0:2:0:0:
316,248,73231,1,0,0:0:0:0:
316,248,73312,2,0,B|272:244|272:244|216:256,1,85,8|0,0:0|0:0,0:0:0:0:
124,344,73637,1,2,0:2:0:0:
284,340,73799,1,2,0:2:0:0:
156,192,73961,1,8,0:0:0:0:
124,188,74042,1,8,0:0:0:0:
92,184,74123,1,8,0:3:0:0:
60,180,74204,1,8,0:3:0:0:
28,176,74285,6,0,L|200:156,1,170,6|8,0:2|0:0,0:0:0:0:
444,172,74772,2,0,P|372:192|292:140,1,170,0|0,0:0|0:0,0:0:0:0:
294,144,75177,1,0,0:0:0:0:
294,144,75258,2,0,L|288:52,1,85,10|2,0:2|0:2,0:0:0:0:
384,96,75583,85,0,2:0:0:0:
324,240,75745,1,2,0:2:0:0:
324,240,75826,1,0,0:0:0:0:
324,240,75907,2,0,L|320:340,1,85,8|0,0:0|0:0,0:0:0:0:
484,276,76231,1,2,0:2:0:0:
476,244,76312,1,0,0:0:0:0:
468,212,76393,1,0,0:0:0:0:
460,180,76474,1,0,0:0:0:0:
452,148,76555,2,0,L|464:56,1,85,10|0,0:2|0:0,0:0:0:0:
348,148,76880,6,0,P|272:152|196:92,1,170,2|8,0:2|0:0,0:0:0:0:
16,200,77366,2,0,B|60:188|100:204|100:204|140:220|184:208,1,170,2|0,0:2|0:0,0:0:0:0:
388,256,77853,2,0,P|328:260|288:276,1,85,10|0,0:2|0:0,0:0:0:0:
232,360,78177,5,0,2:0:0:0:
182,208,78339,1,2,0:2:0:0:
182,208,78420,1,0,0:0:0:0:
182,208,78501,2,0,B|176:164|176:164|186:116,1,85,8|0,0:0|0:0,0:0:0:0:
312,24,78826,2,0,L|364:16,1,42.5,2|0,0:2|0:0,0:0:0:0:
348,108,78988,2,0,L|400:116,1,42.5,0|0,0:0|0:0,0:0:0:0:
356,200,79150,2,0,B|396:216|396:216|432:248,1,85,12|0,0:2|0:0,0:0:0:0:
264,304,79474,86,0,B|212:316|212:316|84:280,1,170,6|8,0:2|0:0,0:0:0:0:
264,208,79961,2,0,P|288:144|252:44,1,170,0|0,0:0|0:0,0:0:0:0:
236,40,80366,1,0,0:0:0:0:
212,32,80447,2,0,L|308:24,1,85,10|0,0:2|0:0,0:0:0:0:
176,136,80772,5,2,2:0:0:0:
84,96,80934,2,0,B|72:80|72:80|64:0,1,85,0|8,0:0|0:0,0:0:0:0:
96,196,81258,2,0,B|124:240|124:240|128:364,1,170,0|0,0:0|0:0,0:0:0:0:
248,200,81745,2,0,B|264:164|264:164|268:116,1,85,10|0,0:2|0:0,0:0:0:0:
168,260,82069,5,6,0:2:0:0:
192,284,82150,1,0,0:0:0:0:
224,296,82231,1,0,0:0:0:0:
256,300,82312,1,0,0:0:0:0:
288,296,82393,1,8,0:0:0:0:
316,280,82474,1,0,0:0:0:0:
336,252,82555,2,0,L|356:340,1,85,2|0,0:2|0:0,0:0:0:0:
456,188,82880,2,0,L|440:280,1,85,2|8,0:2|0:0,0:0:0:0:
376,124,83204,86,0,B|336:100|336:100|472:72,1,170,2|0,0:2|0:0,0:0:0:0:
352,220,83691,2,0,L|280:240,2,56.6666666666667,12|0|0,0:2|0:0|0:0,0:0:0:0:
260,152,84015,2,0,L|205:137,2,56.6666666666667,8|0|0,0:3|0:0|0:0,0:0:0:0:
176,228,84339,2,0,L|104:244,2,56.6666666666667,0|8|8,0:0|0:3|0:3,0:0:0:0:
60,168,84664,5,4,0:2:0:0:
24,256,84826,1,0,0:0:0:0:
88,336,84988,2,0,P|128:336|168:340,1,76.4999976654053,8|0,3:0|0:0,0:0:0:0:
288,364,85312,1,0,0:0:0:0:
288,364,85474,1,0,0:0:0:0:
248,196,85637,1,0,3:0:0:0:
228,288,85799,1,0,0:0:0:0:
344,168,85961,5,4,0:0:0:0:
248,196,86123,1,0,0:0:0:0:
336,264,86285,2,0,L|460:256,1,114.749996498108,4|0,0:2|0:0,0:0:0:0:
488,252,86610,1,8,0:0:0:0:
304,264,86772,1,0,0:0:0:0:
356,372,86934,1,8,0:3:0:0:
360,340,87015,1,0,0:0:0:0:
364,312,87096,1,0,0:0:0:0:
368,280,87177,1,0,0:0:0:0:
372,248,87258,86,0,L|384:180,3,38.2499988327027,8|0|8|0,0:3|0:0|0:3|0:0,0:0:0:0:
296,128,87583,2,0,L|280:72,3,38.2499988327027
196,192,87907,2,0,L|184:252,3,38.2499988327027,8|0|4|0,0:3|0:0|0:3|0:0,0:0:0:0:
124,116,88231,2,0,L|112:72,3,38.2499988327027,8|0|4|0,0:3|0:0|0:3|0:0,0:0:0:0:
40,168,88555,5,8,0:3:0:0:
64,188,88637,1,0,0:0:0:0:
92,200,88718,1,0,0:0:0:0:
124,204,88799,1,0,0:0:0:0:
156,204,88880,1,0,0:0:0:0:
184,192,88961,1,0,0:0:0:0:
208,172,89042,1,0,0:0:0:0:
224,144,89123,1,0,0:0:0:0:
228,112,89204,2,0,P|224:48|216:20,1,76.4999976654053
432,200,89528,6,0,B|388:196|388:196|368:208|368:208|292:196,1,114.749996498108,12|0,0:2|2:0,0:0:0:0:
304,192,89853,86,0,L|308:288,1,85
256,348,90177,1,8,0:0:0:0:
92,128,90339,2,0,L|88:224,1,85
132,292,90663,1,0,0:0:0:0:
256,108,90826,2,0,L|260:4,1,85,8|0,0:0|2:0,0:0:0:0:
172,160,91150,6,0,P|260:200|336:168,1,170,4|8,0:0|0:0,0:0:0:0:
384,92,91637,1,0,0:0:0:0:
388,228,91799,1,0,0:0:0:0:
464,140,91961,1,0,0:0:0:0:
328,176,92123,2,0,L|244:192,1,85,12|0,1:2|2:0,2:0:0:0:
60,352,92447,6,0,B|92:320|92:320|236:296,1,170,4|0,0:0|0:0,0:0:0:0:
72,280,92934,1,0,0:0:0:0:
16,216,93096,1,0,0:0:0:0:
16,132,93258,1,0,0:0:0:0:
68,64,93420,1,0,0:0:0:0:
152,56,93583,1,0,0:0:0:0:
228,92,93745,86,0,P|212:168|192:192,1,85,2|0,0:2|0:0,0:0:0:0:
316,360,94069,2,0,P|304:308|308:252,1,85,2|0,0:2|0:0,0:0:0:0:
420,44,94393,1,0,0:0:0:0:
508,120,94555,2,0,P|504:184|484:220,1,85,2|0,0:2|0:0,0:0:0:0:
288,348,94880,38,2,P|244:300|240:172,1,187.000005706787,6|0,0:0|0:0,0:0:0:0:
284,120,95285,1,0,0:0:0:0:
284,120,95366,2,0,L|384:108,1,93.5000028533936,8|0,0:0|0:0,0:0:0:0:
504,224,95691,1,0,0:0:0:0:
416,276,95853,2,0,L|304:260,1,93.5000028533936,0|8,0:0|0:0,0:0:0:0:
117,338,96177,6,2,P|189:310|297:358,1,187.000005706787,2|0,0:0|0:0,0:0:0:0:
287,347,96583,1,0,0:0:0:0:
287,347,96664,1,10,0:0:0:0:
208,216,96826,1,0,0:0:0:0:
208,216,96907,1,0,0:0:0:0:
208,216,96988,2,2,P|200:168|200:108,1,93.5000028533936
304,252,97312,1,12,0:2:0:0:
104,236,97474,6,2,P|48:140|52:60,1,187.000005706787,6|0,0:0|0:0,0:0:0:0:
272,32,97961,2,0,L|260:132,1,93.5000028533936,8|0,0:0|0:0,0:0:0:0:
219,308,98285,2,0,L|208:216,1,93.5000028533936,0|0,0:0|0:0,0:0:0:0:
360,92,98610,1,8,0:0:0:0:
304,252,98772,86,2,B|276:276|276:276|112:268,1,187.000005706787,2|0,0:0|0:0,0:0:0:0:
102,267,99177,1,0,0:0:0:0:
78,265,99258,1,10,0:0:0:0:
165,150,99420,1,0,0:0:0:0:
189,151,99501,1,0,0:0:0:0:
213,152,99583,1,2,0:0:0:0:
72,148,99745,1,2,0:0:0:0:
196,56,99907,1,12,0:2:0:0:
240,244,100069,6,2,B|324:276|324:276|436:272,1,187.000005706787,6|0,0:0|0:0,0:0:0:0:
300,144,100555,2,0,B|256:128|256:128|184:128,1,93.5000028533936,8|0,0:0|0:0,0:0:0:0:
420,148,100880,2,0,B|452:112|452:112|468:56,1,93.5000028533936,0|0,0:0|0:0,0:0:0:0:
464,68,101123,1,0,0:0:0:0:
464,68,101204,1,8,0:0:0:0:
316,168,101366,6,2,B|300:232|300:232|328:352,1,187.000005706787,6|0,0:0|0:0,0:0:0:0:
396,232,101853,1,8,0:0:0:0:
300,156,102015,1,0,0:0:0:0:
284,144,102096,1,0,0:0:0:0:
268,132,102177,2,0,L|160:136,1,93.5000028533936,0|4,0:0|0:2,0:0:0:0:
352,76,102501,1,8,0:0:0:0:
232,228,102664,86,2,L|36:240,1,187.000005706787,6|0,0:0|0:0,0:0:0:0:
100,60,103150,2,0,B|120:104|120:104|124:160,1,93.5000028533936,10|0,0:0|0:0,0:0:0:0:
68,328,103474,2,2,B|48:284|48:284|44:228,1,93.5000028533936,0|2,0:0|0:0,0:0:0:0:
212,144,103799,1,12,0:2:0:0:
144,260,103961,5,6,0:0:0:0:
144,260,104042,1,0,0:0:0:0:
144,260,104123,2,0,L|136:204,3,46.7500014266968,8|0|8|0,0:0|0:0|0:0|0:0,0:0:0:0:
80,156,104447,2,0,L|88:100,3,46.7500014266968,8|0|0|0,0:3|0:0|0:0|0:0,0:0:0:0:
152,60,104772,1,10,0:0:0:0:
152,60,104853,1,0,0:0:0:0:
152,60,104934,2,2,B|196:76|196:76|268:68,1,93.5000028533936,2|0,0:0|0:0,0:0:0:0:
452,144,105258,6,2,P|360:124|272:188,1,187.000005706787,6|0,0:0|0:0,0:0:0:0:
276,192,105664,1,0,0:0:0:0:
272,216,105745,2,0,L|263:326,1,93.5000028533936,10|0,0:0|0:0,0:0:0:0:
380,232,106069,1,2,0:0:0:0:
204,156,106231,2,2,L|104:168,1,93.5000028533936,2|12,0:0|0:2,0:0:0:0:
288,88,106555,86,2,B|348:96|348:96|392:128|392:128|464:136,1,187.000005706787,2|0,0:0|0:0,0:0:0:0:
324,280,107042,2,0,B|304:236|304:236|304:176,1,93.5000028533936,8|0,0:0|0:0,0:0:0:0:
456,220,107366,1,4,0:2:0:0:
452,256,107447,1,0,0:0:0:0:
448,292,107528,1,0,0:0:0:0:
444,328,107610,1,0,0:0:0:0:
440,364,107691,1,8,0:0:0:0:
344,192,107853,6,2,B|328:128|352:48|352:48|320:76,1,187.000005706787,6|0,0:0|0:0,0:0:0:0:
200,180,108339,2,0,P|188:236|192:280,1,93.5000028533936,10|0,0:0|0:0,0:0:0:0:
244,324,108583,1,0,0:0:0:0:
264,340,108664,2,2,P|276:284|272:240,1,93.5000028533936
200,80,108988,1,12,0:2:0:0:
116,140,109150,6,2,P|176:176|284:136,1,187.000005706787,2|0,0:0|0:0,0:0:0:0:
52,284,109637,2,0,P|88:268|152:268,1,93.5000028533936,12|0,0:2|0:0,0:0:0:0:
284,360,109961,1,8,0:2:0:0:
164,276,110123,1,4,0:2:0:0:
336,200,110285,1,8,0:0:0:0:
264,340,110447,86,2,L|256:140,1,187.000005706787,6|0,0:0|0:0,0:0:0:0:
332,106,110853,1,0,0:0:0:0:
332,106,110934,2,0,L|336:214,1,93.5000028533936,10|0,0:0|0:0,0:0:0:0:
328,20,111258,1,2,0:0:0:0:
160,72,111420,2,2,L|260:68,1,93.5000028533936,6|8,0:2|0:0,0:0:0:0:
440,156,111745,6,2,B|400:184|400:184|252:192,1,187.000005706787,6|0,0:0|0:0,0:0:0:0:
80,148,112231,2,0,B|124:136|124:136|172:148,1,93.5000028533936,10|0,0:0|0:0,0:0:0:0:
256,292,112555,1,2,0:0:0:0:
84,268,112718,2,2,B|124:248|124:248|184:240,1,93.5000028533936,6|8,0:2|0:0,0:0:0:0:
412,308,113042,6,2,B|344:360|276:328|276:328|256:292,1,187.000005706787,6|0,0:0|0:0,0:0:0:0:
344,116,113528,2,0,P|360:168|360:216,1,93.5000028533936,10|0,0:0|0:0,0:0:0:0:
361,206,113772,1,0,0:0:0:0:
361,206,113853,1,2,0:0:0:0:
232,144,114015,2,2,P|232:88|248:48,1,93.5000028533936,6|8,0:2|0:0,0:0:0:0:
436,44,114339,85,2,0:0:0:0:
436,44,114420,1,0,0:0:0:0:
436,44,114501,2,0,L|448:100,3,46.7500014266968,8|8|8|0,0:0|0:0|0:3|0:0,0:0:0:0:
500,148,114826,1,8,0:0:0:0:
488,172,114907,1,8,0:0:0:0:
480,200,114988,1,8,0:3:0:0:
476,228,115069,1,0,0:0:0:0:
476,256,115150,2,0,L|488:308,1,46.7500014266968,10|0,0:0|0:0,0:0:0:0:
420,360,115312,2,2,L|396:264,1,93.5000028533936,10|8,0:0|0:0,0:0:0:0:
252,352,115637,6,2,P|272:268|260:168,1,187.000005706787,6|0,0:0|0:0,0:0:0:0:
240,144,116042,1,0,0:0:0:0:
240,144,116123,1,0,0:0:0:0:
336,76,116285,2,0,L|376:44,2,46.7500014266968,0|0|8,0:0|0:0|0:0,0:0:0:0:
224,48,116610,1,0,0:0:0:0:
224,48,116691,1,0,0:0:0:0:
224,48,116772,1,0,0:0:0:0:
364,172,116934,2,0,L|408:212,2,46.7500014266968,0|0|2,0:0|0:0|0:0,0:0:0:0:
144,180,117258,5,0,0:0:0:0:
144,180,117339,1,0,0:0:0:0:
144,180,117420,1,0,0:0:0:0:
240,144,117583,1,2,0:0:0:0:
224,244,117745,1,8,0:0:0:0:
224,48,117907,1,4,0:2:0:0:
328,184,118069,1,8,0:0:0:0:
128,204,118231,86,2,P|76:140|96:40,1,187.000005706787,6|0,0:0|0:0,0:0:0:0:
93,42,118637,1,0,0:0:0:0:
93,42,118718,1,0,0:0:0:0:
8,184,118880,2,0,L|0:256,2,46.7500014266968,0|0|8,0:0|0:0|0:0,0:0:0:0:
168,112,119204,1,0,0:0:0:0:
168,112,119285,1,0,0:0:0:0:
168,112,119366,1,0,0:0:0:0:
84,272,119528,2,0,L|76:344,2,46.7500014266968,0|0|2,0:0|0:0|0:0,0:0:0:0:
212,204,119853,5,0,0:0:0:0:
212,204,119934,1,0,0:0:0:0:
212,204,120015,2,0,B|260:196|260:196|304:196,1,93.5000028533936,0|0,0:0|0:0,0:0:0:0:
432,284,120339,1,10,0:0:0:0:
412,264,120420,1,0,0:0:0:0:
400,240,120501,1,8,0:0:0:0:
396,212,120583,1,0,0:0:0:0:
400,184,120664,1,10,0:0:0:0:
412,160,120745,1,8,0:0:0:0:
432,140,120826,6,2,B|464:128|464:128|304:100,1,187.000005706787,6|0,0:0|0:0,0:0:0:0:
292,96,121231,1,0,0:0:0:0:
268,92,121312,1,12,0:2:0:0:
176,156,121474,2,0,L|124:164,2,46.7500014266968,0|0|4,0:0|0:0|0:2,0:0:0:0:
272,216,121799,1,0,0:0:0:0:
296,212,121880,1,0,0:0:0:0:
320,208,121961,1,12,0:2:0:0:
416,268,122123,86,0,L|472:280,2,46.7500014266968,0|0|4,0:0|0:0|0:2,0:0:0:0:
328,336,122447,1,0,0:0:0:0:
304,332,122528,1,0,0:0:0:0:
280,328,122610,1,12,0:2:0:0:
248,220,122772,1,2,0:0:0:0:
340,156,122934,1,2,0:0:0:0:
436,212,123096,1,4,0:2:0:0:
284,228,123258,1,8,0:0:0:0:
320,68,123420,6,2,B|392:24|464:56|464:56|424:64,1,187.000005706787,6|0,0:0|0:0,0:0:0:0:
240,140,123907,2,0,L|216:36,1,93.5000028533936,12|2,0:2|0:0,0:0:0:0:
340,168,124231,1,4,0:2:0:0:
216,240,124393,1,4,0:2:0:0:
240,140,124555,1,8,0:0:0:0:
304,292,124718,6,2,L|112:272,1,187.000005706787,6|0,0:0|0:0,0:0:0:0:
228,92,125204,2,0,B|240:140|240:140|232:196,1,93.5000028533936,12|2,0:2|0:0,0:0:0:0:
132,140,125528,1,8,0:3:0:0:
168,24,125691,1,8,0:3:0:0:
300,28,125853,1,8,0:3:0:0:
328,152,126015,85,4,0:0:0:0:
256,192,126096,12,0,127312,2:0:0:0:
368,276,127474,70,0,L|376:232,3,42.5,2|8|0|8,0:0|0:3|0:0|0:3,0:0:0:0:
432,176,127799,2,0,L|424:128,3,42.5,0|0|8|8,0:0|0:0|0:0|0:0,0:0:0:0:
368,76,128123,1,8,0:3:0:0:
336,92,128204,1,0,0:0:0:0:
304,100,128285,1,0,0:0:0:0:
272,100,128366,1,0,0:0:0:0:
236,96,128447,2,0,B|192:84|164:44|164:44|180:96|172:152,1,170,12|0,0:0|0:0,0:0:0:0:
64,260,128934,5,0,0:0:0:0:
64,260,129015,1,0,0:0:0:0:
64,260,129096,1,8,0:0:0:0:
28,156,129258,2,0,B|88:168|88:168|108:192|108:192|200:208,1,170
272,256,129745,2,0,P|288:296|283:364,1,85,8|0,0:0|0:0,0:0:0:0:
188,180,130069,6,0,B|212:128|212:128|272:108|356:116,1,170,0|8,0:0|0:0,0:0:0:0:
208,268,130555,2,0,P|144:276|104:268,1,85
304,324,130880,1,0,0:0:0:0:
304,324,130961,1,0,0:0:0:0:
304,324,131042,2,0,P|320:268|316:228,1,85,12|0,0:0|0:0,0:0:0:0:
192,100,131366,85,0,0:0:0:0:
192,100,131447,1,0,0:0:0:0:
192,100,131528,2,0,L|208:152,1,42.5
128,192,131691,2,0,L|144:244,1,42.5,8|0,0:0|0:0,0:0:0:0:
40,136,131853,2,0,P|12:224|52:316,1,170
120,108,132339,2,0,L|104:44,2,42.5,8|0|0,0:0|0:0|0:0,0:0:0:0:
200,236,132664,5,0,0:0:0:0:
228,140,132826,1,0,0:0:0:0:
128,192,132988,1,8,0:0:0:0:
128,192,133069,1,0,0:0:0:0:
128,192,133150,1,0,0:0:0:0:
320,152,133312,2,0,L|316:104,1,42.5
408,196,133474,2,0,L|404:132,1,42.5
492,248,133637,2,0,B|508:216|508:216|512:136,1,85,12|0,0:2|0:0,0:0:0:0:
278,304,133961,5,0,0:0:0:0:
304,324,134042,1,0,0:0:0:0:
333,337,134123,1,0,0:0:0:0:
366,342,134204,1,0,0:0:0:0:
400,335,134285,1,8,0:0:0:0:
252,216,134447,2,0,P|168:207|91:242,1,170
104,32,134934,2,0,P|108:100|88:152,1,85,8|0,0:0|0:0,0:0:0:0:
4,248,135258,85,0,0:0:0:0:
144,192,135420,1,0,0:0:0:0:
144,192,135501,1,0,0:0:0:0:
144,192,135583,2,0,P|172:192|252:216,1,85,8|0,0:0|0:0,0:0:0:0:
412,240,135907,2,0,L|360:244,1,42.5
304,344,136069,2,0,L|376:336,1,42.5
272,240,136231,2,0,B|216:244|216:244|184:268|184:268|88:276,1,170,8|0,0:0|0:0,0:0:0:0:
76,276,136637,5,0,0:0:0:0:
44,268,136718,1,0,0:0:0:0:
20,244,136799,1,0,0:0:0:0:
8,212,136880,1,8,0:0:0:0:
128,200,137042,2,0,P|152:276|100:364,1,170
208,308,137447,1,0,0:0:0:0:
210,311,137528,2,0,L|298:303,1,85,8|0,0:0|0:0,0:0:0:0:
172,224,137853,5,0,0:0:0:0:
112,300,138015,1,0,0:0:0:0:
112,300,138096,1,0,0:0:0:0:
112,300,138177,2,0,L|120:384,1,85,12|0,0:2|0:0,0:0:0:0:
60,128,138501,1,0,0:0:0:0:
28,272,138664,1,0,0:0:0:0:
140,136,138826,1,8,0:0:0:0:
16,196,138988,1,0,0:0:0:0:
172,224,139150,85,0,0:0:0:0:
204,220,139231,1,0,0:0:0:0:
236,216,139312,1,0,0:0:0:0:
268,212,139393,1,0,0:0:0:0:
300,208,139474,2,0,L|408:196,1,85,8|0,0:0|0:0,0:0:0:0:
216,292,139799,1,0,0:0:0:0:
80,192,139961,1,0,0:0:0:0:
68,216,140042,1,0,0:0:0:0:
56,240,140123,2,0,P|92:284|136:288,1,85,8|0,0:0|0:0,0:0:0:0:
240,276,140447,5,0,0:0:0:0:
364,256,140610,1,0,0:0:0:0:
380,276,140691,1,0,0:0:0:0:
396,300,140772,2,0,P|360:344|316:348,1,85,8|0,0:0|0:0,0:0:0:0:
280,184,141096,1,0,0:0:0:0:
284,152,141177,1,0,0:0:0:0:
288,120,141258,1,0,0:0:0:0:
292,88,141339,1,0,0:0:0:0:
296,56,141420,2,0,P|360:24|392:28,1,85,8|0,0:0|0:0,0:0:0:0:
360,236,141745,5,0,0:0:0:0:
336,260,141826,1,0,0:0:0:0:
304,272,141907,1,0,0:0:0:0:
272,272,141988,1,0,0:0:0:0:
240,268,142069,2,0,L|256:372,1,85,8|0,0:0|0:0,0:0:0:0:
96,228,142393,2,0,B|128:196|128:196|180:192,1,85
284,192,142718,1,8,0:0:0:0:
172,304,142880,1,0,0:0:0:0:
48,132,143042,86,0,B|32:100|32:100|40:36,1,85
120,224,143366,1,8,0:0:0:0:
120,224,143447,1,0,0:0:0:0:
120,224,143528,2,0,L|32:216,1,85
12,312,143772,1,0,0:0:0:0:
12,312,143853,2,0,L|92:304,1,42.5
120,224,144015,2,0,B|164:232|164:232|196:272|196:272|288:280,1,170,12|4,0:2|0:2,0:0:0:0:
304,280,144420,5,0,0:0:0:0:
336,264,144501,1,0,0:0:0:0:
356,236,144583,1,0,0:0:0:0:
360,204,144664,1,8,0:0:0:0:
328,88,144826,2,0,P|320:28|328:-8,1,85
464,64,145150,1,0,0:0:0:0:
436,224,145312,2,0,P|324:248|272:196,1,170,8|0,0:0|0:0,0:0:0:0:
124,284,145799,5,0,0:0:0:0:
124,284,145880,1,0,0:0:0:0:
124,284,145961,2,0,P|172:288|216:272,1,85,8|0,0:0|0:0,0:0:0:0:
200,84,146285,2,0,P|168:152|168:192,1,85
352,268,146610,2,0,P|316:204|260:164,1,127.5,12|0,0:2|0:0,0:0:0:0:
260,160,146934,85,0,0:0:0:0:
200,356,147096,2,0,L|196:392,3,28.3333333333333,8|0|0|0,0:0|0:0|0:0|0:0,0:0:0:0:
444,228,147420,1,8,0:0:0:0:
84,120,147745,1,8,0:0:0:0:
312,368,148069,2,0,P|328:284|342:200,1,170,4|0,0:0|0:0,0:0:0:0:
284,136,148555,6,0,L|293:81,2,56.6666666666667,8|0|0,0:0|0:0|0:0,0:0:0:0:
220,216,148880,2,0,L|228:272,2,56.6666666666667,8|0|0,0:3|0:0|0:0,0:0:0:0:
200,116,149204,2,0,L|208:56,2,56.6666666666667,4|0|0,0:3|0:0|0:0,0:0:0:0:
128,244,149528,6,0,B|120:208|120:208|116:148,1,76.4999976654053,4|8,0:0|0:0,0:0:0:0:
264,268,149853,2,0,B|261:307|261:307|253:343,1,76.4999976654053,8|0,0:3|0:0,0:0:0:0:
100,376,150177,1,0,0:0:0:0:
148,248,150339,1,8,0:2:0:0:
284,268,150501,2,0,L|372:276,1,76.4999976654053,2|0,0:2|0:0,0:0:0:0:
240,164,150826,85,4,0:2:0:0:
240,164,150988,1,0,0:0:0:0:
168,252,151150,2,0,B|136:260|136:260|40:256,1,114.749996498108,12|0,0:2|0:0,0:0:0:0:
54,256,151474,1,10,0:2:0:0:
188,344,151637,1,8,0:0:0:0:
124,168,151799,1,8,0:0:0:0:
256,216,151961,5,0,0:0:0:0:
256,216,152042,1,0,0:0:0:0:
256,216,152123,2,0,L|356:228,1,76.4999976654053,4|0,0:0|0:0,0:0:0:0:
456,124,152447,1,0,0:0:0:0:
456,124,152528,1,0,0:0:0:0:
456,124,152610,2,0,L|372:132,1,76.4999976654053,12|0,0:2|0:0,0:0:0:0:
408,288,152934,1,0,0:0:0:0:
408,288,153015,1,0,0:0:0:0:
408,288,153096,2,0,B|424:252|424:252|428:204,1,76.4999976654053,12|0,0:2|0:0,0:0:0:0:
328,64,153420,6,0,P|328:112|332:140,1,76.4999976654053,12|0,0:2|0:0,0:0:0:0:
240,312,153745,2,2,P|252:252|252:216,1,76.4999976654053,12|2,0:2|0:0,0:0:0:0:
132,92,154069,1,10,0:2:0:0:
104,100,154150,1,0,0:0:0:0:
80,120,154231,1,8,0:2:0:0:
68,148,154312,1,0,0:0:0:0:
64,180,154393,1,8,0:3:0:0:
72,208,154474,1,0,0:0:0:0:
88,232,154555,1,8,0:3:0:0:
112,248,154637,1,8,0:3:0:0:
144,256,154718,86,0,L|232:240,1,85,6|0,0:2|0:0,0:0:0:0:
140,340,155042,1,8,0:0:0:0:
148,172,155204,2,0,L|236:156,1,85,2|0,0:2|0:0,0:0:0:0:
144,256,155528,1,0,0:0:0:0:
152,88,155691,2,0,L|240:72,1,85,10|0,0:2|0:0,0:0:0:0:
372,160,156015,6,0,P|320:155|285:144,1,85,6|0,0:2|0:0,0:0:0:0:
448,106,156339,1,8,0:0:0:0:
396,248,156501,2,0,P|372:286|342:311,1,85,2|0,0:2|0:0,0:0:0:0:
372,160,156826,1,0,0:0:0:0:
484,268,156988,2,0,P|492:312|492:352,1,85,12|0,0:2|0:0,0:0:0:0:
304,224,157312,6,0,L|276:176,3,42.5,10|0|8|8,0:2|0:0|0:3|0:3,0:0:0:0:
308,112,157637,2,0,L|324:68,3,42.5,0|0|8|8,0:0|0:0|0:3|0:3,0:0:0:0:
268,12,157961,1,2,0:2:0:0:
236,28,158042,1,0,0:0:0:0:
204,36,158123,1,8,0:3:0:0:
172,36,158204,1,8,0:3:0:0:
140,28,158285,1,2,0:2:0:0:
152,60,158366,1,0,0:0:0:0:
152,92,158447,1,8,0:3:0:0:
144,124,158528,1,8,0:3:0:0:
128,152,158610,86,2,P|140:232|232:132,1,305.999990661621,14|0,0:0|2:1,0:0:0:0:
52,244,159745,38,2,P|96:304|208:328,1,187.000005706787,6|0,0:0|0:0,0:0:0:0:
300,304,160150,1,0,0:0:0:0:
300,304,160231,2,0,P|348:300|400:300,1,93.5000028533936,8|0,0:0|0:0,0:0:0:0:
192,144,160555,2,0,P|200:240|200:280,1,93.5000028533936
199,237,160799,1,0,0:0:0:0:
199,237,160880,1,8,0:0:0:0:
12,376,161042,6,2,P|84:320|200:364,1,187.000005706787,2|0,0:0|0:0,0:0:0:0:
352,296,161528,2,0,P|276:288|244:280,1,93.5000028533936,10|0,0:0|0:0,0:0:0:0:
232,272,161772,1,0,0:0:0:0:
208,252,161853,1,2,0:0:0:0:
304,180,162015,1,2,0:0:0:0:
288,372,162177,1,8,0:0:0:0:
128,252,162339,6,2,B|104:196|104:196|100:128|112:52,1,187.000005706787,6|0,0:0|0:0,0:0:0:0:
152,40,162745,1,0,0:0:0:0:
152,40,162826,2,0,P|220:36|264:24,1,93.5000028533936,8|0,0:0|0:0,0:0:0:0:
432,136,163150,2,0,P|384:124|320:120,1,93.5000028533936
264,168,163393,1,0,0:0:0:0:
264,168,163474,1,8,0:0:0:0:
364,32,163637,2,2,B|384:76|384:76|372:220,1,187.000005706787,2|0,0:0|0:0,0:0:0:0:
176,96,164123,2,0,L|184:-8,1,93.5000028533936,10|0,0:0|0:0,0:0:0:0:
264,168,164447,1,0,0:0:0:0:
168,240,164610,2,0,P|104:220|80:188,1,93.5000028533936,2|8,0:0|0:0,0:0:0:0:
352,276,164934,86,2,P|400:208|384:84,1,187.000005706787,6|0,0:0|0:0,0:0:0:0:
168,240,165420,2,0,B|172:288|172:288|188:336,1,93.5000028533936,8|0,0:0|0:0,0:0:0:0:
322,131,165745,2,0,B|318:83|318:83|304:40,1,93.5000028533936
304,40,165988,1,0,0:0:0:0:
304,40,166069,1,8,0:0:0:0:
60,176,166231,6,2,P|60:260|120:356,1,187.000005706787,6|0,0:0|0:0,0:0:0:0:
280,156,166718,2,0,B|294:112|294:112|298:64,1,93.5000028533936,8|0,0:0|0:0,0:0:0:0:
192,284,167043,2,0,B|196:332|196:332|210:375,1,93.5000028533936
208,372,167286,1,0,0:0:0:0:
208,372,167367,1,8,0:0:0:0:
12,188,167528,6,2,B|76:200|76:200|112:180|112:180|208:200,1,187.000005706787,6|0,0:0|0:0,0:0:0:0:
352,144,168015,2,0,P|312:120|240:100,1,93.5000028533936,10|0,0:0|0:0,0:0:0:0:
384,248,168339,1,0,0:0:0:0:
460,168,168501,2,0,P|468:108|468:60,1,93.5000028533936,2|8,0:0|0:0,0:0:0:0:
280,188,168826,86,2,P|272:280|324:384,1,187.000005706787,2|0,0:0|0:0,0:0:0:0:
308,365,169231,1,0,0:0:0:0:
308,365,169312,1,8,0:0:0:0:
392,312,169474,1,0,0:0:0:0:
364,288,169555,1,0,0:0:0:0:
328,280,169637,1,2,0:0:0:0:
292,276,169718,1,0,0:0:0:0:
256,284,169799,1,2,0:0:0:0:
224,300,169880,1,0,0:0:0:0:
196,324,169961,1,8,0:0:0:0:
160,336,170042,1,0,0:0:0:0:
124,324,170123,6,2,P|80:264|84:124,1,187.000005706787,6|0,0:0|0:0,0:0:0:0:
236,40,170610,2,0,P|224:104|212:136,1,93.5000028533936,10|0,0:0|0:0,0:0:0:0:
204,156,170853,1,0,0:0:0:0:
188,176,170934,1,0,0:0:0:0:
0,100,171096,2,0,P|80:60|116:64,1,93.5000028533936,2|8,0:0|0:0,0:0:0:0:
364,180,171420,6,2,P|284:136|180:148,1,187.000005706787,2|0,0:0|0:0,0:0:0:0:
248,328,171907,2,0,P|256:260|260:228,1,93.5000028533936,8|0,0:0|0:0,0:0:0:0:
116,116,172231,1,0,0:0:0:0:
120,144,172312,1,0,0:0:0:0:
124,172,172393,1,0,0:0:0:0:
128,200,172474,1,0,0:0:0:0:
132,228,172555,1,8,0:0:0:0:
184,44,172718,86,2,P|100:92|-12:56,1,187.000005706787,6|0,0:0|0:0,0:0:0:0:
120,188,173204,2,0,P|132:248|128:296,1,93.5000028533936,10|0,0:0|0:0,0:0:0:0:
316,296,173528,1,0,0:0:0:0:
248,132,173691,2,0,P|256:84|280:24,1,93.5000028533936,2|8,0:0|0:0,0:0:0:0:
0,120,174015,6,2,P|44:172|176:188,1,187.000005706787
376,108,174501,1,4,0:2:0:0:
232,232,174664,1,0,0:0:0:0:
236,260,174745,1,0,0:0:0:0:
240,288,174826,1,0,0:0:0:0:
332,340,174988,1,4,0:2:0:0:
168,360,175150,1,0,0:0:0:0:
228,204,175312,6,2,B|216:164|216:164|128:116|48:140,1,187.000005706787,6|0,0:0|0:0,0:0:0:0:
320,240,175799,2,0,L|336:116,1,93.5000028533936,10|0,0:0|0:0,0:0:0:0:
220,288,176123,1,0,0:0:0:0:
276,364,176285,2,0,B|312:368|312:368|392:348,1,93.5000028533936,2|8,0:0|0:0,0:0:0:0:
176,208,176610,86,2,B|100:220|100:220|72:248|72:248|-24:260,1,187.000005706787,6|0,0:0|0:0,0:0:0:0:
228,340,177096,2,0,B|176:336|176:336|124:300,1,93.5000028533936,10|0,0:0|0:0,0:0:0:0:
176,208,177420,1,2,0:0:0:0:
304,96,177583,2,0,B|300:148|300:148|264:200,1,93.5000028533936,2|8,0:0|0:0,0:0:0:0:
180,48,177907,6,2,B|132:16|132:16|2:22,1,187.000005706787,6|0,0:0|0:0,0:0:0:0:
0,112,178312,1,0,0:0:0:0:
0,112,178393,2,0,L|124:104,1,93.5000028533936,10|0,0:0|0:0,0:0:0:0:
228,224,178718,2,0,L|134:217,1,93.5000028533936,2|2,0:0|0:0,0:0:0:0:
240,112,179042,1,4,0:2:0:0:
360,252,179204,6,2,P|324:300|192:308,1,187.000005706787
204,314,179610,1,0,0:0:0:0:
204,314,179691,1,10,0:0:0:0:
56,184,179853,1,0,0:0:0:0:
88,168,179934,1,0,0:0:0:0:
124,164,180015,1,2,0:0:0:0:
160,172,180096,1,0,0:0:0:0:
192,188,180177,1,2,0:0:0:0:
228,196,180258,1,0,0:0:0:0:
264,188,180339,1,0,0:0:0:0:
296,172,180420,1,0,0:0:0:0:
320,152,180501,86,0,L|308:308,1,136,4|0,0:2|0:0,0:0:0:0:
309,287,180907,1,0,0:0:0:0:
309,287,180988,1,0,0:0:0:0:
120,360,181150,1,0,0:0:0:0:
120,360,181231,1,0,0:0:0:0:
120,360,181312,2,0,L|128:268,1,85,8|0,0:0|0:0,0:0:0:0:
208,224,181555,1,0,0:0:0:0:
208,224,181637,2,0,L|200:324,1,85
256,368,181880,1,0,0:0:0:0:
256,368,181961,5,0,0:0:0:0:
140,148,182123,2,0,L|144:88,2,42.5
128,264,182447,1,0,0:0:0:0:
208,224,182610,1,8,0:0:0:0:
48,208,182772,1,0,0:0:0:0:
184,324,182934,1,8,0:0:0:0:
302,156,183096,6,0,B|218:116|226:208|114:132,1,170,4|0,0:0|0:0,0:0:0:0:
139,147,183501,1,0,0:0:0:0:
139,147,183583,1,0,0:0:0:0:
188,4,183745,1,0,0:0:0:0:
188,4,183826,1,0,0:0:0:0:
188,4,183907,2,0,P|196:84|188:108,1,85,8|0,0:0|0:0,0:0:0:0:
116,160,184150,1,0,0:0:0:0:
92,172,184231,2,0,P|100:104|124:56,1,85
196,228,184555,86,2,B|264:256|264:256|276:284|276:284|360:320,1,170,6|0,0:0|0:0,0:0:0:0:
420,268,185042,1,0,0:0:0:0:
328,136,185204,1,10,0:0:0:0:
328,136,185285,1,8,0:0:0:0:
328,136,185366,2,0,B|324:160|324:160|320:204,1,42.5
420,112,185528,2,0,B|420:88|420:88|420:44,1,42.5,2|0,0:0|0:0,0:0:0:0:
492,184,185691,6,0,L|472:372,1,170,4|0,0:2|0:0,0:0:0:0:
440,344,186096,1,0,0:0:0:0:
404,328,186177,1,12,0:2:0:0:
304,240,186339,2,0,L|345:231,2,42.5,0|0|4,0:0|0:0|0:2,0:0:0:0:
232,352,186664,1,0,0:0:0:0:
264,344,186745,1,0,0:0:0:0:
296,336,186826,1,12,0:2:0:0:
144,264,186988,2,0,L|76:252,2,42.5,0|0|4,0:0|0:0|0:2,0:0:0:0:
80,352,187312,5,0,0:0:0:0:
44,340,187393,1,0,0:0:0:0:
16,328,187474,1,12,0:2:0:0:
144,264,187637,1,0,0:0:0:0:
140,164,187799,1,4,0:2:0:0:
64,252,187961,1,4,0:2:0:0:
212,216,188123,1,8,0:0:0:0:
104,96,188285,86,2,L|112:292,1,170,6|2,0:2|0:0,0:0:0:0:
376,304,188772,2,0,B|388:260|388:260|384:216,1,85,8|0,0:0|0:0,0:0:0:0:
212,240,189096,1,4,0:2:0:0:
284,376,189258,1,2,0:0:0:0:
300,224,189420,1,12,0:2:0:0:
116,260,189583,6,2,P|180:316|296:312,1,170,6|0,0:0|0:0,0:0:0:0:
192,116,190069,2,0,P|120:132|100:148,1,85,8|0,0:0|0:0,0:0:0:0:
16,332,190393,1,10,0:0:0:0:
124,368,190555,1,8,0:0:0:0:
212,284,190718,1,8,0:0:0:0:
0,304,190880,5,4,0:0:0:0:
256,192,191042,12,4,193637,0:2:0:0:
288,88,203366,69,10,0:0:0:0:
268,176,203528,1,10,0:0:0:0:
328,240,203691,1,10,0:0:0:0:
416,232,203853,1,10,0:0:0:0:
268,176,204015,85,4,0:0:0:0:
376,304,204177,2,0,L|364:160,1,136,0|0,0:0|0:0,0:0:0:0:
204,100,204664,2,2,P|156:148|176:224,1,152.999995330811,10|2,0:0|0:2,0:0:0:0:
204,240,205474,1,0,0:0:0:0:
48,308,205637,1,2,0:2:0:0:
100,216,205799,1,0,0:0:0:0:
212,344,205961,1,10,0:0:0:0:
212,344,206123,2,2,L|368:328,1,136,0|2,0:0|0:0,0:0:0:0:
428,260,206610,5,4,0:2:0:0:
344,120,206772,2,0,B|348:168|348:168|324:204|324:204|328:248,1,136,0|0,0:0|0:0,0:0:0:0:
412,48,207258,2,2,B|392:24|392:24|332:0|276:36,1,152.999995330811,10|2,0:0|0:2,0:0:0:0:
256,60,208069,1,8,0:0:0:0:
344,120,208231,1,2,0:2:0:0:
216,152,208393,1,0,0:0:0:0:
348,216,208555,2,2,P|364:284|356:356,1,136,12|8,0:2|0:0,0:0:0:0:
444,220,209042,1,8,0:0:0:0:
268,308,209204,5,4,0:0:0:0:
268,308,209366,2,0,B|236:316|236:316|152:300|152:300|180:292,1,136,0|0,0:0|0:0,0:0:0:0:
352,196,209853,2,2,B|364:228|364:228|348:256|348:256|368:296|356:340,1,152.999995330811,10|2,0:0|0:2,0:0:0:0:
344,364,210664,1,0,0:0:0:0:
268,308,210826,1,2,0:2:0:0:
180,344,210988,1,0,0:0:0:0:
344,364,211150,2,2,L|420:352,1,68,12|0,0:2|0:0,0:0:0:0:
244,220,211474,2,0,L|164:204,1,68,8|8,0:0|0:3,0:0:0:0:
177,207,211961,86,2,B|164:128|204:72|204:72|220:100,1,170,14|0,0:0|0:0,0:0:0:0:
320,248,212447,2,2,B|336:188|312:124|312:124|292:156,1,152.999995330811,14|0,0:0|0:0,0:0:0:0:
176,316,212934,2,2,B|132:280|132:216|132:216|152:236,1,136,14|0,0:0|0:0,0:0:0:0:
316,356,213420,2,2,B|356:324|368:272|368:272|348:280,1,118.999996368408,14|8,0:0|0:3,0:0:0:0:
192,328,213907,1,8,0:3:0:0:
256,264,214069,86,2,B|268:232|268:232|256:200|256:200|244:168|244:168|256:136,1,136,2|0,0:0|0:0,0:0:0:0:
255,136,215528,70,0,B|247:79|247:79|227:243,1,187.000005706787,4|0,0:0|0:0,0:0:0:0:
332,172,216015,1,8,0:0:0:0:
327,23,216177,2,0,P|231:-5|155:43,1,187.000005706787
140,64,216583,1,0,0:0:0:0:
128,96,216664,1,8,0:0:0:0:
128,132,216745,1,0,0:0:0:0:
136,168,216826,1,0,0:0:0:0:
156,200,216907,1,0,0:0:0:0:
188,216,216988,6,0,L|256:208,3,46.7500014266968
128,288,217312,2,0,L|64:280,3,46.7500014266968,8|0|0|0,0:0|0:0|0:0|0:0,0:0:0:0:
220,320,217637,2,0,L|204:368,1,46.7500014266968
320,284,217799,2,0,L|308:208,1,46.7500014266968,8|0,0:0|0:0,0:0:0:0:
220,180,217961,1,0,0:0:0:0:
220,180,218042,1,0,0:0:0:0:
220,180,218123,2,0,L|240:124,1,46.7500014266968,8|0,0:0|0:0,0:0:0:0:
320,72,218285,6,0,L|328:132,3,46.7500014266968
216,52,218610,2,0,L|232:-8,3,46.7500014266968,8|0|0|0,0:0|0:0|0:0|0:0,0:0:0:0:
149,153,218934,2,0,L|157:209,1,46.7500014266968,8|0,0:0|0:0,0:0:0:0:
189,297,219096,2,0,L|173:197,1,93.5000028533936,8|0,0:0|0:0,0:0:0:0:
0,48,219420,2,0,L|8:104,1,46.7500014266968,8|0,0:0|0:0,0:0:0:0:
44,196,219582,86,0,L|28:96,1,93.5000028533936,8|0,0:0|0:0,0:0:0:0:
112,232,219907,2,0,L|100:300,1,46.7500014266968,8|0,0:0|0:0,0:0:0:0:
52,376,220069,2,0,L|72:272,1,93.5000028533936,8|0,0:0|0:0,0:0:0:0:
252,32,220393,2,0,L|240:100,1,46.7500014266968,8|0,0:0|0:0,0:0:0:0:
304,184,220555,2,0,L|316:120,1,46.7500014266968,8|0,0:0|0:0,0:0:0:0:
216,240,220718,6,0,B|252:268|252:268|418:276,1,187.000005706787,4|0,0:2|0:0,0:0:0:0:
228,136,221204,2,0,B|196:132|196:132|120:160,1,93.5000028533936,8|0,0:0|0:0,0:0:0:0:
280,352,221528,2,0,L|304:232,1,93.5000028533936
224,72,221853,1,8,0:0:0:0:
120,104,222015,6,0,P|156:148|300:148,1,187.000005706787
464,144,222501,2,0,P|416:108|372:100,1,93.5000028533936,8|0,0:0|0:0,0:0:0:0:
164,248,222826,2,0,P|188:256|276:236,1,93.5000028533936
120,104,223150,1,8,0:0:0:0:
36,160,223312,86,0,B|44:228|44:228|72:272|72:272|80:348,1,187.000005706787,4|0,0:2|0:0,0:0:0:0:
208,276,223799,1,8,0:0:0:0:
108,84,223961,2,0,L|124:204,1,93.5000028533936
316,320,224285,2,0,L|296:188,1,93.5000028533936,0|8,0:0|0:0,0:0:0:0:
72,252,224610,6,0,P|140:308|244:284,1,187.000005706787,4|0,0:2|0:0,0:0:0:0:
168,212,225096,1,8,0:0:0:0:
0,324,225258,2,0,P|-16:235|41:164,1,187.000005706787,4|4,0:2|0:2,0:0:0:0:
144,136,225745,1,8,0:0:0:0:
72,252,225907,6,0,L|64:36,1,187.000005706787,4|0,0:0|0:0,0:0:0:0:
204,288,226393,2,0,B|208:352|208:352|188:392,1,93.5000028533936,8|0,0:0|0:0,0:0:0:0:
152,212,226718,2,0,L|316:200,1,140.25000428009,0|0,0:0|2:0,0:0:0:0:
344,272,227042,2,0,L|216:284,1,93.5000028533936,8|0,0:0|0:0,0:0:0:0:
240,112,227366,86,0,P|316:88|392:124,1,140.25000428009,0|0,0:0|2:0,0:0:0:0:
412,192,227691,2,0,P|356:200|308:172,1,93.5000028533936,8|0,0:0|0:0,0:0:0:0:
452,60,228015,2,0,P|496:116|496:256,1,187.000005706787,0|8,0:0|0:0,0:0:0:0:
392,325,228501,1,0,0:0:0:0:
392,325,228583,1,0,0:0:0:0:
392,325,228664,6,0,P|388:241|416:185,1,140.25000428009
411,191,228988,1,8,0:0:0:0:
240,268,229150,2,0,B|268:276|268:276|296:276|348:244,1,93.5000028533936
260,16,229474,2,0,B|249:50|249:74|249:74|261:106,1,93.5000028533936,0|8,0:0|0:0,0:0:0:0:
144,280,229799,6,2,P|168:192|160:88,1,187.000005706787,0|0,0:0|0:0,0:0:0:0:
32,280,230285,2,0,P|60:364|96:396,1,93.5000028533936,8|0,0:0|0:0,0:0:0:0:
244,352,230610,1,0,0:0:0:0:
112,256,230772,1,0,0:0:0:0:
92,368,230934,1,8,0:0:0:0:
220,244,231096,86,2,B|236:200|236:200|240:136|212:48,1,187.000005706787,6|0,0:0|0:0,0:0:0:0:
12,132,231583,2,0,P|72:144|116:148,1,93.5000028533936,8|0,0:0|0:0,0:0:0:0:
232,332,231907,2,0,P|152:336|112:340,1,93.5000028533936
320,240,232231,1,8,0:0:0:0:
420,328,232393,6,2,B|444:272|444:272|448:128,1,187.000005706787
290,152,232880,2,0,B|294:192|294:192|326:252,1,93.5000028533936,8|0,0:0|0:0,0:0:0:0:
332,64,233204,1,0,0:0:0:0:
200,96,233366,2,0,B|176:128|176:128|160:220,1,93.5000028533936,0|8,0:0|0:0,0:0:0:0:
248,12,233691,6,2,B|196:4|196:4|136:28|136:28|32:12,1,187.000005706787,6|2,0:0|0:0,0:0:0:0:
92,308,234177,1,10,0:0:0:0:
92,308,234258,1,0,0:0:0:0:
92,308,234339,2,0,L|100:212,1,93.5000028533936
132,144,234583,1,0,0:0:0:0:
132,144,234664,2,0,L|140:72,1,46.7500014266968
28,200,234826,2,0,L|20:260,1,46.7500014266968,12|0,0:2|0:0,0:0:0:0:
52,124,234988,2,0,L|-12:120,1,46.7500014266968
104,224,235150,85,8,0:0:0:0:
140,220,235231,1,0,0:0:0:0:
176,216,235312,1,0,0:0:0:0:
212,212,235393,1,0,0:0:0:0:
248,208,235474,1,0,0:0:0:0:
440,244,235637,1,8,0:0:0:0:
452,280,235718,1,0,0:0:0:0:
444,316,235799,1,0,0:0:0:0:
416,340,235880,1,0,0:0:0:0:
380,344,235961,1,0,0:0:0:0:
348,328,236042,1,0,0:0:0:0:
332,300,236123,2,0,L|324:232,1,46.7500014266968
388,192,236285,2,0,L|380:132,1,46.7500014266968
304,80,236447,6,0,L|312:24,3,50.9999984436036,6|0|0|0,0:0|0:0|0:0|0:0,0:0:0:0:
208,80,236772,2,0,L|220:136,3,50.9999984436036,8|0|0|0,0:0|0:0|0:0|0:0,0:0:0:0:
148,196,237096,1,2,0:0:0:0:
112,204,237177,1,0,0:0:0:0:
76,196,237258,1,0,0:0:0:0:
52,172,237339,1,0,0:0:0:0:
44,136,237420,1,10,0:0:0:0:
52,100,237501,1,0,0:0:0:0:
76,76,237583,1,0,0:0:0:0:
112,68,237664,1,0,0:0:0:0:
148,76,237745,6,2,P|184:104|216:164,1,101.999996887207,2|0,0:0|0:0,0:0:0:0:
92,332,238069,2,0,P|132:296|180:276,1,101.999996887207,8|0,0:0|0:0,0:0:0:0:
336,277,238393,2,2,P|382:297|420:332,1,101.999996887207,2|0,0:0|0:0,0:0:0:0:
299,151,238718,2,2,P|324:107|364:76,1,101.999996887207,10|0,0:0|0:0,0:0:0:0:
496,188,239042,86,0,L|508:252,3,50.9999984436036,6|0|0|0,0:0|0:0|0:0|0:0,0:0:0:0:
428,281,239366,2,0,L|416:349,3,50.9999984436036,8|0|0|0,0:0|0:0|0:0|0:0,0:0:0:0:
340,364,239691,1,2,0:0:0:0:
312,344,239772,1,0,0:0:0:0:
280,332,239853,1,0,0:0:0:0:
244,328,239934,1,0,0:0:0:0:
208,336,240015,1,10,0:0:0:0:
192,304,240096,1,0,0:0:0:0:
188,268,240177,1,0,0:0:0:0:
196,232,240258,1,0,0:0:0:0:
216,204,240339,6,2,P|228:152|224:104,1,101.999996887207,2|0,0:0|0:0,0:0:0:0:
88,252,240664,2,0,P|92:312|112:360,1,101.999996887207,8|0,0:0|0:0,0:0:0:0:
120,148,240988,1,2,0:0:0:0:
112,112,241069,1,0,0:0:0:0:
96,80,241150,1,0,0:0:0:0:
72,52,241231,1,0,0:0:0:0:
44,32,241312,2,0,L|112:16,1,50.9999984436036,10|0,0:0|0:0,0:0:0:0:
184,60,241474,2,0,L|244:72,1,50.9999984436036
328,24,241637,6,0,L|384:20,3,50.9999984436036,6|0|0|0,0:0|0:0|0:0|0:0,0:0:0:0:
400,120,241961,2,0,L|456:132,3,50.9999984436036,10|0|0|0,0:0|0:0|0:0|0:0,0:0:0:0:
480,228,242285,1,2,0:0:0:0:
460,256,242366,1,0,0:0:0:0:
440,284,242447,1,0,0:0:0:0:
420,312,242528,1,0,0:0:0:0:
400,340,242610,1,10,0:0:0:0:
364,328,242691,1,0,0:0:0:0:
328,316,242772,1,0,0:0:0:0:
292,304,242853,1,0,0:0:0:0:
256,288,242934,86,2,B|220:272|220:272|296:236|296:236|208:200|208:200|272:168|272:168|236:132|236:132|272:88|256:36,1,441.999979766847,6|0,0:0|0:0,0:0:0:0:
112,164,243745,2,2,P|112:220|132:268,1,93.5000028533936,2|12,0:0|0:2,0:0:0:0:
152,64,244069,1,0,0:0:0:0:
16,140,244231,6,0,L|8:196,3,46.7500014266968,6|0|0|0,0:0|0:0|0:0|0:0,0:0:0:0:
24,272,244555,2,0,L|44:328,3,46.7500014266968,8|8|8|8,0:0|0:0|0:0|0:0,0:0:0:0:
112,368,244880,1,8,0:3:0:0:
140,352,244961,1,0,0:0:0:0:
172,340,245042,1,8,0:3:0:0:
204,332,245123,1,8,0:3:0:0:
236,328,245204,1,8,0:3:0:0:
268,328,245285,1,0,0:0:0:0:
300,332,245366,1,0,0:0:0:0:
332,340,245447,1,0,0:0:0:0:
364,352,245528,6,2,B|392:312|392:312|400:260,1,93.5000028533936,10|0,0:0|0:0,0:0:0:0:
252,148,245853,1,0,0:0:0:0:
252,148,245934,1,0,0:0:0:0:
252,148,246015,2,0,B|272:192|272:192|313:225,1,93.5000028533936,8|0,0:3|0:0,0:0:0:0:
484,152,246339,1,0,0:0:0:0:
484,152,246420,1,0,0:0:0:0:
484,152,246501,2,0,L|435:147,1,46.7500014266968,10|8,0:0|0:0,0:0:0:0:
372,80,246664,2,0,L|320:88,1,46.7500014266968,10|8,0:0|0:0,0:0:0:0:
252,148,246826,86,2,L|152:140,1,93.5000028533936,6|0,0:0|0:0,0:0:0:0:
300,236,247150,1,8,0:0:0:0:
216,296,247312,1,2,0:0:0:0:
212,312,247393,1,0,0:0:0:0:
208,328,247474,1,0,0:0:0:0:
332,364,247637,1,0,0:0:0:0:
328,348,247718,1,0,0:0:0:0:
324,332,247799,2,0,L|424:344,1,93.5000028533936,8|2,0:0|0:2,0:0:0:0:
480,184,248123,6,2,B|404:188|404:188|380:200,1,93.5000028533936,6|0,0:0|0:0,0:0:0:0:
160,248,248447,2,0,B|236:252|236:252|260:264,1,93.5000028533936,8|2,0:0|0:0,0:0:0:0:
251,259,248691,1,0,0:0:0:0:
251,259,248772,2,0,B|264:240|264:240|268:164,1,93.5000028533936,0|0,0:0|0:0,0:0:0:0:
124,36,249096,2,0,B|111:55|111:55|107:131,1,93.5000028533936,8|2,0:0|0:2,0:0:0:0:
160,248,249420,5,6,0:0:0:0:
267,169,249583,2,0,L|323:173,2,46.7500014266968,0|0|8,0:0|0:0|0:0,0:0:0:0:
107,125,249907,1,2,0:0:0:0:
107,125,249988,1,0,0:0:0:0:
107,125,250069,2,0,L|3:133,1,93.5000028533936,0|0,0:0|0:0,0:0:0:0:
276,60,250393,2,2,L|380:68,1,93.5000028533936,10|2,0:0|0:2,0:0:0:0:
416,128,250637,1,2,0:2:0:0:
416,128,250718,86,2,P|404:176|408:228,1,93.5000028533936,6|0,0:0|0:0,0:0:0:0:
232,376,251042,2,0,P|240:324|224:260,1,93.5000028533936,12|2,0:2|0:0,0:0:0:0:
20,268,251366,1,0,0:0:0:0:
36,296,251447,1,0,0:0:0:0:
64,316,251528,1,2,0:2:0:0:
96,328,251610,1,2,0:2:0:0:
128,332,251691,2,0,L|144:280,1,46.7500014266968,10|0,0:0|0:0,0:0:0:0:
224,240,251853,2,0,L|212:184,1,46.7500014266968,8|8,0:0|0:0,0:0:0:0:
192,100,252015,5,6,0:0:0:0:
340,16,252177,1,0,0:0:0:0:
336,32,252258,1,0,0:0:0:0:
332,48,252339,1,8,0:0:0:0:
300,188,252501,1,0,0:0:0:0:
296,172,252582,1,0,0:0:0:0:
292,156,252663,1,0,0:0:0:0:
432,64,252826,2,0,L|408:156,1,93.5000028533936,0|8,0:0|0:0,0:0:0:0:
328,296,253150,1,2,0:2:0:0:
328,296,253231,1,2,0:2:0:0:
328,296,253312,6,2,L|304:204,1,93.5000028533936,6|0,0:0|0:0,0:0:0:0:
224,272,253637,1,8,0:0:0:0:
408,228,253799,1,2,0:0:0:0:
208,172,253961,2,0,L|152:192,3,46.7500014266968,4|0|2|2,0:2|0:0|0:2|0:2,0:0:0:0:
116,248,254285,1,10,0:0:0:0:
112,280,254366,1,8,0:3:0:0:
120,312,254447,1,0,0:0:0:0:
140,340,254528,1,0,0:0:0:0:
164,360,254610,86,0,P|216:340|344:356,1,187.000005706787,14|2,0:0|0:2,0:0:0:0:
484,248,255096,2,0,P|376:244|312:188,1,187.000005706787,12|2,0:2|0:2,0:0:0:0:
320,20,255583,1,12,0:2:0:0:
320,20,255664,1,0,0:0:0:0:
320,20,255745,1,2,0:2:0:0:
320,20,255826,1,2,0:2:0:0:
320,20,255907,6,0,B|364:48|364:48|384:120|344:180,1,187.000005706787,14|2,0:0|0:2,0:0:0:0:
148,288,256393,2,0,B|104:260|104:260|84:188|124:128,1,187.000005706787,12|2,0:2|0:2,0:0:0:0:
260,252,256880,1,12,0:2:0:0:
292,260,256961,1,0,0:0:0:0:
324,260,257042,1,2,0:2:0:0:
356,256,257123,1,2,0:2:0:0:
388,244,257204,6,0,B|380:184|380:184|404:124|404:124|392:64,1,187.000005706787,14|2,0:0|0:2,0:0:0:0:
168,184,257691,2,0,B|152:244|152:244|180:372,1,187.000005706787,12|2,0:2|0:2,0:0:0:0:
288,132,258177,2,0,B|296:112|296:112|276:32,1,93.5000028533936,12|2,0:2|0:2,0:0:0:0:
324,260,258501,38,2,P|376:284|448:288,2,124.666670471192,10|8|8,0:0|0:3|0:3,0:0:0:0:
188,188,259150,2,2,P|136:212|64:216,2,124.666670471192,8|8|8,0:3|0:3|0:3,0:0:0:0:
256,64,259799,5,2,2:2:0:0:
48,140,260123,6,0,B|104:172|104:172|124:212|124:212|196:248,1,170,4|0,0:2|0:0,0:0:0:0:
480,140,260610,2,0,B|424:172|424:172|404:212|404:212|332:248,1,170,4|0,0:2|0:0,0:0:0:0:
208,68,261096,2,0,L|204:16,1,42.5
308,28,261258,2,0,L|296:92,1,42.5
184,144,261420,2,0,B|260:188|260:188|331:147,1,170,12|0,0:2|0:0,0:0:0:0:
120,200,261907,2,0,L|208:248,1,85,12|0,0:2|0:0,0:0:0:0:
96,92,262231,1,0,0:0:0:0:
32,244,262393,85,4,0:2:0:0:
60,260,262474,1,0,0:0:0:0:
88,276,262555,1,0,0:0:0:0:
116,292,262637,1,0,0:0:0:0:
144,308,262718,1,0,0:0:0:0:
172,324,262799,1,0,0:0:0:0:
200,340,262880,2,0,L|256:368,1,42.5,12|0,0:2|0:0,0:0:0:0:
244,256,263042,2,0,L|276:188,1,42.5
168,208,263204,2,0,L|112:180,1,42.5
244,256,263366,2,0,L|300:284,1,42.5,12|0,0:2|0:0,0:0:0:0:
288,168,263528,2,0,L|320:100,1,42.5
200,120,263691,6,0,L|144:92,3,42.5,4|0|0|0,0:2|0:0|0:0|0:0,0:0:0:0:
168,208,264015,2,6,B|144:240|144:240|168:244|168:244|144:256|144:256|128:304|168:352|224:336|256:272,1,255.000009727478,4|8,0:0|0:0,0:0:0:0:
290,210,264420,1,0,0:0:0:0:
290,210,264501,2,0,L|286:150,1,42.5
242,293,264664,2,0,L|246:353,1,42.5
340,300,264826,2,0,L|400:296,1,42.5
464,204,264988,6,0,L|356:212,1,89.2499972763062,4|0,0:2|0:0,0:0:0:0:
504,300,265312,1,8,0:0:0:0:
428,112,265474,2,0,L|300:120,1,89.2499972763062
464,204,265799,1,0,0:0:0:0:
464,24,265961,2,0,P|368:0|296:28,1,178.499994552612,8|4,0:0|0:0,0:0:0:0:
388,184,266447,85,0,0:0:0:0:
388,88,266610,1,8,0:0:0:0:
236,140,266772,1,0,0:0:0:0:
292,212,266934,1,0,0:0:0:0:
368,84,267096,1,0,0:0:0:0:
216,72,267258,2,0,L|112:60,1,89.2499972763062,12|0,0:0|0:0,0:0:0:0:
292,212,267583,6,0,L|364:216,2,59.4999981842042,12|0|0,0:0|0:0|0:0,0:0:0:0:
152,332,267907,2,0,L|88:324,2,59.4999981842042
296,308,268231,2,0,L|380:320,2,59.4999981842042
156,248,268555,2,0,L|76:236,2,59.4999981842042
272,140,268880,5,8,0:0:0:0:
236,300,269042,1,0,0:0:0:0:
180,160,269204,1,0,0:0:0:0:
180,160,269285,1,0,0:0:0:0:
180,160,269366,2,0,P|144:148|80:160,1,89.2499972763062,0|8,0:0|0:0,0:0:0:0:
60,160,269610,1,8,0:0:0:0:
32,180,269691,2,0,L|48:244,1,44.6249986381531,8|8,0:0|0:0,0:0:0:0:
140,272,269853,2,0,L|132:228,1,44.6249986381531,8|8,0:0|0:0,0:0:0:0:
12,328,270015,2,0,L|72:312,1,44.6249986381531,8|8,0:0|0:0,0:0:0:0:
220,316,270177,6,2,B|240:264|240:264|208:104,1,203.999993774414,6|8,0:0|0:0,0:0:0:0:
88,28,270663,1,0,0:0:0:0:
88,28,270744,1,0,0:0:0:0:
88,28,270825,2,0,B|72:92|72:92|76:128,1,101.999996887207,4|0,0:2|0:0,0:0:0:0:
112,344,271149,2,2,B|128:312|128:312|136:232,1,101.999996887207,10|0,0:0|0:0,0:0:0:0:
240,68,271474,2,2,B|256:132|256:132|288:168,1,101.999996887207,2|0,0:0|0:0,0:0:0:0:
316,164,271717,1,0,0:0:0:0:
352,168,271798,2,2,L|460:156,1,101.999996887207,12|0,0:2|0:0,0:0:0:0:
304,300,272122,6,2,P|224:256|120:292,1,203.999993774414,6|8,0:0|0:0,0:0:0:0:
208,120,272609,1,0,0:0:0:0:
208,120,272690,1,0,0:0:0:0:
208,120,272771,2,0,P|220:172|224:232,1,101.999996887207,4|0,0:2|0:0,0:0:0:0:
8,312,273095,2,2,P|20:252|40:204,1,101.999996887207,10|0,0:0|0:0,0:0:0:0:
276,320,273420,2,2,P|340:328|384:324,1,101.999996887207,2|0,0:0|0:0,0:0:0:0:
444,288,273663,1,0,0:0:0:0:
444,288,273744,2,2,L|432:180,1,101.999996887207,12|0,0:2|0:0,0:0:0:0:
276,48,274068,5,6,0:0:0:0:
230,198,274231,1,0,0:0:0:0:
230,198,274312,1,0,0:0:0:0:
230,198,274393,2,0,L|332:192,1,101.999996887207,8|0,0:0|0:0,0:0:0:0:
128,164,274717,2,0,B|124:212|124:212|144:272,1,101.999996887207,0|0,0:0|0:0,0:0:0:0:
288,320,275041,1,12,0:2:0:0:
332,192,275204,1,0,0:0:0:0:
328,164,275285,1,0,0:0:0:0:
324,136,275366,1,0,0:0:0:0:
412,276,275528,1,0,0:0:0:0:
416,304,275609,1,0,0:0:0:0:
420,332,275690,2,0,B|372:352|372:352|312:332,1,101.999996887207,8|0,0:0|0:0,0:0:0:0:
136,224,276014,86,2,B|184:204|184:204|244:224,1,101.999996887207,6|0,0:0|0:0,0:0:0:0:
480,156,276339,2,0,B|432:176|432:176|372:156,1,101.999996887207,12|0,0:2|0:0,0:0:0:0:
224,20,276663,2,2,P|236:64|240:132,1,101.999996887207,12|0,0:2|0:0,0:0:0:0:
164,300,276987,1,10,0:0:0:0:
128,284,277068,1,0,0:0:0:0:
88,284,277149,1,0,0:0:0:0:
52,300,277231,1,0,0:0:0:0:
24,328,277312,2,0,L|4:256,3,50.9999984436036,10|0|0|0,0:0|0:0|0:0|0:0,0:0:0:0:
48,208,277636,2,0,L|56:148,3,50.9999984436036,10|8|8|8,0:0|0:0|0:0|0:0,0:0:0:0:
12,92,277960,6,2,P|64:104|124:104,1,101.999996887207,6|0,0:0|0:0,0:0:0:0:
328,68,278285,2,0,P|327:133|319:169,1,101.999996887207,12|0,0:2|0:0,0:0:0:0:
136,336,278609,2,0,P|124:276|124:228,1,101.999996887207,12|0,0:2|0:0,0:0:0:0:
388,235,278933,2,2,P|386:286|376:336,1,101.999996887207,14|0,0:2|0:0,0:0:0:0:
192,168,279258,2,2,P|182:118|184:68,1,101.999996887207,14|0,0:2|0:0,0:0:0:0:
500,92,279582,2,2,P|448:104|388:104,1,101.999996887207,14|0,0:2|0:0,0:0:0:0:
196,40,279906,5,6,0:0:0:0:
264,232,280068,1,0,0:0:0:0:
264,232,280149,1,0,0:0:0:0:
264,232,280231,2,0,P|276:180|280:120,1,101.999996887207,12|0,0:2|0:0,0:0:0:0:
112,272,280555,2,0,P|120:328|140:380,1,101.999996887207,12|0,0:2|0:0,0:0:0:0:
164,164,280879,2,2,P|111:164|60:148,1,101.999996887207,14|0,0:2|0:0,0:0:0:0:
64,150,281123,1,0,0:0:0:0:
64,150,281204,2,2,L|56:44,1,101.999996887207,14|0,0:2|0:0,0:0:0:0:
240,240,281528,2,2,L|224:360,1,101.999996887207,14|0,0:2|0:0,0:0:0:0:
312,160,281852,85,6,0:0:0:0:
164,164,282014,1,0,0:0:0:0:
164,164,282095,1,0,0:0:0:0:
164,164,282177,1,12,0:2:0:0:
240,240,282339,1,0,0:0:0:0:
236,84,282501,2,0,P|196:64|128:60,1,101.999996887207,12|0,0:2|0:0,0:0:0:0:
268,180,282825,5,14,0:2:0:0:
336,52,282987,1,0,0:0:0:0:
336,52,283068,1,0,0:0:0:0:
336,52,283149,1,14,0:2:0:0:
236,84,283312,1,0,0:0:0:0:
364,148,283474,2,0,B|416:160|472:144,1,101.999996887207,14|0,0:2|0:0,0:0:0:0:
336,52,283798,5,12,0:2:0:0:
312,232,283960,1,12,0:2:0:0:
172,144,284122,1,2,0:0:0:0:
196,140,284204,1,0,0:0:0:0:
216,136,284285,1,8,0:0:0:0:
80,88,284447,2,2,B|64:132|64:132|60:292,1,203.999993774414,12|10,0:2|0:0,0:0:0:0:
84,320,284852,1,0,0:0:0:0:
120,336,284933,1,8,0:0:0:0:
160,340,285014,1,8,0:0:0:0:
196,324,285095,2,0,L|200:272,3,50.9999984436036,10|0|10|0,0:0|0:0|0:2|0:0,0:0:0:0:
264,212,285420,2,0,L|268:152,1,50.9999984436036,8|0,0:3|0:0,0:0:0:0:
188,100,285582,2,0,L|192:40,1,50.9999984436036,2|2,0:2|0:2,0:0:0:0:
288,8,285744,86,2,B|336:28|336:28|396:32,1,101.999996887207,6|0,0:0|0:0,0:0:0:0:
188,100,286068,2,0,B|140:120|140:120|80:124,1,101.999996887207,12|0,0:2|0:0,0:0:0:0:
348,180,286393,2,0,B|396:200|396:200|456:204,1,101.999996887207,12|0,0:2|0:0,0:0:0:0:
156,260,286717,2,2,B|108:280|108:280|48:284,1,101.999996887207,14|0,0:2|0:0,0:0:0:0:
296,372,287041,2,2,B|312:324|312:324|312:256,1,101.999996887207,14|0,0:2|0:0,0:0:0:0:
216,12,287366,2,2,B|200:60|200:60|200:128,1,101.999996887207,14|0,0:2|0:0,0:0:0:0:
312,248,287690,5,6,0:0:0:0:
128,184,287852,1,0,0:0:0:0:
128,184,287933,1,0,0:0:0:0:
128,184,288014,2,0,L|16:192,1,101.999996887207,12|0,0:2|0:0,0:0:0:0:
204,256,288339,1,12,0:2:0:0:
308,100,288501,1,0,0:0:0:0:
120,88,288663,2,2,L|8:96,1,101.999996887207,14|0,0:2|0:0,0:0:0:0:
204,256,288987,2,2,P|224:204|228:148,1,101.999996887207,14|0,0:2|0:0,0:0:0:0:
360,20,289312,2,2,P|388:84|416:116,1,101.999996887207,14|0,0:2|0:0,0:0:0:0:
312,268,289636,5,6,0:0:0:0:
280,248,289717,1,0,0:0:0:0:
240,244,289798,1,0,0:0:0:0:
204,256,289879,1,0,0:0:0:0:
172,280,289960,1,12,0:2:0:0:
252,344,290122,1,0,0:0:0:0:
348,192,290285,2,0,P|360:136|352:80,1,101.999996887207,12|0,0:2|0:0,0:0:0:0:
124,100,290609,85,14,0:0:0:0:
147,129,290690,1,0,0:0:0:0:
183,147,290771,1,0,0:0:0:0:
221,148,290852,1,0,0:0:0:0:
259,136,290933,1,12,0:2:0:0:
208,48,291095,1,0,0:0:0:0:
128,216,291258,2,0,L|120:328,1,101.999996887207,12|0,0:2|0:0,0:0:0:0:
48,156,291582,53,14,0:0:0:0:
464,228,292555,1,6,0:0:0:0:
16,328,293366,70,2,L|256:312,1,203.999993774414
304,360,293771,1,0,0:0:0:0:
304,360,293852,2,0,B|324:312|324:312|300:248,1,101.999996887207,8|0,0:0|0:0,0:0:0:0:
80,248,294176,2,0,L|204:240,1,101.999996887207,0|2,0:0|0:2,0:0:0:0:
256,192,294419,1,0,0:0:0:0:
256,192,294500,1,8,0:0:0:0:
72,144,294663,6,2,B|148:136|148:136|172:104|172:104|300:92,1,203.999993774414
384,240,295149,1,10,0:0:0:0:
256,192,295311,1,0,0:0:0:0:
352,72,295473,2,0,L|336:176,1,101.999996887207,2|2,0:0|0:0,0:0:0:0:
352,320,295798,1,8,0:0:0:0:
192,96,295960,86,2,P|156:156|216:284,1,203.999993774414,6|2,0:0|0:0,0:0:0:0:
260,156,296446,1,10,0:0:0:0:
136,200,296609,1,0,0:0:0:0:
136,200,296690,1,0,0:0:0:0:
136,200,296771,2,0,P|56:204|12:192,1,101.999996887207,0|2,0:0|0:2,0:0:0:0:
252,120,297095,1,8,0:0:0:0:
184,332,297257,6,2,P|88:340|-4:272,1,203.999993774414
228,192,297744,2,0,L|360:200,1,101.999996887207,10|0,0:0|0:0,0:0:0:0:
240,288,298068,1,2,0:0:0:0:
164,132,298230,2,0,B|192:112|192:112|296:120,1,101.999996887207,2|8,0:0|0:0,0:0:0:0:
320,316,298555,6,2,B|292:352|292:352|204:392|124:320,1,203.999993774414,6|2,0:0|0:0,0:0:0:0:
56,228,299041,2,0,L|180:212,1,101.999996887207,8|0,0:0|0:0,0:0:0:0:
372,308,299365,2,0,L|268:288,1,101.999996887207,0|2,0:0|0:2,0:0:0:0:
252,192,299609,2,0,L|324:204,1,50.9999984436036,0|8,0:0|0:0,0:0:0:0:
112,352,299852,86,2,B|104:280|104:280|128:228|128:228|120:136,1,203.999993774414,6|0,0:0|0:0,0:0:0:0:
164,48,300338,1,8,0:0:0:0:
20,152,300500,1,0,0:0:0:0:
120,152,300663,1,0,0:0:0:0:
40,52,300825,1,4,0:2:0:0:
20,248,300987,1,8,0:0:0:0:
212,200,301149,6,0,B|228:152|228:152|196:-20,1,203.999993774414,6|0,0:0|0:0,0:0:0:0:
316,180,301636,2,0,L|280:292,1,101.999996887207,10|0,0:0|0:0,0:0:0:0:
296,64,301960,1,0,0:0:0:0:
142,148,302122,2,0,L|124:48,1,101.999996887207,2|12,0:0|0:2,0:0:0:0:
24,220,302446,1,2,0:0:0:0:
32,240,302528,1,0,0:0:0:0:
40,260,302609,6,0,P|96:280|144:264,1,101.999996887207,8|0,0:0|0:0,0:0:0:0:
108,160,302852,1,0,0:0:0:0:
100,136,302933,2,0,P|60:124|-16:152,1,101.999996887207,8|0,0:0|0:0,0:0:0:0:
232,200,303257,1,8,0:0:0:0:
268,193,303338,1,0,0:0:0:0:
303,173,303419,1,8,0:0:0:0:
329,145,303500,1,0,0:0:0:0:
355,117,303582,1,0,0:0:0:0:
393,105,303663,1,0,0:0:0:0:
433,110,303744,86,2,P|383:169|255:135,1,203.999993774414,6|2,0:2|0:0,0:0:0:0:
120,52,304230,2,0,P|160:112|176:160,1,101.999996887207,10|0,0:0|0:0,0:0:0:0:
100,356,304555,1,2,0:0:0:0:
4,308,304717,2,0,P|16:220|40:168,1,101.999996887207,2|8,0:0|0:0,0:0:0:0:
288,164,305041,6,2,P|220:236|104:232,1,203.999993774414,2|0,0:0|0:0,0:0:0:0:
20,208,305446,1,0,0:0:0:0:
20,208,305528,2,0,L|16:92,1,101.999996887207,10|2,0:2|0:2,0:0:0:0:
204,8,305852,1,4,0:2:0:0:
208,48,305933,1,0,0:0:0:0:
212,88,306014,1,2,0:2:0:0:
216,128,306095,1,0,0:0:0:0:
220,168,306176,1,8,0:0:0:0:
296,268,306338,6,2,P|216:204|100:204,1,203.999993774414,6|2,0:0|0:0,0:0:0:0:
297,68,306825,2,0,P|241:116|201:132,1,101.999996887207,10|0,0:0|0:0,0:0:0:0:
32,136,307149,1,0,0:0:0:0:
132,0,307311,2,0,P|128:56|120:136,1,101.999996887207,2|8,0:0|0:0,0:0:0:0:
16,292,307636,86,2,B|72:328|72:328|244:296,1,203.999993774414
296,272,308041,1,0,0:0:0:0:
296,272,308122,2,0,L|280:376,1,101.999996887207,12|0,0:2|0:0,0:0:0:0:
136,208,308446,1,8,0:0:0:0:
264,132,308609,1,4,0:0:0:0:
376,220,308771,1,4,0:0:0:0:
152,200,308933,6,2,B|128:148|128:148|144:-8,1,203.999993774414,6|0,0:0|0:0,0:0:0:0:
336,152,309419,2,0,L|216:140,1,101.999996887207,10|0,0:0|0:0,0:0:0:0:
96,128,309744,1,2,0:0:0:0:
208,20,309906,1,2,0:0:0:0:
228,168,310068,1,8,0:0:0:0:
36,48,310230,6,2,B|140:20|136:96|248:56,1,203.999993774414,6|2,0:0|0:0,0:0:0:0:
228,168,310717,2,0,P|176:176|120:164,1,101.999996887207,8|0,0:0|0:0,0:0:0:0:
308,100,311041,1,2,0:0:0:0:
320,220,311203,2,0,P|272:260|232:268,1,101.999996887207,2|8,0:0|0:0,0:0:0:0:
416,164,311528,86,6,P|428:228|388:372,1,203.999993774414
132,144,312014,2,0,P|132:80|152:24,1,101.999996887207,10|0,0:0|0:0,0:0:0:0:
312,200,312338,2,0,P|312:264|292:320,1,101.999996887207,10|2,0:0|0:0,0:0:0:0:
148,372,312663,1,12,0:2:0:0:
0,280,312825,1,2,0:0:0:0:
40,272,312906,1,0,0:0:0:0:
80,264,312987,6,0,L|144:252,1,50.9999984436036,0|0,0:3|0:3,0:0:0:0:
188,108,313149,2,0,L|176:40,1,50.9999984436036
84,120,313311,2,0,L|96:188,1,50.9999984436036
216,236,313473,2,0,L|272:224,1,50.9999984436036
344,188,313636,1,0,0:0:0:0:
384,188,313717,1,0,0:0:0:0:
420,200,313798,1,0,0:0:0:0:
448,224,313879,1,0,0:0:0:0:
468,260,313960,1,0,0:0:0:0:
472,300,314041,1,0,0:0:0:0:
456,336,314122,6,2,P|360:368|264:296,1,203.999993774414,6|0,0:2|0:0,0:0:0:0:
276,318,314528,1,0,0:0:0:0:
276,318,314609,2,0,L|272:200,1,101.999996887207
376,20,314933,2,0,B|388:68|388:68|376:144,1,101.999996887207,8|0,0:0|0:0,0:0:0:0:
379,119,315176,1,0,0:0:0:0:
379,119,315257,2,0,L|264:112,1,101.999996887207
52,204,315582,86,0,L|180:196,1,101.999996887207
153,197,315825,1,0,0:0:0:0:
153,197,315906,2,0,B|167:239|167:239|155:307,1,101.999996887207
232,112,316230,1,12,0:2:0:0:
64,132,316392,1,12,0:2:0:0:
153,197,316555,1,8,0:0:0:0:
100,48,316717,6,0,B|148:16|148:16|304:12,1,203.999993774414,4|0,0:0|0:0,0:0:0:0:
368,64,317122,1,0,0:0:0:0:
368,64,317203,2,0,P|380:132|364:172,1,101.999996887207
204,196,317528,2,0,P|240:136|312:112,1,101.999996887207,8|0,0:0|0:0,0:0:0:0:
396,260,317852,2,0,P|332:252|284:212,1,101.999996887207
444,12,318176,6,2,P|480:112|460:220,2,203.999993774414,6|0|10,0:0|0:0|0:0,0:0:0:0:
404,32,318906,1,0,0:0:0:0:
368,44,318987,1,2,0:0:0:0:
328,48,319068,1,0,0:0:0:0:
288,40,319149,1,0,0:0:0:0:
252,24,319230,1,0,0:0:0:0:
220,4,319311,86,2,L|232:136,1,101.999996887207,6|0,0:0|2:0,0:0:0:0:
28,84,319636,1,0,0:0:0:0:
28,84,319717,1,0,0:0:0:0:
28,84,319798,2,0,B|72:60|72:60|156:80,1,101.999996887207,12|0,0:2|0:0,0:0:0:0:
136,168,320041,1,0,0:0:0:0:
136,168,320122,2,0,B|92:192|92:192|8:172,1,101.999996887207,4|0,0:2|0:0,0:0:0:0:
224,104,320446,1,14,0:2:0:0:
192,244,320609,6,2,B|116:284|116:284|-40:252,1,203.999993774414,6|2,0:0|0:0,0:0:0:0:
0,340,321014,1,0,0:0:0:0:
0,340,321095,2,0,P|72:356|120:324,1,101.999996887207,12|0,0:2|0:0,0:0:0:0:
196,292,321338,1,0,0:0:0:0:
196,292,321419,2,0,P|144:264|128:216,1,101.999996887207,4|0,0:2|0:0,0:0:0:0:
224,52,321744,1,12,0:2:0:0:
468,160,321906,6,2,P|413:219|285:215,1,203.999993774414,6|2,0:0|0:0,0:0:0:0:
224,148,322311,1,0,0:0:0:0:
224,148,322392,2,0,L|204:36,1,101.999996887207,14|0,0:2|0:0,0:0:0:0:
80,368,322717,2,0,L|96:236,1,101.999996887207,6|2,0:2|0:0,0:0:0:0:
116,128,323041,1,8,0:0:0:0:
184,200,323203,85,2,0:0:0:0:
149,218,323284,1,0,0:0:0:0:
109,221,323365,1,0,0:0:0:0:
72,210,323446,1,0,0:0:0:0:
42,185,323527,1,0,0:0:0:0:
31,146,323609,1,0,0:0:0:0:
28,107,323690,2,0,P|32:48|44:0,1,101.999996887207,8|0,0:0|0:0,0:0:0:0:
224,128,324014,5,2,0:0:0:0:
256,152,324095,1,0,0:0:0:0:
296,160,324176,1,2,0:0:0:0:
336,156,324257,1,0,0:0:0:0:
372,140,324338,1,0,0:0:0:0:
400,112,324419,1,0,0:0:0:0:
420,76,324500,6,2,B|396:192|456:160|412:288,1,203.999993774414,6|0,0:0|0:0,0:0:0:0:
352,336,324906,1,0,0:0:0:0:
328,352,324987,2,0,P|316:284|344:232,1,101.999996887207,10|0,0:0|0:0,0:0:0:0:
252,204,325230,1,0,0:0:0:0:
280,176,325311,2,0,P|288:108|268:64,1,101.999996887207,10|2,0:0|0:0,0:0:0:0:
176,8,325555,1,0,0:0:0:0:
160,36,325636,2,0,P|152:92|176:144,1,101.999996887207,8|2,0:0|0:0,0:0:0:0:
324,92,325879,1,0,0:0:0:0:
344,60,325960,86,0,L|200:80,1,101.999996887207,12|0,0:0|0:0,0:0:0:0:
148,160,326203,1,0,0:0:0:0:
124,188,326284,2,0,B|172:216|172:216|228:184,1,101.999996887207,12|0,0:0|0:0,0:0:0:0:
352,176,326527,1,0,0:0:0:0:
340,136,326609,2,0,B|284:140|284:140|272:144,1,50.9999984436036,12|0,0:0|0:0,0:0:0:0:
324,264,326771,2,0,L|380:260,1,50.9999984436036,12|0,0:0|0:0,0:0:0:0:
496,184,326933,2,0,L|436:188,1,50.9999984436036,12|0,0:0|0:0,0:0:0:0:
352,176,327095,1,2,0:0:0:0:
352,176,327176,1,0,0:0:0:0:
352,176,327257,6,0,L|360:48,1,101.999996887207,12|0,0:0|0:0,0:0:0:0:
252,44,327500,1,0,0:0:0:0:
232,72,327582,2,0,P|220:144|236:196,1,101.999996887207,10|0,0:0|0:0,0:0:0:0:
188,248,327825,1,0,0:0:0:0:
200,284,327906,2,0,P|100:292|76:264,1,101.999996887207,14|2,0:0|0:0,0:0:0:0:
24,276,328149,1,0,0:0:0:0:
4,252,328230,2,0,P|-1:302|13:350,1,101.999996887207,8|2,0:0|0:0,0:0:0:0:
112,208,328473,1,0,0:0:0:0:
124,176,328555,2,0,P|136:112|112:60,1,101.999996887207,12|0,0:0|0:0,0:0:0:0:
0,224,328879,6,0,P|92:288|196:280,1,203.999993774414,4|8,0:1|0:0,0:0:0:0:
72,184,329365,1,0,0:0:0:0:
56,80,329527,1,0,0:0:0:0:
136,8,329690,38,2,P|224:28|280:108,1,170,6|2,1:2|2:0,0:0:0:0:
273,86,330176,2,0,L|252:188,1,85,0|2,0:0|0:0,0:0:0:0:
384,268,330500,2,0,L|364:152,1,85,0|2,0:0|0:0,0:0:0:0:
272,84,330825,1,0,0:0:0:0:
184,140,330987,6,0,P|192:228|248:300,1,170,4|2,1:2|0:0,0:0:0:0:
432,292,331473,2,0,L|340:280,1,85,0|2,0:0|0:0,0:0:0:0:
176,368,331798,2,0,L|276:356,1,85,0|2,0:0|0:0,0:0:0:0:
336,260,332122,1,0,0:0:0:0:
248,120,332284,6,0,B|244:180|244:180|220:216|220:216|212:296,1,170,4|2,1:2|0:0,0:0:0:0:
336,88,332771,2,0,L|324:-8,1,85,0|2,0:0|0:0,0:0:0:0:
432,108,333095,2,0,L|416:208,1,85,0|2,0:0|0:0,0:0:0:0:
396,312,333419,1,0,0:0:0:0:
500,252,333582,54,2,B|540:140|460:160|508:40,1,212.5,4|2,2:0|2:1,0:0:0:0:
505,45,334555,1,2,2:0:0:0:
388,184,334879,22,2,B|327:203|327:203|243:191,1,136,6|0,0:0|0:0,0:0:0:0:
192,152,335284,1,0,0:0:0:0:
192,152,335365,2,2,L|180:56,1,93.5000028533936,8|2,0:0|0:0,0:0:0:0:
324,232,335690,2,0,L|312:328,1,93.5000028533936,0|0,0:0|0:0,0:0:0:0:
212,256,336014,1,8,0:0:0:0:
300,128,336176,1,0,0:0:0:0:
300,128,336257,1,0,0:0:0:0:
300,128,336338,6,2,B|320:116|320:116|408:128,1,93.5000028533936,0|2,0:0|0:0,0:0:0:0:
408,276,336663,1,8,0:0:0:0:
344,208,336825,1,2,0:0:0:0:
496,244,336987,5,4,0:2:0:0:
368,316,337149,1,4,0:2:0:0:
368,168,337311,1,8,0:0:0:0:
400,332,337473,86,2,B|364:344|364:344|264:336,1,136,6|0,0:0|0:0,0:0:0:0:
204,292,337879,1,0,0:0:0:0:
204,292,337960,2,2,P|192:244|192:192,1,93.5000028533936,8|2,0:0|0:0,0:0:0:0:
360,40,338284,2,0,P|356:92|339:132,1,93.5000028533936,0|0,0:0|0:0,0:0:0:0:
180,108,338609,1,8,0:0:0:0:
268,68,338771,1,0,0:0:0:0:
191,200,338933,6,2,L|175:312,1,93.5000028533936,6|0,0:0|0:0,0:0:0:0:
376,220,339257,2,0,L|364:120,1,93.5000028533936,10|0,0:0|0:0,0:0:0:0:
364,127,339500,1,0,0:0:0:0:
364,127,339582,1,4,0:2:0:0:
284,232,339744,1,2,0:0:0:0:
388,312,339906,1,12,0:2:0:0:
276,192,340068,6,2,P|228:176|144:192,1,136,6|0,0:0|0:0,0:0:0:0:
124,212,340473,1,0,0:0:0:0:
108,236,340555,2,2,P|80:192|72:152,1,93.5000028533936,8|2,0:0|0:0,0:0:0:0:
208,280,340879,2,0,P|204:336|188:376,1,93.5000028533936,0|0,0:0|0:0,0:0:0:0:
276,192,341203,2,0,P|316:152|352:140,1,93.5000028533936,8|0,0:0|0:0,0:0:0:0:
350,140,341446,1,0,0:0:0:0:
350,140,341527,85,2,0:0:0:0:
460,220,341690,1,0,0:0:0:0:
364,236,341852,1,10,0:0:0:0:
444,124,342014,1,2,0:0:0:0:
256,112,342176,5,4,0:2:0:0:
376,220,342338,1,4,0:2:0:0:
384,52,342500,1,8,0:0:0:0:
284,200,342663,6,2,B|280:244|280:244|292:288|292:288|288:336,1,136,6|0,0:0|0:0,0:0:0:0:
212,300,343068,1,0,0:0:0:0:
212,300,343149,2,2,B|168:288|168:288|104:296,1,93.5000028533936,8|2,0:0|0:0,0:0:0:0:
360,236,343473,2,0,B|404:248|404:248|468:240,1,93.5000028533936
324,128,343798,1,12,0:2:0:0:
204,224,343960,1,0,0:0:0:0:
204,224,344041,1,0,0:0:0:0:
204,224,344122,86,0,L|196:280,1,46.7500014266968,8|8,0:0|0:3,0:0:0:0:
284,200,344284,2,0,L|320:252,1,46.7500014266968,0|0,0:0|0:0,0:0:0:0:
324,128,344446,2,0,L|380:140,1,46.7500014266968,10|8,0:0|0:3,0:0:0:0:
304,48,344609,2,0,L|352:16,1,46.7500014266968,0|0,0:0|0:0,0:0:0:0:
236,8,344771,1,2,0:0:0:0:
200,12,344852,1,0,0:0:0:0:
168,28,344933,1,8,0:3:0:0:
144,56,345014,1,8,0:3:0:0:
132,88,345095,1,2,0:0:0:0:
128,124,345176,1,0,0:0:0:0:
136,152,345257,38,2,B|156:172|156:172|184:152|184:152|232:168|284:160,1,152.999995330811,6|0,0:0|0:0,0:0:0:0:
340,128,345663,1,0,0:0:0:0:
340,128,345744,2,2,L|360:232,1,101.999996887207,12|2,0:2|0:0,0:0:0:0:
200,352,346068,2,0,L|224:236,1,101.999996887207,12|0,0:2|0:0,0:0:0:0:
312,324,346392,1,12,0:2:0:0:
108,288,346555,1,0,0:0:0:0:
108,288,346636,1,0,0:0:0:0:
108,288,346717,6,2,L|92:180,1,101.999996887207,4|2,0:2|0:0,0:0:0:0:
276,32,347041,2,0,L|252:148,1,101.999996887207,12|2,0:2|0:0,0:0:0:0:
88,160,347365,5,12,0:2:0:0:
168,24,347527,1,0,0:0:0:0:
248,160,347690,1,12,0:2:0:0:
84,136,347852,86,2,B|112:120|112:120|240:136,1,152.999995330811,6|0,0:0|0:0,0:0:0:0:
308,144,348257,1,0,0:0:0:0:
308,144,348338,1,12,0:2:0:0:
160,80,348500,1,2,0:0:0:0:
204,220,348663,1,12,0:2:0:0:
296,56,348825,1,0,0:0:0:0:
296,56,348906,1,0,0:0:0:0:
296,56,348987,2,2,L|188:40,1,101.999996887207,12|2,0:2|0:0,0:0:0:0:
388,72,349311,5,4,0:2:0:0:
336,184,349473,1,2,0:0:0:0:
332,164,349555,1,0,0:0:0:0:
328,144,349636,1,12,0:2:0:0:
456,184,349798,1,2,0:0:0:0:
452,204,349880,1,0,0:0:0:0:
448,224,349960,2,0,L|436:284,1,50.9999984436036,12|8,0:2|0:0,0:0:0:0:
346,234,350122,2,0,L|334:174,1,50.9999984436036,8|8,0:0|0:0,0:0:0:0:
252,264,350284,2,0,L|240:324,1,50.9999984436036,8|8,0:0|0:0,0:0:0:0:
168,212,350446,6,2,B|131:205|131:205|72:224|20:188,1,152.999995330811,6|0,0:0|0:0,0:0:0:0:
4,112,350852,1,0,0:0:0:0:
36,100,350933,2,2,P|92:96|144:108,1,101.999996887207,12|2,0:2|0:0,0:0:0:0:
380,56,351257,2,0,P|300:52|268:60,1,101.999996887207,12|0,0:2|0:0,0:0:0:0:
156,116,351582,1,12,0:2:0:0:
332,156,351744,1,2,0:0:0:0:
332,156,351825,1,0,0:0:0:0:
332,156,351906,85,4,0:2:0:0:
260,64,352068,1,2,0:0:0:0:
272,248,352230,2,0,L|260:356,1,101.999996887207,12|2,0:2|0:0,0:0:0:0:
348,308,352473,1,0,0:0:0:0:
380,292,352555,2,0,L|392:184,1,101.999996887207,12|2,0:2|0:0,0:0:0:0:
296,48,352879,1,12,0:2:0:0:
120,164,353041,6,2,P|188:204|300:144,1,203.999993774414,6|0,0:0|0:0,0:0:0:0:
204,100,353527,1,12,0:2:0:0:
176,248,353690,1,2,0:0:0:0:
180,276,353771,1,0,0:0:0:0:
184,304,353852,1,12,0:2:0:0:
256,188,354014,1,2,0:0:0:0:
96,188,354176,1,12,0:2:0:0:
276,288,354338,6,0,B|356:280|356:280|332:264,1,101.999996887207,2|12,0:0|0:2,0:0:0:0:
96,288,354663,2,2,B|16:296|16:296|40:312,1,101.999996887207,2|12,0:0|0:2,0:0:0:0:
320,368,354987,1,2,0:0:0:0:
320,368,355068,1,0,0:0:0:0:
320,368,355149,86,0,L|328:292,1,50.9999984436036,10|8,0:0|0:0,0:0:0:0:
184,276,355311,2,0,L|176:200,1,57.3750002188683,10|8,0:0|0:0,0:0:0:0:
340,184,355473,2,0,L|348:108,1,63.7500024318696,10|8,0:0|0:0,0:0:0:0:
160,60,355636,53,6,0:0:0:0:
