osu file format v14

[General]
AudioFilename: The Shining Needle Castle Sinking in the Air.mp3
AudioLeadIn: 0
PreviewTime: 270136
Countdown: 0
SampleSet: Normal
StackLeniency: 0.5
Mode: 0
LetterboxInBreaks: 0
WidescreenStoryboard: 1

[Editor]
Bookmarks: 193637,203366
DistanceSpacing: 0.9
BeatDivisor: 2
GridSize: 4
TimelineZoom: 1.5

[Metadata]
Title:Kuuchuu ni Shizumu Kishinjou ~ Counter-Clock World
TitleUnicode:空中に沈む輝針城 ~ Counter-Clock World
Artist:Demetori
ArtistUnicode:Demetori
Creator:jonathanlfj
Version:Extra Stage
Source:東方Project
Tags:Intro: The Shining Needle Castle Sinking in the Air Nyquill Touhou Marathon 東方輝針城 ~ Double Dealing Character 愧人贖悪 Evil People as the True Object of Salvation Stage 5 Theme Seija Kijin 鬼人 正邪 metal arrangement ZUN
BeatmapID:767203
BeatmapSetID:347719

[Difficulty]
HPDrainRate:6.5
CircleSize:4
OverallDifficulty:9
ApproachRate:9.3
SliderMultiplier:1.8
SliderTickRate:1

[Events]
//Background and Video events
0,0,"wow.jpg",0,0
//Break Periods
2,33884,38057
2,193837,202812
//Storyboard Layer 0 (Background)
//Storyboard Layer 1 (Fail)
//Storyboard Layer 2 (Pass)
//Storyboard Layer 3 (Foreground)
//Storyboard Sound Samples

[TimingPoints]
364,329.127811300055,6,2,1,20,1,0
364,-200,6,2,1,20,0,0
1351,-200,6,2,1,25,0,0
2338,-200,6,2,1,30,0,0
3326,-200,6,2,1,35,0,0
4313,-200,6,2,1,40,0,0
16162,329.67032967033,6,2,1,40,1,0
16162,-200,6,2,1,40,0,0
24074,331.491712707182,6,2,1,40,1,0
24074,-200,6,2,1,40,0,0
26062,348.837209302326,6,2,1,40,1,0
26062,-210,6,2,1,40,0,0
27108,357.142857142857,6,2,1,40,1,0
27108,-230,6,2,1,40,0,0
28179,365.853658536585,6,2,1,40,1,0
28179,-260,6,2,1,40,0,0
29276,400,6,2,1,40,1,0
29276,-300,6,2,1,40,0,0
30476,434.782608695652,6,2,1,40,1,0
30476,-350,6,2,1,40,0,0
31780,476.190476190476,4,2,1,30,1,0
31780,-410,4,2,1,30,0,0
32732,-480,4,2,1,35,0,0
33684,-480,4,2,1,20,0,0
38611,324.324324324324,6,1,1,70,1,0
38611,-500,6,1,1,70,0,0
40232,-500,6,2,1,5,0,0
40394,-133.333333333333,6,1,1,70,0,1
40475,-133.333333333333,6,1,1,70,0,0
40556,324.324324324324,4,1,1,70,1,0
40556,-133.333333333333,4,1,1,70,0,0
40718,-100,4,1,1,70,0,0
42988,-133.333333333333,4,1,1,70,0,0
43312,-100,4,1,1,70,0,0
45583,-133.333333333333,4,1,1,70,0,0
45907,-100,4,1,1,70,0,0
48177,-133.333333333333,4,1,1,70,0,0
48501,-100,4,1,1,70,0,0
50772,-133.333333333333,4,1,1,70,0,0
51096,-100,4,1,1,70,0,0
53366,-133.333333333333,4,1,1,70,0,0
53691,-100,4,1,1,70,0,0
55961,-133.333333333333,4,1,1,70,0,0
56285,-100,4,1,1,70,0,0
58555,-133.333333333333,4,1,1,70,0,0
58880,-100,4,1,1,70,0,0
61312,-125,4,1,1,60,0,0
63907,-100,4,1,1,70,0,0
84664,-111.111111111111,4,1,1,70,0,0
89853,-100,4,1,1,70,0,0
93745,-100,4,1,1,75,0,0
94880,-90.9090909090909,4,1,1,80,0,1
115555,-90.9090909090909,4,1,1,80,0,0
115637,-90.9090909090909,4,1,1,80,0,1
126015,-100,4,1,1,70,0,0
127312,-100,4,1,1,20,0,0
127474,-100,4,1,1,60,0,0
128772,-100,4,1,1,70,0,0
149528,-111.111111111111,4,1,1,70,0,0
154718,-100,4,1,1,70,0,0
158610,-166.666666666667,4,1,1,75,0,0
159583,-166.666666666667,4,1,1,40,0,0
159745,-90.9090909090909,4,1,1,80,0,1
180420,-90.9090909090909,4,1,1,80,0,0
180501,-90.9090909090909,4,1,1,80,0,1
190880,-100,4,1,1,70,0,0
192177,-100,4,1,1,40,0,0
192339,-100,4,1,1,70,0,0
193637,-125,4,1,1,60,0,0
204015,-125,4,1,1,70,0,0
204664,-166.666666666667,4,1,1,70,0,0
205150,-125,4,1,1,70,0,0
207258,-166.666666666667,4,1,1,70,0,0
207745,-125,4,1,1,70,0,0
209853,-166.666666666667,4,1,1,70,0,0
210339,-125,4,1,1,70,0,0
211961,-100,4,1,1,70,0,0
212447,-111.111111111111,4,1,1,70,0,0
212934,-125,4,1,1,70,0,0
213420,-142.857142857143,4,1,1,70,0,0
214069,-500,4,1,1,50,0,0
215528,-90.9090909090909,4,1,1,80,0,1
236366,-90.9090909090909,4,1,1,80,0,0
236447,-83.3333333333333,4,1,1,80,0,1
242934,-76.9230769230769,4,1,1,80,0,1
243583,-90.9090909090909,4,1,1,80,0,1
258501,-90.9090909090909,4,1,1,80,0,0
259799,-100,4,1,1,70,0,0
264988,-95.2380952380952,4,1,1,70,0,0
270177,324.324324324324,6,1,1,85,1,1
270177,-83.3333333333333,6,1,1,85,0,1
291582,-100,6,1,1,70,0,0
293366,-83.3333333333333,6,1,1,85,0,1
293528,324.324324324324,4,1,1,85,1,1
293528,-83.3333333333333,4,1,1,85,0,1
314041,-83.3333333333333,4,1,1,85,0,0
314122,-83.3333333333333,4,1,1,85,0,1
329690,-166.666666666667,4,1,1,70,0,0
333582,-200,4,1,1,70,0,0
334879,-125,4,1,1,70,0,0
335203,-90.9090909090909,4,1,1,70,0,0
337473,-125,4,1,1,70,0,0
337798,-90.9090909090909,4,1,1,70,0,0
340068,-125,4,1,1,70,0,0
340392,-90.9090909090909,4,1,1,70,0,0
342663,-125,4,1,1,70,0,0
342987,-90.9090909090909,4,1,1,70,0,0
345257,-111.111111111111,4,1,1,70,0,1
345338,-111.111111111111,4,1,1,70,0,0
345582,-83.3333333333333,4,1,1,70,0,0
347852,-111.111111111111,4,1,1,70,0,0
348176,-83.3333333333333,4,1,1,70,0,0
350446,-111.111111111111,4,1,1,70,0,0
350771,-83.3333333333333,4,1,1,70,0,0
355311,-74.0740740740741,4,1,1,70,0,0
355473,-66.6666666666667,4,1,1,70,0,0

[Colours]
Combo1 : 120,120,120
Combo2 : 136,91,255
Combo3 : 54,124,254
Combo4 : 53,239,249
Combo5 : 255,70,70
Combo6 : 252,119,20
Combo7 : 255,181,70
Combo8 : 174,174,174

[HitObjects]
368,232,364,102,0,L|356:324,2,90,2|0|0,0:0|0:0|0:0,0:0:0:0:
320,156,1351,2,0,L|308:60,2,90,2|0|0,0:0|0:0|0:0,0:0:0:0:
276,232,2338,1,2,0:0:0:0:
188,216,2667,1,0,0:0:0:0:
176,128,2997,1,0,0:0:0:0:
320,156,3326,1,2,0:0:0:0:
188,216,3655,1,0,0:0:0:0:
256,88,3984,1,0,0:0:0:0:
408,128,4313,6,0,P|428:176|432:216,1,90,2|0,0:0|0:0,0:0:0:0:
404,300,4971,1,0,0:0:0:0:
276,244,5300,2,0,P|216:236|176:240,1,90,2|0,0:0|0:0,0:0:0:0:
108,280,5959,1,0,0:0:0:0:
160,156,6288,101,2,0:0:0:0:
68,56,6617,1,0,0:0:0:0:
76,192,6946,1,2,0:0:0:0:
228,216,7275,1,2,0:0:0:0:
180,68,7604,1,0,0:0:0:0:
160,156,7933,1,2,0:0:0:0:
316,192,8263,6,0,L|416:172,2,90,2|0|0,0:0|0:0|0:0,0:0:0:0:
200,284,9250,2,0,L|108:264,2,90,2|0|0,0:0|0:0|0:0,0:0:0:0:
340,340,10237,2,0,L|440:320,1,90,2|0,0:0|0:0,0:0:0:0:
288,268,10896,1,0,0:0:0:0:
328,188,11225,2,0,P|324:140|304:92,1,90,2|0,0:0|0:0,0:0:0:0:
400,240,11883,1,0,0:0:0:0:
288,268,12212,101,2,0:0:0:0:
240,164,12541,1,0,0:0:0:0:
328,188,12870,1,0,0:0:0:0:
200,244,13199,1,2,0:0:0:0:
196,88,13529,1,0,0:0:0:0:
332,164,13858,1,0,0:0:0:0:
128,168,14187,5,2,0:0:0:0:
304,60,14516,1,0,0:0:0:0:
308,268,14845,1,2,0:0:0:0:
240,164,15174,1,2,0:0:0:0:
328,144,15503,1,0,0:0:0:0:
416,124,15833,1,2,0:0:0:0:
240,164,16162,102,0,L|140:156,1,90,2|0,0:0|0:0,0:0:0:0:
328,144,16821,1,0,0:0:0:0:
300,228,17151,2,0,L|300:324,1,90,2|0,0:0|0:0,0:0:0:0:
328,144,17810,1,0,0:0:0:0:
268,80,18140,2,0,P|218:69|164:72,2,90,2|0|0,0:0|0:0|0:0,0:0:0:0:
392,204,19129,2,0,P|441:214|496:212,2,90,2|0|0,0:0|0:0|0:0,0:0:0:0:
216,156,20118,6,0,P|180:168|136:208,1,90,2|0,0:0|0:0,0:0:0:0:
220,248,20777,1,0,0:0:0:0:
296,108,21107,2,0,P|303:70|290:12,1,90,2|0,0:0|0:0,0:0:0:0:
214,65,21766,1,0,0:0:0:0:
300,200,22096,101,2,0:0:0:0:
296,108,22425,1,0,0:0:0:0:
216,156,22755,1,2,0:0:0:0:
376,152,23085,1,2,0:0:0:0:
214,65,23414,1,0,0:0:0:0:
220,248,23744,1,2,0:0:0:0:
296,108,24074,6,0,P|300:48|292:16,2,90,2|0|0,0:0|0:0|0:0,0:0:0:0:
376,152,25068,2,0,P|372:212|380:244,1,90,2|0,0:0|0:0,0:0:0:0:
452,296,25731,1,0,0:0:0:0:
288,260,26062,2,0,P|244:256|192:260,2,85.7142857142857,2|0|0,0:0|0:0|0:0,0:0:0:0:
148,332,27108,2,0,P|104:328|64:320,1,78.2608695652174,2|0,0:0|0:0,0:0:0:0:
8,260,27822,1,0,0:0:0:0:
128,100,28179,102,0,L|136:172,1,69.2307692307692,2|0,0:0|0:0,0:0:0:0:
144,252,28910,1,0,0:0:0:0:
284,184,29276,2,0,L|288:112,1,60,2|0,0:0|0:0,0:0:0:0:
292,44,30076,1,0,0:0:0:0:
388,168,30476,6,0,P|388:192|384:224,2,51.4285714285714,2|0|0,0:0|0:0|0:0,0:0:0:0:
304,188,31780,2,0,L|252:188,1,43.9024390243902,2|0,0:0|0:0,0:0:0:0:
260,188,32732,102,0,L|268:264,1,75,2|0,0:0|0:0,0:0:0:0:
256,272,38611,6,0,B|248:232|248:232|264:196|264:196|240:152|256:100,1,180,4|0,0:0|0:0,0:0:0:0:
476,132,40394,6,2,L|332:144,1,135.000005149842,6|0,0:0|0:0,0:0:0:0:
341,143,40799,1,0,0:0:0:0:
341,143,40880,2,2,B|328:184|328:184|328:236,1,90,8|2,0:0|0:0,0:0:0:0:
464,348,41204,2,0,B|464:304|464:304|448:252,1,90
232,216,41528,2,0,B|224:260|224:260|232:316,1,90,8|0,0:0|0:0,0:0:0:0:
230,304,41772,1,0,0:0:0:0:
230,304,41853,5,0,0:0:0:0:
328,260,42015,1,2,0:0:0:0:
152,152,42177,1,8,0:0:0:0:
144,256,42339,1,2,0:0:0:0:
280,132,42501,5,4,0:2:0:0:
40,132,42664,1,4,0:2:0:0:
232,216,42826,1,8,0:0:0:0:
159,17,42988,86,2,L|151:157,1,135.000005149842,6|0,0:0|0:0,0:0:0:0:
152,152,43393,1,0,0:0:0:0:
152,152,43474,2,2,B|208:168|208:168|248:160,1,90,8|2,0:0|0:0,0:0:0:0:
464,192,43799,2,0,B|404:196|404:196|376:212,1,90
200,312,44123,2,0,B|264:320|264:320|292:312,1,90,8|0,0:0|0:0,0:0:0:0:
312,304,44366,1,0,0:0:0:0:
336,296,44447,5,4,0:0:0:0:
204,220,44610,1,2,0:0:0:0:
116,344,44772,1,8,0:0:0:0:
300,208,44934,1,0,0:0:0:0:
300,208,45015,1,0,0:0:0:0:
300,208,45096,1,4,0:2:0:0:
88,132,45258,1,2,0:0:0:0:
88,132,45339,1,0,0:0:0:0:
88,132,45420,1,12,0:2:0:0:
200,312,45583,6,2,L|208:172,1,135.000005149842,6|0,0:0|0:0,0:0:0:0:
200,104,45988,1,0,0:0:0:0:
200,104,46069,2,2,L|192:12,1,90,8|2,0:0|0:0,0:0:0:0:
300,208,46393,2,0,L|296:304,1,90
448,132,46718,2,0,L|436:28,1,90,8|0,0:0|0:0,0:0:0:0:
437,42,46961,1,0,0:0:0:0:
437,42,47042,85,0,0:0:0:0:
352,136,47204,1,2,0:0:0:0:
464,224,47366,1,8,0:0:0:0:
324,140,47528,1,2,0:0:0:0:
488,124,47691,5,4,0:2:0:0:
300,144,47853,1,4,0:2:0:0:
460,8,48015,1,8,0:0:0:0:
368,224,48177,6,2,L|380:360,1,135.000005149842,6|0,0:0|0:0,0:0:0:0:
456,336,48583,1,0,0:0:0:0:
456,336,48664,2,2,L|448:240,1,90,8|2,0:0|0:0,0:0:0:0:
200,60,48988,2,0,L|188:156,1,90
304,376,49312,2,0,L|292:268,1,90,12|2,0:2|0:0,0:0:0:0:
76,121,49637,85,8,0:0:0:0:
100,149,49718,1,8,0:3:0:0:
132,165,49799,1,0,0:0:0:0:
168,169,49880,1,0,0:0:0:0:
204,161,49961,1,10,0:0:0:0:
236,141,50042,1,8,0:3:0:0:
256,113,50123,1,0,0:0:0:0:
288,97,50204,1,0,0:0:0:0:
324,97,50285,6,0,L|372:117,1,45,2|0,0:0|0:0,0:0:0:0:
316,225,50447,2,0,L|307:169,1,45,8|0,0:3|0:0,0:0:0:0:
432,169,50610,2,0,L|390:200,1,45,10|0,0:0|0:0,0:0:0:0:
332,64,50772,6,2,B|360:48|360:48|484:56,1,135.000005149842,6|0,0:0|0:0,0:0:0:0:
462,54,51177,1,0,0:0:0:0:
462,54,51258,1,8,0:0:0:0:
432,169,51420,1,2,0:0:0:0:
432,169,51501,1,0,0:0:0:0:
432,169,51583,1,0,0:0:0:0:
496,268,51745,1,0,0:0:0:0:
496,268,51826,1,0,0:0:0:0:
496,268,51907,1,8,0:0:0:0:
320,172,52069,1,2,0:0:0:0:
464,152,52231,85,0,0:0:0:0:
324,264,52393,1,2,0:0:0:0:
372,92,52555,1,8,0:0:0:0:
464,288,52718,1,2,0:0:0:0:
296,240,52880,5,0,0:2:0:0:
392,120,53043,1,4,0:2:0:0:
388,316,53205,1,12,0:2:0:0:
196,264,53366,6,2,B|192:228|192:228|204:128,1,135.000005149842,6|0,0:0|0:0,0:0:0:0:
208,100,53772,1,0,0:0:0:0:
212,72,53853,1,8,0:0:0:0:
64,156,54015,1,2,0:0:0:0:
92,164,54096,1,0,0:0:0:0:
120,164,54177,1,0,0:0:0:0:
296,44,54339,1,0,0:0:0:0:
268,44,54420,1,0,0:0:0:0:
240,52,54501,1,8,0:0:0:0:
148,160,54664,1,2,0:0:0:0:
368,108,54826,86,0,B|388:72|388:72|392:12,1,90,4|0,0:2|0:0,0:0:0:0:
288,220,55150,2,0,B|296:264|296:264|320:308,1,90,12|0,0:2|0:0,0:0:0:0:
317,303,55393,1,0,0:0:0:0:
317,303,55474,1,8,0:0:0:0:
192,220,55637,1,8,0:0:0:0:
356,128,55799,1,8,0:0:0:0:
180,48,55961,6,2,L|44:52,1,135,6|0,0:0|0:0,0:0:0:0:
45,51,56366,1,0,0:0:0:0:
45,51,56447,1,8,0:0:0:0:
156,160,56610,1,2,0:0:0:0:
156,160,56691,1,0,0:0:0:0:
156,160,56772,1,0,0:0:0:0:
32,252,56934,1,0,0:0:0:0:
32,252,57015,1,0,0:0:0:0:
32,252,57096,1,8,0:0:0:0:
132,136,57258,1,2,0:0:0:0:
224,276,57420,5,0,0:0:0:0:
136,324,57583,1,2,0:0:0:0:
124,292,57664,1,0,0:0:0:0:
124,260,57745,1,8,0:0:0:0:
240,108,57907,1,2,0:0:0:0:
252,140,57988,1,0,0:0:0:0:
252,172,58069,85,4,0:2:0:0:
164,44,58231,1,4,0:2:0:0:
348,148,58393,1,8,0:0:0:0:
194,283,58555,6,2,P|159:226|155:159,1,135.000005149842,6|0,0:0|0:0,0:0:0:0:
154,159,58961,1,0,0:0:0:0:
154,159,59042,1,8,0:0:0:0:
280,188,59204,1,2,0:0:0:0:
280,188,59285,1,0,0:0:0:0:
280,188,59366,1,0,0:0:0:0:
236,304,59529,1,0,0:0:0:0:
236,304,59610,1,0,0:0:0:0:
236,304,59691,2,0,L|140:320,1,90,12|2,0:2|0:0,0:0:0:0:
352,284,60015,5,8,0:0:0:0:
376,260,60096,1,8,0:3:0:0:
392,228,60177,1,0,0:0:0:0:
396,192,60258,1,8,0:3:0:0:
392,156,60339,1,0,0:0:0:0:
376,124,60420,1,0,0:0:0:0:
352,100,60501,1,8,0:3:0:0:
320,80,60583,1,8,0:3:0:0:
284,72,60664,86,2,L|180:88,1,90,2|0,0:0|0:0,0:0:0:0:
195,85,60907,2,2,P|184:140|196:224,1,135,8|2,0:3|0:0,0:0:0:0:
212,248,61231,1,0,0:0:0:0:
212,248,61312,5,6,0:2:0:0:
296,260,61637,1,0,2:0:0:0:
380,272,61961,1,0,2:0:0:0:
464,284,62285,1,0,2:0:0:0:
212,248,62610,5,6,0:2:0:0:
296,260,62772,1,0,0:0:0:0:
380,272,62934,1,0,0:0:0:0:
212,248,63096,85,2,0:2:0:0:
304,228,63258,1,8,0:3:0:0:
396,208,63420,1,8,0:3:0:0:
272,360,63583,1,0,0:0:0:0:
202,176,63745,1,8,0:3:0:0:
280,12,63907,5,6,0:2:0:0:
300,40,63988,1,0,0:0:0:0:
308,76,64069,1,0,0:0:0:0:
308,112,64150,1,0,0:0:0:0:
292,144,64231,1,8,0:0:0:0:
212,84,64393,2,0,L|396:72,1,180
391,72,64799,1,0,0:0:0:0:
391,72,64880,1,10,0:2:0:0:
312,232,65042,6,0,L|128:216,1,180,2|0,0:2|0:0,0:0:0:0:
96,224,65447,1,0,0:0:0:0:
72,252,65528,1,8,0:0:0:0:
60,288,65610,1,0,0:0:0:0:
64,324,65691,1,0,0:0:0:0:
212,204,65853,2,0,L|200:152,1,45,2|0,0:2|0:0,0:0:0:0:
124,124,66015,2,0,L|128:68,1,45
192,24,66177,2,0,B|236:20|236:20|296:36,1,90,10|0,0:2|0:0,0:0:0:0:
436,140,66501,85,2,0:2:0:0:
404,156,66583,1,0,0:0:0:0:
368,156,66664,1,0,0:0:0:0:
332,148,66745,1,0,0:0:0:0:
304,128,66826,2,0,L|288:76,1,45,8|0,0:0|0:0,0:0:0:0:
376,60,66988,2,0,B|388:104|388:104|372:240,1,180,2|0,0:2|0:0,0:0:0:0:
368,272,67393,1,0,0:0:0:0:
364,308,67474,1,10,0:2:0:0:
368,312,67555,1,0,0:0:0:0:
372,316,67637,2,0,B|412:336|412:336|464:336,1,90,0|0,0:0|2:0,0:0:0:0:
284,244,67961,5,2,0:2:0:0:
248,232,68042,1,0,0:0:0:0:
212,236,68123,1,8,0:0:0:0:
180,256,68204,1,0,0:0:0:0:
160,284,68285,1,0,0:0:0:0:
152,320,68366,1,0,0:0:0:0:
164,356,68447,2,0,L|220:352,1,45,2|0,0:2|0:0,0:0:0:0:
76,276,68610,2,0,L|24:272,1,45
160,188,68772,2,0,P|172:144|172:80,1,90,12|0,0:2|0:0,0:0:0:0:
12,28,69096,5,6,0:2:0:0:
8,64,69177,1,0,0:0:0:0:
20,96,69258,1,0,0:0:0:0:
44,120,69339,1,0,0:0:0:0:
76,132,69420,1,8,0:0:0:0:
228,48,69583,2,0,B|170:54|100:48|100:48|128:56|144:76,1,180
143,75,69988,1,0,0:0:0:0:
143,75,70069,1,10,0:2:0:0:
192,188,70231,86,0,P|252:204|368:152,1,180,2|0,0:2|0:0,0:0:0:0:
376,128,70637,1,0,0:0:0:0:
392,160,70718,1,8,0:0:0:0:
400,196,70799,1,0,0:0:0:0:
396,232,70880,1,0,0:0:0:0:
280,328,71042,2,0,L|224:320,1,45,2|0,0:2|0:0,0:0:0:0:
160,272,71204,2,0,L|108:284,1,45
40,340,71366,2,0,B|24:296|24:296|28:236,1,90,10|0,0:2|0:0,0:0:0:0:
112,80,71691,5,2,0:2:0:0:
132,112,71772,1,0,0:0:0:0:
140,148,71853,1,0,0:0:0:0:
136,184,71934,1,0,0:0:0:0:
116,212,72015,2,0,L|52:232,1,45,8|0,0:0|0:0,0:0:0:0:
40,152,72177,2,0,B|176:112|176:112|220:120,1,180,2|0,0:2|0:0,0:0:0:0:
248,128,72583,1,0,0:0:0:0:
284,136,72664,2,0,L|340:120,1,45,10|0,0:2|0:0,0:0:0:0:
408,104,72826,1,0,0:0:0:0:
408,104,73150,5,2,0:2:0:0:
404,140,73231,1,0,0:0:0:0:
404,176,73312,1,8,0:0:0:0:
412,212,73393,1,0,0:0:0:0:
424,244,73474,1,0,0:0:0:0:
444,276,73555,1,0,0:0:0:0:
472,300,73637,85,2,0:2:0:0:
328,204,73799,1,2,0:2:0:0:
500,100,73961,1,8,0:0:0:0:
484,56,74042,1,8,0:0:0:0:
448,24,74123,1,8,0:3:0:0:
404,12,74204,1,8,0:3:0:0:
360,24,74285,5,6,0:2:0:0:
324,28,74366,1,0,0:0:0:0:
288,32,74447,1,0,0:0:0:0:
252,36,74528,1,0,0:0:0:0:
216,40,74610,1,8,0:0:0:0:
123,147,74772,2,0,L|302:128,1,180
304,132,75177,1,0,0:0:0:0:
308,136,75258,1,10,0:2:0:0:
312,140,75339,1,0,0:0:0:0:
316,144,75420,6,0,P|333:215|332:256,1,90,2|0,0:2|2:0,0:0:0:0:
168,328,75745,1,2,0:2:0:0:
196,304,75826,1,0,0:0:0:0:
232,296,75907,1,8,0:0:0:0:
268,300,75988,1,0,0:0:0:0:
296,320,76069,1,0,0:0:0:0:
332,328,76150,1,0,0:0:0:0:
368,320,76231,2,0,L|408:292,1,45,2|0,0:2|0:0,0:0:0:0:
512,272,76393,2,0,L|464:252,1,45
364,208,76555,2,0,B|408:192|408:192|444:156,1,90,10|0,0:2|0:0,0:0:0:0:
232,76,76880,85,2,0:2:0:0:
256,104,76961,1,0,0:0:0:0:
288,120,77042,1,0,0:0:0:0:
324,124,77123,1,0,0:0:0:0:
360,116,77204,2,0,L|384:72,1,45,8|0,0:0|0:0,0:0:0:0:
316,28,77366,2,0,B|276:104|276:104|184:156,1,180,2|0,0:2|0:0,0:0:0:0:
160,168,77772,1,0,0:0:0:0:
128,184,77853,1,10,0:2:0:0:
116,148,77934,1,0,0:0:0:0:
104,112,78015,1,0,0:0:0:0:
88,104,78339,5,2,0:2:0:0:
100,140,78420,1,0,0:0:0:0:
112,176,78501,1,8,0:0:0:0:
124,212,78583,1,0,0:0:0:0:
136,248,78664,1,0,0:0:0:0:
148,284,78745,1,0,0:0:0:0:
160,320,78826,2,0,L|148:372,1,45,2|0,0:2|0:0,0:0:0:0:
252,292,78988,2,0,L|240:340,1,45
344,260,79150,2,0,L|320:356,1,90,12|0,0:2|0:0,0:0:0:0:
268,196,79474,5,6,0:2:0:0:
260,160,79555,1,0,0:0:0:0:
264,124,79637,1,0,0:0:0:0:
284,92,79718,1,0,0:0:0:0:
316,72,79799,1,8,0:0:0:0:
504,128,79961,2,0,P|448:184|356:156,1,180
368,196,80366,1,0,0:0:0:0:
360,232,80447,1,10,0:2:0:0:
344,260,80528,1,0,0:0:0:0:
316,280,80610,1,0,0:0:0:0:
192,272,80934,101,0,0:0:0:0:
192,272,81015,1,0,0:0:0:0:
192,272,81096,1,8,0:0:0:0:
188,236,81177,1,0,0:0:0:0:
184,200,81258,1,0,0:0:0:0:
180,164,81339,1,0,0:0:0:0:
176,128,81420,2,0,L|168:64,1,45,2|0,0:2|0:0,0:0:0:0:
256,24,81583,2,0,L|256:84,1,45
336,128,81745,2,0,B|382:128|382:128|432:108,1,90,10|0,0:2|0:0,0:0:0:0:
296,228,82069,5,6,0:2:0:0:
256,216,82150,1,0,0:0:0:0:
220,220,82231,1,0,0:0:0:0:
188,236,82312,1,0,0:0:0:0:
164,264,82393,1,8,0:0:0:0:
160,268,82474,1,0,0:0:0:0:
156,272,82555,2,0,L|52:272,1,90,2|0,0:2|0:0,0:0:0:0:
252,316,82880,1,2,0:2:0:0:
264,336,82961,1,0,0:0:0:0:
276,356,83042,1,8,0:0:0:0:
296,228,83204,2,0,L|324:136,1,90,2|0,0:2|0:0,0:0:0:0:
184,40,83528,101,0,0:0:0:0:
184,40,83610,1,0,0:0:0:0:
184,40,83691,2,0,B|164:92|179:148|179:148|208:164,1,135,12|0,0:2|0:0,0:0:0:0:
276,96,84015,2,0,P|284:76|292:28,2,60,8|0|0,0:3|0:0|0:0,0:0:0:0:
376,172,84339,2,0,P|384:192|392:240,2,60,0|8|8,0:0|0:3|0:3,0:0:0:0:
296,228,84664,5,4,0:0:0:0:
284,128,84826,1,8,0:0:0:0:
376,172,84988,1,8,0:3:0:0:
290,241,85150,85,0,0:0:0:0:
275,115,85312,1,0,0:0:0:0:
390,171,85474,1,8,0:2:0:0:
168,192,85637,2,0,L|72:180,1,80.9999975280763,2|0,0:2|0:0,0:0:0:0:
176,92,85961,5,4,0:2:0:0:
160,292,86123,1,0,0:0:0:0:
0,164,86285,2,0,L|88:160,1,80.9999975280763,12|0,0:2|0:0,0:0:0:0:
276,116,86610,1,10,0:2:0:0:
168,192,86772,1,8,0:0:0:0:
360,164,86934,1,8,0:3:0:0:
364,148,87015,1,0,0:0:0:0:
368,132,87096,1,8,0:3:0:0:
372,116,87177,1,0,0:0:0:0:
376,100,87258,5,10,0:2:0:0:
408,112,87339,1,0,0:0:0:0:
432,136,87420,1,0,0:0:0:0:
444,168,87501,1,0,0:0:0:0:
444,200,87583,1,8,0:3:0:0:
436,232,87664,1,0,0:0:0:0:
412,256,87745,2,0,L|352:256,1,40.4999987640381,10|0,0:2|0:0,0:0:0:0:
296,220,87907,2,0,L|248:224,1,40.4999987640381,8|0,0:0|0:0,0:0:0:0:
192,284,88069,85,0,0:0:0:0:
160,284,88150,1,0,0:0:0:0:
136,264,88231,1,10,0:2:0:0:
124,236,88312,1,0,0:0:0:0:
128,204,88393,1,8,0:3:0:0:
148,180,88474,1,0,0:0:0:0:
180,168,88555,6,0,L|172:116,3,40.4999987640381,10|0|0|0,0:2|0:0|0:0|0:0,0:0:0:0:
272,72,88880,2,0,L|264:124,3,40.4999987640381,8|0|0|0,0:3|0:0|0:0|0:0,0:0:0:0:
324,192,89204,1,2,0:2:0:0:
364,188,89285,1,0,0:0:0:0:
404,184,89366,1,8,0:3:0:0:
444,180,89447,1,0,0:0:0:0:
484,176,89528,1,12,0:2:0:0:
484,176,89853,5,6,0:2:0:0:
324,192,90015,1,0,0:0:0:0:
424,96,90177,1,8,0:0:0:0:
384,280,90339,1,2,0:2:0:0:
236,152,90501,1,0,0:0:0:0:
364,188,90664,1,0,0:0:0:0:
164,224,90826,2,0,B|144:184|144:184|136:128,1,90,10|0,0:2|0:0,0:0:0:0:
264,244,91150,85,6,0:2:0:0:
76,276,91312,1,0,0:0:0:0:
236,152,91474,1,8,0:0:0:0:
296,336,91637,1,2,0:2:0:0:
164,224,91799,1,0,0:0:0:0:
364,188,91961,1,0,0:0:0:0:
243,62,92123,2,0,L|236:152,1,90,12|0,0:2|0:0,0:0:0:0:
264,244,92447,5,6,0:2:0:0:
360,216,92610,1,0,0:0:0:0:
476,300,92772,5,0,0:0:0:0:
364,248,92934,1,8,0:0:0:0:
488,164,93096,85,0,0:0:0:0:
368,280,93258,1,8,0:0:0:0:
252,144,93420,5,8,0:0:0:0:
372,312,93583,1,8,0:0:0:0:
356,172,93745,5,2,0:0:0:0:
356,136,93826,1,0,0:0:0:0:
368,100,93907,1,8,0:0:0:0:
388,72,93988,1,8,0:0:0:0:
416,48,94069,1,2,0:0:0:0:
376,24,94150,1,0,0:0:0:0:
332,20,94231,1,8,0:3:0:0:
288,28,94312,1,0,0:0:0:0:
248,48,94393,86,0,P|232:52|184:52,1,45,10|0,0:0|0:0,0:0:0:0:
80,36,94555,2,2,P|132:24|184:28,1,90,2|0,0:0|0:0,0:0:0:0:
296,176,94880,38,2,P|200:196|136:124,1,198.000006042481,6|0,0:0|0:0,0:0:0:0:
137,129,95285,1,0,0:0:0:0:
137,129,95366,2,0,L|128:248,1,99.0000030212403,8|0,0:0|0:0,0:0:0:0:
52,312,95610,1,0,0:0:0:0:
52,312,95691,2,0,L|40:200,1,99.0000030212403
32,128,95934,1,0,0:0:0:0:
32,128,96015,1,8,0:0:0:0:
168,272,96177,6,2,P|202:287|360:272,1,198.000006042481,2|0,0:0|0:0,0:0:0:0:
416,224,96583,1,0,0:0:0:0:
416,224,96664,2,2,L|412:332,1,99.0000030212403,10|0,0:0|0:0,0:0:0:0:
324,180,96988,1,2,0:0:0:0:
468,112,97150,1,2,0:0:0:0:
512,272,97312,1,12,0:2:0:0:
316,216,97474,6,2,P|288:152|300:28,1,198.000006042481,6|0,0:0|0:0,0:0:0:0:
220,32,97880,1,0,0:0:0:0:
220,32,97961,2,0,B|176:48|176:48|104:48,1,99.0000030212403,8|0,0:0|0:0,0:0:0:0:
392,60,98285,2,0,B|436:44|436:44|508:44,1,99.0000030212403
488,44,98528,1,0,0:0:0:0:
488,44,98610,1,8,0:0:0:0:
344,176,98772,86,2,B|248:196|248:196|152:168,1,198.000006042481,2|0,0:0|0:0,0:0:0:0:
84,128,99177,1,0,0:0:0:0:
84,128,99258,2,2,L|64:16,1,99.0000030212403,10|0,0:0|0:0,0:0:0:0:
48,220,99583,1,2,0:0:0:0:
164,68,99745,1,2,0:0:0:0:
160,260,99907,1,12,0:2:0:0:
32,124,100069,6,2,L|244:112,1,198.000006042481,6|0,0:0|0:0,0:0:0:0:
304,152,100474,1,0,0:0:0:0:
304,152,100555,2,0,L|412:144,1,99.0000030212403,8|0,0:0|0:0,0:0:0:0:
448,44,100799,1,0,0:0:0:0:
448,44,100880,2,0,L|348:52,1,99.0000030212403
256,60,101123,1,0,0:0:0:0:
256,60,101204,1,8,0:0:0:0:
386,220,101366,6,2,P|407:126|349:51,1,198.000006042481,6|0,0:0|0:0,0:0:0:0:
256,60,101772,1,0,0:0:0:0:
256,60,101853,2,0,P|200:72|152:68,1,99.0000030212403,8|0,0:0|0:0,0:0:0:0:
124,56,102096,1,0,0:0:0:0:
96,36,102177,1,0,0:0:0:0:
180,164,102339,1,4,0:2:0:0:
32,244,102501,1,8,0:0:0:0:
212,80,102664,86,2,L|224:284,1,198.000006042481,6|0,0:0|0:0,0:0:0:0:
160,324,103069,1,0,0:0:0:0:
160,324,103150,2,2,P|104:312|52:312,1,99.0000030212403,10|0,0:0|0:0,0:0:0:0:
332,288,103474,2,2,P|376:244|396:204,1,99.0000030212403,0|2,0:0|0:0,0:0:0:0:
393,211,103718,1,0,0:0:0:0:
393,211,103799,1,12,0:2:0:0:
328,56,103961,1,6,0:0:0:0:
328,56,104042,1,0,0:0:0:0:
328,56,104123,5,8,0:0:0:0:
284,80,104204,1,0,0:0:0:0:
236,88,104285,1,8,0:0:0:0:
188,80,104366,1,0,0:0:0:0:
148,52,104447,1,8,0:3:0:0:
108,80,104528,1,0,0:0:0:0:
92,128,104610,1,0,0:0:0:0:
96,176,104691,1,0,0:0:0:0:
128,212,104772,2,0,L|184:216,1,49.5000015106202,10|0,0:0|0:0,0:0:0:0:
108,288,104934,2,2,L|4:296,1,99.0000030212403,2|0,0:0|0:0,0:0:0:0:
196,340,105258,6,2,P|260:312|380:348,1,198.000006042481,6|0,0:0|0:0,0:0:0:0:
378,346,105664,1,0,0:0:0:0:
378,346,105745,1,10,0:0:0:0:
288,224,105907,1,0,0:0:0:0:
288,224,105988,1,0,0:0:0:0:
288,224,106069,1,2,0:0:0:0:
420,120,106231,1,2,0:0:0:0:
460,284,106393,1,12,0:2:0:0:
292,188,106555,86,2,B|300:28|300:28|332:76,1,198.000006042481,2|0,0:0|0:0,0:0:0:0:
336,84,106961,1,0,0:0:0:0:
352,108,107042,1,8,0:0:0:0:
184,96,107204,1,0,0:0:0:0:
160,80,107285,1,0,0:0:0:0:
136,64,107366,1,4,0:2:0:0:
136,104,107447,1,0,0:0:0:0:
136,144,107528,1,0,0:0:0:0:
136,184,107610,1,0,0:0:0:0:
136,224,107691,1,8,0:0:0:0:
352,292,107853,6,2,B|207:266|207:266|224:288|232:316,1,198.000006042481,6|0,0:0|0:0,0:0:0:0:
236,340,108258,1,0,0:0:0:0:
232,368,108339,1,10,0:0:0:0:
104,288,108501,1,0,0:0:0:0:
100,260,108583,1,0,0:0:0:0:
108,232,108664,1,2,0:0:0:0:
320,184,108826,1,2,0:0:0:0:
196,264,108988,1,12,0:2:0:0:
80,140,109150,5,2,0:0:0:0:
76,124,109231,1,0,0:0:0:0:
72,108,109312,1,0,0:0:0:0:
292,64,109474,1,0,0:0:0:0:
288,80,109555,1,0,0:0:0:0:
284,96,109637,1,12,0:2:0:0:
148,48,109799,1,0,0:0:0:0:
152,32,109880,1,0,0:0:0:0:
156,16,109962,85,8,0:2:0:0:
280,112,110123,1,4,0:2:0:0:
84,156,110285,1,8,0:0:0:0:
304,208,110447,6,2,B|354:197|354:197|404:140|404:60,1,198.000006042481,6|0,0:0|0:0,0:0:0:0:
403,62,110853,1,0,0:0:0:0:
403,62,110934,1,10,0:0:0:0:
208,168,111096,1,0,0:0:0:0:
208,168,111177,1,0,0:0:0:0:
208,168,111258,2,2,B|204:216|204:216|216:268,1,99.0000030212403,2|6,0:0|0:2,0:0:0:0:
296,108,111583,1,8,0:0:0:0:
444,184,111745,6,2,B|460:280|460:280|428:376,1,198.000006042481,6|0,0:0|0:0,0:0:0:0:
428,375,112150,1,0,0:0:0:0:
428,375,112231,1,10,0:0:0:0:
308,268,112393,1,0,0:0:0:0:
308,268,112474,1,0,0:0:0:0:
308,268,112555,1,2,0:0:0:0:
436,148,112718,1,6,0:2:0:0:
288,52,112880,1,8,0:0:0:0:
444,184,113042,86,2,B|484:116|461:46|461:46|400:28,1,198.000006042481,6|0,0:0|0:0,0:0:0:0:
380,36,113447,1,0,0:0:0:0:
352,40,113528,1,10,0:0:0:0:
200,152,113691,1,0,0:0:0:0:
228,156,113772,1,0,0:0:0:0:
256,160,113853,2,2,L|360:136,1,99.0000030212403,2|6,0:0|0:2,0:0:0:0:
248,32,114177,1,8,0:0:0:0:
104,136,114339,1,2,0:0:0:0:
108,164,114420,1,0,0:0:0:0:
112,192,114501,5,8,0:0:0:0:
72,196,114583,1,8,0:0:0:0:
40,176,114664,1,8,0:3:0:0:
24,140,114745,1,0,0:0:0:0:
28,100,114826,1,8,0:0:0:0:
52,68,114907,1,8,0:0:0:0:
88,52,114988,1,8,0:3:0:0:
128,52,115069,1,0,0:0:0:0:
164,72,115150,6,0,L|172:132,1,49.5000015106202,10|0,0:0|0:0,0:0:0:0:
188,252,115312,2,0,L|200:184,1,49.5000015106202,10|0,0:0|0:0,0:0:0:0:
248,32,115474,2,0,L|256:92,1,49.5000015106202,8|0,0:0|0:0,0:0:0:0:
280,240,115637,86,2,B|300:92|300:92|332:140,1,198.000006042481,6|0,0:0|0:0,0:0:0:0:
340,156,116042,1,0,0:0:0:0:
352,180,116123,1,0,0:0:0:0:
292,324,116285,1,0,0:0:0:0:
288,296,116366,1,0,0:0:0:0:
284,268,116447,1,8,0:0:0:0:
184,192,116610,1,0,0:0:0:0:
180,220,116691,1,0,0:0:0:0:
176,248,116772,1,0,0:0:0:0:
104,112,116934,5,0,0:0:0:0:
100,84,117015,1,0,0:0:0:0:
96,56,117096,1,2,0:0:0:0:
44,204,117258,1,0,0:0:0:0:
48,232,117339,1,0,0:0:0:0:
52,260,117420,1,0,0:0:0:0:
184,192,117583,1,2,0:0:0:0:
188,164,117664,1,0,0:0:0:0:
192,136,117745,5,8,0:0:0:0:
92,28,117907,1,4,0:2:0:0:
40,176,118069,1,8,0:0:0:0:
196,108,118231,86,2,B|244:88|296:100|296:100|344:112|392:96,1,198.000006042481,6|0,0:0|0:0,0:0:0:0:
416,80,118637,1,0,0:0:0:0:
436,56,118718,1,0,0:0:0:0:
488,176,118880,1,0,0:0:0:0:
484,204,118961,1,0,0:0:0:0:
488,232,119042,1,8,0:0:0:0:
396,324,119204,1,0,0:0:0:0:
368,332,119285,1,0,0:0:0:0:
340,332,119366,1,0,0:0:0:0:
296,208,119528,5,0,0:0:0:0:
328,208,119610,1,0,0:0:0:0:
356,216,119691,1,2,0:0:0:0:
212,144,119853,1,0,0:0:0:0:
188,160,119934,1,0,0:0:0:0:
160,168,120015,1,0,0:0:0:0:
232,40,120177,1,0,0:0:0:0:
260,32,120258,1,0,0:0:0:0:
288,32,120339,5,10,0:0:0:0:
308,72,120420,1,0,0:0:0:0:
344,96,120501,1,8,0:0:0:0:
388,104,120583,1,8,0:0:0:0:
432,96,120664,1,10,0:0:0:0:
464,64,120745,1,8,0:0:0:0:
476,20,120826,86,2,B|452:88|456:168|456:168|476:220,1,198.000006042481,6|0,0:0|0:0,0:0:0:0:
484,240,121231,1,0,0:0:0:0:
496,268,121312,1,12,0:2:0:0:
372,204,121474,1,0,0:0:0:0:
384,232,121556,1,0,0:0:0:0:
396,260,121637,1,4,0:2:0:0:
272,196,121799,1,0,0:0:0:0:
284,224,121881,1,0,0:0:0:0:
296,252,121962,1,12,0:2:0:0:
172,188,122123,5,0,0:0:0:0:
184,216,122205,1,0,0:0:0:0:
196,244,122286,1,4,0:2:0:0:
72,180,122447,1,0,0:0:0:0:
84,208,122528,1,0,0:0:0:0:
96,236,122610,1,12,0:2:0:0:
96,88,122772,5,2,0:0:0:0:
4,244,122934,1,2,0:0:0:0:
160,160,123096,1,4,0:2:0:0:
36,16,123258,1,8,0:0:0:0:
72,180,123420,86,2,L|272:168,1,198.000006042481,6|0,0:0|0:0,0:0:0:0:
269,168,123826,1,0,0:0:0:0:
269,168,123907,1,12,0:2:0:0:
168,72,124069,1,2,0:0:0:0:
168,72,124150,1,0,0:0:0:0:
168,72,124231,1,4,0:2:0:0:
180,276,124393,1,4,0:2:0:0:
352,164,124555,1,8,0:0:0:0:
112,176,124718,6,2,L|316:196,1,198.000006042481,6|0,0:0|0:0,0:0:0:0:
309,195,125123,1,0,0:0:0:0:
309,195,125204,1,12,0:2:0:0:
196,292,125366,1,2,0:0:0:0:
196,292,125447,1,0,0:0:0:0:
196,292,125528,1,8,0:3:0:0:
232,60,125691,1,8,0:3:0:0:
80,172,125853,1,8,0:3:0:0:
312,236,126015,5,4,0:0:0:0:
256,192,126096,12,0,127312,2:0:0:0:
136,288,127474,38,0,L|124:236,3,45,2|8|0|8,0:0|0:3|0:0|0:3,0:0:0:0:
160,168,127799,2,0,L|168:112,3,45,0|0|8|8,0:0|0:0|0:0|0:0,0:0:0:0:
232,72,128123,1,8,0:3:0:0:
272,92,128204,1,0,0:0:0:0:
316,96,128285,1,0,0:0:0:0:
360,88,128366,1,0,0:0:0:0:
396,64,128447,1,12,0:2:0:0:
396,64,128772,5,4,0:2:0:0:
392,104,128853,1,0,0:0:0:0:
388,144,128934,1,0,0:0:0:0:
384,184,129015,1,0,0:0:0:0:
380,224,129096,2,0,L|392:284,1,45,8|0,0:0|0:0,0:0:0:0:
488,312,129258,2,0,B|496:264|496:264|472:120,1,180,2|0,0:2|0:0,0:0:0:0:
474,134,129664,1,0,0:0:0:0:
474,134,129745,1,10,0:2:0:0:
380,224,129907,6,0,P|264:200|244:136,1,180
244,120,130312,1,0,0:0:0:0:
256,92,130393,1,10,0:2:0:0:
280,68,130474,1,0,0:0:0:0:
308,56,130555,1,0,0:0:0:0:
144,124,130718,1,2,0:2:0:0:
112,120,130799,1,0,0:0:0:0:
80,116,130880,2,0,L|32:112,3,30,0|0|0|8,0:0|0:0|0:0|0:0,0:0:0:0:
96,252,131366,85,2,0:2:0:0:
136,244,131447,1,0,0:0:0:0:
176,240,131528,1,0,0:0:0:0:
216,248,131610,1,0,0:0:0:0:
252,264,131691,1,8,0:0:0:0:
284,292,131772,1,0,0:0:0:0:
308,324,131853,2,0,P|296:252|304:144,1,180,2|0,0:2|0:0,0:0:0:0:
308,144,132258,1,0,0:0:0:0:
312,140,132339,1,10,0:2:0:0:
316,136,132420,1,0,0:0:0:0:
320,132,132501,6,0,B|264:120|264:120|140:132,1,180
304,28,132988,1,10,0:2:0:0:
344,36,133069,1,0,0:0:0:0:
384,44,133150,1,0,0:0:0:0:
424,52,133231,1,0,0:0:0:0:
464,60,133312,2,0,L|472:124,1,45,2|0,0:2|0:0,0:0:0:0:
440,180,133474,2,0,L|444:216,3,30,0|0|0|12,0:0|0:0|0:0|0:2,0:0:0:0:
364,144,133961,5,4,0:2:0:0:
324,152,134042,1,0,0:0:0:0:
284,160,134123,1,0,0:0:0:0:
244,168,134204,1,0,0:0:0:0:
204,176,134285,2,0,L|196:240,1,45,10|0,0:2|0:0,0:0:0:0:
288,264,134447,2,0,B|304:124|304:124|280:84,1,180
260,60,134853,1,0,0:0:0:0:
236,28,134934,2,0,L|176:32,1,45,10|0,0:2|0:0,0:0:0:0:
112,100,135096,86,0,L|88:292,1,180
112,312,135501,1,0,0:0:0:0:
136,344,135583,2,0,L|196:356,1,45,10|0,0:2|0:0,0:0:0:0:
284,372,135745,1,0,0:0:0:0:
204,197,135907,1,2,0:2:0:0:
384,276,136069,2,0,L|432:296,3,30,0|0|0|10,0:0|0:0|0:0|0:2,0:0:0:0:
248,304,136555,5,2,0:2:0:0:
220,276,136637,1,0,0:0:0:0:
204,238,136718,1,0,0:0:0:0:
204,197,136799,1,0,0:0:0:0:
218,159,136880,1,8,0:0:0:0:
247,131,136961,1,0,0:0:0:0:
285,117,137042,2,0,P|404:128|456:104,1,180,2|0,0:2|0:0,0:0:0:0:
460,105,137447,1,0,0:0:0:0:
464,109,137528,1,10,0:2:0:0:
468,113,137610,1,0,0:0:0:0:
472,117,137691,2,0,L|484:224,1,90,0|0,0:0|2:0,0:0:0:0:
284,320,138015,5,0,0:0:0:0:
284,320,138096,1,0,0:0:0:0:
284,320,138177,2,0,L|288:216,1,90,12|0,0:2|0:0,0:0:0:0:
388,280,138501,1,0,0:0:0:0:
184,272,138664,1,8,0:3:0:0:
312,352,138826,1,0,0:0:0:0:
348,132,138988,1,8,0:3:0:0:
144,204,139150,85,4,0:2:0:0:
180,224,139231,1,0,0:0:0:0:
220,236,139312,1,0,0:0:0:0:
260,228,139393,1,0,0:0:0:0:
300,216,139474,1,8,0:0:0:0:
304,220,139555,1,0,0:0:0:0:
308,224,139637,2,0,B|324:194|324:194|344:44,1,180,2|0,0:2|0:0,0:0:0:0:
343,49,140042,1,0,0:0:0:0:
343,49,140123,1,10,0:2:0:0:
120,172,140285,6,0,B|139:316|139:316|155:346,1,180
188,368,140691,1,0,0:0:0:0:
228,372,140772,1,10,0:2:0:0:
268,364,140853,1,0,0:0:0:0:
300,340,140934,1,0,0:0:0:0:
220,236,141096,1,2,0:2:0:0:
220,236,141177,1,0,0:0:0:0:
220,236,141258,2,0,L|224:276,3,30,0|0|0|10,0:0|0:0|0:0|0:2,0:0:0:0:
256,136,141745,5,2,0:2:0:0:
216,132,141826,1,0,0:0:0:0:
176,140,141907,1,0,0:0:0:0:
144,164,141988,1,0,0:0:0:0:
120,196,142069,1,10,0:2:0:0:
88,172,142150,1,0,0:0:0:0:
72,136,142231,2,0,P|88:72|192:32,1,180,2|0,0:2|0:0,0:0:0:0:
224,44,142637,1,0,0:0:0:0:
264,48,142718,2,0,P|296:44|320:36,1,45,10|0,0:2|0:0,0:0:0:0:
384,4,142880,86,0,L|400:192,1,180
340,328,143366,1,10,0:2:0:0:
316,316,143447,1,0,0:0:0:0:
292,304,143528,1,0,0:0:0:0:
268,292,143610,1,0,0:0:0:0:
244,280,143691,2,0,L|236:220,1,45,2|0,0:2|0:0,0:0:0:0:
272,152,143853,2,0,L|268:100,3,30,0|0|0|12,0:0|0:0|0:0|0:2,0:0:0:0:
244,280,144339,5,4,0:2:0:0:
208,288,144420,1,0,0:0:0:0:
172,300,144501,1,0,0:0:0:0:
136,312,144583,1,0,0:0:0:0:
100,324,144664,1,8,0:0:0:0:
96,328,144745,1,0,0:0:0:0:
92,332,144826,2,0,B|52:252|52:252|52:152,1,180,2|0,0:2|0:0,0:0:0:0:
52,161,145231,1,0,0:0:0:0:
52,161,145312,1,10,0:2:0:0:
180,40,145474,6,0,B|220:120|220:120|220:220,1,180
220,210,145880,1,0,0:0:0:0:
220,210,145961,1,10,0:2:0:0:
56,148,146123,1,0,0:0:0:0:
60,136,146204,1,0,0:0:0:0:
64,124,146285,1,2,0:2:0:0:
276,44,146447,1,0,0:0:0:0:
296,52,146528,1,0,0:0:0:0:
316,60,146610,1,12,0:2:0:0:
284,284,146772,1,0,0:0:0:0:
260,296,146853,1,0,0:0:0:0:
236,308,146934,85,10,0:2:0:0:
123,222,147096,2,0,L|85:238,3,30,0|0|0|8,0:0|0:0|0:0|0:0,0:0:0:0:
299,140,147420,1,4,0:2:0:0:
47,77,147745,1,4,0:2:0:0:
372,55,148069,6,0,P|404:138|375:221,1,180,4|0,0:2|0:0,0:0:0:0:
347,242,148474,1,0,0:0:0:0:
328,272,148555,2,0,B|328:304|328:304|336:348,2,60,8|0|8,0:0|0:0|0:0,0:0:0:0:
256,184,148880,2,0,L|256:108,2,60,8|0|8,0:3|0:0|0:3,0:0:0:0:
184,272,149204,2,0,B|184:304|184:304|176:348,2,60,0|8|8,0:0|0:3|0:3,0:0:0:0:
156,172,149528,5,4,0:0:0:0:
84,296,149690,1,8,0:0:0:0:
184,272,149852,1,8,0:3:0:0:
140,152,150014,85,0,0:0:0:0:
64,320,150176,1,0,0:0:0:0:
208,284,150338,1,8,0:2:0:0:
124,132,150501,5,2,0:2:0:0:
48,340,150664,1,0,0:0:0:0:
236,300,150826,2,0,L|232:212,1,80.9999975280763,4|0,0:2|0:0,0:0:0:0:
28,92,151150,2,0,L|32:180,1,80.9999975280763,12|0,0:2|0:0,0:0:0:0:
232,172,151474,1,10,0:2:0:0:
124,132,151637,1,8,0:0:0:0:
184,272,151799,1,8,0:0:0:0:
328,172,151961,1,0,0:0:0:0:
324,152,152042,1,0,0:0:0:0:
320,132,152123,5,4,0:0:0:0:
352,108,152204,1,0,0:0:0:0:
392,108,152285,1,0,0:0:0:0:
428,128,152366,1,0,0:0:0:0:
444,164,152447,1,0,0:0:0:0:
440,204,152528,1,0,0:0:0:0:
412,236,152610,2,0,L|360:244,1,40.4999987640381,12|0,0:2|0:0,0:0:0:0:
244,196,152772,85,0,0:0:0:0:
224,160,152853,1,0,0:0:0:0:
220,120,152934,1,0,0:0:0:0:
232,80,153015,1,0,0:0:0:0:
260,52,153096,2,0,L|312:48,1,40.4999987640381,12|0,0:2|0:0,0:0:0:0:
416,92,153258,5,0,0:0:0:0:
424,101,153339,1,0,0:0:0:0:
432,109,153420,2,0,L|432:165,1,40.4999987640381,12|0,0:2|0:0,0:0:0:0:
348,244,153583,1,0,0:0:0:0:
332,232,153664,1,0,0:0:0:0:
316,220,153745,2,0,L|316:164,1,40.4999987640381,12|0,0:2|0:0,0:0:0:0:
232,80,153907,1,2,0:0:0:0:
208,92,153988,1,0,0:0:0:0:
184,104,154069,6,2,L|176:160,1,40.4999987640381,10|0,0:2|0:0,0:0:0:0:
228,264,154231,2,0,L|224:200,1,40.4999987640381,8|0,0:2|0:0,0:0:0:0:
144,308,154393,1,8,0:3:0:0:
172,340,154474,1,0,0:0:0:0:
208,356,154555,1,8,0:3:0:0:
248,356,154637,1,8,0:3:0:0:
288,340,154718,85,6,0:2:0:0:
225,223,154880,1,0,0:0:0:0:
392,112,155042,1,8,0:0:0:0:
336,248,155204,1,2,0:2:0:0:
188,212,155366,1,0,0:0:0:0:
356,100,155528,1,0,0:0:0:0:
308,276,155691,2,0,L|300:176,1,90,10|0,0:2|0:0,0:0:0:0:
184,68,156015,5,6,0:2:0:0:
72,248,156177,1,0,0:0:0:0:
216,240,156339,1,8,0:0:0:0:
0,168,156501,1,2,0:2:0:0:
168,160,156664,1,0,0:0:0:0:
56,356,156826,1,0,0:0:0:0:
252,328,156988,2,0,L|152:320,1,90,12|0,0:2|0:0,0:0:0:0:
324,256,157312,5,10,0:2:0:0:
340,280,157393,1,0,0:0:0:0:
348,304,157474,1,8,0:3:0:0:
352,332,157555,1,8,0:3:0:0:
348,360,157637,1,0,0:0:0:0:
380,340,157718,1,0,0:0:0:0:
416,332,157799,1,8,0:3:0:0:
452,332,157880,1,8,0:3:0:0:
488,340,157961,85,2,0:2:0:0:
464,300,158042,1,0,0:0:0:0:
452,256,158123,1,8,0:3:0:0:
452,212,158204,1,8,0:3:0:0:
468,172,158285,1,2,0:2:0:0:
468,128,158366,1,0,0:0:0:0:
452,84,158447,1,8,0:3:0:0:
420,52,158528,1,8,0:3:0:0:
376,40,158610,6,2,P|356:164|452:84,1,323.999990112305,14|0,0:0|2:1,0:0:0:0:
376,40,159745,22,2,B|316:48|316:48|248:36|248:36|180:48,1,198.000006042481,6|0,0:0|0:0,0:0:0:0:
148,144,160150,1,0,0:0:0:0:
148,144,160231,2,0,L|256:124,1,99.0000030212403,8|0,0:0|0:0,0:0:0:0:
320,156,160474,1,0,0:0:0:0:
320,156,160555,1,0,0:0:0:0:
120,244,160718,1,0,0:0:0:0:
88,228,160799,1,0,0:0:0:0:
64,200,160880,1,8,0:0:0:0:
124,40,161042,5,2,0:0:0:0:
140,72,161123,1,0,0:0:0:0:
148,108,161204,1,0,0:0:0:0:
208,296,161366,1,0,0:0:0:0:
224,264,161447,1,0,0:0:0:0:
248,236,161528,1,10,0:0:0:0:
436,240,161691,1,0,0:0:0:0:
304,316,161853,1,2,0:0:0:0:
404,152,162015,1,4,0:2:0:0:
476,324,162177,1,8,0:0:0:0:
312,180,162339,6,2,B|288:24|288:24|308:44|332:52,1,198.000006042481,6|0,0:0|0:0,0:0:0:0:
396,60,162745,1,0,0:0:0:0:
396,60,162826,2,0,P|452:60|500:52,1,99.0000030212403,8|0,0:0|0:0,0:0:0:0:
280,148,163150,2,0,P|232:136|176:140,1,99.0000030212403
182,138,163393,1,0,0:0:0:0:
182,138,163474,1,8,0:0:0:0:
344,216,163637,85,2,0:0:0:0:
344,216,163718,1,0,0:0:0:0:
344,216,163799,1,0,0:0:0:0:
276,52,163961,1,0,0:0:0:0:
276,52,164042,1,0,0:0:0:0:
276,52,164123,1,10,0:0:0:0:
164,192,164285,1,0,0:0:0:0:
164,192,164366,1,0,0:0:0:0:
164,192,164447,1,2,0:0:0:0:
364,308,164610,1,4,0:2:0:0:
280,148,164772,1,8,0:0:0:0:
128,284,164934,6,2,P|76:228|108:112,1,198.000006042481,6|0,0:0|0:0,0:0:0:0:
132,100,165339,1,0,0:0:0:0:
168,96,165420,1,8,0:0:0:0:
340,208,165583,1,0,0:0:0:0:
308,228,165664,1,0,0:0:0:0:
272,232,165745,1,4,0:2:0:0:
368,80,165907,1,0,0:0:0:0:
404,92,165988,1,0,0:0:0:0:
432,116,166069,1,8,0:0:0:0:
300,300,166231,6,2,B|264:272|264:272|236:192|268:120,1,198.000006042481,6|0,0:0|0:0,0:0:0:0:
266,123,166637,1,0,0:0:0:0:
266,123,166718,1,8,0:0:0:0:
396,280,166880,1,0,0:0:0:0:
396,280,166961,1,0,0:0:0:0:
396,280,167042,1,4,0:2:0:0:
212,224,167204,1,4,0:2:0:0:
416,128,167366,1,8,0:0:0:0:
184,44,167528,86,2,B|32:40|32:40|72:76,1,198.000006042481,6|0,0:0|0:0,0:0:0:0:
128,120,167934,1,0,0:0:0:0:
128,120,168015,2,2,L|228:124,1,99.0000030212403,10|0,0:0|0:0,0:0:0:0:
380,32,168339,1,2,0:0:0:0:
266,123,168501,1,2,0:0:0:0:
416,128,168664,1,12,0:2:0:0:
248,24,168826,1,2,0:0:0:0:
248,24,168907,1,0,0:0:0:0:
248,24,168988,5,8,0:0:0:0:
200,44,169069,1,0,0:0:0:0:
172,84,169150,1,8,0:0:0:0:
164,132,169231,1,8,0:0:0:0:
180,180,169312,1,8,0:0:0:0:
216,212,169393,1,0,0:0:0:0:
232,260,169474,1,0,0:0:0:0:
216,308,169555,1,0,0:0:0:0:
172,336,169637,2,0,L|112:340,1,49.5000015106202,10|8,0:0|0:3,0:0:0:0:
44,252,169799,2,2,L|152:260,1,99.0000030212403,2|8,0:0|0:3,0:0:0:0:
381,292,170123,6,2,P|302:345|216:308,1,198.000006042481,6|0,0:0|0:0,0:0:0:0:
184,236,170528,1,0,0:0:0:0:
184,236,170610,2,2,L|176:132,1,99.0000030212403,10|0,0:0|0:0,0:0:0:0:
264,84,170853,1,0,0:0:0:0:
264,84,170934,2,2,L|272:196,1,99.0000030212403
88,148,171258,1,12,0:2:0:0:
356,28,171420,86,2,L|372:240,1,198.000006042481,2|0,0:0|0:0,0:0:0:0:
380,308,171826,1,0,0:0:0:0:
380,308,171907,1,8,0:0:0:0:
172,192,172069,1,0,0:0:0:0:
195,181,172150,1,0,0:0:0:0:
218,171,172231,1,4,0:2:0:0:
173,163,172312,1,0,0:0:0:0:
128,155,172393,1,0,0:0:0:0:
83,147,172474,1,0,0:0:0:0:
38,139,172555,1,8,0:0:0:0:
264,84,172718,6,2,L|468:64,1,198.000006042481,6|0,0:0|0:0,0:0:0:0:
461,64,173123,1,0,0:0:0:0:
461,64,173204,1,10,0:0:0:0:
312,168,173366,1,0,0:0:0:0:
312,168,173447,1,0,0:0:0:0:
312,168,173528,1,2,0:0:0:0:
208,16,173691,1,2,0:0:0:0:
360,80,173853,1,12,0:2:0:0:
208,192,174015,5,2,0:0:0:0:
184,188,174096,1,0,0:0:0:0:
160,184,174177,1,0,0:0:0:0:
340,268,174339,1,0,0:0:0:0:
364,260,174420,1,0,0:0:0:0:
388,252,174501,1,12,0:2:0:0:
196,320,174664,1,0,0:0:0:0:
168,316,174745,1,0,0:0:0:0:
140,312,174826,85,8,0:0:0:0:
316,276,174988,1,4,0:2:0:0:
136,180,175150,1,8,0:0:0:0:
364,184,175312,6,2,P|416:244|392:352,1,198.000006042481,6|0,0:0|0:0,0:0:0:0:
364,368,175718,1,0,0:0:0:0:
332,376,175799,1,10,0:0:0:0:
200,200,175961,1,0,0:0:0:0:
232,188,176042,1,0,0:0:0:0:
264,188,176123,1,2,0:0:0:0:
252,288,176285,1,2,0:0:0:0:
100,240,176447,1,12,0:2:0:0:
200,108,176610,6,2,P|264:92|368:172,1,198.000006042481,6|0,0:0|0:0,0:0:0:0:
368,200,177015,1,0,0:0:0:0:
356,236,177096,1,10,0:0:0:0:
180,360,177258,1,0,0:0:0:0:
160,328,177339,1,0,0:0:0:0:
152,292,177420,1,2,0:0:0:0:
252,288,177583,1,2,0:0:0:0:
68,360,177745,1,12,0:2:0:0:
157,163,177907,86,2,L|179:362,1,198.000006042481,6|0,0:0|0:0,0:0:0:0:
180,360,178312,1,0,0:0:0:0:
180,360,178393,1,10,0:0:0:0:
260,184,178555,1,0,0:0:0:0:
260,184,178637,1,0,0:0:0:0:
260,184,178718,1,2,0:0:0:0:
40,236,178880,1,2,0:0:0:0:
252,288,179042,1,12,0:2:0:0:
152,140,179204,1,2,0:0:0:0:
148,116,179285,1,0,0:0:0:0:
144,92,179366,5,8,0:0:0:0:
180,64,179448,1,8,0:0:0:0:
224,63,179529,1,8,0:3:0:0:
265,83,179610,1,0,0:0:0:0:
287,123,179691,1,8,0:0:0:0:
328,142,179772,1,8,0:0:0:0:
373,142,179853,1,8,0:3:0:0:
409,120,179934,1,0,0:0:0:0:
429,79,180015,6,0,L|440:148,1,49.5000015106202,10|0,0:0|0:0,0:0:0:0:
360,228,180177,2,0,L|364:172,1,49.5000015106202,10|0,0:0|0:0,0:0:0:0:
348,12,180339,2,0,L|345:72,1,49.5000015106202,8|0,0:0|0:0,0:0:0:0:
264,200,180501,86,2,B|240:156|240:156|248:4,1,198.000006042481,6|0,0:0|0:0,0:0:0:0:
247,8,180907,1,0,0:0:0:0:
247,8,180988,1,0,0:0:0:0:
364,104,181150,1,0,0:0:0:0:
364,104,181231,1,0,0:0:0:0:
364,104,181312,1,8,0:0:0:0:
280,232,181474,1,0,0:0:0:0:
280,232,181555,1,0,0:0:0:0:
280,232,181637,1,0,0:0:0:0:
136,180,181799,5,0,0:0:0:0:
132,168,181880,1,0,0:0:0:0:
128,156,181961,1,2,0:0:0:0:
260,56,182123,1,0,0:0:0:0:
256,76,182204,1,0,0:0:0:0:
252,96,182285,1,0,0:0:0:0:
376,184,182447,1,2,0:0:0:0:
372,156,182528,1,0,0:0:0:0:
368,128,182610,5,8,0:0:0:0:
280,232,182772,1,4,0:2:0:0:
464,140,182934,1,2,0:0:0:0:
260,56,183096,86,2,B|211:48|211:48|100:64|100:64|136:80,1,198.000006042481,6|0,0:0|0:0,0:0:0:0:
164,92,183501,1,0,0:0:0:0:
196,104,183583,1,0,0:0:0:0:
128,216,183745,1,0,0:0:0:0:
160,208,183826,1,0,0:0:0:0:
192,200,183907,1,8,0:0:0:0:
200,332,184069,1,0,0:0:0:0:
224,308,184150,1,0,0:0:0:0:
248,284,184231,1,0,0:0:0:0:
360,188,184393,5,0,0:0:0:0:
352,220,184474,1,0,0:0:0:0:
344,252,184555,1,12,0:2:0:0:
292,112,184718,1,0,0:0:0:0:
280,80,184799,1,0,0:0:0:0:
268,48,184880,1,0,0:0:0:0:
452,24,185042,1,0,0:0:0:0:
440,56,185123,1,0,0:0:0:0:
428,88,185204,6,0,L|368:92,1,49.5000015106202,10|0,0:0|0:0,0:0:0:0:
256,20,185366,2,0,L|200:28,1,49.5000015106202,8|0,0:0|0:0,0:0:0:0:
96,116,185528,2,0,L|36:108,1,49.5000015106202,10|2,0:0|0:0,0:0:0:0:
144,204,185691,86,2,B|168:188|184:168|184:168|244:188|325:176,1,198.000006042481,6|0,0:0|0:0,0:0:0:0:
360,168,186096,1,0,0:0:0:0:
392,152,186177,1,12,0:2:0:0:
280,256,186339,1,0,0:0:0:0:
316,260,186420,1,0,0:0:0:0:
348,276,186501,1,4,0:2:0:0:
212,144,186664,1,0,0:0:0:0:
248,136,186745,1,0,0:0:0:0:
280,120,186826,1,12,0:2:0:0:
144,248,186988,5,0,0:0:0:0:
180,252,187069,1,0,0:0:0:0:
212,268,187150,1,4,0:2:0:0:
76,140,187313,1,0,0:0:0:0:
112,132,187394,1,0,0:0:0:0:
144,116,187475,1,12,0:2:0:0:
40,236,187637,5,2,0:0:0:0:
228,172,187799,1,2,0:0:0:0:
76,44,187961,1,4,0:2:0:0:
148,240,188123,1,8,0:0:0:0:
308,104,188285,86,2,B|165:97|165:97|108:120,1,198.000006042481,6|0,0:0|0:0,0:0:0:0:
44,152,188691,1,0,0:0:0:0:
44,152,188772,1,12,0:2:0:0:
276,212,188934,1,2,0:0:0:0:
276,212,189015,1,0,0:0:0:0:
276,212,189096,1,4,0:2:0:0:
164,48,189258,1,4,0:2:0:0:
180,280,189420,1,8,0:0:0:0:
396,184,189583,6,2,L|192:176,1,198.000006042481,6|0,0:0|0:0,0:0:0:0:
120,192,189988,1,0,0:0:0:0:
120,192,190069,1,12,0:2:0:0:
332,92,190231,1,2,0:0:0:0:
332,92,190312,1,0,0:0:0:0:
332,92,190393,1,8,0:3:0:0:
180,280,190556,1,8,0:3:0:0:
232,84,190718,1,8,0:3:0:0:
256,352,190880,5,4,0:0:0:0:
256,192,190961,12,0,192177,0:0:0:0:
300,308,192339,37,8,0:0:0:0:
352,214,192501,1,8,0:0:0:0:
304,117,192664,1,0,0:0:0:0:
196,116,192826,1,8,0:0:0:0:
352,214,192988,5,8,0:0:0:0:
361,24,193150,1,8,0:0:0:0:
247,209,193312,1,0,0:0:0:0:
452,308,193474,1,8,0:0:0:0:
304,117,193637,5,4,0:2:0:0:
156,112,203366,85,10,0:0:0:0:
240,128,203528,1,10,0:0:0:0:
324,144,203691,1,10,0:0:0:0:
408,160,203853,1,10,0:0:0:0:
156,112,204015,5,4,0:0:0:0:
408,160,204177,2,0,L|248:172,1,144
100,280,204664,2,2,B|132:288|156:268|156:268|196:292|196:292|224:276|252:280,1,161.999995056153,10|2,0:0|0:2,0:0:0:0:
280,288,205474,5,0,0:0:0:0:
364,180,205637,1,2,0:2:0:0:
232,144,205799,1,0,0:0:0:0:
408,264,205961,1,10,0:0:0:0:
340,64,206123,2,2,L|332:220,1,144,0|2,0:0|0:0,0:0:0:0:
328,324,206610,85,4,0:2:0:0:
164,188,206772,2,0,B|252:156|252:156|312:164,1,144
488,252,207258,2,2,B|464:264|432:256|432:256|404:276|367:274|367:274|336:244,1,161.999995056153,10|2,0:0|0:2,0:0:0:0:
316,220,208069,5,8,0:0:0:0:
240,348,208231,1,2,0:2:0:0:
424,308,208393,1,0,0:0:0:0:
280,184,208555,2,2,L|288:280,1,72,12|0,0:2|0:0,0:0:0:0:
376,212,208880,1,8,0:0:0:0:
188,148,209042,1,8,0:0:0:0:
412,116,209204,5,4,0:0:0:0:
296,288,209366,2,0,L|304:132,1,144
156,16,209853,2,2,B|140:56|140:56|160:96|160:96|144:128|156:172,1,161.999995056153,10|2,0:0|0:2,0:0:0:0:
176,204,210664,85,0,0:0:0:0:
300,196,210826,1,2,0:2:0:0:
344,80,210988,1,0,0:0:0:0:
200,176,211150,5,12,0:2:0:0:
320,296,211312,1,0,0:0:0:0:
436,124,211474,1,8,0:0:0:0:
256,20,211637,2,0,L|220:24,3,24,8|0|0|8,0:3|0:0|0:0|0:3,0:0:0:0:
372,64,211961,6,2,L|336:244,1,180,14|0,0:0|0:0,0:0:0:0:
315,342,212366,1,0,0:0:0:0:
315,342,212447,2,2,L|279:170,1,161.999995056153,14|0,0:0|0:0,0:0:0:0:
259,85,212853,1,0,0:0:0:0:
259,85,212934,2,2,L|227:237,1,144,14|0,0:0|0:0,0:0:0:0:
210,315,213339,1,0,0:0:0:0:
210,315,213420,2,2,L|184:192,1,125.999996154785,14|8,0:0|0:3,0:0:0:0:
324,192,213907,1,8,0:3:0:0:
184,192,214069,54,2,B|220:200|220:200|288:184|288:184|324:192,1,144,2|0,0:0|0:0,0:0:0:0:
144,284,215528,70,2,P|92:216|148:100,1,198.000006042481,6|0,0:0|0:0,0:0:0:0:
252,300,216015,1,8,0:0:0:0:
344,160,216177,2,2,P|352:104|352:48,1,99.0000030212403,2|0,0:0|0:0,0:0:0:0:
364,268,216501,1,0,0:0:0:0:
388,292,216583,1,0,0:0:0:0:
412,316,216664,1,10,0:0:0:0:
436,288,216745,1,0,0:0:0:0:
460,264,216826,2,0,L|464:200,1,49.5000015106202,2|2,0:2|0:2,0:0:0:0:
420,84,216988,5,2,0:0:0:0:
408,52,217069,1,0,0:0:0:0:
400,20,217150,2,0,L|388:88,1,49.5000015106202,2|2,0:2|0:2,0:0:0:0:
340,244,217312,1,10,0:0:0:0:
328,276,217393,1,0,0:0:0:0:
320,308,217474,2,0,L|308:240,1,49.5000015106202,2|2,0:2|0:2,0:0:0:0:
264,104,217637,1,2,0:0:0:0:
252,72,217718,1,0,0:0:0:0:
244,40,217799,2,0,L|232:108,1,49.5000015106202,2|2,0:2|0:2,0:0:0:0:
184,236,217961,1,10,0:0:0:0:
172,268,218042,1,0,0:0:0:0:
164,300,218123,2,0,L|152:232,1,49.5000015106202,2|2,0:2|0:2,0:0:0:0:
332,164,218285,5,2,0:0:0:0:
364,180,218366,1,0,0:0:0:0:
396,196,218447,2,0,L|332:216,1,49.5000015106202,2|2,0:2|0:2,0:0:0:0:
148,120,218610,1,10,0:0:0:0:
116,104,218691,1,0,0:0:0:0:
84,88,218772,2,0,L|148:68,1,49.5000015106202,2|2,0:2|0:2,0:0:0:0:
356,92,218934,1,2,0:0:0:0:
388,76,219015,1,0,0:0:0:0:
420,60,219096,2,0,L|356:40,1,49.5000015106202,2|2,0:2|0:2,0:0:0:0:
116,136,219259,1,10,0:0:0:0:
84,152,219340,1,0,0:0:0:0:
52,168,219421,2,0,L|116:188,1,49.5000015106202,2|2,0:2|0:2,0:0:0:0:
340,244,219583,85,2,0:0:0:0:
375,217,219664,1,0,0:0:0:0:
388,176,219745,1,0,0:2:0:0:
379,134,219826,1,2,0:2:0:0:
348,103,219907,1,10,0:0:0:0:
304,94,219988,1,0,0:0:0:0:
265,112,220069,1,2,0:2:0:0:
238,147,220150,1,2,0:2:0:0:
238,191,220231,6,0,L|246:257,1,49.5000015106202,6|0,0:2|0:0,0:0:0:0:
368,368,220393,2,0,L|360:308,1,49.5000015106202,6|0,0:2|0:0,0:0:0:0:
176,312,220555,2,0,L|184:372,1,49.5000015106202,10|0,0:0|0:0,0:0:0:0:
352,208,220718,6,2,P|356:136|292:24,1,198.000006042481,6|0,0:0|0:0,0:0:0:0:
68,208,221204,2,0,L|80:320,1,99.0000030212403,8|0,0:0|0:0,0:0:0:0:
248,245,221528,2,0,L|236:133,1,99.0000030212403,2|0,0:2|0:0,0:0:0:0:
172,101,221772,1,2,0:2:0:0:
172,101,221853,1,8,0:0:0:0:
172,316,222015,86,0,P|256:348|344:280,1,198.000006042481,2|0,0:0|0:0,0:0:0:0:
304,88,222501,2,0,P|292:140|296:188,1,99.0000030212403,8|0,0:0|0:0,0:0:0:0:
344,252,222745,1,2,0:2:0:0:
344,252,222826,1,0,0:0:0:0:
192,128,222988,1,2,0:2:0:0:
364,28,223150,1,10,0:2:0:0:
248,212,223312,6,2,B|209:229|209:229|48:224,1,198.000006042481,2|0,0:0|0:0,0:0:0:0:
206,79,223799,2,0,B|256:76|256:76|304:88,1,99.0000030212403,8|0,0:0|0:0,0:0:0:0:
416,220,224123,1,0,0:0:0:0:
292,328,224285,1,2,0:2:0:0:
248,168,224447,1,8,0:0:0:0:
440,100,224610,6,0,P|440:149|428:204,1,99.0000030212403,6|0,0:2|0:0,0:0:0:0:
164,368,224934,2,0,P|160:320|144:260,1,99.0000030212403,6|8,0:2|0:0,0:0:0:0:
256,40,225258,2,0,P|260:88|272:144,1,99.0000030212403,6|0,0:0|0:0,0:0:0:0:
468,348,225583,2,0,P|484:296|488:240,1,99.0000030212403,6|8,0:2|0:0,0:0:0:0:
200,244,225907,86,2,P|244:320|352:312,1,198.000006042481,6|0,0:0|0:0,0:0:0:0:
432,152,226393,2,0,P|388:148|324:156,1,99.0000030212403,8|0,0:0|0:0,0:0:0:0:
164,252,226718,2,2,P|96:236|44:160,1,148.50000453186,2|2,0:0|2:0,0:0:0:0:
48,176,227042,2,0,L|60:76,1,99.0000030212403,8|2,0:0|0:0,0:0:0:0:
328,204,227366,2,2,P|396:188|448:112,1,148.50000453186,2|2,0:0|2:0,0:0:0:0:
443,129,227690,2,0,L|431:28,1,99.0000030212403,8|2,0:0|0:0,0:0:0:0:
224,272,228015,2,2,L|236:376,1,99.0000030212403,2|0,0:0|0:0,0:0:0:0:
292,128,228339,1,8,0:0:0:0:
48,176,228501,5,2,0:0:0:0:
48,176,228583,1,0,0:0:0:0:
48,176,228664,2,2,P|27:246|46:317,1,148.50000453186,2|2,0:0|2:0,0:0:0:0:
46,317,228988,1,8,0:0:0:0:
248,128,229150,2,2,B|251:79|251:79|235:31,1,99.0000030212403,2|0,0:0|0:0,0:0:0:0:
152,216,229474,2,2,B|148:264|148:264|164:312,1,99.0000030212403,2|8,0:0|0:0,0:0:0:0:
384,282,229799,6,2,B|408:256|408:256|368:252|368:252|312:288|252:256,1,198.000006042481,2|0,0:0|0:0,0:0:0:0:
296,72,230285,2,0,L|308:176,1,99.0000030212403,8|0,0:0|0:0,0:0:0:0:
188,332,230610,1,2,0:2:0:0:
100,180,230772,1,2,0:2:0:0:
212,44,230934,1,8,0:0:0:0:
228,220,231096,86,2,L|24:212,1,198.000006042481,6|0,0:0|0:0,0:0:0:0:
300,288,231583,2,0,L|404:276,1,99.0000030212403,8|0,0:0|0:0,0:0:0:0:
208,124,231907,2,0,L|96:120,1,99.0000030212403,2|0,0:2|0:0,0:0:0:0:
312,52,232231,1,8,0:0:0:0:
200,272,232393,6,0,P|172:200|204:80,1,198.000006042481,2|0,0:0|0:0,0:0:0:0:
392,224,232880,2,0,P|400:280|392:328,1,99.0000030212403,8|0,0:0|0:0,0:0:0:0:
292,180,233204,1,2,0:2:0:0:
480,196,233366,1,2,0:2:0:0:
376,352,233528,1,8,0:0:0:0:
256,200,233691,6,2,P|248:104|312:32,1,198.000006042481,6|0,0:0|0:0,0:0:0:0:
372,220,234177,1,10,0:0:0:0:
360,264,234258,1,0,0:0:0:0:
332,300,234339,1,2,0:2:0:0:
292,316,234420,1,2,0:2:0:0:
248,320,234501,85,2,0:0:0:0:
244,316,234583,1,0,0:0:0:0:
240,312,234664,2,0,L|192:272,1,49.5000015106202,2|2,0:2|0:2,0:0:0:0:
84,232,234826,2,0,L|128:204,1,49.5000015106202,12|0,0:2|0:0,0:0:0:0:
284,148,234988,2,0,L|224:128,1,49.5000015106202,2|2,0:2|0:2,0:0:0:0:
84,72,235150,5,10,0:0:0:0:
108,68,235231,1,8,0:0:0:0:
132,64,235312,1,8,0:0:0:0:
156,60,235393,1,8,0:0:0:0:
180,56,235474,1,0,0:0:0:0:
204,52,235555,1,0,0:0:0:0:
228,48,235637,1,10,0:2:0:0:
252,44,235718,1,10,0:2:0:0:
276,40,235799,5,2,0:0:0:0:
300,76,235880,1,0,0:0:0:0:
340,100,235961,1,0,0:0:0:0:
384,108,236042,1,0,0:0:0:0:
428,104,236123,1,8,0:3:0:0:
452,140,236204,1,0,0:0:0:0:
460,184,236285,1,2,0:2:0:0:
452,228,236366,1,2,0:2:0:0:
420,264,236447,86,0,P|415:294|416:344,3,53.9999983520508,6|0|0|0,0:0|0:0|0:0|0:0,0:0:0:0:
344,212,236772,2,0,P|320:224|292:244,3,53.9999983520508,8|0|0|0,0:0|0:0|0:0|0:0,0:0:0:0:
317,335,237096,2,0,P|289:344|253:350,3,53.9999983520508,2|0|0|0,0:0|0:0|0:0|0:0,0:0:0:0:
190,273,237420,2,0,P|161:266|117:266,3,53.9999983520508,10|0|0|0,0:0|0:0|0:0|0:0,0:0:0:0:
70,324,237745,5,2,0:0:0:0:
27,291,237826,1,0,0:0:0:0:
15,238,237907,1,0,0:0:0:0:
39,189,237988,1,2,0:2:0:0:
89,170,238069,1,10,0:0:0:0:
139,185,238150,1,0,0:0:0:0:
189,167,238231,1,0,0:0:0:0:
220,123,238312,1,2,0:2:0:0:
218,70,238393,1,2,0:0:0:0:
186,28,238474,1,0,0:0:0:0:
135,13,238555,1,0,0:0:0:0:
85,30,238636,1,2,0:2:0:0:
55,74,238717,1,10,0:0:0:0:
56,127,238798,1,2,0:2:0:0:
89,170,238879,1,2,0:2:0:0:
139,185,238961,1,2,0:2:0:0:
189,167,239042,6,0,L|218:221,3,53.9999983520508,6|0|0|0,0:0|0:0|0:0|0:0,0:0:0:0:
277,115,239366,2,0,L|298:59,3,53.9999983520508,8|0|0|0,0:0|0:0|0:0|0:0,0:0:0:0:
316,210,239691,2,0,L|345:264,3,53.9999983520508,2|0|0|0,0:0|0:0|0:0|0:0,0:0:0:0:
388,125,240015,2,0,L|409:69,3,53.9999983520508,10|0|0|0,0:0|0:0|0:0|0:0,0:0:0:0:
482,142,240339,85,2,0:0:0:0:
460,191,240420,1,0,0:0:0:0:
413,218,240501,1,0,0:0:0:0:
358,216,240583,1,2,0:2:0:0:
311,188,240664,1,10,0:0:0:0:
288,139,240745,1,0,0:0:0:0:
241,111,240826,1,0,0:0:0:0:
187,113,240907,1,2,0:2:0:0:
143,143,240988,1,2,0:0:0:0:
122,193,241069,1,0,0:0:0:0:
131,247,241150,1,2,0:2:0:0:
167,287,241231,1,2,0:2:0:0:
220,300,241312,1,10,0:0:0:0:
271,283,241393,1,2,0:2:0:0:
306,242,241474,1,2,0:2:0:0:
311,188,241555,1,0,0:0:0:0:
288,139,241637,5,6,0:0:0:0:
304,111,241718,1,0,0:0:0:0:
319,82,241799,2,2,L|344:140,1,53.9999983520508,2|2,0:2|0:2,0:2:0:0:
271,283,241961,1,10,0:0:0:0:
255,311,242042,1,0,0:0:0:0:
240,340,242123,2,2,L|215:282,1,53.9999983520508,2|2,0:2|0:2,0:2:0:0:
172,100,242285,1,2,0:0:0:0:
156,72,242366,1,0,0:0:0:0:
141,43,242447,2,2,L|116:101,1,53.9999983520508,2|2,0:2|0:2,0:2:0:0:
92,284,242609,1,10,0:0:0:0:
76,312,242690,1,0,0:0:0:0:
61,341,242771,2,2,L|36:283,1,53.9999983520508,2|2,0:2|0:2,0:2:0:0:
108,172,242934,6,2,B|172:188|200:252|200:252|240:176|240:176|272:208|272:208|312:132|312:132|340:196|404:208,1,467.999978576661,6|0,0:0|0:0,0:0:0:0:
420,100,243745,1,2,0:0:0:0:
328,284,243907,1,12,0:2:0:0:
504,168,244069,1,0,0:0:0:0:
312,132,244231,85,6,0:0:0:0:
284,128,244312,1,0,0:0:0:0:
256,124,244393,1,0,0:0:0:0:
228,120,244474,1,0,0:0:0:0:
200,116,244555,1,8,0:0:0:0:
236,100,244637,1,8,0:0:0:0:
272,88,244718,1,8,0:0:0:0:
308,76,244799,1,8,0:0:0:0:
344,64,244880,1,8,0:3:0:0:
304,32,244961,1,0,0:0:0:0:
256,16,245042,1,8,0:3:0:0:
208,16,245123,1,8,0:3:0:0:
160,28,245204,1,8,0:3:0:0:
120,56,245285,1,0,0:0:0:0:
88,96,245366,1,0,0:0:0:0:
72,144,245447,1,0,0:0:0:0:
76,192,245528,5,10,0:0:0:0:
92,220,245610,1,0,0:0:0:0:
108,248,245691,1,0,0:0:0:0:
124,276,245772,1,0,0:0:0:0:
140,304,245853,1,0,0:0:0:0:
156,332,245934,1,0,0:0:0:0:
172,360,246015,2,0,L|200:312,1,49.5000015106202,8|0,0:3|0:0,0:0:0:0:
252,232,246177,1,0,0:0:0:0:
264,252,246258,1,0,0:0:0:0:
276,272,246339,1,0,0:0:0:0:
288,292,246420,1,0,0:0:0:0:
300,312,246501,6,0,L|328:264,1,49.5000015106202,10|8,0:0|0:0,0:0:0:0:
424,224,246664,2,0,L|396:176,1,49.5000015106202,10|8,0:0|0:0,0:0:0:0:
344,88,246826,85,6,0:0:0:0:
476,20,246988,1,0,0:0:0:0:
472,44,247069,1,0,0:0:0:0:
468,68,247150,1,8,0:0:0:0:
428,200,247312,1,2,0:0:0:0:
420,176,247393,1,0,0:0:0:0:
412,152,247474,1,0,0:0:0:0:
508,264,247637,1,0,0:0:0:0:
504,288,247718,1,0,0:0:0:0:
500,312,247799,1,8,0:0:0:0:
336,204,247961,1,2,0:2:0:0:
508,160,248123,5,6,0:0:0:0:
407,271,248285,1,0,0:0:0:0:
383,275,248366,1,0,0:0:0:0:
359,279,248447,1,8,0:0:0:0:
288,156,248610,1,2,0:0:0:0:
312,160,248691,1,0,0:0:0:0:
336,164,248772,1,0,0:0:0:0:
228,256,248934,1,0,0:0:0:0:
204,260,249015,1,0,0:0:0:0:
180,264,249096,1,8,0:0:0:0:
264,152,249258,1,2,0:2:0:0:
335,283,249420,6,2,B|347:311|347:311|327:379,1,99.0000030212403,6|0,0:0|0:0,0:0:0:0:
328,377,249664,1,0,0:0:0:0:
328,377,249745,1,8,0:0:0:0:
156,268,249907,2,2,B|144:240|144:240|164:172,1,99.0000030212403,2|0,0:0|0:0,0:0:0:0:
212,360,250231,1,0,0:0:0:0:
176,372,250312,1,0,0:0:0:0:
140,372,250393,1,10,0:0:0:0:
56,240,250555,1,2,0:2:0:0:
56,240,250637,1,2,0:2:0:0:
56,240,250718,86,2,L|68:128,1,99.0000030212403,6|0,0:0|0:0,0:0:0:0:
344,48,251042,2,0,L|332:160,1,99.0000030212403,12|2,0:2|0:0,0:0:0:0:
192,280,251366,1,0,0:0:0:0:
196,256,251447,1,0,0:0:0:0:
200,232,251528,1,2,0:2:0:0:
204,208,251610,1,2,0:2:0:0:
208,184,251691,1,10,0:0:0:0:
160,176,251772,1,0,0:0:0:0:
116,200,251853,1,8,0:0:0:0:
100,248,251934,1,8,0:0:0:0:
112,296,252015,6,2,B|148:328|148:328|208:336,1,99.0000030212403,6|0,0:0|0:0,0:0:0:0:
272,296,252258,1,0,0:0:0:0:
272,296,252339,2,0,B|320:284|320:284|376:304,1,99.0000030212403,8|0,0:0|0:0,0:0:0:0:
436,348,252583,1,0,0:0:0:0:
436,348,252664,2,0,B|452:300|452:300|432:232,1,99.0000030212403
408,180,252907,1,0,0:0:0:0:
408,180,252988,1,8,0:0:0:0:
272,296,253150,5,2,0:2:0:0:
236,280,253231,1,2,0:2:0:0:
200,264,253312,2,2,L|176:160,1,99.0000030212403,6|0,0:0|0:0,0:0:0:0:
344,240,253637,1,8,0:0:0:0:
188,360,253799,1,2,0:0:0:0:
152,344,253880,1,0,0:0:0:0:
116,328,253961,2,0,L|96:256,3,49.5000015106202,4|0|2|2,0:2|0:0|0:2|0:2,0:0:0:0:
96,192,254285,2,0,L|76:120,3,49.5000015106202,10|8|0|0,0:0|0:3|0:0|0:0,0:0:0:0:
124,64,254610,85,14,0:0:0:0:
156,88,254691,1,0,0:0:0:0:
192,100,254772,1,0,0:0:0:0:
232,104,254853,1,0,0:0:0:0:
272,100,254934,1,2,0:2:0:0:
308,80,255015,1,2,0:2:0:0:
336,52,255096,2,0,L|340:112,1,49.5000015106202,12|0,0:2|0:0,0:0:0:0:
292,200,255258,5,0,0:0:0:0:
252,208,255339,1,0,0:0:0:0:
212,208,255420,1,2,0:2:0:0:
172,200,255501,1,2,0:2:0:0:
136,184,255583,2,0,L|140:240,1,49.5000015106202,12|0,0:2|0:0,0:0:0:0:
204,352,255745,2,0,L|212:280,1,49.5000015106202,2|2,0:2|0:2,0:0:0:0:
308,336,255907,5,14,0:0:0:0:
350,327,255988,1,0,0:0:0:0:
380,295,256069,1,0,0:0:0:0:
391,253,256150,1,0,0:0:0:0:
383,207,256231,1,2,0:2:0:0:
356,174,256312,1,2,0:2:0:0:
314,162,256393,2,0,L|256:164,1,49.5000015106202,12|0,0:2|0:0,0:0:0:0:
192,240,256555,85,0,0:0:0:0:
164,208,256637,1,0,0:0:0:0:
152,164,256718,1,2,0:2:0:0:
160,120,256799,1,2,0:2:0:0:
192,88,256880,2,0,L|252:84,1,49.5000015106202,12|0,0:2|0:0,0:0:0:0:
96,48,257042,2,0,L|36:52,1,49.5000015106202,2|2,0:2|0:2,0:0:0:0:
4,168,257204,5,14,0:0:0:0:
16,216,257285,1,0,0:0:0:0:
56,248,257366,1,0,0:0:0:0:
104,256,257447,1,0,0:0:0:0:
148,236,257528,1,2,0:2:0:0:
176,192,257610,1,2,0:2:0:0:
176,144,257691,2,0,L|248:136,1,49.5000015106202,12|0,0:2|0:0,0:0:0:0:
340,196,257853,5,0,0:0:0:0:
356,244,257934,1,0,0:0:0:0:
352,292,258015,1,2,0:2:0:0:
328,336,258096,1,2,0:2:0:0:
284,360,258177,2,0,L|228:356,1,49.5000015106202,12|0,0:2|0:0,0:0:0:0:
188,264,258339,2,0,L|237:256,1,49.5000015106202,2|2,0:2|0:2,0:0:0:0:
356,244,258501,54,2,P|390:249|440:244,1,66.0000020141602,10|0,0:0|2:0,0:0:0:0:
320,96,258718,2,0,P|285:99|240:116,1,66.0000020141602,8|0,0:3|2:0,0:0:0:0:
160,252,258934,1,8,0:3:0:0:
393,161,259150,5,8,0:3:0:0:
160,88,259367,1,8,0:3:0:0:
213,326,259583,2,0,L|204:360,2,33.0000010070801,8|0|8,0:3|0:0|0:3,0:0:0:0:
240,232,259799,85,2,2:2:0:0:
400,364,260123,1,4,0:2:0:0:
35,230,260610,1,4,0:2:0:0:
368,32,261096,1,4,0:2:0:0:
372,48,261177,1,0,0:0:0:0:
376,64,261258,1,0,0:0:0:0:
380,80,261339,1,0,0:0:0:0:
384,96,261420,2,0,L|376:192,1,90,12|0,0:2|0:0,0:0:0:0:
228,136,261745,5,2,0:2:0:0:
220,104,261826,1,0,0:0:0:0:
212,72,261907,1,12,0:2:0:0:
172,224,262069,1,2,0:2:0:0:
192,236,262150,1,0,0:0:0:0:
216,240,262231,1,0,0:0:0:0:
240,240,262312,1,0,0:0:0:0:
260,232,262393,5,6,0:0:0:0:
280,264,262474,1,0,0:0:0:0:
280,300,262555,1,0,0:0:0:0:
260,332,262637,1,0,0:0:0:0:
224,344,262718,1,0,0:0:0:0:
188,340,262799,1,0,0:0:0:0:
160,320,262880,2,0,L|148:260,1,45,12|0,0:2|0:0,0:0:0:0:
222,161,263042,85,0,0:0:0:0:
260,148,263123,1,0,0:0:0:0:
300,149,263204,1,0,0:0:0:0:
338,162,263285,1,0,0:0:0:0:
370,186,263366,2,0,L|378:238,1,45,12|0,0:2|0:0,0:0:0:0:
315,329,263528,1,0,0:0:0:0:
291,341,263610,1,0,0:0:0:0:
267,353,263691,6,0,L|283:241,1,90,6|0,0:0|0:0,0:0:0:0:
468,120,264015,2,0,L|484:224,1,90,12|2,0:2|0:0,0:0:0:0:
338,162,264339,1,10,0:0:0:0:
331,126,264420,1,8,0:0:0:0:
336,90,264501,1,8,0:0:0:0:
352,58,264583,1,8,0:0:0:0:
376,32,264664,1,8,0:3:0:0:
344,16,264745,1,0,0:0:0:0:
308,16,264826,1,8,0:3:0:0:
272,28,264907,1,8,0:3:0:0:
244,52,264988,5,6,0:0:0:0:
360,188,265150,1,0,0:0:0:0:
148,276,265312,1,8,0:0:0:0:
252,136,265474,1,2,0:0:0:0:
428,280,265637,1,0,0:0:0:0:
260,220,265799,1,0,0:0:0:0:
424,128,265961,1,10,0:0:0:0:
268,304,266123,1,0,0:0:0:0:
244,52,266285,85,6,0:0:0:0:
360,188,266447,1,0,0:0:0:0:
148,276,266610,1,8,0:0:0:0:
252,136,266772,1,2,0:0:0:0:
352,324,266934,1,0,0:0:0:0:
128,152,267096,1,0,0:0:0:0:
368,4,267258,2,0,L|360:108,1,94.499997116089,14|0,0:0|0:0,0:0:0:0:
268,304,267583,6,0,L|260:368,2,62.9999980773926,2|0|8,0:0|0:0|0:3,0:0:0:0:
368,224,267907,2,0,L|376:288,2,62.9999980773926,0|2|8,0:0|0:0|0:3,0:0:0:0:
204,160,268231,2,0,L|196:224,2,62.9999980773926,2|0|0,0:0|0:0|0:0,0:0:0:0:
376,56,268555,2,0,L|384:120,2,62.9999980773926,0|2|2,0:0|0:0|0:0,0:0:0:0:
172,12,268880,6,0,B|132:36|132:36|76:44,1,94.499997116089,10|8,0:0|0:0,0:0:0:0:
276,120,269204,2,0,L|288:164,5,31.4999990386963,8|0|0|0|0|0,0:0|0:0|0:0|0:0|0:0|0:0,0:0:0:0:
292,176,269528,86,0,L|288:240,1,47.2499985580445,8|8,0:0|0:0,0:0:0:0:
192,148,269691,2,0,L|188:84,1,47.2499985580445,8|8,0:0|0:0,0:0:0:0:
128,232,269853,2,0,L|124:296,1,47.2499985580445,8|8,0:0|0:0,0:0:0:0:
72,132,270016,2,0,L|68:68,1,47.2499985580445,8|8,0:0|0:0,0:0:0:0:
16,224,270177,38,2,B|64:240|64:240|116:228|116:228|172:244|228:224,1,215.999993408203,6|8,0:0|0:0,0:0:0:0:
316,124,270664,1,0,0:0:0:0:
348,128,270745,1,0,0:0:0:0:
380,132,270826,1,4,0:2:0:0:
276,292,270988,1,0,0:0:0:0:
244,300,271069,1,0,0:0:0:0:
212,308,271150,1,10,0:0:0:0:
364,232,271312,5,0,0:0:0:0:
396,240,271393,1,0,0:0:0:0:
428,248,271474,1,2,0:0:0:0:
232,180,271637,1,0,0:0:0:0:
412,136,271799,1,12,0:2:0:0:
336,344,271960,1,0,0:0:0:0:
336,344,272041,1,0,0:0:0:0:
336,344,272122,6,2,L|328:220,1,107.999996704102,6|0,0:0|0:0,0:0:0:0:
432,84,272447,1,8,0:0:0:0:
232,180,272609,1,0,0:0:0:0:
204,176,272690,1,0,0:0:0:0:
176,172,272771,1,4,0:2:0:0:
324,28,272933,1,0,0:0:0:0:
436,200,273095,86,2,L|428:316,1,107.999996704102,10|0,0:0|0:0,0:0:0:0:
224,260,273420,1,2,0:0:0:0:
348,128,273582,1,0,0:0:0:0:
348,128,273663,1,0,0:0:0:0:
348,128,273744,1,12,0:2:0:0:
284,352,273906,1,0,0:0:0:0:
284,352,273987,1,0,0:0:0:0:
284,352,274068,6,2,L|164:364,1,107.999996704102,6|0,0:0|0:0,0:0:0:0:
220,232,274393,1,8,0:0:0:0:
416,284,274555,1,0,0:0:0:0:
384,288,274636,1,0,0:0:0:0:
352,292,274717,1,0,0:0:0:0:
200,128,274879,1,0,0:0:0:0:
232,132,274960,1,0,0:0:0:0:
264,136,275041,1,12,0:2:0:0:
112,200,275204,5,0,0:0:0:0:
112,200,275285,1,0,0:0:0:0:
112,200,275366,1,0,0:0:0:0:
244,32,275528,1,0,0:0:0:0:
244,32,275609,1,0,0:0:0:0:
244,32,275690,1,8,0:0:0:0:
292,236,275852,1,0,0:0:0:0:
292,236,275933,1,0,0:0:0:0:
292,236,276014,86,2,P|288:320|280:352,1,107.999996704102,6|0,0:0|0:0,0:0:0:0:
112,116,276339,2,0,P|96:56|68:8,1,107.999996704102,12|0,0:2|0:0,0:0:0:0:
52,372,276663,2,2,P|80:320|116:276,1,107.999996704102,12|0,0:2|0:0,0:0:0:0:
308,268,276987,5,10,0:0:0:0:
352,292,277068,1,0,0:0:0:0:
400,288,277149,1,0,0:0:0:0:
440,260,277231,1,0,0:0:0:0:
452,212,277312,1,10,0:0:0:0:
436,168,277393,1,0,0:0:0:0:
400,136,277474,1,0,0:0:0:0:
352,132,277555,1,0,0:0:0:0:
308,156,277636,1,10,0:0:0:0:
260,156,277717,1,8,0:0:0:0:
220,128,277798,1,8,0:0:0:0:
200,84,277879,1,8,0:0:0:0:
204,36,277960,5,6,0:0:0:0:
196,224,278122,1,0,0:0:0:0:
292,68,278285,85,12,0:2:0:0:
112,52,278447,1,0,0:0:0:0:
260,156,278609,5,12,0:2:0:0:
372,24,278771,1,0,0:0:0:0:
200,84,278933,5,14,0:2:0:0:
320,228,279095,1,0,0:0:0:0:
320,228,279177,1,0,0:0:0:0:
320,228,279258,1,14,0:2:0:0:
292,68,279420,85,0,0:0:0:0:
244,284,279582,1,14,0:2:0:0:
244,284,279663,1,0,0:0:0:0:
244,284,279744,1,0,0:0:0:0:
244,284,279825,1,0,0:0:0:0:
244,284,279906,5,6,0:0:0:0:
412,248,280068,1,0,0:0:0:0:
236,376,280231,5,12,0:2:0:0:
320,228,280393,1,0,0:0:0:0:
104,272,280555,85,12,0:2:0:0:
332,320,280717,1,0,0:0:0:0:
276,88,280879,5,14,0:2:0:0:
244,284,281041,1,0,0:0:0:0:
244,284,281122,1,0,0:0:0:0:
244,284,281204,1,14,0:2:0:0:
360,128,281366,5,0,0:0:0:0:
160,152,281528,1,14,0:2:0:0:
120,136,281609,1,0,0:0:0:0:
96,100,281690,1,0,0:0:0:0:
92,56,281771,1,0,0:0:0:0:
108,16,281852,85,6,0:0:0:0:
104,228,282014,1,0,0:0:0:0:
184,68,282177,5,12,0:2:0:0:
4,132,282339,1,0,0:0:0:0:
196,192,282501,5,12,0:2:0:0:
252,4,282663,1,0,0:0:0:0:
120,136,282825,85,14,0:2:0:0:
356,240,282987,1,0,0:0:0:0:
272,92,283149,5,14,0:2:0:0:
216,308,283312,1,0,0:0:0:0:
216,308,283393,1,0,0:0:0:0:
216,308,283474,2,0,L|245:196,1,107.999996704102,14|0,0:2|0:0,0:0:0:0:
104,324,283798,5,12,0:2:0:0:
352,308,283960,1,12,0:2:0:0:
200,112,284122,2,2,B|200:168|200:168|216:224,1,107.999996704102,2|8,0:0|0:0,0:0:0:0:
464,128,284447,2,2,B|464:72|464:72|448:12,1,107.999996704102,12|0,0:2|0:0,0:0:0:0:
320,208,284771,85,10,0:0:0:0:
352,244,284852,1,0,0:0:0:0:
400,256,284933,1,8,0:0:0:0:
444,240,285014,1,8,0:0:0:0:
472,200,285095,1,10,0:0:0:0:
468,152,285177,1,0,0:0:0:0:
436,116,285258,1,10,0:2:0:0:
388,104,285339,1,0,0:0:0:0:
344,124,285420,1,8,0:3:0:0:
296,124,285501,1,0,0:0:0:0:
252,104,285582,1,2,0:2:0:0:
224,64,285663,1,2,0:2:0:0:
216,16,285744,5,6,0:0:0:0:
236,192,285906,1,0,0:0:0:0:
320,24,286068,5,12,0:2:0:0:
200,48,286231,1,0,0:0:0:0:
344,124,286393,85,12,0:2:0:0:
184,80,286555,1,0,0:0:0:0:
264,292,286717,5,14,0:2:0:0:
168,112,286879,1,0,0:0:0:0:
4,272,287041,5,14,0:2:0:0:
152,144,287204,1,0,0:0:0:0:
12,16,287366,85,14,0:2:0:0:
136,176,287528,1,0,0:0:0:0:
136,176,287609,1,0,0:0:0:0:
136,176,287690,5,6,0:0:0:0:
304,36,287852,1,0,0:0:0:0:
76,100,288014,5,12,0:2:0:0:
320,212,288177,1,0,0:0:0:0:
76,288,288339,85,12,0:2:0:0:
248,144,288502,1,0,0:0:0:0:
420,304,288663,5,14,0:2:0:0:
196,252,288825,1,0,0:0:0:0:
164,228,288906,1,0,0:0:0:0:
140,196,288987,1,14,0:2:0:0:
304,32,289149,1,0,0:0:0:0:
336,56,289231,1,0,0:0:0:0:
360,88,289312,1,14,0:2:0:0:
248,144,289474,1,0,0:0:0:0:
444,40,289636,5,6,0:0:0:0:
460,80,289717,1,0,0:0:0:0:
452,124,289798,1,0,0:0:0:0:
428,160,289879,1,0,0:0:0:0:
388,180,289960,1,12,0:2:0:0:
280,28,290122,1,0,0:0:0:0:
320,244,290285,1,12,0:2:0:0:
360,88,290447,1,0,0:0:0:0:
132,104,290609,85,14,0:0:0:0:
154,146,290690,1,0,0:0:0:0:
197,170,290771,1,0,0:0:0:0:
245,175,290852,1,0,0:0:0:0:
289,153,290933,1,12,0:2:0:0:
72,204,291095,1,0,0:0:0:0:
320,244,291258,1,12,0:2:0:0:
228,72,291420,1,0,0:0:0:0:
220,336,291582,53,14,0:0:0:0:
128,56,292555,1,6,0:0:0:0:
424,28,293366,70,2,B|436:104|436:104|412:204|412:204|388:172,1,215.999993408203,6|0,0:0|0:0,0:0:0:0:
344,104,293771,1,0,0:0:0:0:
344,104,293852,2,0,B|329:91|329:91|232:88,1,107.999996704102,8|0,0:0|0:0,0:0:0:0:
168,184,294095,1,0,0:0:0:0:
168,184,294176,2,0,B|183:197|183:197|280:200,1,107.999996704102
372,200,294419,1,0,0:0:0:0:
372,200,294500,1,8,0:0:0:0:
144,76,294663,6,2,P|76:120|84:252,1,215.999993408203,2|0,0:0|0:0,0:0:0:0:
77,244,295068,1,0,0:0:0:0:
77,244,295149,1,10,0:0:0:0:
256,88,295311,1,0,0:0:0:0:
252,64,295392,1,0,0:0:0:0:
248,40,295473,1,2,0:0:0:0:
168,184,295636,1,4,0:2:0:0:
372,100,295798,1,8,0:0:0:0:
300,312,295960,86,2,B|288:144|288:144|300:164|320:180,1,215.999993408203,6|0,0:0|0:0,0:0:0:0:
404,188,296365,1,0,0:0:0:0:
404,188,296446,1,8,0:0:0:0:
248,40,296609,1,0,0:0:0:0:
248,40,296690,1,0,0:0:0:0:
248,40,296771,1,0,0:0:0:0:
196,248,296933,1,0,0:0:0:0:
196,248,297014,1,0,0:0:0:0:
196,248,297095,1,8,0:0:0:0:
280,156,297257,6,2,B|212:140|212:140|96:158|96:158|81:150|72:132,1,215.999993408203,2|0,0:0|0:0,0:0:0:0:
72,100,297663,1,0,0:0:0:0:
84,64,297744,1,10,0:0:0:0:
296,184,297906,1,0,0:0:0:0:
304,220,297987,1,0,0:0:0:0:
300,256,298068,1,2,0:0:0:0:
208,112,298230,1,4,0:2:0:0:
400,132,298392,1,8,0:0:0:0:
284,288,298555,6,2,L|64:276,1,215.999993408203,6|0,0:0|0:0,0:0:0:0:
40,292,298960,1,0,0:0:0:0:
16,308,299041,1,8,0:0:0:0:
180,196,299203,1,0,0:0:0:0:
156,176,299284,1,0,0:0:0:0:
132,156,299365,1,0,0:0:0:0:
284,288,299528,1,0,0:0:0:0:
260,308,299609,1,0,0:0:0:0:
236,328,299690,2,0,L|168:324,1,53.9999983520508,8|0,0:0|0:0,0:0:0:0:
308,268,299852,86,2,B|477:274|477:274|432:300,1,215.999993408203,6|0,0:0|0:0,0:0:0:0:
368,344,300257,1,0,0:0:0:0:
368,344,300338,2,2,L|356:228,1,107.999996704102,8|2,0:0|0:0,0:0:0:0:
492,92,300663,1,0,0:0:0:0:
352,204,300825,1,4,0:2:0:0:
328,28,300987,1,8,0:0:0:0:
452,236,301149,6,2,P|364:304|252:252,1,215.999993408203,6|0,0:0|0:0,0:0:0:0:
248,244,301555,1,0,0:0:0:0:
240,208,301636,1,10,0:0:0:0:
384,136,301798,1,0,0:0:0:0:
372,172,301879,1,0,0:0:0:0:
352,204,301960,1,2,0:0:0:0:
116,192,302122,1,2,0:0:0:0:
288,128,302284,1,12,0:2:0:0:
192,300,302446,1,2,0:0:0:0:
196,280,302528,1,0,0:0:0:0:
200,260,302609,5,8,0:0:0:0:
248,280,302690,1,0,0:0:0:0:
264,332,302771,1,8,0:0:0:0:
232,376,302852,1,8,0:0:0:0:
180,380,302933,1,8,0:0:0:0:
132,356,303014,1,0,0:0:0:0:
108,308,303095,1,0,0:0:0:0:
116,256,303176,1,0,0:0:0:0:
156,220,303257,1,10,0:0:0:0:
208,212,303338,1,8,0:3:0:0:
244,172,303419,1,2,0:0:0:0:
252,120,303500,1,8,0:3:0:0:
228,72,303582,1,8,0:3:0:0:
180,48,303663,1,0,0:0:0:0:
128,56,303744,86,2,B|164:78|164:78|252:48|336:56,1,215.999993408203,6|0,0:0|0:0,0:0:0:0:
416,88,304149,1,0,0:0:0:0:
416,88,304230,2,2,B|432:136|432:136|432:208,1,107.999996704102,10|0,0:0|0:0,0:0:0:0:
428,228,304473,1,0,0:0:0:0:
424,264,304555,1,2,0:0:0:0:
304,136,304717,1,2,0:0:0:0:
300,100,304798,1,0,0:0:0:0:
296,64,304879,1,12,0:2:0:0:
316,228,305041,5,2,0:0:0:0:
188,192,305203,1,0,0:0:0:0:
464,164,305365,1,0,0:0:0:0:
428,168,305447,1,0,0:0:0:0:
392,172,305528,1,8,0:0:0:0:
172,296,305690,1,0,0:0:0:0:
208,292,305771,1,0,0:0:0:0:
244,288,305852,2,0,L|272:340,1,53.9999983520508,4|0,0:2|0:0,0:0:0:0:
316,228,306014,2,0,L|328:164,1,53.9999983520508
368,344,306176,1,8,0:0:0:0:
228,196,306338,6,2,B|240:16|240:16|268:72,1,215.999993408203,6|0,0:0|0:0,0:0:0:0:
255,47,306744,1,0,0:0:0:0:
255,47,306825,2,2,B|204:64|204:64|144:56,1,107.999996704102,10|0,0:0|0:0,0:0:0:0:
380,68,307149,1,2,0:0:0:0:
316,228,307311,1,2,0:0:0:0:
312,192,307392,1,0,0:0:0:0:
308,156,307473,1,12,0:2:0:0:
424,272,307636,85,2,0:0:0:0:
416,308,307717,1,0,0:0:0:0:
408,344,307798,1,0,0:0:0:0:
276,196,307960,1,0,0:0:0:0:
312,192,308041,1,0,0:0:0:0:
348,188,308122,1,12,0:2:0:0:
180,208,308284,1,0,0:0:0:0:
384,184,308446,5,8,0:0:0:0:
256,76,308609,1,4,0:2:0:0:
217,324,308771,1,8,0:0:0:0:
20,184,308933,6,2,L|236:204,1,215.999993408203,6|0,0:0|0:0,0:0:0:0:
235,204,309338,1,0,0:0:0:0:
235,204,309419,1,10,0:0:0:0:
72,296,309582,1,0,0:0:0:0:
72,296,309663,1,0,0:0:0:0:
72,296,309744,1,2,0:0:0:0:
168,112,309906,1,4,0:2:0:0:
348,212,310068,1,8,0:0:0:0:
188,364,310230,86,2,L|168:120,1,215.999993408203,6|0,0:0|0:0,0:0:0:0:
170,148,310636,1,0,0:0:0:0:
170,148,310717,1,10,0:0:0:0:
288,312,310879,1,0,0:0:0:0:
288,312,310960,1,0,0:0:0:0:
288,312,311041,1,2,0:0:0:0:
72,296,311203,1,4,0:2:0:0:
280,176,311365,1,8,0:0:0:0:
40,96,311528,6,2,B|112:92|112:92|176:60|176:60|248:56,1,215.999993408203,6|0,0:0|0:0,0:0:0:0:
288,56,311933,1,0,0:0:0:0:
328,56,312014,1,10,0:0:0:0:
476,176,312176,1,0,0:0:0:0:
436,176,312257,1,0,0:0:0:0:
396,176,312338,1,2,0:0:0:0:
248,55,312500,1,2,0:0:0:0:
436,76,312663,1,12,0:2:0:0:
312,232,312825,1,2,0:0:0:0:
304,208,312906,1,0,0:0:0:0:
296,184,312987,5,8,0:0:0:0:
252,152,313068,1,0,0:0:0:0:
200,148,313149,1,8,0:3:0:0:
152,172,313230,1,8,0:3:0:0:
132,224,313311,1,8,0:0:0:0:
80,244,313392,1,0,0:0:0:0:
32,224,313473,1,8,0:3:0:0:
12,172,313555,1,8,0:3:0:0:
32,120,313636,86,0,L|92:108,1,53.9999983520508,10|0,0:0|0:0,0:0:0:0:
220,232,313798,2,0,L|156:228,1,53.9999983520508,10|0,0:0|0:0,0:0:0:0:
248,55,313960,2,0,L|316:59,1,53.9999983520508,8|0,0:3|0:0,0:0:0:0:
432,172,314122,6,2,B|276:164|276:164|296:180|308:220,1,215.999993408203,6|0,0:0|0:0,0:0:0:0:
308,256,314528,1,0,0:0:0:0:
288,292,314609,1,0,0:0:0:0:
204,112,314771,1,0,0:0:0:0:
236,88,314852,1,0,0:0:0:0:
276,80,314933,1,8,0:0:0:0:
220,232,315095,1,0,0:0:0:0:
180,232,315176,1,0,0:0:0:0:
144,220,315257,1,0,0:0:0:0:
332,164,315419,5,0,0:0:0:0:
372,168,315500,1,0,0:0:0:0:
408,188,315582,1,2,0:0:0:0:
336,284,315744,1,0,0:0:0:0:
296,276,315825,1,0,0:0:0:0:
256,284,315906,1,0,0:0:0:0:
416,368,316068,1,2,0:0:0:0:
440,336,316149,1,0,0:0:0:0:
452,296,316230,85,8,0:0:0:0:
292,176,316392,1,4,0:2:0:0:
200,364,316555,1,8,0:0:0:0:
336,284,316717,6,2,B|179:268|179:268|124:296,1,215.999993408203,6|0,0:0|0:0,0:0:0:0:
56,336,317122,1,0,0:0:0:0:
40,344,317203,1,0,0:0:0:0:
112,212,317365,1,0,0:0:0:0:
96,220,317446,1,0,0:0:0:0:
80,228,317528,1,8,0:0:0:0:
164,92,317690,1,0,0:0:0:0:
148,100,317771,1,0,0:0:0:0:
132,108,317853,1,0,0:0:0:0:
276,32,318014,5,0,0:0:0:0:
260,24,318095,1,0,0:0:0:0:
244,16,318176,1,6,0:0:0:0:
348,120,318338,1,0,0:0:0:0:
332,128,318419,1,0,0:0:0:0:
316,136,318501,1,0,0:0:0:0:
432,76,318663,1,0,0:0:0:0:
232,180,318825,85,10,0:0:0:0:
264,188,318906,1,8,0:0:0:0:
296,196,318987,1,8,0:0:0:0:
328,204,319068,1,8,0:0:0:0:
360,212,319149,1,8,0:0:0:0:
392,220,319230,1,8,0:0:0:0:
424,228,319311,6,2,B|260:276|260:276|200:260,1,215.999993408203,6|0,0:0|0:0,0:0:0:0:
176,248,319717,1,0,0:0:0:0:
136,232,319798,1,12,0:2:0:0:
188,28,319960,2,0,L|196:88,1,53.9999983520508
204,172,320122,1,12,0:2:0:0:
24,256,320284,2,0,L|32:188,1,53.9999983520508
44,100,320446,1,12,0:2:0:0:
292,152,320609,6,0,L|224:156,1,53.9999983520508,2|0,0:0|0:0,0:0:0:0:
124,164,320771,1,12,0:2:0:0:
344,52,320933,2,0,L|392:92,1,53.9999983520508
480,168,321095,1,12,0:2:0:0:
332,336,321257,2,0,L|316:260,1,53.9999983520508
292,152,321419,1,12,0:2:0:0:
416,272,321582,1,4,0:2:0:0:
344,52,321744,1,8,0:0:0:0:
180,192,321906,86,2,L|404:176,1,215.999993408203,6|0,0:0|0:0,0:0:0:0:
480,168,322311,1,0,0:0:0:0:
480,168,322392,1,12,0:2:0:0:
328,296,322555,1,0,0:0:0:0:
328,296,322636,1,0,0:0:0:0:
328,296,322717,1,4,0:2:0:0:
380,76,322879,1,2,0:0:0:0:
504,268,323041,1,12,0:2:0:0:
264,200,323203,1,2,0:0:0:0:
288,192,323284,1,0,0:0:0:0:
312,184,323365,5,8,0:0:0:0:
260,168,323446,1,0,0:0:0:0:
208,152,323527,1,8,0:3:0:0:
156,136,323608,1,8,0:3:0:0:
104,120,323689,1,8,0:0:0:0:
120,172,323770,1,0,0:0:0:0:
136,224,323851,1,8,0:3:0:0:
152,276,323933,1,8,0:3:0:0:
168,324,324014,6,0,L|192:264,1,53.9999983520508,10|0,0:0|0:0,0:0:0:0:
248,115,324176,2,0,L|259:167,1,53.9999983520508,10|0,0:0|0:0,0:0:0:0:
300,344,324338,2,0,L|320:288,1,53.9999983520508,8|0,0:3|0:0,0:0:0:0:
384,132,324500,86,2,B|424:296|424:296|464:236,1,215.999993408203,6|0,0:0|0:0,0:0:0:0:
492,188,324906,1,0,0:0:0:0:
492,188,324987,1,12,0:2:0:0:
324,68,325149,1,0,0:0:0:0:
324,68,325230,1,0,0:0:0:0:
324,68,325311,1,12,0:2:0:0:
332,268,325473,1,2,0:0:0:0:
332,268,325555,1,0,0:0:0:0:
332,268,325636,1,12,0:2:0:0:
468,100,325798,5,2,0:0:0:0:
448,96,325879,1,0,0:0:0:0:
428,92,325960,1,12,0:2:0:0:
244,232,326122,1,0,0:0:0:0:
256,8,326284,5,12,0:2:0:0:
380,200,326446,1,0,0:0:0:0:
128,140,326609,85,12,0:2:0:0:
160,104,326690,1,0,0:0:0:0:
204,84,326771,1,0,0:0:0:0:
252,80,326852,1,0,0:0:0:0:
300,92,326933,1,8,0:0:0:0:
340,120,327014,1,0,0:0:0:0:
368,160,327095,5,6,0:0:0:0:
212,372,327257,1,12,0:2:0:0:
248,200,327419,1,0,0:0:0:0:
360,356,327582,5,12,0:2:0:0:
112,280,327744,1,0,0:0:0:0:
252,80,327906,85,12,0:2:0:0:
336,244,328068,1,2,0:0:0:0:
304,280,328149,1,0,0:0:0:0:
260,296,328230,2,0,L|188:288,1,53.9999983520508,12|0,0:2|0:0,0:0:0:0:
76,272,328392,5,2,0:0:0:0:
152,60,328555,1,12,0:2:0:0:
248,200,328717,1,0,0:0:0:0:
28,140,328879,1,12,0:2:0:0:
52,136,328960,1,0,0:0:0:0:
76,132,329041,1,0,0:0:0:0:
172,264,329203,5,8,0:3:0:0:
100,128,329365,1,8,0:3:0:0:
236,48,329527,1,8,0:3:0:0:
260,296,329690,69,6,0:0:0:0:
260,296,330500,2,0,L|257:232,1,53.9999983520508,0|2,2:0|2:0,2:0:0:0:
252,88,330987,101,6,0:0:0:0:
252,88,331798,2,0,L|268:147,1,53.9999983520508,0|2,2:0|2:0,2:0:0:0:
324,352,332284,101,6,0:0:0:0:
324,352,333095,2,0,L|297:290,1,53.9999983520508,0|2,2:0|2:0,2:0:0:0:
188,32,333582,86,2,B|232:16|232:16|268:40|268:40|320:16|368:44|368:44|328:64,1,225,6|2,0:0|2:1,0:0:0:0:
220,116,334555,1,2,2:1:0:0:
220,116,334879,38,2,L|216:272,1,144,6|0,0:0|0:0,0:0:0:0:
220,264,335284,1,0,0:0:0:0:
224,268,335365,2,2,B|272:289|272:289|336:285,1,99.0000030212403,8|2,0:0|0:0,0:0:0:0:
104,144,335690,2,0,B|56:148|56:148|0:184,1,99.0000030212403
344,160,336014,2,2,B|388:136|388:136|416:92,1,99.0000030212403,8|2,0:0|0:0,0:0:0:0:
428,68,336257,1,0,0:0:0:0:
444,40,336338,5,0,0:0:0:0:
288,80,336500,1,2,0:0:0:0:
396,244,336663,1,8,0:0:0:0:
392,132,336825,1,2,0:0:0:0:
192,144,336987,85,4,0:2:0:0:
348,324,337149,1,4,0:2:0:0:
320,52,337311,1,8,0:0:0:0:
148,248,337473,6,2,L|308:236,1,144,6|0,0:0|0:0,0:0:0:0:
416,248,337879,1,0,0:0:0:0:
416,248,337960,2,2,L|304:256,1,99.0000030212403,8|2,0:0|0:0,0:0:0:0:
317,255,338203,1,0,0:0:0:0:
317,255,338284,1,0,0:0:0:0:
496,312,338446,1,0,0:0:0:0:
496,312,338527,1,0,0:0:0:0:
496,312,338609,1,8,0:0:0:0:
392,132,338771,1,2,0:0:0:0:
360,344,338933,5,4,0:0:0:0:
512,196,339095,1,2,0:0:0:0:
480,200,339176,1,0,0:0:0:0:
448,204,339257,1,8,0:0:0:0:
253,247,339419,1,0,0:0:0:0:
285,251,339500,1,0,0:0:0:0:
317,255,339581,1,4,0:2:0:0:
224,148,339743,1,2,0:0:0:0:
280,352,339905,1,12,0:2:0:0:
60,276,340068,86,2,L|212:260,1,144,6|0,0:0|0:0,0:0:0:0:
285,251,340473,1,0,0:0:0:0:
285,251,340555,1,8,0:0:0:0:
120,164,340717,1,2,0:0:0:0:
320,160,340879,1,0,0:0:0:0:
200,304,341041,1,0,0:0:0:0:
192,272,341122,1,0,0:0:0:0:
184,240,341203,1,8,0:0:0:0:
276,72,341365,1,2,0:0:0:0:
384,236,341527,5,0,0:0:0:0:
148,160,341690,1,2,0:0:0:0:
180,156,341771,1,0,0:0:0:0:
212,152,341852,1,8,0:0:0:0:
52,172,342014,1,2,0:0:0:0:
276,220,342176,5,4,0:2:0:0:
20,176,342338,1,4,0:2:0:0:
200,60,342500,1,8,0:0:0:0:
140,303,342663,86,2,L|148:160,1,144,6|0,0:0|0:0,0:0:0:0:
59,73,343068,1,0,0:0:0:0:
59,73,343149,2,2,L|51:185,1,99.0000030212403,8|2,0:0|0:0,0:0:0:0:
283,318,343473,2,2,L|275:210,1,99.0000030212403,0|2,0:0|0:0,0:0:0:0:
200,60,343798,1,12,0:2:0:0:
72,216,343960,1,0,0:0:0:0:
72,216,344041,1,0,0:0:0:0:
72,216,344122,5,8,0:0:0:0:
104,232,344203,1,8,0:3:0:0:
140,232,344284,1,0,0:0:0:0:
172,220,344365,1,0,0:0:0:0:
196,196,344446,1,10,0:0:0:0:
228,188,344527,1,8,0:3:0:0:
264,192,344608,1,0,0:0:0:0:
296,208,344689,1,0,0:0:0:0:
316,236,344770,5,2,0:0:0:0:
360,212,344851,1,0,0:0:0:0:
380,168,344933,1,8,0:3:0:0:
376,120,345014,1,8,0:3:0:0:
348,80,345095,1,2,0:0:0:0:
304,60,345176,1,0,0:0:0:0:
256,60,345257,6,2,L|248:248,1,161.999995056153,6|0,0:0|0:0,0:0:0:0:
164,292,345663,1,0,0:0:0:0:
164,292,345744,2,2,B|144:240|144:240|144:168,1,107.999996704102,12|2,0:2|0:0,0:0:0:0:
380,20,346068,2,0,B|400:72|400:72|400:144,1,107.999996704102,12|0,0:2|0:0,0:0:0:0:
248,256,346392,1,12,0:2:0:0:
304,96,346555,1,2,0:0:0:0:
328,304,346717,5,4,0:2:0:0:
88,236,346879,1,2,0:0:0:0:
88,236,346960,1,0,0:0:0:0:
88,236,347041,1,12,0:2:0:0:
276,120,347203,1,2,0:0:0:0:
220,348,347365,5,12,0:2:0:0:
188,68,347527,1,2,0:0:0:0:
364,288,347690,1,12,0:2:0:0:
88,236,347852,86,2,B|214:229|214:229|250:233,1,161.999995056153,6|0,0:0|0:0,0:0:0:0:
380,252,348257,1,0,0:0:0:0:
380,252,348338,2,2,B|296:248|296:248|260:240,1,107.999996704102,12|2,0:2|0:0,0:0:0:0:
188,68,348663,1,12,0:2:0:0:
336,164,348825,1,0,0:0:0:0:
336,164,348906,1,0,0:0:0:0:
336,164,348987,1,12,0:2:0:0:
440,20,349149,1,2,0:0:0:0:
296,168,349311,5,4,0:2:0:0:
472,276,349473,1,2,0:0:0:0:
468,244,349555,1,0,0:0:0:0:
464,212,349636,1,12,0:2:0:0:
308,76,349798,1,2,0:0:0:0:
156,200,349960,5,12,0:2:0:0:
188,236,350041,1,8,0:0:0:0:
236,252,350122,1,10,0:0:0:0:
284,244,350203,1,8,0:0:0:0:
316,216,350284,1,8,0:0:0:0:
336,164,350365,1,8,0:0:0:0:
328,116,350446,86,2,L|156:128,1,161.999995056153,6|0,0:0|0:0,0:0:0:0:
68,208,350852,1,0,0:0:0:0:
68,208,350933,2,2,B|100:200|100:200|184:216,1,107.999996704102,12|2,0:2|0:0,0:0:0:0:
352,316,351257,1,12,0:2:0:0:
116,316,351419,1,0,0:0:0:0:
248,124,351582,1,12,0:2:0:0:
228,364,351744,1,2,0:0:0:0:
224,332,351825,1,0,0:0:0:0:
220,300,351906,5,4,0:2:0:0:
360,168,352068,1,2,0:0:0:0:
436,344,352230,1,12,0:2:0:0:
248,124,352392,1,2,0:0:0:0:
248,124,352473,1,0,0:0:0:0:
248,124,352555,5,12,0:2:0:0:
496,104,352717,1,2,0:0:0:0:
308,268,352879,1,12,0:2:0:0:
384,8,353041,86,2,L|404:232,1,215.999993408203,6|0,0:0|0:0,0:0:0:0:
403,223,353446,1,0,0:0:0:0:
403,223,353527,1,12,0:2:0:0:
156,160,353690,1,2,0:0:0:0:
296,40,353852,1,12,0:2:0:0:
268,308,354014,1,2,0:0:0:0:
52,148,354176,1,12,0:2:0:0:
376,140,354338,2,0,L|320:176,1,53.9999983520508,2|0,0:0|0:0,0:0:0:0:
188,268,354500,5,12,0:2:0:0:
300,72,354663,1,2,0:0:0:0:
384,352,354825,1,12,0:2:0:0:
100,284,354987,1,2,0:0:0:0:
100,284,355068,1,0,0:0:0:0:
100,284,355149,6,0,L|108:224,1,53.9999983520508,10|8,0:0|0:0,0:0:0:0:
220,52,355311,102,0,L|228:121,1,60.7500002317429,10|8,0:0|0:0,0:0:0:0:
320,328,355473,102,0,L|330:258,1,67.5000025749208,10|8,0:0|0:0,0:0:0:0:
364,24,355637,53,6,0:0:0:0:
