osu file format v14

[General]
AudioFilename: oh dem (anjerlah pusing gw sama mp3 sebelumnya).mp3
AudioLeadIn: 0
PreviewTime: 158528
Countdown: 0
SampleSet: Normal
StackLeniency: 0.7
Mode: 1
LetterboxInBreaks: 0
WidescreenStoryboard: 0

[Editor]
DistanceSpacing: 2.5
BeatDivisor: 4
GridSize: 32
TimelineZoom: 3.399999

[Metadata]
Title:Kuuchuu ni Shizumu Kishinjou ~ Counter-Clock World
TitleUnicode:空中に沈む輝針城 ~ Counter-Clock World
Artist:Demetori
ArtistUnicode:Demetori
Creator:Surono
Version:Taiko Salvation
Source:東方Project
Tags:Touhou Intro The Shining Needle Castle Sinking in the Air 東方輝針城 ~ Double Dealing Character 愧人贖悪 Evil People as the True Object of Salvation Stage 5 Theme Seija Kijin 鬼人 正邪 metal arrangement ZUN comiket88 c88 Marathon
BeatmapID:997755
BeatmapSetID:464535

[Difficulty]
HPDrainRate:4
CircleSize:2
OverallDifficulty:7
ApproachRate:10
SliderMultiplier:1.4
SliderTickRate:1

[Events]
//Background and Video events
0,0,"bg.jpg",0,-100
//Break Periods
//Storyboard Layer 0 (Background)
//Storyboard Layer 1 (Fail)
//Storyboard Layer 2 (Pass)
//Storyboard Layer 3 (Foreground)
//Storyboard Sound Samples

[TimingPoints]
38611,324.324324324324,6,1,0,80,1,0
40556,324.324324324324,4,1,0,80,1,0
94880,-100,4,1,0,80,0,1
126015,-100,4,1,0,80,0,0
159745,-100,4,1,0,80,0,1
190880,-100,4,1,0,80,0,0
192501,-102.040816326531,4,1,0,80,0,0
192664,-104.166666666667,4,1,0,80,0,0
192826,-106.382978723404,4,1,0,80,0,0
192988,-108.695652173913,4,1,0,80,0,0
193150,-111.111111111111,4,1,0,80,0,0
193312,-113.636363636364,4,1,0,80,0,0
193474,-116.279069767442,4,1,0,80,0,0
193637,-117.647058823529,4,1,0,70,0,0
211961,-111.111111111111,4,1,0,80,0,0
214231,-111.111111111111,4,1,0,50,0,0
215528,-100,4,1,0,80,0,1
246826,-100,4,1,0,80,0,0
260123,-111.111111111111,4,1,0,80,0,0
261096,-100,4,1,0,80,0,0
270177,324.324324324324,6,1,0,80,1,1
291582,-100,6,1,0,80,0,0
291906,-111.111111111111,6,1,0,70,0,0
292555,-111.111111111111,6,1,0,80,0,0
292879,-111.111111111111,6,1,0,70,0,0
293366,-100,6,1,0,80,0,1
293528,324.324324324324,4,1,0,80,1,1
334392,-111.111111111111,4,1,0,70,0,1
334879,-100,4,1,0,80,0,0
345257,-100,4,1,0,80,0,1
355636,-100,4,1,0,80,0,0

[HitObjects]
256,192,38611,5,12,0:0:0:0:
256,192,40394,1,4,0:0:0:0:
256,192,40718,1,0,0:0:0:0:
256,192,40799,1,0,0:0:0:0:
256,192,40880,1,8,0:0:0:0:
256,192,41042,1,8,0:0:0:0:
256,192,41123,1,8,0:0:0:0:
256,192,41204,1,0,0:0:0:0:
256,192,41366,1,0,0:0:0:0:
256,192,41447,1,0,0:0:0:0:
256,192,41528,1,8,0:0:0:0:
256,192,41691,1,0,0:0:0:0:
256,192,41772,1,0,0:0:0:0:
256,192,41853,1,0,0:0:0:0:
256,192,42015,1,8,0:0:0:0:
256,192,42096,1,0,0:0:0:0:
256,192,42177,1,8,0:0:0:0:
256,192,42339,1,8,0:0:0:0:
256,192,42420,1,0,0:0:0:0:
256,192,42501,1,0,0:0:0:0:
256,192,42664,1,0,0:0:0:0:
256,192,42826,1,8,0:0:0:0:
256,192,42988,1,4,0:0:0:0:
256,192,43312,1,0,0:0:0:0:
256,192,43393,1,0,0:0:0:0:
256,192,43474,1,8,0:0:0:0:
256,192,43637,1,8,0:0:0:0:
256,192,43718,1,8,0:0:0:0:
256,192,43799,1,0,0:0:0:0:
256,192,43961,1,0,0:0:0:0:
256,192,44042,1,0,0:0:0:0:
256,192,44123,1,8,0:0:0:0:
256,192,44285,1,8,0:0:0:0:
256,192,44447,1,4,0:0:0:0:
256,192,44610,1,0,0:0:0:0:
256,192,44691,1,8,0:0:0:0:
256,192,44772,1,8,0:0:0:0:
256,192,44934,1,0,0:0:0:0:
256,192,45015,1,0,0:0:0:0:
256,192,45096,1,8,0:0:0:0:
256,192,45258,1,0,0:0:0:0:
256,192,45339,1,0,0:0:0:0:
256,192,45420,1,8,0:0:0:0:
256,192,45583,1,4,0:0:0:0:
256,192,45907,1,0,0:0:0:0:
256,192,45988,1,0,0:0:0:0:
256,192,46069,1,8,0:0:0:0:
256,192,46231,1,8,0:0:0:0:
256,192,46312,1,8,0:0:0:0:
256,192,46393,1,8,0:0:0:0:
256,192,46555,1,0,0:0:0:0:
256,192,46637,1,0,0:0:0:0:
256,192,46718,1,8,0:0:0:0:
256,192,46880,1,0,0:0:0:0:
256,192,46961,1,8,0:0:0:0:
256,192,47042,1,0,0:0:0:0:
256,192,47204,1,0,0:0:0:0:
256,192,47285,1,0,0:0:0:0:
256,192,47366,1,8,0:0:0:0:
256,192,47528,1,8,0:0:0:0:
256,192,47610,1,8,0:0:0:0:
256,192,47691,1,0,0:0:0:0:
256,192,47853,1,8,0:0:0:0:
256,192,48015,1,8,0:0:0:0:
256,192,48177,1,4,0:0:0:0:
256,192,48501,1,0,0:0:0:0:
256,192,48583,1,0,0:0:0:0:
256,192,48664,1,8,0:0:0:0:
256,192,48826,1,8,0:0:0:0:
256,192,48907,1,8,0:0:0:0:
256,192,48988,1,0,0:0:0:0:
256,192,49150,1,0,0:0:0:0:
256,192,49312,1,12,0:0:0:0:
256,192,49474,1,0,0:0:0:0:
256,192,49555,1,0,0:0:0:0:
256,192,49637,1,8,0:0:0:0:
256,192,49718,1,0,0:0:0:0:
256,192,49799,1,0,0:0:0:0:
256,192,49880,1,0,0:0:0:0:
256,192,49961,1,8,0:0:0:0:
256,192,50042,1,8,0:0:0:0:
256,192,50123,1,0,0:0:0:0:
256,192,50204,1,0,0:0:0:0:
256,192,50285,1,8,0:0:0:0:
256,192,50366,1,8,0:0:0:0:
256,192,50447,1,0,0:0:0:0:
256,192,50528,1,0,0:0:0:0:
256,192,50610,1,0,0:0:0:0:
256,192,50772,1,4,0:0:0:0:
256,192,51096,1,0,0:0:0:0:
256,192,51177,1,0,0:0:0:0:
256,192,51258,1,8,0:0:0:0:
256,192,51420,1,8,0:0:0:0:
256,192,51501,1,8,0:0:0:0:
256,192,51583,1,0,0:0:0:0:
256,192,51745,1,0,0:0:0:0:
256,192,51826,1,0,0:0:0:0:
256,192,51907,1,8,0:0:0:0:
256,192,52069,1,0,0:0:0:0:
256,192,52150,1,0,0:0:0:0:
256,192,52231,1,0,0:0:0:0:
256,192,52393,1,8,0:0:0:0:
256,192,52474,1,0,0:0:0:0:
256,192,52555,1,8,0:0:0:0:
256,192,52718,1,8,0:0:0:0:
256,192,52799,1,0,0:0:0:0:
256,192,52880,1,0,0:0:0:0:
256,192,53042,1,8,0:0:0:0:
256,192,53204,1,4,0:0:0:0:
256,192,53366,1,4,0:0:0:0:
256,192,53691,1,0,0:0:0:0:
256,192,53772,1,0,0:0:0:0:
256,192,53853,1,8,0:0:0:0:
256,192,54015,1,8,0:0:0:0:
256,192,54096,1,8,0:0:0:0:
256,192,54177,1,0,0:0:0:0:
256,192,54339,1,0,0:0:0:0:
256,192,54420,1,0,0:0:0:0:
256,192,54501,1,8,0:0:0:0:
256,192,54664,1,8,0:0:0:0:
256,192,54826,1,4,0:0:0:0:
256,192,54988,1,0,0:0:0:0:
256,192,55150,1,12,0:0:0:0:
256,192,55312,1,0,0:0:0:0:
256,192,55393,1,0,0:0:0:0:
256,192,55474,1,8,0:0:0:0:
256,192,55637,1,8,0:0:0:0:
256,192,55799,1,8,0:0:0:0:
256,192,55961,1,4,0:0:0:0:
256,192,56285,1,0,0:0:0:0:
256,192,56366,1,0,0:0:0:0:
256,192,56447,1,8,0:0:0:0:
256,192,56610,1,8,0:0:0:0:
256,192,56691,1,8,0:0:0:0:
256,192,56772,1,8,0:0:0:0:
256,192,56934,1,0,0:0:0:0:
256,192,57015,1,0,0:0:0:0:
256,192,57096,1,8,0:0:0:0:
256,192,57258,1,0,0:0:0:0:
256,192,57339,1,8,0:0:0:0:
256,192,57420,1,0,0:0:0:0:
256,192,57583,1,0,0:0:0:0:
256,192,57664,1,0,0:0:0:0:
256,192,57745,1,8,0:0:0:0:
256,192,57907,1,8,0:0:0:0:
256,192,57988,1,8,0:0:0:0:
256,192,58069,1,0,0:0:0:0:
256,192,58231,1,8,0:0:0:0:
256,192,58393,1,8,0:0:0:0:
256,192,58555,1,4,0:0:0:0:
256,192,58880,1,0,0:0:0:0:
256,192,58961,1,0,0:0:0:0:
256,192,59042,1,8,0:0:0:0:
256,192,59204,1,8,0:0:0:0:
256,192,59285,1,8,0:0:0:0:
256,192,59366,1,0,0:0:0:0:
256,192,59528,1,0,0:0:0:0:
256,192,59691,1,12,0:0:0:0:
256,192,59853,1,0,0:0:0:0:
256,192,59934,1,0,0:0:0:0:
256,192,60015,1,8,0:0:0:0:
256,192,60096,1,8,0:0:0:0:
256,192,60177,1,0,0:0:0:0:
256,192,60258,1,8,0:0:0:0:
256,192,60339,1,0,0:0:0:0:
256,192,60420,1,0,0:0:0:0:
256,192,60501,1,8,0:0:0:0:
256,192,60583,1,0,0:0:0:0:
256,192,60664,1,8,0:0:0:0:
256,192,60745,1,0,0:0:0:0:
256,192,60826,1,0,0:0:0:0:
256,192,60907,1,8,0:0:0:0:
256,192,60988,1,0,0:0:0:0:
256,192,61069,1,0,0:0:0:0:
256,192,61150,1,8,0:0:0:0:
256,192,61312,1,4,0:0:0:0:
256,192,61637,1,8,0:0:0:0:
256,192,61961,1,8,0:0:0:0:
256,192,62285,1,8,0:0:0:0:
256,192,62610,1,4,0:0:0:0:
256,192,62772,1,0,0:0:0:0:
256,192,62934,1,0,0:0:0:0:
256,192,63096,1,0,0:0:0:0:
256,192,63177,1,0,0:0:0:0:
256,192,63258,1,0,0:0:0:0:
256,192,63420,1,0,0:0:0:0:
256,192,63583,1,0,0:0:0:0:
256,192,63745,1,0,0:0:0:0:
256,192,63907,1,12,0:0:0:0:
256,192,64069,1,0,0:0:0:0:
256,192,64150,1,0,0:0:0:0:
256,192,64231,1,8,0:0:0:0:
256,192,64312,1,0,0:0:0:0:
256,192,64393,1,8,0:0:0:0:
256,192,64718,1,0,0:0:0:0:
256,192,64799,1,0,0:0:0:0:
256,192,64880,1,8,0:0:0:0:
256,192,64961,1,8,0:0:0:0:
256,192,65042,1,0,0:0:0:0:
256,192,65204,1,8,0:0:0:0:
256,192,65366,1,0,0:0:0:0:
256,192,65447,1,0,0:0:0:0:
256,192,65528,1,8,0:0:0:0:
256,192,65610,1,0,0:0:0:0:
256,192,65691,1,8,0:0:0:0:
256,192,65772,1,0,0:0:0:0:
256,192,65853,1,0,0:0:0:0:
256,192,65934,1,0,0:0:0:0:
256,192,66015,1,0,0:0:0:0:
256,192,66096,1,0,0:0:0:0:
256,192,66177,1,8,0:0:0:0:
256,192,66501,1,0,0:0:0:0:
256,192,66583,1,0,0:0:0:0:
256,192,66664,1,0,0:0:0:0:
256,192,66745,1,0,0:0:0:0:
256,192,66826,1,8,0:0:0:0:
256,192,66907,1,0,0:0:0:0:
256,192,66988,1,0,0:0:0:0:
256,192,67312,1,0,0:0:0:0:
256,192,67393,1,0,0:0:0:0:
256,192,67474,1,8,0:0:0:0:
256,192,67555,1,0,0:0:0:0:
256,192,67637,1,0,0:0:0:0:
256,192,67799,1,8,0:0:0:0:
256,192,67961,1,0,0:0:0:0:
256,192,68042,1,0,0:0:0:0:
256,192,68123,1,8,0:0:0:0:
256,192,68204,1,0,0:0:0:0:
256,192,68285,1,0,0:0:0:0:
256,192,68366,1,0,0:0:0:0:
256,192,68447,1,8,0:0:0:0:
256,192,68528,1,8,0:0:0:0:
256,192,68610,1,0,0:0:0:0:
256,192,68664,1,0,0:0:0:0:
256,192,68718,1,0,0:0:0:0:
256,192,68772,1,8,0:0:0:0:
256,192,69096,1,4,0:0:0:0:
256,192,69258,1,8,0:0:0:0:
256,192,69339,1,0,0:0:0:0:
256,192,69420,1,8,0:0:0:0:
256,192,69501,1,8,0:0:0:0:
256,192,69583,1,0,0:0:0:0:
256,192,69907,1,0,0:0:0:0:
256,192,69988,1,0,0:0:0:0:
256,192,70069,1,8,0:0:0:0:
256,192,70150,1,0,0:0:0:0:
256,192,70231,1,0,0:0:0:0:
256,192,70393,1,0,0:0:0:0:
256,192,70555,1,0,0:0:0:0:
256,192,70637,1,0,0:0:0:0:
256,192,70718,1,8,0:0:0:0:
256,192,70799,1,0,0:0:0:0:
256,192,70880,1,8,0:0:0:0:
256,192,70961,1,8,0:0:0:0:
256,192,71042,1,0,0:0:0:0:
256,192,71123,1,0,0:0:0:0:
256,192,71204,1,0,0:0:0:0:
256,192,71285,1,0,0:0:0:0:
256,192,71366,1,8,0:0:0:0:
256,192,71691,1,0,0:0:0:0:
256,192,71772,1,0,0:0:0:0:
256,192,71853,1,0,0:0:0:0:
256,192,71934,1,0,0:0:0:0:
256,192,72015,1,8,0:0:0:0:
256,192,72096,1,8,0:0:0:0:
256,192,72177,1,0,0:0:0:0:
256,192,72501,1,0,0:0:0:0:
256,192,72583,1,0,0:0:0:0:
256,192,72664,1,8,0:0:0:0:
256,192,72745,1,8,0:0:0:0:
256,192,72826,1,0,0:0:0:0:
256,192,72988,1,8,0:0:0:0:
256,192,73150,1,0,0:0:0:0:
256,192,73231,1,0,0:0:0:0:
256,192,73312,1,8,0:0:0:0:
256,192,73393,1,0,0:0:0:0:
256,192,73474,1,0,0:0:0:0:
256,192,73555,1,8,0:0:0:0:
256,192,73637,1,0,0:0:0:0:
256,192,73799,1,8,0:0:0:0:
256,192,73961,1,8,0:0:0:0:
256,192,74042,1,8,0:0:0:0:
256,192,74123,1,0,0:0:0:0:
256,192,74285,1,12,0:0:0:0:
256,192,74447,1,0,0:0:0:0:
256,192,74528,1,0,0:0:0:0:
256,192,74610,1,8,0:0:0:0:
256,192,74691,1,0,0:0:0:0:
256,192,74772,1,8,0:0:0:0:
256,192,75096,1,0,0:0:0:0:
256,192,75177,1,0,0:0:0:0:
256,192,75258,1,8,0:0:0:0:
256,192,75339,1,8,0:0:0:0:
256,192,75420,1,0,0:0:0:0:
256,192,75583,1,8,0:0:0:0:
256,192,75745,1,0,0:0:0:0:
256,192,75826,1,0,0:0:0:0:
256,192,75907,1,8,0:0:0:0:
256,192,75988,1,0,0:0:0:0:
256,192,76069,1,8,0:0:0:0:
256,192,76150,1,0,0:0:0:0:
256,192,76231,1,0,0:0:0:0:
256,192,76312,1,0,0:0:0:0:
256,192,76393,1,0,0:0:0:0:
256,192,76474,1,0,0:0:0:0:
256,192,76555,1,8,0:0:0:0:
256,192,76880,1,0,0:0:0:0:
256,192,76961,1,0,0:0:0:0:
256,192,77042,1,0,0:0:0:0:
256,192,77123,1,0,0:0:0:0:
256,192,77204,1,8,0:0:0:0:
256,192,77285,1,0,0:0:0:0:
256,192,77366,1,0,0:0:0:0:
256,192,77691,1,0,0:0:0:0:
256,192,77772,1,0,0:0:0:0:
256,192,77853,1,8,0:0:0:0:
256,192,77934,1,0,0:0:0:0:
256,192,78015,1,0,0:0:0:0:
256,192,78177,1,8,0:0:0:0:
256,192,78339,1,0,0:0:0:0:
256,192,78420,1,0,0:0:0:0:
256,192,78501,1,8,0:0:0:0:
256,192,78583,1,0,0:0:0:0:
256,192,78664,1,0,0:0:0:0:
256,192,78745,1,0,0:0:0:0:
256,192,78826,1,8,0:0:0:0:
256,192,78907,1,8,0:0:0:0:
256,192,78988,1,0,0:0:0:0:
256,192,79042,1,0,0:0:0:0:
256,192,79096,1,0,0:0:0:0:
256,192,79150,1,8,0:0:0:0:
256,192,79474,1,4,0:0:0:0:
256,192,79637,1,0,0:0:0:0:
256,192,79718,1,0,0:0:0:0:
256,192,79799,1,8,0:0:0:0:
256,192,79880,1,8,0:0:0:0:
256,192,79961,1,0,0:0:0:0:
256,192,80285,1,0,0:0:0:0:
256,192,80366,1,0,0:0:0:0:
256,192,80447,1,8,0:0:0:0:
256,192,80528,1,0,0:0:0:0:
256,192,80610,1,0,0:0:0:0:
256,192,80772,1,0,0:0:0:0:
256,192,80934,1,0,0:0:0:0:
256,192,81015,1,0,0:0:0:0:
256,192,81096,1,8,0:0:0:0:
256,192,81177,1,0,0:0:0:0:
256,192,81258,1,8,0:0:0:0:
256,192,81339,1,8,0:0:0:0:
256,192,81420,1,0,0:0:0:0:
256,192,81501,1,0,0:0:0:0:
256,192,81583,1,0,0:0:0:0:
256,192,81637,1,0,0:0:0:0:
256,192,81691,1,0,0:0:0:0:
256,192,81745,1,8,0:0:0:0:
256,192,82069,1,12,0:0:0:0:
256,192,82231,1,0,0:0:0:0:
256,192,82312,1,0,0:0:0:0:
256,192,82393,1,8,0:0:0:0:
256,192,82474,1,8,0:0:0:0:
256,192,82555,1,8,0:0:0:0:
256,192,82880,1,0,0:0:0:0:
256,192,82961,1,0,0:0:0:0:
256,192,83042,1,8,0:0:0:0:
256,192,83123,1,0,0:0:0:0:
256,192,83204,1,8,0:0:0:0:
256,192,83366,1,8,0:0:0:0:
256,192,83528,1,0,0:0:0:0:
256,192,83610,1,0,0:0:0:0:
256,192,83691,1,8,0:0:0:0:
256,192,83799,1,8,0:0:0:0:
256,192,83907,1,0,0:0:0:0:
256,192,84015,1,8,0:0:0:0:
256,192,84123,1,0,0:0:0:0:
256,192,84231,1,0,0:0:0:0:
256,192,84339,1,8,0:0:0:0:
256,192,84447,1,0,0:0:0:0:
256,192,84555,1,0,0:0:0:0:
256,192,84664,1,12,0:0:0:0:
256,192,84988,1,8,0:0:0:0:
256,192,85150,1,0,0:0:0:0:
256,192,85312,1,0,0:0:0:0:
256,192,85474,1,0,0:0:0:0:
256,192,85555,1,0,0:0:0:0:
256,192,85637,1,8,0:0:0:0:
256,192,85799,1,0,0:0:0:0:
256,192,85961,1,4,0:0:0:0:
256,192,86285,1,12,0:0:0:0:
256,192,86447,1,0,0:0:0:0:
256,192,86528,1,0,0:0:0:0:
256,192,86610,1,8,0:0:0:0:
256,192,86772,1,8,0:0:0:0:
256,192,86934,1,0,0:0:0:0:
256,192,87015,1,8,0:0:0:0:
256,192,87096,1,0,0:0:0:0:
256,192,87177,1,0,0:0:0:0:
256,192,87258,1,8,0:0:0:0:
256,192,87339,1,0,0:0:0:0:
256,192,87420,1,0,0:0:0:0:
256,192,87501,1,0,0:0:0:0:
256,192,87583,1,0,0:0:0:0:
256,192,87664,1,0,0:0:0:0:
256,192,87745,1,8,0:0:0:0:
256,192,87826,1,0,0:0:0:0:
256,192,87907,1,8,0:0:0:0:
256,192,87988,1,0,0:0:0:0:
256,192,88069,1,0,0:0:0:0:
256,192,88150,1,0,0:0:0:0:
256,192,88231,1,8,0:0:0:0:
256,192,88312,1,8,0:0:0:0:
256,192,88393,1,0,0:0:0:0:
256,192,88474,1,0,0:0:0:0:
256,192,88555,1,8,0:0:0:0:
256,192,88637,1,8,0:0:0:0:
256,192,88718,1,0,0:0:0:0:
256,192,88799,1,0,0:0:0:0:
256,192,88880,1,0,0:0:0:0:
256,192,88961,1,0,0:0:0:0:
256,192,89042,1,0,0:0:0:0:
256,192,89123,1,0,0:0:0:0:
256,192,89204,1,8,0:0:0:0:
256,192,89285,1,0,0:0:0:0:
256,192,89366,1,0,0:0:0:0:
256,192,89528,1,12,0:0:0:0:
256,192,89853,1,4,0:0:0:0:
256,192,90015,1,0,0:0:0:0:
256,192,90177,1,8,0:0:0:0:
256,192,90339,1,0,0:0:0:0:
256,192,90420,1,0,0:0:0:0:
256,192,90501,1,0,0:0:0:0:
256,192,90664,1,0,0:0:0:0:
256,192,90826,1,8,0:0:0:0:
256,192,90988,1,8,0:0:0:0:
256,192,91150,1,4,0:0:0:0:
256,192,91312,1,0,0:0:0:0:
256,192,91474,1,8,0:0:0:0:
256,192,91637,1,0,0:0:0:0:
256,192,91718,1,0,0:0:0:0:
256,192,91799,1,0,0:0:0:0:
256,192,91961,1,0,0:0:0:0:
256,192,92123,1,12,0:0:0:0:
256,192,92447,1,4,0:0:0:0:
256,192,92610,1,0,0:0:0:0:
256,192,92772,1,0,0:0:0:0:
256,192,92934,1,0,0:0:0:0:
256,192,93096,1,8,0:0:0:0:
256,192,93258,1,8,0:0:0:0:
256,192,93420,1,8,0:0:0:0:
256,192,93583,1,8,0:0:0:0:
256,192,93745,1,8,0:0:0:0:
256,192,93826,1,8,0:0:0:0:
256,192,93907,1,0,0:0:0:0:
256,192,93988,1,0,0:0:0:0:
256,192,94069,1,8,0:0:0:0:
256,192,94150,1,0,0:0:0:0:
256,192,94231,1,0,0:0:0:0:
256,192,94312,1,0,0:0:0:0:
256,192,94393,1,8,0:0:0:0:
256,192,94474,1,0,0:0:0:0:
256,192,94555,1,8,0:0:0:0:
256,192,94637,1,0,0:0:0:0:
256,192,94718,1,0,0:0:0:0:
256,192,94880,1,12,0:0:0:0:
256,192,95204,1,0,0:0:0:0:
256,192,95285,1,0,0:0:0:0:
256,192,95366,1,8,0:0:0:0:
256,192,95528,1,8,0:0:0:0:
256,192,95610,1,8,0:0:0:0:
256,192,95691,1,0,0:0:0:0:
256,192,95853,1,0,0:0:0:0:
256,192,95934,1,0,0:0:0:0:
256,192,96015,1,8,0:0:0:0:
256,192,96177,1,0,0:0:0:0:
256,192,96258,1,8,0:0:0:0:
256,192,96339,1,0,0:0:0:0:
256,192,96501,1,0,0:0:0:0:
256,192,96583,1,0,0:0:0:0:
256,192,96664,1,8,0:0:0:0:
256,192,96826,1,0,0:0:0:0:
256,192,96907,1,0,0:0:0:0:
256,192,96988,1,0,0:0:0:0:
256,192,97150,1,0,0:0:0:0:
256,192,97312,1,8,0:0:0:0:
256,192,97474,1,12,0:0:0:0:
256,192,97799,1,0,0:0:0:0:
256,192,97880,1,0,0:0:0:0:
256,192,97961,1,8,0:0:0:0:
256,192,98123,1,8,0:0:0:0:
256,192,98204,1,8,0:0:0:0:
256,192,98285,1,0,0:0:0:0:
256,192,98447,1,0,0:0:0:0:
256,192,98528,1,0,0:0:0:0:
256,192,98610,1,8,0:0:0:0:
256,192,98772,1,0,0:0:0:0:
256,192,98853,1,8,0:0:0:0:
256,192,98934,1,8,0:0:0:0:
256,192,99096,1,0,0:0:0:0:
256,192,99177,1,0,0:0:0:0:
256,192,99258,1,8,0:0:0:0:
256,192,99420,1,0,0:0:0:0:
256,192,99501,1,0,0:0:0:0:
256,192,99583,1,0,0:0:0:0:
256,192,99745,1,8,0:0:0:0:
256,192,99907,1,8,0:0:0:0:
256,192,100069,1,4,0:0:0:0:
256,192,100393,1,0,0:0:0:0:
256,192,100474,1,0,0:0:0:0:
256,192,100555,1,8,0:0:0:0:
256,192,100718,1,8,0:0:0:0:
256,192,100799,1,8,0:0:0:0:
256,192,100880,1,0,0:0:0:0:
256,192,101042,1,0,0:0:0:0:
256,192,101123,1,0,0:0:0:0:
256,192,101204,1,8,0:0:0:0:
256,192,101366,1,12,0:0:0:0:
256,192,101691,1,0,0:0:0:0:
256,192,101772,1,0,0:0:0:0:
256,192,101853,1,8,0:0:0:0:
256,192,102015,1,0,0:0:0:0:
256,192,102096,1,8,0:0:0:0:
256,192,102177,1,0,0:0:0:0:
256,192,102339,1,0,0:0:0:0:
256,192,102501,1,8,0:0:0:0:
256,192,102664,1,4,0:0:0:0:
256,192,102988,1,0,0:0:0:0:
256,192,103069,1,0,0:0:0:0:
256,192,103150,1,8,0:0:0:0:
256,192,103312,1,8,0:0:0:0:
256,192,103393,1,8,0:0:0:0:
256,192,103474,1,8,0:0:0:0:
256,192,103637,1,0,0:0:0:0:
256,192,103799,1,12,0:0:0:0:
256,192,103961,1,0,0:0:0:0:
256,192,104042,1,0,0:0:0:0:
256,192,104123,1,8,0:0:0:0:
256,192,104285,1,8,0:0:0:0:
256,192,104366,1,8,0:0:0:0:
256,192,104447,1,0,0:0:0:0:
256,192,104528,1,0,0:0:0:0:
256,192,104610,1,0,0:0:0:0:
256,192,104691,1,0,0:0:0:0:
256,192,104772,1,8,0:0:0:0:
256,192,104853,1,0,0:0:0:0:
256,192,104934,1,8,0:0:0:0:
256,192,105015,1,8,0:0:0:0:
256,192,105096,1,0,0:0:0:0:
256,192,105258,1,12,0:0:0:0:
256,192,105583,1,0,0:0:0:0:
256,192,105664,1,0,0:0:0:0:
256,192,105745,1,8,0:0:0:0:
256,192,105907,1,0,0:0:0:0:
256,192,105988,1,0,0:0:0:0:
256,192,106069,1,8,0:0:0:0:
256,192,106231,1,8,0:0:0:0:
256,192,106312,1,0,0:0:0:0:
256,192,106393,1,8,0:0:0:0:
256,192,106555,1,8,0:0:0:0:
256,192,106637,1,0,0:0:0:0:
256,192,106718,1,0,0:0:0:0:
256,192,106880,1,0,0:0:0:0:
256,192,106961,1,0,0:0:0:0:
256,192,107042,1,8,0:0:0:0:
256,192,107204,1,0,0:0:0:0:
256,192,107285,1,0,0:0:0:0:
256,192,107366,1,0,0:0:0:0:
256,192,107447,1,8,0:0:0:0:
256,192,107528,1,0,0:0:0:0:
256,192,107610,1,0,0:0:0:0:
256,192,107691,1,8,0:0:0:0:
256,192,107853,1,12,0:0:0:0:
256,192,108177,1,8,0:0:0:0:
256,192,108258,1,0,0:0:0:0:
256,192,108339,1,8,0:0:0:0:
256,192,108501,1,0,0:0:0:0:
256,192,108583,1,0,0:0:0:0:
256,192,108664,1,8,0:0:0:0:
256,192,108826,1,8,0:0:0:0:
256,192,108907,1,8,0:0:0:0:
256,192,108988,1,8,0:0:0:0:
256,192,109150,1,8,0:0:0:0:
256,192,109231,1,8,0:0:0:0:
256,192,109312,1,0,0:0:0:0:
256,192,109474,1,0,0:0:0:0:
256,192,109637,1,12,0:0:0:0:
256,192,109799,1,0,0:0:0:0:
256,192,109880,1,0,0:0:0:0:
256,192,109961,1,8,0:0:0:0:
256,192,110123,1,0,0:0:0:0:
256,192,110285,1,8,0:0:0:0:
256,192,110447,1,4,0:0:0:0:
256,192,110772,1,0,0:0:0:0:
256,192,110853,1,0,0:0:0:0:
256,192,110934,1,8,0:0:0:0:
256,192,111096,1,0,0:0:0:0:
256,192,111177,1,0,0:0:0:0:
256,192,111258,1,8,0:0:0:0:
256,192,111420,1,8,0:0:0:0:
256,192,111501,1,0,0:0:0:0:
256,192,111583,1,8,0:0:0:0:
256,192,111745,1,4,0:0:0:0:
256,192,112069,1,0,0:0:0:0:
256,192,112150,1,0,0:0:0:0:
256,192,112231,1,8,0:0:0:0:
256,192,112393,1,0,0:0:0:0:
256,192,112474,1,0,0:0:0:0:
256,192,112555,1,0,0:0:0:0:
256,192,112718,1,8,0:0:0:0:
256,192,112799,1,8,0:0:0:0:
256,192,112880,1,8,0:0:0:0:
256,192,113042,1,12,0:0:0:0:
256,192,113366,1,8,0:0:0:0:
256,192,113447,1,0,0:0:0:0:
256,192,113528,1,8,0:0:0:0:
256,192,113691,1,0,0:0:0:0:
256,192,113772,1,0,0:0:0:0:
256,192,113853,1,8,0:0:0:0:
256,192,114015,1,0,0:0:0:0:
256,192,114177,1,12,0:0:0:0:
256,192,114339,1,0,0:0:0:0:
256,192,114420,1,0,0:0:0:0:
256,192,114501,1,8,0:0:0:0:
256,192,114583,1,8,0:0:0:0:
256,192,114664,1,8,0:0:0:0:
256,192,114745,1,8,0:0:0:0:
256,192,114826,1,0,0:0:0:0:
256,192,114907,1,0,0:0:0:0:
256,192,114988,1,0,0:0:0:0:
256,192,115069,1,0,0:0:0:0:
256,192,115150,1,8,0:0:0:0:
256,192,115231,1,0,0:0:0:0:
256,192,115312,1,8,0:0:0:0:
256,192,115393,1,8,0:0:0:0:
256,192,115474,1,0,0:0:0:0:
256,192,115637,1,4,0:0:0:0:
256,192,115961,1,0,0:0:0:0:
256,192,116042,1,0,0:0:0:0:
256,192,116123,1,0,0:0:0:0:
256,192,116285,1,0,0:0:0:0:
256,192,116366,1,0,0:0:0:0:
256,192,116447,1,8,0:0:0:0:
256,192,116610,1,0,0:0:0:0:
256,192,116691,1,0,0:0:0:0:
256,192,116772,1,0,0:0:0:0:
256,192,116934,1,0,0:0:0:0:
256,192,117015,1,8,0:0:0:0:
256,192,117096,1,0,0:0:0:0:
256,192,117258,1,0,0:0:0:0:
256,192,117339,1,0,0:0:0:0:
256,192,117420,1,0,0:0:0:0:
256,192,117583,1,8,0:0:0:0:
256,192,117664,1,8,0:0:0:0:
256,192,117745,1,8,0:0:0:0:
256,192,117907,1,4,0:0:0:0:
256,192,118069,1,4,0:0:0:0:
256,192,118231,1,12,0:0:0:0:
256,192,118555,1,0,0:0:0:0:
256,192,118637,1,0,0:0:0:0:
256,192,118718,1,0,0:0:0:0:
256,192,118880,1,0,0:0:0:0:
256,192,118961,1,0,0:0:0:0:
256,192,119042,1,8,0:0:0:0:
256,192,119204,1,0,0:0:0:0:
256,192,119285,1,0,0:0:0:0:
256,192,119366,1,0,0:0:0:0:
256,192,119528,1,0,0:0:0:0:
256,192,119610,1,0,0:0:0:0:
256,192,119691,1,8,0:0:0:0:
256,192,119853,1,8,0:0:0:0:
256,192,119934,1,8,0:0:0:0:
256,192,120015,1,0,0:0:0:0:
256,192,120177,1,0,0:0:0:0:
256,192,120258,1,0,0:0:0:0:
256,192,120339,1,8,0:0:0:0:
256,192,120420,1,8,0:0:0:0:
256,192,120501,1,8,0:0:0:0:
256,192,120583,1,8,0:0:0:0:
256,192,120664,1,0,0:0:0:0:
256,192,120826,1,12,0:0:0:0:
256,192,121150,1,0,0:0:0:0:
256,192,121231,1,0,0:0:0:0:
256,192,121312,1,8,0:0:0:0:
256,192,121474,1,0,0:0:0:0:
256,192,121555,1,0,0:0:0:0:
256,192,121637,1,0,0:0:0:0:
256,192,121799,1,0,0:0:0:0:
256,192,121880,1,0,0:0:0:0:
256,192,121961,1,8,0:0:0:0:
256,192,122123,1,0,0:0:0:0:
256,192,122204,1,0,0:0:0:0:
256,192,122285,1,0,0:0:0:0:
256,192,122447,1,0,0:0:0:0:
256,192,122528,1,0,0:0:0:0:
256,192,122610,1,8,0:0:0:0:
256,192,122772,1,8,0:0:0:0:
256,192,122853,1,8,0:0:0:0:
256,192,122934,1,0,0:0:0:0:
256,192,123096,1,8,0:0:0:0:
256,192,123177,1,0,0:0:0:0:
256,192,123258,1,8,0:0:0:0:
256,192,123420,1,4,0:0:0:0:
256,192,123745,1,0,0:0:0:0:
256,192,123907,1,12,0:0:0:0:
256,192,124069,1,0,0:0:0:0:
256,192,124150,1,0,0:0:0:0:
256,192,124231,1,0,0:0:0:0:
256,192,124393,1,8,0:0:0:0:
256,192,124474,1,0,0:0:0:0:
256,192,124555,1,8,0:0:0:0:
256,192,124718,1,4,0:0:0:0:
256,192,125042,1,0,0:0:0:0:
256,192,125204,1,12,0:0:0:0:
256,192,125366,1,0,0:0:0:0:
256,192,125447,1,0,0:0:0:0:
256,192,125528,1,8,0:0:0:0:
256,192,125691,1,8,0:0:0:0:
256,192,125853,1,0,0:0:0:0:
256,192,126015,1,12,0:0:0:0:
256,192,127474,1,8,0:0:0:0:
256,192,127555,1,8,0:0:0:0:
256,192,127637,1,0,0:0:0:0:
256,192,127718,1,0,0:0:0:0:
256,192,127799,1,8,0:0:0:0:
256,192,127880,1,0,0:0:0:0:
256,192,127961,1,0,0:0:0:0:
256,192,128042,1,8,0:0:0:0:
256,192,128123,1,0,0:0:0:0:
256,192,128204,1,0,0:0:0:0:
256,192,128285,1,0,0:0:0:0:
256,192,128366,1,0,0:0:0:0:
256,192,128447,1,8,0:0:0:0:
256,192,128772,1,12,0:0:0:0:
256,192,128934,1,0,0:0:0:0:
256,192,129015,1,0,0:0:0:0:
256,192,129096,1,8,0:0:0:0:
256,192,129177,1,0,0:0:0:0:
256,192,129258,1,8,0:0:0:0:
256,192,129583,1,0,0:0:0:0:
256,192,129664,1,0,0:0:0:0:
256,192,129745,1,8,0:0:0:0:
256,192,129826,1,8,0:0:0:0:
256,192,129907,1,0,0:0:0:0:
256,192,130069,1,8,0:0:0:0:
256,192,130231,1,0,0:0:0:0:
256,192,130312,1,0,0:0:0:0:
256,192,130393,1,8,0:0:0:0:
256,192,130474,1,0,0:0:0:0:
256,192,130555,1,8,0:0:0:0:
256,192,130718,1,0,0:0:0:0:
256,192,130880,1,0,0:0:0:0:
256,192,130934,1,0,0:0:0:0:
256,192,130988,1,0,0:0:0:0:
256,192,131042,1,8,0:0:0:0:
256,192,131366,1,8,0:0:0:0:
256,192,131447,1,0,0:0:0:0:
256,192,131528,1,0,0:0:0:0:
256,192,131610,1,0,0:0:0:0:
256,192,131691,1,8,0:0:0:0:
256,192,131772,1,0,0:0:0:0:
256,192,131853,1,0,0:0:0:0:
256,192,132177,1,0,0:0:0:0:
256,192,132258,1,0,0:0:0:0:
256,192,132339,1,8,0:0:0:0:
256,192,132420,1,0,0:0:0:0:
256,192,132501,1,0,0:0:0:0:
256,192,132664,1,8,0:0:0:0:
256,192,132826,1,0,0:0:0:0:
256,192,132907,1,0,0:0:0:0:
256,192,132988,1,8,0:0:0:0:
256,192,133069,1,0,0:0:0:0:
256,192,133150,1,0,0:0:0:0:
256,192,133231,1,0,0:0:0:0:
256,192,133312,1,8,0:0:0:0:
256,192,133393,1,8,0:0:0:0:
256,192,133474,1,0,0:0:0:0:
256,192,133528,1,0,0:0:0:0:
256,192,133583,1,0,0:0:0:0:
256,192,133637,1,8,0:0:0:0:
256,192,133961,1,4,0:0:0:0:
256,192,134123,1,8,0:0:0:0:
256,192,134204,1,0,0:0:0:0:
256,192,134285,1,8,0:0:0:0:
256,192,134366,1,8,0:0:0:0:
256,192,134447,1,0,0:0:0:0:
256,192,134772,1,0,0:0:0:0:
256,192,134853,1,0,0:0:0:0:
256,192,134934,1,8,0:0:0:0:
256,192,135015,1,0,0:0:0:0:
256,192,135096,1,0,0:0:0:0:
256,192,135258,1,0,0:0:0:0:
256,192,135420,1,0,0:0:0:0:
256,192,135501,1,0,0:0:0:0:
256,192,135583,1,8,0:0:0:0:
256,192,135664,1,0,0:0:0:0:
256,192,135745,1,8,0:0:0:0:
256,192,135907,1,8,0:0:0:0:
256,192,136069,1,0,0:0:0:0:
256,192,136123,1,0,0:0:0:0:
256,192,136177,1,0,0:0:0:0:
256,192,136231,1,8,0:0:0:0:
256,192,136555,1,8,0:0:0:0:
256,192,136637,1,0,0:0:0:0:
256,192,136718,1,0,0:0:0:0:
256,192,136799,1,0,0:0:0:0:
256,192,136880,1,8,0:0:0:0:
256,192,136961,1,8,0:0:0:0:
256,192,137042,1,0,0:0:0:0:
256,192,137366,1,0,0:0:0:0:
256,192,137447,1,0,0:0:0:0:
256,192,137528,1,8,0:0:0:0:
256,192,137610,1,8,0:0:0:0:
256,192,137691,1,0,0:0:0:0:
256,192,137853,1,8,0:0:0:0:
256,192,138015,1,0,0:0:0:0:
256,192,138177,1,12,0:0:0:0:
256,192,138339,1,0,0:0:0:0:
256,192,138420,1,0,0:0:0:0:
256,192,138501,1,0,0:0:0:0:
256,192,138664,1,8,0:0:0:0:
256,192,138826,1,8,0:0:0:0:
256,192,138988,1,0,0:0:0:0:
256,192,139150,1,12,0:0:0:0:
256,192,139312,1,0,0:0:0:0:
256,192,139393,1,0,0:0:0:0:
256,192,139474,1,8,0:0:0:0:
256,192,139555,1,0,0:0:0:0:
256,192,139637,1,8,0:0:0:0:
256,192,139961,1,0,0:0:0:0:
256,192,140042,1,0,0:0:0:0:
256,192,140123,1,8,0:0:0:0:
256,192,140204,1,8,0:0:0:0:
256,192,140285,1,0,0:0:0:0:
256,192,140447,1,8,0:0:0:0:
256,192,140610,1,0,0:0:0:0:
256,192,140691,1,0,0:0:0:0:
256,192,140772,1,8,0:0:0:0:
256,192,140853,1,0,0:0:0:0:
256,192,140934,1,8,0:0:0:0:
256,192,141096,1,0,0:0:0:0:
256,192,141258,1,0,0:0:0:0:
256,192,141312,1,0,0:0:0:0:
256,192,141366,1,0,0:0:0:0:
256,192,141420,1,8,0:0:0:0:
256,192,141745,1,8,0:0:0:0:
256,192,141826,1,0,0:0:0:0:
256,192,141907,1,0,0:0:0:0:
256,192,141988,1,0,0:0:0:0:
256,192,142069,1,8,0:0:0:0:
256,192,142150,1,0,0:0:0:0:
256,192,142231,1,0,0:0:0:0:
256,192,142555,1,0,0:0:0:0:
256,192,142637,1,0,0:0:0:0:
256,192,142718,1,8,0:0:0:0:
256,192,142799,1,0,0:0:0:0:
256,192,142880,1,0,0:0:0:0:
256,192,143042,1,8,0:0:0:0:
256,192,143204,1,0,0:0:0:0:
256,192,143285,1,0,0:0:0:0:
256,192,143366,1,8,0:0:0:0:
256,192,143447,1,0,0:0:0:0:
256,192,143528,1,0,0:0:0:0:
256,192,143610,1,0,0:0:0:0:
256,192,143691,1,8,0:0:0:0:
256,192,143772,1,8,0:0:0:0:
256,192,143853,1,0,0:0:0:0:
256,192,143907,1,0,0:0:0:0:
256,192,143961,1,0,0:0:0:0:
256,192,144015,1,8,0:0:0:0:
256,192,144339,1,4,0:0:0:0:
256,192,144501,1,0,0:0:0:0:
256,192,144583,1,0,0:0:0:0:
256,192,144664,1,8,0:0:0:0:
256,192,144745,1,8,0:0:0:0:
256,192,144826,1,0,0:0:0:0:
256,192,145150,1,0,0:0:0:0:
256,192,145231,1,0,0:0:0:0:
256,192,145312,1,8,0:0:0:0:
256,192,145393,1,0,0:0:0:0:
256,192,145474,1,0,0:0:0:0:
256,192,145637,1,0,0:0:0:0:
256,192,145799,1,0,0:0:0:0:
256,192,145880,1,0,0:0:0:0:
256,192,145961,1,8,0:0:0:0:
256,192,146123,1,8,0:0:0:0:
256,192,146204,1,8,0:0:0:0:
256,192,146285,1,0,0:0:0:0:
256,192,146366,1,0,0:0:0:0:
256,192,146447,1,0,0:0:0:0:
256,192,146610,1,12,0:0:0:0:
256,192,146772,1,0,0:0:0:0:
256,192,146853,1,0,0:0:0:0:
256,192,146934,1,8,0:0:0:0:
256,192,147096,1,8,0:0:0:0:
256,192,147150,1,8,0:0:0:0:
256,192,147204,1,8,0:0:0:0:
256,192,147258,1,8,0:0:0:0:
256,192,147420,1,4,0:0:0:0:
256,192,147745,1,4,0:0:0:0:
256,192,148069,1,12,0:0:0:0:
256,192,148393,1,0,0:0:0:0:
256,192,148474,1,0,0:0:0:0:
256,192,148555,1,8,0:0:0:0:
256,192,148664,1,0,0:0:0:0:
256,192,148772,1,8,0:0:0:0:
256,192,148880,1,8,0:0:0:0:
256,192,148988,1,0,0:0:0:0:
256,192,149096,1,0,0:0:0:0:
256,192,149204,1,8,0:0:0:0:
256,192,149312,1,0,0:0:0:0:
256,192,149420,1,0,0:0:0:0:
256,192,149528,1,12,0:0:0:0:
256,192,149853,1,8,0:0:0:0:
256,192,150015,1,0,0:0:0:0:
256,192,150177,1,0,0:0:0:0:
256,192,150339,1,0,0:0:0:0:
256,192,150420,1,0,0:0:0:0:
256,192,150501,1,8,0:0:0:0:
256,192,150664,1,8,0:0:0:0:
256,192,150826,1,4,0:0:0:0:
256,192,151150,1,12,0:0:0:0:
256,192,151312,1,0,0:0:0:0:
256,192,151393,1,0,0:0:0:0:
256,192,151474,1,8,0:0:0:0:
256,192,151637,1,8,0:0:0:0:
256,192,151799,1,8,0:0:0:0:
256,192,151961,1,0,0:0:0:0:
256,192,152123,1,12,0:0:0:0:
256,192,152285,1,0,0:0:0:0:
256,192,152366,1,0,0:0:0:0:
256,192,152447,1,0,0:0:0:0:
256,192,152610,1,12,0:0:0:0:
256,192,152772,1,0,0:0:0:0:
256,192,152853,1,0,0:0:0:0:
256,192,152934,1,0,0:0:0:0:
256,192,153096,1,12,0:0:0:0:
256,192,153258,1,0,0:0:0:0:
256,192,153420,1,12,0:0:0:0:
256,192,153583,1,0,0:0:0:0:
256,192,153664,1,0,0:0:0:0:
256,192,153745,1,8,0:0:0:0:
256,192,153826,1,0,0:0:0:0:
256,192,153907,1,0,0:0:0:0:
256,192,153988,1,0,0:0:0:0:
256,192,154069,1,8,0:0:0:0:
256,192,154150,1,8,0:0:0:0:
256,192,154231,1,0,0:0:0:0:
256,192,154312,1,8,0:0:0:0:
256,192,154393,1,0,0:0:0:0:
256,192,154474,1,0,0:0:0:0:
256,192,154555,1,0,0:0:0:0:
256,192,154718,1,4,0:0:0:0:
256,192,154880,1,0,0:0:0:0:
256,192,155042,1,8,0:0:0:0:
256,192,155204,1,0,0:0:0:0:
256,192,155285,1,0,0:0:0:0:
256,192,155366,1,0,0:0:0:0:
256,192,155528,1,0,0:0:0:0:
256,192,155691,1,8,0:0:0:0:
256,192,155853,1,8,0:0:0:0:
256,192,156015,1,4,0:0:0:0:
256,192,156177,1,0,0:0:0:0:
256,192,156339,1,8,0:0:0:0:
256,192,156501,1,0,0:0:0:0:
256,192,156583,1,0,0:0:0:0:
256,192,156664,1,0,0:0:0:0:
256,192,156826,1,0,0:0:0:0:
256,192,156988,1,12,0:0:0:0:
256,192,157312,1,8,0:0:0:0:
256,192,157393,1,8,0:0:0:0:
256,192,157474,1,0,0:0:0:0:
256,192,157555,1,0,0:0:0:0:
256,192,157637,1,8,0:0:0:0:
256,192,157718,1,8,0:0:0:0:
256,192,157799,1,0,0:0:0:0:
256,192,157880,1,8,0:0:0:0:
256,192,157961,1,0,0:0:0:0:
256,192,158042,1,0,0:0:0:0:
256,192,158123,1,0,0:0:0:0:
256,192,158204,1,0,0:0:0:0:
256,192,158285,1,8,0:0:0:0:
256,192,158366,1,8,0:0:0:0:
256,192,158447,1,0,0:0:0:0:
256,192,158610,1,12,0:0:0:0:
256,192,158934,1,0,0:0:0:0:
256,192,159258,1,0,0:0:0:0:
256,192,159420,1,0,0:0:0:0:
256,192,159745,1,12,0:0:0:0:
256,192,160069,1,0,0:0:0:0:
256,192,160150,1,0,0:0:0:0:
256,192,160231,1,8,0:0:0:0:
256,192,160393,1,8,0:0:0:0:
256,192,160474,1,8,0:0:0:0:
256,192,160555,1,0,0:0:0:0:
256,192,160718,1,0,0:0:0:0:
256,192,160799,1,0,0:0:0:0:
256,192,160880,1,8,0:0:0:0:
256,192,161042,1,0,0:0:0:0:
256,192,161123,1,8,0:0:0:0:
256,192,161204,1,0,0:0:0:0:
256,192,161366,1,0,0:0:0:0:
256,192,161447,1,0,0:0:0:0:
256,192,161528,1,8,0:0:0:0:
256,192,161691,1,0,0:0:0:0:
256,192,161772,1,0,0:0:0:0:
256,192,161853,1,0,0:0:0:0:
256,192,162015,1,0,0:0:0:0:
256,192,162177,1,8,0:0:0:0:
256,192,162339,1,12,0:0:0:0:
256,192,162664,1,0,0:0:0:0:
256,192,162745,1,0,0:0:0:0:
256,192,162826,1,8,0:0:0:0:
256,192,162988,1,8,0:0:0:0:
256,192,163069,1,8,0:0:0:0:
256,192,163150,1,0,0:0:0:0:
256,192,163312,1,0,0:0:0:0:
256,192,163393,1,0,0:0:0:0:
256,192,163474,1,8,0:0:0:0:
256,192,163637,1,0,0:0:0:0:
256,192,163718,1,8,0:0:0:0:
256,192,163799,1,8,0:0:0:0:
256,192,163961,1,0,0:0:0:0:
256,192,164042,1,0,0:0:0:0:
256,192,164123,1,8,0:0:0:0:
256,192,164285,1,0,0:0:0:0:
256,192,164366,1,0,0:0:0:0:
256,192,164447,1,0,0:0:0:0:
256,192,164610,1,8,0:0:0:0:
256,192,164772,1,8,0:0:0:0:
256,192,164934,1,4,0:0:0:0:
256,192,165258,1,0,0:0:0:0:
256,192,165339,1,0,0:0:0:0:
256,192,165420,1,8,0:0:0:0:
256,192,165583,1,8,0:0:0:0:
256,192,165664,1,8,0:0:0:0:
256,192,165745,1,0,0:0:0:0:
256,192,165907,1,0,0:0:0:0:
256,192,165988,1,0,0:0:0:0:
256,192,166069,1,8,0:0:0:0:
256,192,166231,1,12,0:0:0:0:
256,192,166555,1,0,0:0:0:0:
256,192,166637,1,0,0:0:0:0:
256,192,166718,1,8,0:0:0:0:
256,192,166880,1,0,0:0:0:0:
256,192,166961,1,8,0:0:0:0:
256,192,167042,1,0,0:0:0:0:
256,192,167204,1,0,0:0:0:0:
256,192,167366,1,8,0:0:0:0:
256,192,167528,1,4,0:0:0:0:
256,192,167853,1,0,0:0:0:0:
256,192,167934,1,0,0:0:0:0:
256,192,168015,1,8,0:0:0:0:
256,192,168177,1,8,0:0:0:0:
256,192,168258,1,8,0:0:0:0:
256,192,168339,1,8,0:0:0:0:
256,192,168501,1,0,0:0:0:0:
256,192,168664,1,12,0:0:0:0:
256,192,168826,1,0,0:0:0:0:
256,192,168907,1,0,0:0:0:0:
256,192,168988,1,8,0:0:0:0:
256,192,169150,1,8,0:0:0:0:
256,192,169231,1,8,0:0:0:0:
256,192,169312,1,8,0:0:0:0:
256,192,169393,1,0,0:0:0:0:
256,192,169474,1,0,0:0:0:0:
256,192,169555,1,0,0:0:0:0:
256,192,169637,1,8,0:0:0:0:
256,192,169718,1,0,0:0:0:0:
256,192,169799,1,8,0:0:0:0:
256,192,169880,1,8,0:0:0:0:
256,192,169961,1,0,0:0:0:0:
256,192,170123,1,12,0:0:0:0:
256,192,170447,1,0,0:0:0:0:
256,192,170528,1,0,0:0:0:0:
256,192,170610,1,8,0:0:0:0:
256,192,170772,1,0,0:0:0:0:
256,192,170853,1,0,0:0:0:0:
256,192,170934,1,8,0:0:0:0:
256,192,171096,1,8,0:0:0:0:
256,192,171177,1,0,0:0:0:0:
256,192,171258,1,8,0:0:0:0:
256,192,171420,1,8,0:0:0:0:
256,192,171501,1,0,0:0:0:0:
256,192,171583,1,0,0:0:0:0:
256,192,171745,1,0,0:0:0:0:
256,192,171826,1,0,0:0:0:0:
256,192,171907,1,8,0:0:0:0:
256,192,172069,1,0,0:0:0:0:
256,192,172150,1,0,0:0:0:0:
256,192,172231,1,0,0:0:0:0:
256,192,172312,1,8,0:0:0:0:
256,192,172393,1,0,0:0:0:0:
256,192,172474,1,0,0:0:0:0:
256,192,172555,1,8,0:0:0:0:
256,192,172718,1,12,0:0:0:0:
256,192,173042,1,8,0:0:0:0:
256,192,173123,1,0,0:0:0:0:
256,192,173204,1,8,0:0:0:0:
256,192,173366,1,0,0:0:0:0:
256,192,173447,1,0,0:0:0:0:
256,192,173528,1,8,0:0:0:0:
256,192,173691,1,8,0:0:0:0:
256,192,173772,1,8,0:0:0:0:
256,192,173853,1,8,0:0:0:0:
256,192,174015,1,8,0:0:0:0:
256,192,174096,1,8,0:0:0:0:
256,192,174177,1,0,0:0:0:0:
256,192,174339,1,0,0:0:0:0:
256,192,174501,1,12,0:0:0:0:
256,192,174664,1,0,0:0:0:0:
256,192,174745,1,0,0:0:0:0:
256,192,174826,1,8,0:0:0:0:
256,192,174988,1,12,0:0:0:0:
256,192,175150,1,8,0:0:0:0:
256,192,175312,1,4,0:0:0:0:
256,192,175637,1,0,0:0:0:0:
256,192,175718,1,0,0:0:0:0:
256,192,175799,1,8,0:0:0:0:
256,192,175961,1,0,0:0:0:0:
256,192,176042,1,0,0:0:0:0:
256,192,176123,1,8,0:0:0:0:
256,192,176285,1,8,0:0:0:0:
256,192,176366,1,0,0:0:0:0:
256,192,176447,1,8,0:0:0:0:
256,192,176610,1,4,0:0:0:0:
256,192,176934,1,0,0:0:0:0:
256,192,177015,1,0,0:0:0:0:
256,192,177096,1,8,0:0:0:0:
256,192,177258,1,0,0:0:0:0:
256,192,177339,1,0,0:0:0:0:
256,192,177420,1,0,0:0:0:0:
256,192,177583,1,8,0:0:0:0:
256,192,177664,1,8,0:0:0:0:
256,192,177745,1,8,0:0:0:0:
256,192,177907,1,12,0:0:0:0:
256,192,178231,1,8,0:0:0:0:
256,192,178312,1,0,0:0:0:0:
256,192,178393,1,8,0:0:0:0:
256,192,178555,1,0,0:0:0:0:
256,192,178637,1,0,0:0:0:0:
256,192,178718,1,8,0:0:0:0:
256,192,178880,1,0,0:0:0:0:
256,192,179042,1,12,0:0:0:0:
256,192,179204,1,0,0:0:0:0:
256,192,179285,1,0,0:0:0:0:
256,192,179366,1,8,0:0:0:0:
256,192,179447,1,8,0:0:0:0:
256,192,179528,1,0,0:0:0:0:
256,192,179610,1,0,0:0:0:0:
256,192,179691,1,8,0:0:0:0:
256,192,179772,1,0,0:0:0:0:
256,192,179853,1,0,0:0:0:0:
256,192,179934,1,0,0:0:0:0:
256,192,180015,1,8,0:0:0:0:
256,192,180096,1,0,0:0:0:0:
256,192,180177,1,8,0:0:0:0:
256,192,180258,1,8,0:0:0:0:
256,192,180339,1,0,0:0:0:0:
256,192,180501,1,4,0:0:0:0:
256,192,180826,1,0,0:0:0:0:
256,192,180907,1,0,0:0:0:0:
256,192,180988,1,0,0:0:0:0:
256,192,181150,1,0,0:0:0:0:
256,192,181231,1,0,0:0:0:0:
256,192,181312,1,8,0:0:0:0:
256,192,181474,1,0,0:0:0:0:
256,192,181555,1,0,0:0:0:0:
256,192,181637,1,0,0:0:0:0:
256,192,181799,1,0,0:0:0:0:
256,192,181880,1,8,0:0:0:0:
256,192,181961,1,0,0:0:0:0:
256,192,182123,1,0,0:0:0:0:
256,192,182204,1,0,0:0:0:0:
256,192,182285,1,0,0:0:0:0:
256,192,182447,1,8,0:0:0:0:
256,192,182528,1,8,0:0:0:0:
256,192,182610,1,8,0:0:0:0:
256,192,182772,1,0,0:0:0:0:
256,192,182934,1,0,0:0:0:0:
256,192,183096,1,12,0:0:0:0:
256,192,183420,1,0,0:0:0:0:
256,192,183501,1,0,0:0:0:0:
256,192,183583,1,0,0:0:0:0:
256,192,183745,1,0,0:0:0:0:
256,192,183826,1,0,0:0:0:0:
256,192,183907,1,8,0:0:0:0:
256,192,184069,1,0,0:0:0:0:
256,192,184150,1,0,0:0:0:0:
256,192,184231,1,0,0:0:0:0:
256,192,184393,1,0,0:0:0:0:
256,192,184555,1,12,0:0:0:0:
256,192,184718,1,8,0:0:0:0:
256,192,184799,1,8,0:0:0:0:
256,192,184880,1,0,0:0:0:0:
256,192,185042,1,0,0:0:0:0:
256,192,185123,1,0,0:0:0:0:
256,192,185204,1,8,0:0:0:0:
256,192,185285,1,8,0:0:0:0:
256,192,185366,1,8,0:0:0:0:
256,192,185447,1,8,0:0:0:0:
256,192,185528,1,0,0:0:0:0:
256,192,185691,1,12,0:0:0:0:
256,192,186015,1,0,0:0:0:0:
256,192,186096,1,0,0:0:0:0:
256,192,186177,1,8,0:0:0:0:
256,192,186339,1,0,0:0:0:0:
256,192,186420,1,0,0:0:0:0:
256,192,186501,1,0,0:0:0:0:
256,192,186664,1,0,0:0:0:0:
256,192,186745,1,0,0:0:0:0:
256,192,186826,1,8,0:0:0:0:
256,192,186988,1,0,0:0:0:0:
256,192,187069,1,0,0:0:0:0:
256,192,187150,1,0,0:0:0:0:
256,192,187312,1,0,0:0:0:0:
256,192,187393,1,0,0:0:0:0:
256,192,187474,1,8,0:0:0:0:
256,192,187637,1,8,0:0:0:0:
256,192,187718,1,8,0:0:0:0:
256,192,187799,1,0,0:0:0:0:
256,192,187961,1,0,0:0:0:0:
256,192,188042,1,0,0:0:0:0:
256,192,188123,1,8,0:0:0:0:
256,192,188285,1,4,0:0:0:0:
256,192,188610,1,0,0:0:0:0:
256,192,188772,1,12,0:0:0:0:
256,192,188934,1,0,0:0:0:0:
256,192,189015,1,0,0:0:0:0:
256,192,189096,1,0,0:0:0:0:
256,192,189258,1,8,0:0:0:0:
256,192,189339,1,0,0:0:0:0:
256,192,189420,1,8,0:0:0:0:
256,192,189583,1,4,0:0:0:0:
256,192,189907,1,0,0:0:0:0:
256,192,190069,1,12,0:0:0:0:
256,192,190231,1,0,0:0:0:0:
256,192,190312,1,0,0:0:0:0:
256,192,190393,1,8,0:0:0:0:
256,192,190555,1,8,0:0:0:0:
256,192,190718,1,8,0:0:0:0:
256,192,190880,1,4,0:0:0:0:
256,192,191366,1,0,0:0:0:0:
256,192,191691,1,0,0:0:0:0:
256,192,192015,1,0,0:0:0:0:
256,192,192177,1,0,0:0:0:0:
256,192,192231,1,0,0:0:0:0:
256,192,192285,1,0,0:0:0:0:
256,192,192339,1,8,0:0:0:0:
256,192,192501,5,8,0:0:0:0:
256,192,192664,1,8,0:0:0:0:
256,192,192826,1,8,0:0:0:0:
256,192,192988,1,8,0:0:0:0:
256,192,193150,1,8,0:0:0:0:
256,192,193312,1,8,0:0:0:0:
256,192,193474,1,8,0:0:0:0:
256,192,193637,1,4,0:0:0:0:
256,192,193799,1,0,0:0:0:0:
256,192,194123,1,0,0:0:0:0:
256,192,194285,1,12,0:0:0:0:
256,192,194772,1,8,0:0:0:0:
256,192,195096,1,0,0:0:0:0:
256,192,195258,1,0,0:0:0:0:
256,192,195420,1,0,0:0:0:0:
256,192,195583,1,8,0:0:0:0:
256,192,195745,1,0,0:0:0:0:
256,192,196231,1,0,0:0:0:0:
256,192,196393,1,0,0:0:0:0:
256,192,196718,1,0,0:0:0:0:
256,192,196880,1,8,0:0:0:0:
256,192,197366,1,0,0:0:0:0:
256,192,197691,1,0,0:0:0:0:
256,192,197853,1,8,0:0:0:0:
256,192,198015,1,0,0:0:0:0:
256,192,198177,1,12,0:0:0:0:
256,192,198339,1,8,0:0:0:0:
256,192,198501,1,0,0:0:0:0:
256,192,198826,1,4,0:0:0:0:
256,192,198988,1,0,0:0:0:0:
256,192,199312,1,0,0:0:0:0:
256,192,199474,1,12,0:0:0:0:
256,192,199961,1,8,0:0:0:0:
256,192,200285,1,0,0:0:0:0:
256,192,200447,1,0,0:0:0:0:
256,192,200610,1,0,0:0:0:0:
256,192,200772,1,8,0:0:0:0:
256,192,200934,1,0,0:0:0:0:
256,192,201420,1,0,0:0:0:0:
256,192,201583,1,0,0:0:0:0:
256,192,201907,1,0,0:0:0:0:
256,192,202069,1,8,0:0:0:0:
256,192,202393,1,0,0:0:0:0:
256,192,202555,1,8,0:0:0:0:
256,192,202880,1,8,0:0:0:0:
256,192,203042,1,0,0:0:0:0:
256,192,203204,1,0,0:0:0:0:
256,192,203285,1,8,0:0:0:0:
256,192,203366,1,8,0:0:0:0:
256,192,203528,1,8,0:0:0:0:
256,192,203691,1,8,0:0:0:0:
256,192,203853,1,8,0:0:0:0:
256,192,204015,1,4,0:0:0:0:
256,192,204177,1,0,0:0:0:0:
256,192,204501,1,0,0:0:0:0:
256,192,204664,1,12,0:0:0:0:
256,192,205150,1,8,0:0:0:0:
256,192,205474,1,0,0:0:0:0:
256,192,205637,1,0,0:0:0:0:
256,192,205799,1,0,0:0:0:0:
256,192,205961,1,8,0:0:0:0:
256,192,206123,1,8,0:0:0:0:
256,192,206610,1,0,0:0:0:0:
256,192,206772,1,0,0:0:0:0:
256,192,207096,1,0,0:0:0:0:
256,192,207258,1,8,0:0:0:0:
256,192,207745,1,0,0:0:0:0:
256,192,208069,1,8,0:0:0:0:
256,192,208231,1,0,0:0:0:0:
256,192,208393,1,0,0:0:0:0:
256,192,208555,1,12,0:0:0:0:
256,192,208718,1,0,0:0:0:0:
256,192,208880,1,8,0:0:0:0:
256,192,209042,1,8,0:0:0:0:
256,192,209204,1,4,0:0:0:0:
256,192,209366,1,0,0:0:0:0:
256,192,209528,1,8,0:0:0:0:
256,192,209691,1,0,0:0:0:0:
256,192,209853,1,12,0:0:0:0:
256,192,210015,1,0,0:0:0:0:
256,192,210177,1,0,0:0:0:0:
256,192,210339,1,8,0:0:0:0:
256,192,210664,1,0,0:0:0:0:
256,192,210826,1,0,0:0:0:0:
256,192,210988,1,0,0:0:0:0:
256,192,211150,1,12,0:0:0:0:
256,192,211312,1,0,0:0:0:0:
256,192,211474,1,12,0:0:0:0:
256,192,211637,1,8,0:0:0:0:
256,192,211718,1,0,0:0:0:0:
256,192,211799,1,0,0:0:0:0:
256,192,211961,1,12,0:0:0:0:
256,192,212285,1,0,0:0:0:0:
256,192,212447,1,12,0:0:0:0:
256,192,212772,1,0,0:0:0:0:
256,192,212934,1,12,0:0:0:0:
256,192,213258,1,0,0:0:0:0:
256,192,213420,1,12,0:0:0:0:
256,192,213583,1,0,0:0:0:0:
256,192,213664,1,0,0:0:0:0:
256,192,213745,1,8,0:0:0:0:
256,192,213907,1,8,0:0:0:0:
256,192,214069,1,0,0:0:0:0:
256,192,214231,2,0,B|288:224|320:256|320:288|288:320|256:352|192:352|128:320|64:192|128:128|128:96,1,441.4
256,192,215528,1,12,0:0:0:0:
256,192,215853,1,0,0:0:0:0:
256,192,216015,1,8,0:0:0:0:
256,192,216177,1,8,0:0:0:0:
256,192,216339,1,0,0:0:0:0:
256,192,216501,1,0,0:0:0:0:
256,192,216583,1,0,0:0:0:0:
256,192,216664,1,8,0:0:0:0:
256,192,216745,1,0,0:0:0:0:
256,192,216826,1,8,0:0:0:0:
256,192,216907,1,8,0:0:0:0:
256,192,216988,1,0,0:0:0:0:
256,192,217069,1,8,0:0:0:0:
256,192,217150,1,0,0:0:0:0:
256,192,217231,1,0,0:0:0:0:
256,192,217312,1,8,0:0:0:0:
256,192,217393,1,8,0:0:0:0:
256,192,217474,1,0,0:0:0:0:
256,192,217555,1,0,0:0:0:0:
256,192,217637,1,8,0:0:0:0:
256,192,217718,1,8,0:0:0:0:
256,192,217799,1,0,0:0:0:0:
256,192,217880,1,0,0:0:0:0:
256,192,217961,1,8,0:0:0:0:
256,192,218042,1,0,0:0:0:0:
256,192,218123,1,0,0:0:0:0:
256,192,218204,1,8,0:0:0:0:
256,192,218285,1,0,0:0:0:0:
256,192,218366,1,0,0:0:0:0:
256,192,218447,1,8,0:0:0:0:
256,192,218528,1,0,0:0:0:0:
256,192,218610,1,8,0:0:0:0:
256,192,218691,1,8,0:0:0:0:
256,192,218772,1,0,0:0:0:0:
256,192,218853,1,0,0:0:0:0:
256,192,218934,1,8,0:0:0:0:
256,192,219015,1,0,0:0:0:0:
256,192,219096,1,8,0:0:0:0:
256,192,219177,1,8,0:0:0:0:
256,192,219258,1,0,0:0:0:0:
256,192,219339,1,0,0:0:0:0:
256,192,219420,1,8,0:0:0:0:
256,192,219501,1,8,0:0:0:0:
256,192,219583,1,0,0:0:0:0:
256,192,219664,1,8,0:0:0:0:
256,192,219745,1,0,0:0:0:0:
256,192,219826,1,0,0:0:0:0:
256,192,219907,1,8,0:0:0:0:
256,192,219988,1,8,0:0:0:0:
256,192,220069,1,0,0:0:0:0:
256,192,220150,1,8,0:0:0:0:
256,192,220231,1,0,0:0:0:0:
256,192,220312,1,0,0:0:0:0:
256,192,220393,1,8,0:0:0:0:
256,192,220555,1,8,0:0:0:0:
256,192,220718,1,4,0:0:0:0:
256,192,221042,1,0,0:0:0:0:
256,192,221204,1,8,0:0:0:0:
256,192,221366,1,0,0:0:0:0:
256,192,221528,1,0,0:0:0:0:
256,192,221691,1,8,0:0:0:0:
256,192,221772,1,0,0:0:0:0:
256,192,221853,1,8,0:0:0:0:
256,192,222015,1,0,0:0:0:0:
256,192,222177,1,0,0:0:0:0:
256,192,222258,1,8,0:0:0:0:
256,192,222339,1,0,0:0:0:0:
256,192,222501,1,8,0:0:0:0:
256,192,222610,1,0,0:0:0:0:
256,192,222718,1,0,0:0:0:0:
256,192,222826,1,8,0:0:0:0:
256,192,222988,1,0,0:0:0:0:
256,192,223150,1,8,0:0:0:0:
256,192,223312,1,0,0:0:0:0:
256,192,223393,1,0,0:0:0:0:
256,192,223474,1,0,0:0:0:0:
256,192,223637,1,0,0:0:0:0:
256,192,223718,1,0,0:0:0:0:
256,192,223799,1,8,0:0:0:0:
256,192,223961,1,8,0:0:0:0:
256,192,224123,1,0,0:0:0:0:
256,192,224285,1,0,0:0:0:0:
256,192,224447,1,8,0:0:0:0:
256,192,224610,1,4,0:0:0:0:
256,192,224934,1,0,0:0:0:0:
256,192,225096,1,8,0:0:0:0:
256,192,225258,1,8,0:0:0:0:
256,192,225420,1,0,0:0:0:0:
256,192,225583,1,8,0:0:0:0:
256,192,225664,1,8,0:0:0:0:
256,192,225745,1,8,0:0:0:0:
256,192,225907,1,4,0:0:0:0:
256,192,226231,1,0,0:0:0:0:
256,192,226312,1,0,0:0:0:0:
256,192,226393,1,8,0:0:0:0:
256,192,226555,1,0,0:0:0:0:
256,192,226637,1,8,0:0:0:0:
256,192,226718,1,0,0:0:0:0:
256,192,226961,1,0,0:0:0:0:
256,192,227042,1,8,0:0:0:0:
256,192,227204,1,8,0:0:0:0:
256,192,227285,1,0,0:0:0:0:
256,192,227366,1,0,0:0:0:0:
256,192,227610,1,8,0:0:0:0:
256,192,227691,1,8,0:0:0:0:
256,192,227853,1,8,0:0:0:0:
256,192,227934,1,8,0:0:0:0:
256,192,228015,1,0,0:0:0:0:
256,192,228177,1,0,0:0:0:0:
256,192,228339,1,8,0:0:0:0:
256,192,228501,1,8,0:0:0:0:
256,192,228583,1,8,0:0:0:0:
256,192,228664,1,0,0:0:0:0:
256,192,228745,1,8,0:0:0:0:
256,192,228826,1,0,0:0:0:0:
256,192,228988,1,8,0:0:0:0:
256,192,229150,1,0,0:0:0:0:
256,192,229231,1,0,0:0:0:0:
256,192,229312,1,8,0:0:0:0:
256,192,229474,1,0,0:0:0:0:
256,192,229637,1,8,0:0:0:0:
256,192,229799,1,0,0:0:0:0:
256,192,229880,1,0,0:0:0:0:
256,192,229961,1,0,0:0:0:0:
256,192,230123,1,0,0:0:0:0:
256,192,230285,1,8,0:0:0:0:
256,192,230447,1,8,0:0:0:0:
256,192,230528,1,8,0:0:0:0:
256,192,230610,1,8,0:0:0:0:
256,192,230772,1,0,0:0:0:0:
256,192,230934,1,8,0:0:0:0:
256,192,231096,1,12,0:0:0:0:
256,192,231420,5,0,0:0:0:0:
256,192,231583,1,8,0:0:0:0:
256,192,231745,1,0,0:0:0:0:
256,192,231907,1,0,0:0:0:0:
256,192,232069,1,0,0:0:0:0:
256,192,232150,1,8,0:0:0:0:
256,192,232231,1,8,0:0:0:0:
256,192,232393,1,0,0:0:0:0:
256,192,232555,1,8,0:0:0:0:
256,192,232718,1,8,0:0:0:0:
256,192,232880,1,8,0:0:0:0:
256,192,233042,1,0,0:0:0:0:
256,192,233204,1,0,0:0:0:0:
256,192,233366,1,0,0:0:0:0:
256,192,233528,1,8,0:0:0:0:
256,192,233691,1,4,0:0:0:0:
256,192,234015,1,0,0:0:0:0:
256,192,234177,1,8,0:0:0:0:
256,192,234258,1,8,0:0:0:0:
256,192,234339,1,0,0:0:0:0:
256,192,234501,1,8,0:0:0:0:
256,192,234583,1,0,0:0:0:0:
256,192,234664,1,8,0:0:0:0:
256,192,234745,1,0,0:0:0:0:
256,192,234826,1,8,0:0:0:0:
256,192,234907,1,8,0:0:0:0:
256,192,234988,1,0,0:0:0:0:
256,192,235069,1,0,0:0:0:0:
256,192,235150,1,8,0:0:0:0:
256,192,235231,1,8,0:0:0:0:
256,192,235312,1,8,0:0:0:0:
256,192,235393,1,8,0:0:0:0:
256,192,235474,1,0,0:0:0:0:
256,192,235555,1,0,0:0:0:0:
256,192,235637,1,8,0:0:0:0:
256,192,235718,1,8,0:0:0:0:
256,192,235799,1,0,0:0:0:0:
256,192,235880,1,8,0:0:0:0:
256,192,235961,1,0,0:0:0:0:
256,192,236042,1,0,0:0:0:0:
256,192,236123,1,8,0:0:0:0:
256,192,236204,1,0,0:0:0:0:
256,192,236285,1,0,0:0:0:0:
256,192,236447,1,12,0:0:0:0:
256,192,236610,1,8,0:0:0:0:
256,192,236691,1,0,0:0:0:0:
256,192,236772,1,8,0:0:0:0:
256,192,236853,1,0,0:0:0:0:
256,192,236934,1,0,0:0:0:0:
256,192,237096,1,8,0:0:0:0:
256,192,237177,1,0,0:0:0:0:
256,192,237258,1,0,0:0:0:0:
256,192,237420,1,8,0:0:0:0:
256,192,237501,1,0,0:0:0:0:
256,192,237583,1,0,0:0:0:0:
256,192,237664,1,0,0:0:0:0:
256,192,237745,1,8,0:0:0:0:
256,192,237826,1,8,0:0:0:0:
256,192,237907,1,0,0:0:0:0:
256,192,238069,1,8,0:0:0:0:
256,192,238231,1,8,0:0:0:0:
256,192,238312,1,0,0:0:0:0:
256,192,238393,1,8,0:0:0:0:
256,192,238474,1,8,0:0:0:0:
256,192,238555,1,0,0:0:0:0:
256,192,238637,1,0,0:0:0:0:
256,192,238718,1,8,0:0:0:0:
256,192,238799,1,0,0:0:0:0:
256,192,238880,1,0,0:0:0:0:
256,192,239042,1,4,0:0:0:0:
256,192,239204,1,0,0:0:0:0:
256,192,239285,1,0,0:0:0:0:
256,192,239366,1,8,0:0:0:0:
256,192,239447,1,8,0:0:0:0:
256,192,239528,1,0,0:0:0:0:
256,192,239691,1,8,0:0:0:0:
256,192,239772,1,8,0:0:0:0:
256,192,239853,1,0,0:0:0:0:
256,192,240015,1,8,0:0:0:0:
256,192,240096,1,8,0:0:0:0:
256,192,240177,1,0,0:0:0:0:
256,192,240258,1,0,0:0:0:0:
256,192,240339,1,8,0:0:0:0:
256,192,240420,1,0,0:0:0:0:
256,192,240501,1,0,0:0:0:0:
256,192,240664,1,8,0:0:0:0:
256,192,240826,1,0,0:0:0:0:
256,192,240907,1,8,0:0:0:0:
256,192,240988,1,0,0:0:0:0:
256,192,241069,1,0,0:0:0:0:
256,192,241150,1,8,0:0:0:0:
256,192,241231,1,0,0:0:0:0:
256,192,241312,1,8,0:0:0:0:
256,192,241393,1,8,0:0:0:0:
256,192,241474,1,0,0:0:0:0:
256,192,241637,1,12,0:0:0:0:
256,192,241799,1,0,0:0:0:0:
256,192,241880,1,0,0:0:0:0:
256,192,241961,1,8,0:0:0:0:
256,192,242042,1,8,0:0:0:0:
256,192,242123,1,0,0:0:0:0:
256,192,242204,1,8,0:0:0:0:
256,192,242285,1,8,0:0:0:0:
256,192,242366,1,0,0:0:0:0:
256,192,242447,1,0,0:0:0:0:
256,192,242528,1,0,0:0:0:0:
256,192,242610,1,8,0:0:0:0:
256,192,242691,1,0,0:0:0:0:
256,192,242772,1,8,0:0:0:0:
256,192,242934,1,4,0:0:0:0:
256,192,243096,1,0,0:0:0:0:
256,192,243258,1,8,0:0:0:0:
256,192,243420,1,0,0:0:0:0:
256,192,243501,1,8,0:0:0:0:
256,192,243583,1,0,0:0:0:0:
256,192,243745,1,0,0:0:0:0:
256,192,243907,1,12,0:0:0:0:
256,192,244069,1,8,0:0:0:0:
256,192,244231,1,4,0:0:0:0:
256,192,244393,1,0,0:0:0:0:
256,192,244474,1,0,0:0:0:0:
256,192,244555,1,8,0:0:0:0:
256,192,244637,1,8,0:0:0:0:
256,192,244718,1,8,0:0:0:0:
256,192,244799,1,8,0:0:0:0:
256,192,244880,1,0,0:0:0:0:
256,192,244961,1,0,0:0:0:0:
256,192,245042,1,0,0:0:0:0:
256,192,245123,1,0,0:0:0:0:
256,192,245204,1,8,0:0:0:0:
256,192,245285,1,0,0:0:0:0:
256,192,245366,1,0,0:0:0:0:
256,192,245447,1,0,0:0:0:0:
256,192,245528,1,8,0:0:0:0:
256,192,245610,1,8,0:0:0:0:
256,192,245691,1,0,0:0:0:0:
256,192,245772,1,0,0:0:0:0:
256,192,245853,1,0,0:0:0:0:
256,192,245934,1,0,0:0:0:0:
256,192,246015,1,8,0:0:0:0:
256,192,246096,1,0,0:0:0:0:
256,192,246177,1,8,0:0:0:0:
256,192,246258,1,0,0:0:0:0:
256,192,246339,1,0,0:0:0:0:
256,192,246420,1,0,0:0:0:0:
256,192,246501,1,8,0:0:0:0:
256,192,246583,1,8,0:0:0:0:
256,192,246664,1,8,0:0:0:0:
256,192,246826,1,4,0:0:0:0:
256,192,246988,1,0,0:0:0:0:
256,192,247069,1,0,0:0:0:0:
256,192,247150,1,8,0:0:0:0:
256,192,247312,1,8,0:0:0:0:
256,192,247393,1,8,0:0:0:0:
256,192,247474,1,8,0:0:0:0:
256,192,247637,1,0,0:0:0:0:
256,192,247718,1,0,0:0:0:0:
256,192,247799,1,8,0:0:0:0:
256,192,247961,1,0,0:0:0:0:
256,192,248123,1,12,0:0:0:0:
256,192,248285,1,0,0:0:0:0:
256,192,248366,1,0,0:0:0:0:
256,192,248447,1,8,0:0:0:0:
256,192,248610,1,8,0:0:0:0:
256,192,248691,1,0,0:0:0:0:
256,192,248772,1,0,0:0:0:0:
256,192,248934,1,0,0:0:0:0:
256,192,249015,1,0,0:0:0:0:
256,192,249096,1,8,0:0:0:0:
256,192,249258,1,0,0:0:0:0:
256,192,249420,1,12,0:0:0:0:
256,192,249583,1,0,0:0:0:0:
256,192,249664,1,0,0:0:0:0:
256,192,249745,1,8,0:0:0:0:
256,192,249907,1,8,0:0:0:0:
256,192,249988,1,8,0:0:0:0:
256,192,250069,1,0,0:0:0:0:
256,192,250231,1,0,0:0:0:0:
256,192,250312,1,0,0:0:0:0:
256,192,250393,1,8,0:0:0:0:
256,192,250474,1,8,0:0:0:0:
256,192,250555,1,0,0:0:0:0:
256,192,250718,1,12,0:0:0:0:
256,192,250880,1,0,0:0:0:0:
256,192,250961,1,0,0:0:0:0:
256,192,251042,1,8,0:0:0:0:
256,192,251204,1,8,0:0:0:0:
256,192,251285,1,0,0:0:0:0:
256,192,251366,1,8,0:0:0:0:
256,192,251447,1,8,0:0:0:0:
256,192,251528,1,0,0:0:0:0:
256,192,251610,1,8,0:0:0:0:
256,192,251691,1,0,0:0:0:0:
256,192,251772,1,0,0:0:0:0:
256,192,251853,1,8,0:0:0:0:
256,192,252015,1,4,0:0:0:0:
256,192,252177,1,0,0:0:0:0:
256,192,252258,1,0,0:0:0:0:
256,192,252339,1,8,0:0:0:0:
256,192,252501,1,0,0:0:0:0:
256,192,252583,1,0,0:0:0:0:
256,192,252664,1,0,0:0:0:0:
256,192,252826,1,0,0:0:0:0:
256,192,252907,1,0,0:0:0:0:
256,192,252988,1,8,0:0:0:0:
256,192,253150,1,8,0:0:0:0:
256,192,253231,1,8,0:0:0:0:
256,192,253312,1,8,0:0:0:0:
256,192,253474,1,0,0:0:0:0:
256,192,253555,1,0,0:0:0:0:
256,192,253637,1,8,0:0:0:0:
256,192,253799,1,8,0:0:0:0:
256,192,253880,1,8,0:0:0:0:
256,192,253961,1,0,0:0:0:0:
256,192,254042,1,8,0:0:0:0:
256,192,254123,1,8,0:0:0:0:
256,192,254204,1,8,0:0:0:0:
256,192,254285,1,0,0:0:0:0:
256,192,254366,1,0,0:0:0:0:
256,192,254447,1,0,0:0:0:0:
256,192,254528,1,0,0:0:0:0:
256,192,254610,1,8,0:0:0:0:
256,192,254691,1,0,0:0:0:0:
256,192,254772,1,8,0:0:0:0:
256,192,254853,1,8,0:0:0:0:
256,192,254934,1,0,0:0:0:0:
256,192,255015,1,0,0:0:0:0:
256,192,255096,1,8,0:0:0:0:
256,192,255177,1,0,0:0:0:0:
256,192,255258,1,8,0:0:0:0:
256,192,255339,1,8,0:0:0:0:
256,192,255420,1,0,0:0:0:0:
256,192,255501,1,0,0:0:0:0:
256,192,255583,1,8,0:0:0:0:
256,192,255664,1,8,0:0:0:0:
256,192,255745,1,0,0:0:0:0:
256,192,255826,1,0,0:0:0:0:
256,192,255907,1,8,0:0:0:0:
256,192,255988,1,0,0:0:0:0:
256,192,256069,1,0,0:0:0:0:
256,192,256150,1,8,0:0:0:0:
256,192,256231,1,0,0:0:0:0:
256,192,256312,1,0,0:0:0:0:
256,192,256393,1,8,0:0:0:0:
256,192,256474,1,8,0:0:0:0:
256,192,256555,1,0,0:0:0:0:
256,192,256637,1,8,0:0:0:0:
256,192,256718,1,0,0:0:0:0:
256,192,256799,1,0,0:0:0:0:
256,192,256880,1,8,0:0:0:0:
256,192,256961,1,0,0:0:0:0:
256,192,257042,1,0,0:0:0:0:
256,192,257123,1,0,0:0:0:0:
256,192,257204,1,8,0:0:0:0:
256,192,257285,1,0,0:0:0:0:
256,192,257366,1,0,0:0:0:0:
256,192,257447,1,8,0:0:0:0:
256,192,257528,1,0,0:0:0:0:
256,192,257610,1,0,0:0:0:0:
256,192,257691,1,8,0:0:0:0:
256,192,257772,1,0,0:0:0:0:
256,192,257853,1,0,0:0:0:0:
256,192,257934,1,8,0:0:0:0:
256,192,258015,1,0,0:0:0:0:
256,192,258096,1,0,0:0:0:0:
256,192,258177,1,8,0:0:0:0:
256,192,258339,1,0,0:0:0:0:
256,192,258393,1,0,0:0:0:0:
256,192,258447,1,0,0:0:0:0:
256,192,258501,1,8,0:0:0:0:
256,192,258718,1,0,0:0:0:0:
256,192,258934,1,0,0:0:0:0:
256,192,259150,1,8,0:0:0:0:
256,192,259366,1,0,0:0:0:0:
256,192,259583,1,0,0:0:0:0:
256,192,259637,1,0,0:0:0:0:
256,192,259691,1,0,0:0:0:0:
256,192,259799,1,8,0:0:0:0:
256,192,260123,1,4,0:0:0:0:
256,192,260610,1,4,0:0:0:0:
256,192,260772,1,8,0:0:0:0:
256,192,261096,1,12,0:0:0:0:
256,192,261258,1,0,0:0:0:0:
256,192,261339,1,0,0:0:0:0:
256,192,261420,1,8,0:0:0:0:
256,192,261583,1,0,0:0:0:0:
256,192,261664,1,0,0:0:0:0:
256,192,261745,1,0,0:0:0:0:
256,192,261826,1,0,0:0:0:0:
256,192,261907,1,8,0:0:0:0:
256,192,262069,1,8,0:0:0:0:
256,192,262150,1,8,0:0:0:0:
256,192,262231,1,0,0:0:0:0:
256,192,262312,1,0,0:0:0:0:
256,192,262393,1,8,0:0:0:0:
256,192,262474,1,0,0:0:0:0:
256,192,262555,1,0,0:0:0:0:
256,192,262637,1,0,0:0:0:0:
256,192,262718,1,0,0:0:0:0:
256,192,262799,1,0,0:0:0:0:
256,192,262880,1,8,0:0:0:0:
256,192,262961,1,0,0:0:0:0:
256,192,263042,1,0,0:0:0:0:
256,192,263123,1,0,0:0:0:0:
256,192,263204,1,0,0:0:0:0:
256,192,263285,1,0,0:0:0:0:
256,192,263366,1,8,0:0:0:0:
256,192,263447,1,8,0:0:0:0:
256,192,263528,1,0,0:0:0:0:
256,192,263610,1,0,0:0:0:0:
256,192,263691,1,8,0:0:0:0:
256,192,263772,1,8,0:0:0:0:
256,192,263853,1,0,0:0:0:0:
256,192,263934,1,0,0:0:0:0:
256,192,264015,1,8,0:0:0:0:
256,192,264096,1,0,0:0:0:0:
256,192,264177,1,0,0:0:0:0:
256,192,264258,1,0,0:0:0:0:
256,192,264339,1,8,0:0:0:0:
256,192,264420,1,8,0:0:0:0:
256,192,264501,1,0,0:0:0:0:
256,192,264583,1,8,0:0:0:0:
256,192,264664,1,0,0:0:0:0:
256,192,264745,1,0,0:0:0:0:
256,192,264826,1,0,0:0:0:0:
256,192,264988,1,4,0:0:0:0:
256,192,265150,1,0,0:0:0:0:
256,192,265312,1,8,0:0:0:0:
256,192,265474,1,0,0:0:0:0:
256,192,265555,1,0,0:0:0:0:
256,192,265637,1,0,0:0:0:0:
256,192,265799,1,0,0:0:0:0:
256,192,265961,1,8,0:0:0:0:
256,192,266123,1,8,0:0:0:0:
256,192,266285,1,4,0:0:0:0:
256,192,266447,1,0,0:0:0:0:
256,192,266610,1,8,0:0:0:0:
256,192,266772,1,0,0:0:0:0:
256,192,266853,1,0,0:0:0:0:
256,192,266934,1,0,0:0:0:0:
256,192,267096,1,0,0:0:0:0:
256,192,267258,1,12,0:0:0:0:
256,192,267583,1,4,0:0:0:0:
256,192,267745,1,8,0:0:0:0:
256,192,267826,1,0,0:0:0:0:
256,192,267907,1,0,0:0:0:0:
256,192,267988,1,8,0:0:0:0:
256,192,268069,1,0,0:0:0:0:
256,192,268150,1,0,0:0:0:0:
256,192,268231,1,8,0:0:0:0:
256,192,268312,1,0,0:0:0:0:
256,192,268393,1,0,0:0:0:0:
256,192,268474,1,0,0:0:0:0:
256,192,268555,1,8,0:0:0:0:
256,192,268637,1,8,0:0:0:0:
256,192,268718,1,0,0:0:0:0:
256,192,268799,1,0,0:0:0:0:
256,192,268880,1,8,0:0:0:0:
256,192,268961,1,0,0:0:0:0:
256,192,269042,1,8,0:0:0:0:
256,192,269123,1,0,0:0:0:0:
256,192,269204,1,8,0:0:0:0:
256,192,269258,1,0,0:0:0:0:
256,192,269312,1,0,0:0:0:0:
256,192,269366,1,8,0:0:0:0:
256,192,269420,1,0,0:0:0:0:
256,192,269474,1,0,0:0:0:0:
256,192,269528,1,8,0:0:0:0:
256,192,269610,1,8,0:0:0:0:
256,192,269691,1,8,0:0:0:0:
256,192,269772,1,8,0:0:0:0:
256,192,269853,1,8,0:0:0:0:
256,192,269934,1,8,0:0:0:0:
256,192,270015,1,0,0:0:0:0:
256,192,270177,1,4,0:0:0:0:
256,192,270339,1,0,0:0:0:0:
256,192,270420,1,0,0:0:0:0:
256,192,270501,1,8,0:0:0:0:
256,192,270663,1,0,0:0:0:0:
256,192,270744,1,0,0:0:0:0:
256,192,270825,1,0,0:0:0:0:
256,192,270987,1,0,0:0:0:0:
256,192,271068,1,0,0:0:0:0:
256,192,271149,1,8,0:0:0:0:
256,192,271312,1,0,0:0:0:0:
256,192,271393,1,0,0:0:0:0:
256,192,271474,1,8,0:0:0:0:
256,192,271636,1,0,0:0:0:0:
256,192,271798,1,12,0:0:0:0:
256,192,272122,1,4,0:0:0:0:
256,192,272285,1,0,0:0:0:0:
256,192,272366,1,0,0:0:0:0:
256,192,272447,1,8,0:0:0:0:
256,192,272609,1,0,0:0:0:0:
256,192,272690,1,0,0:0:0:0:
256,192,272771,1,0,0:0:0:0:
256,192,272933,1,0,0:0:0:0:
256,192,273014,1,0,0:0:0:0:
256,192,273095,1,8,0:0:0:0:
256,192,273258,1,8,0:0:0:0:
256,192,273339,1,8,0:0:0:0:
256,192,273420,1,0,0:0:0:0:
256,192,273582,1,0,0:0:0:0:
256,192,273744,1,12,0:0:0:0:
256,192,274068,1,12,0:0:0:0:
256,192,274231,1,0,0:0:0:0:
256,192,274312,1,0,0:0:0:0:
256,192,274393,1,8,0:0:0:0:
256,192,274555,1,0,0:0:0:0:
256,192,274636,1,0,0:0:0:0:
256,192,274717,1,0,0:0:0:0:
256,192,274879,1,0,0:0:0:0:
256,192,275041,1,12,0:0:0:0:
256,192,275204,1,8,0:0:0:0:
256,192,275285,1,0,0:0:0:0:
256,192,275366,1,0,0:0:0:0:
256,192,275528,1,8,0:0:0:0:
256,192,275609,1,0,0:0:0:0:
256,192,275690,1,8,0:0:0:0:
256,192,275771,1,0,0:0:0:0:
256,192,275852,1,8,0:0:0:0:
256,192,276014,1,4,0:0:0:0:
256,192,276177,1,0,0:0:0:0:
256,192,276258,1,0,0:0:0:0:
256,192,276339,1,8,0:0:0:0:
256,192,276420,1,0,0:0:0:0:
256,192,276501,1,0,0:0:0:0:
256,192,276582,1,0,0:0:0:0:
256,192,276663,1,8,0:0:0:0:
256,192,276744,1,0,0:0:0:0:
256,192,276825,1,0,0:0:0:0:
256,192,276906,1,0,0:0:0:0:
256,192,276987,1,8,0:0:0:0:
256,192,277068,1,0,0:0:0:0:
256,192,277149,1,8,0:0:0:0:
256,192,277231,1,8,0:0:0:0:
256,192,277312,1,0,0:0:0:0:
256,192,277393,1,8,0:0:0:0:
256,192,277474,1,8,0:0:0:0:
256,192,277555,1,8,0:0:0:0:
256,192,277636,1,0,0:0:0:0:
256,192,277717,1,0,0:0:0:0:
256,192,277798,1,8,0:0:0:0:
256,192,277960,1,4,0:0:0:0:
256,192,278122,1,0,0:0:0:0:
256,192,278204,1,0,0:0:0:0:
256,192,278285,1,8,0:0:0:0:
256,192,278447,1,0,0:0:0:0:
256,192,278528,1,0,0:0:0:0:
256,192,278609,1,0,0:0:0:0:
256,192,278771,1,0,0:0:0:0:
256,192,278852,1,0,0:0:0:0:
256,192,278933,1,8,0:0:0:0:
256,192,279095,1,0,0:0:0:0:
256,192,279177,1,0,0:0:0:0:
256,192,279258,1,8,0:0:0:0:
256,192,279420,1,0,0:0:0:0:
256,192,279501,1,0,0:0:0:0:
256,192,279582,1,8,0:0:0:0:
256,192,279663,1,0,0:0:0:0:
256,192,279744,1,0,0:0:0:0:
256,192,279906,1,4,0:0:0:0:
256,192,280068,1,0,0:0:0:0:
256,192,280149,1,0,0:0:0:0:
256,192,280231,1,8,0:0:0:0:
256,192,280393,1,0,0:0:0:0:
256,192,280474,1,0,0:0:0:0:
256,192,280555,1,0,0:0:0:0:
256,192,280717,1,0,0:0:0:0:
256,192,280798,1,0,0:0:0:0:
256,192,280879,1,8,0:0:0:0:
256,192,281041,1,8,0:0:0:0:
256,192,281122,1,8,0:0:0:0:
256,192,281204,1,0,0:0:0:0:
256,192,281366,1,0,0:0:0:0:
256,192,281447,1,0,0:0:0:0:
256,192,281528,1,8,0:0:0:0:
256,192,281690,1,0,0:0:0:0:
256,192,281852,1,12,0:0:0:0:
256,192,282014,1,0,0:0:0:0:
256,192,282095,1,0,0:0:0:0:
256,192,282177,1,8,0:0:0:0:
256,192,282339,1,0,0:0:0:0:
256,192,282420,1,8,0:0:0:0:
256,192,282501,1,0,0:0:0:0:
256,192,282663,1,0,0:0:0:0:
256,192,282744,1,0,0:0:0:0:
256,192,282825,1,8,0:0:0:0:
256,192,282987,1,8,0:0:0:0:
256,192,283068,1,8,0:0:0:0:
256,192,283149,1,0,0:0:0:0:
256,192,283312,1,0,0:0:0:0:
256,192,283393,1,0,0:0:0:0:
256,192,283474,1,8,0:0:0:0:
256,192,283636,1,0,0:0:0:0:
256,192,283717,1,0,0:0:0:0:
256,192,283798,1,8,0:0:0:0:
256,192,283879,1,0,0:0:0:0:
256,192,283960,1,8,0:0:0:0:
256,192,284122,1,0,0:0:0:0:
256,192,284204,1,0,0:0:0:0:
256,192,284285,1,8,0:0:0:0:
256,192,284447,1,8,0:0:0:0:
256,192,284609,1,0,0:0:0:0:
256,192,284690,1,0,0:0:0:0:
256,192,284771,1,8,0:0:0:0:
256,192,284852,1,0,0:0:0:0:
256,192,284933,1,8,0:0:0:0:
256,192,285014,1,8,0:0:0:0:
256,192,285095,1,0,0:0:0:0:
256,192,285177,1,8,0:0:0:0:
256,192,285258,1,0,0:0:0:0:
256,192,285339,1,0,0:0:0:0:
256,192,285420,1,8,0:0:0:0:
256,192,285501,1,8,0:0:0:0:
256,192,285582,1,0,0:0:0:0:
256,192,285744,1,12,0:0:0:0:
256,192,285906,1,0,0:0:0:0:
256,192,285987,1,0,0:0:0:0:
256,192,286068,1,8,0:0:0:0:
256,192,286231,1,0,0:0:0:0:
256,192,286312,1,0,0:0:0:0:
256,192,286393,1,8,0:0:0:0:
256,192,286555,1,0,0:0:0:0:
256,192,286636,1,0,0:0:0:0:
256,192,286717,1,8,0:0:0:0:
256,192,286798,1,0,0:0:0:0:
256,192,286960,1,0,0:0:0:0:
256,192,287041,1,8,0:0:0:0:
256,192,287204,1,0,0:0:0:0:
256,192,287285,1,0,0:0:0:0:
256,192,287366,1,8,0:0:0:0:
256,192,287528,1,0,0:0:0:0:
256,192,287690,1,12,0:0:0:0:
256,192,287852,1,0,0:0:0:0:
256,192,287933,1,0,0:0:0:0:
256,192,288014,1,8,0:0:0:0:
256,192,288177,1,0,0:0:0:0:
256,192,288258,1,0,0:0:0:0:
256,192,288339,1,8,0:0:0:0:
256,192,288501,1,0,0:0:0:0:
256,192,288582,1,0,0:0:0:0:
256,192,288663,1,8,0:0:0:0:
256,192,288744,1,8,0:0:0:0:
256,192,288906,1,0,0:0:0:0:
256,192,288987,1,8,0:0:0:0:
256,192,289149,1,0,0:0:0:0:
256,192,289231,1,0,0:0:0:0:
256,192,289312,1,8,0:0:0:0:
256,192,289393,1,0,0:0:0:0:
256,192,289474,1,0,0:0:0:0:
256,192,289636,1,12,0:0:0:0:
256,192,289798,1,0,0:0:0:0:
256,192,289879,1,0,0:0:0:0:
256,192,289960,1,8,0:0:0:0:
256,192,290041,1,0,0:0:0:0:
256,192,290122,1,0,0:0:0:0:
256,192,290204,1,0,0:0:0:0:
256,192,290285,1,8,0:0:0:0:
256,192,290366,1,0,0:0:0:0:
256,192,290447,1,0,0:0:0:0:
256,192,290528,1,0,0:0:0:0:
256,192,290609,1,8,0:0:0:0:
256,192,290690,1,8,0:0:0:0:
256,192,290771,1,0,0:0:0:0:
256,192,290852,1,0,0:0:0:0:
256,192,290933,1,8,0:0:0:0:
256,192,291014,1,0,0:0:0:0:
256,192,291095,1,0,0:0:0:0:
256,192,291177,1,0,0:0:0:0:
256,192,291258,1,8,0:0:0:0:
256,192,291420,1,0,0:0:0:0:
256,192,291582,1,12,0:0:0:0:
256,192,291906,1,0,0:0:0:0:
256,192,292231,1,8,0:0:0:0:
256,192,292555,1,4,0:0:0:0:
256,192,292879,1,8,0:0:0:0:
256,192,293203,1,0,0:0:0:0:
256,192,293366,1,12,0:0:0:0:
256,192,293690,1,0,0:0:0:0:
256,192,293771,1,0,0:0:0:0:
256,192,293852,1,8,0:0:0:0:
256,192,294014,1,8,0:0:0:0:
256,192,294095,1,8,0:0:0:0:
256,192,294176,1,0,0:0:0:0:
256,192,294338,1,0,0:0:0:0:
256,192,294419,1,0,0:0:0:0:
256,192,294500,1,8,0:0:0:0:
256,192,294663,1,0,0:0:0:0:
256,192,294744,1,8,0:0:0:0:
256,192,294825,1,0,0:0:0:0:
256,192,294987,1,0,0:0:0:0:
256,192,295068,1,0,0:0:0:0:
256,192,295149,1,8,0:0:0:0:
256,192,295311,1,0,0:0:0:0:
256,192,295392,1,0,0:0:0:0:
256,192,295473,1,0,0:0:0:0:
256,192,295636,1,0,0:0:0:0:
256,192,295798,1,8,0:0:0:0:
256,192,295960,1,12,0:0:0:0:
256,192,296284,1,0,0:0:0:0:
256,192,296365,1,0,0:0:0:0:
256,192,296446,1,8,0:0:0:0:
256,192,296609,1,8,0:0:0:0:
256,192,296690,1,8,0:0:0:0:
256,192,296771,1,0,0:0:0:0:
256,192,296933,1,0,0:0:0:0:
256,192,297014,1,0,0:0:0:0:
256,192,297095,1,8,0:0:0:0:
256,192,297257,1,0,0:0:0:0:
256,192,297338,1,8,0:0:0:0:
256,192,297419,1,8,0:0:0:0:
256,192,297582,1,0,0:0:0:0:
256,192,297663,1,0,0:0:0:0:
256,192,297744,1,8,0:0:0:0:
256,192,297906,1,0,0:0:0:0:
256,192,297987,1,0,0:0:0:0:
256,192,298068,1,0,0:0:0:0:
256,192,298230,1,8,0:0:0:0:
256,192,298392,1,8,0:0:0:0:
256,192,298555,1,4,0:0:0:0:
256,192,298879,1,0,0:0:0:0:
256,192,298960,1,0,0:0:0:0:
256,192,299041,1,8,0:0:0:0:
256,192,299203,1,8,0:0:0:0:
256,192,299284,1,8,0:0:0:0:
256,192,299365,1,0,0:0:0:0:
256,192,299527,1,0,0:0:0:0:
256,192,299609,1,0,0:0:0:0:
256,192,299690,1,8,0:0:0:0:
256,192,299852,1,4,0:0:0:0:
256,192,300176,1,0,0:0:0:0:
256,192,300257,1,0,0:0:0:0:
256,192,300338,1,8,0:0:0:0:
256,192,300500,1,0,0:0:0:0:
256,192,300582,1,8,0:0:0:0:
256,192,300663,1,0,0:0:0:0:
256,192,300825,1,0,0:0:0:0:
256,192,300987,1,8,0:0:0:0:
256,192,301149,1,12,0:0:0:0:
256,192,301473,1,0,0:0:0:0:
256,192,301555,1,0,0:0:0:0:
256,192,301636,1,8,0:0:0:0:
256,192,301798,1,8,0:0:0:0:
256,192,301879,1,8,0:0:0:0:
256,192,301960,1,8,0:0:0:0:
256,192,302122,1,0,0:0:0:0:
256,192,302284,1,12,0:0:0:0:
256,192,302446,1,0,0:0:0:0:
256,192,302527,1,0,0:0:0:0:
256,192,302609,1,8,0:0:0:0:
256,192,302771,1,8,0:0:0:0:
256,192,302852,1,8,0:0:0:0:
256,192,302933,1,8,0:0:0:0:
256,192,303014,1,0,0:0:0:0:
256,192,303095,1,0,0:0:0:0:
256,192,303176,1,0,0:0:0:0:
256,192,303257,1,8,0:0:0:0:
256,192,303338,1,0,0:0:0:0:
256,192,303419,1,8,0:0:0:0:
256,192,303500,1,8,0:0:0:0:
256,192,303582,1,0,0:0:0:0:
256,192,303744,1,12,0:0:0:0:
256,192,304068,1,0,0:0:0:0:
256,192,304149,1,0,0:0:0:0:
256,192,304230,1,8,0:0:0:0:
256,192,304392,1,0,0:0:0:0:
256,192,304473,1,0,0:0:0:0:
256,192,304555,1,8,0:0:0:0:
256,192,304717,1,8,0:0:0:0:
256,192,304798,1,0,0:0:0:0:
256,192,304879,1,8,0:0:0:0:
256,192,305041,1,8,0:0:0:0:
256,192,305122,1,0,0:0:0:0:
256,192,305203,1,0,0:0:0:0:
256,192,305365,1,0,0:0:0:0:
256,192,305446,1,0,0:0:0:0:
256,192,305527,1,8,0:0:0:0:
256,192,305690,1,0,0:0:0:0:
256,192,305771,1,0,0:0:0:0:
256,192,305852,1,0,0:0:0:0:
256,192,305933,1,8,0:0:0:0:
256,192,306014,1,0,0:0:0:0:
256,192,306095,1,0,0:0:0:0:
256,192,306176,1,8,0:0:0:0:
256,192,306338,1,12,0:0:0:0:
256,192,306663,1,8,0:0:0:0:
256,192,306744,1,0,0:0:0:0:
256,192,306825,1,8,0:0:0:0:
256,192,306987,1,0,0:0:0:0:
256,192,307068,1,0,0:0:0:0:
256,192,307149,1,8,0:0:0:0:
256,192,307311,1,8,0:0:0:0:
256,192,307392,1,8,0:0:0:0:
256,192,307473,1,8,0:0:0:0:
256,192,307636,1,8,0:0:0:0:
256,192,307717,1,8,0:0:0:0:
256,192,307798,1,0,0:0:0:0:
256,192,307960,1,0,0:0:0:0:
256,192,308122,1,12,0:0:0:0:
256,192,308284,1,0,0:0:0:0:
256,192,308365,1,0,0:0:0:0:
256,192,308446,1,8,0:0:0:0:
256,192,308609,1,4,0:0:0:0:
256,192,308771,1,0,0:0:0:0:
256,192,308933,1,12,0:0:0:0:
256,192,309257,1,0,0:0:0:0:
256,192,309338,1,0,0:0:0:0:
256,192,309419,1,8,0:0:0:0:
256,192,309582,1,0,0:0:0:0:
256,192,309663,1,0,0:0:0:0:
256,192,309744,1,8,0:0:0:0:
256,192,309906,1,8,0:0:0:0:
256,192,309987,1,0,0:0:0:0:
256,192,310068,1,8,0:0:0:0:
256,192,310230,1,4,0:0:0:0:
256,192,310555,1,0,0:0:0:0:
256,192,310636,1,0,0:0:0:0:
256,192,310717,1,8,0:0:0:0:
256,192,310879,1,0,0:0:0:0:
256,192,310960,1,8,0:0:0:0:
256,192,311041,1,0,0:0:0:0:
256,192,311203,1,8,0:0:0:0:
256,192,311284,1,8,0:0:0:0:
256,192,311365,1,8,0:0:0:0:
256,192,311527,1,12,0:0:0:0:
256,192,311852,1,8,0:0:0:0:
256,192,311933,1,0,0:0:0:0:
256,192,312014,1,8,0:0:0:0:
256,192,312176,1,0,0:0:0:0:
256,192,312257,1,0,0:0:0:0:
256,192,312338,1,8,0:0:0:0:
256,192,312500,1,0,0:0:0:0:
256,192,312663,1,12,0:0:0:0:
256,192,312825,1,0,0:0:0:0:
256,192,312906,1,0,0:0:0:0:
256,192,312987,1,8,0:0:0:0:
256,192,313068,1,0,0:0:0:0:
256,192,313149,1,0,0:0:0:0:
256,192,313230,1,0,0:0:0:0:
256,192,313311,1,8,0:0:0:0:
256,192,313392,1,8,0:0:0:0:
256,192,313473,1,0,0:0:0:0:
256,192,313555,1,0,0:0:0:0:
256,192,313636,1,8,0:0:0:0:
256,192,313717,1,0,0:0:0:0:
256,192,313798,1,8,0:0:0:0:
256,192,313879,1,8,0:0:0:0:
256,192,313960,1,0,0:0:0:0:
256,192,314122,1,12,0:0:0:0:
256,192,314446,1,0,0:0:0:0:
256,192,314527,1,0,0:0:0:0:
256,192,314609,1,0,0:0:0:0:
256,192,314771,1,0,0:0:0:0:
256,192,314852,1,0,0:0:0:0:
256,192,314933,1,8,0:0:0:0:
256,192,315095,1,0,0:0:0:0:
256,192,315176,1,0,0:0:0:0:
256,192,315257,1,0,0:0:0:0:
256,192,315419,1,0,0:0:0:0:
256,192,315500,1,8,0:0:0:0:
256,192,315582,1,0,0:0:0:0:
256,192,315744,1,0,0:0:0:0:
256,192,315825,1,0,0:0:0:0:
256,192,315906,1,0,0:0:0:0:
256,192,316068,1,8,0:0:0:0:
256,192,316149,1,8,0:0:0:0:
256,192,316230,1,8,0:0:0:0:
256,192,316392,1,0,0:0:0:0:
256,192,316555,1,8,0:0:0:0:
256,192,316717,1,12,0:0:0:0:
256,192,317041,1,0,0:0:0:0:
256,192,317122,1,0,0:0:0:0:
256,192,317203,1,0,0:0:0:0:
256,192,317365,1,0,0:0:0:0:
256,192,317446,1,0,0:0:0:0:
256,192,317527,1,8,0:0:0:0:
256,192,317690,1,0,0:0:0:0:
256,192,317771,1,0,0:0:0:0:
256,192,317852,1,0,0:0:0:0:
256,192,318014,1,8,0:0:0:0:
256,192,318176,1,12,0:0:0:0:
256,192,318338,1,8,0:0:0:0:
256,192,318419,1,8,0:0:0:0:
256,192,318500,1,0,0:0:0:0:
256,192,318663,1,0,0:0:0:0:
256,192,318744,1,0,0:0:0:0:
256,192,318825,1,8,0:0:0:0:
256,192,318906,1,8,0:0:0:0:
256,192,318987,1,8,0:0:0:0:
256,192,319068,1,0,0:0:0:0:
256,192,319149,1,8,0:0:0:0:
256,192,319311,1,12,0:0:0:0:
256,192,319636,1,0,0:0:0:0:
256,192,319717,1,0,0:0:0:0:
256,192,319798,1,8,0:0:0:0:
256,192,319960,1,0,0:0:0:0:
256,192,320041,1,0,0:0:0:0:
256,192,320122,1,8,0:0:0:0:
256,192,320284,1,0,0:0:0:0:
256,192,320365,1,0,0:0:0:0:
256,192,320446,1,8,0:0:0:0:
256,192,320527,1,0,0:0:0:0:
256,192,320609,1,8,0:0:0:0:
256,192,320690,1,8,0:0:0:0:
256,192,320771,1,0,0:0:0:0:
256,192,320933,1,0,0:0:0:0:
256,192,321014,1,0,0:0:0:0:
256,192,321095,1,8,0:0:0:0:
256,192,321257,1,8,0:0:0:0:
256,192,321338,1,8,0:0:0:0:
256,192,321419,1,0,0:0:0:0:
256,192,321582,1,0,0:0:0:0:
247,186,321663,1,0,0:0:0:0:
256,192,321744,1,8,0:0:0:0:
256,192,321906,1,4,0:0:0:0:
256,192,322230,1,0,0:0:0:0:
256,192,322311,1,0,0:0:0:0:
256,192,322392,1,8,0:0:0:0:
256,192,322554,1,0,0:0:0:0:
256,192,322636,1,0,0:0:0:0:
256,192,322717,1,8,0:0:0:0:
256,192,322879,1,8,0:0:0:0:
256,192,322960,1,0,0:0:0:0:
256,192,323041,1,8,0:0:0:0:
256,192,323203,1,0,0:0:0:0:
256,192,323284,1,0,0:0:0:0:
256,192,323365,1,8,0:0:0:0:
256,192,323446,1,0,0:0:0:0:
256,192,323527,1,0,0:0:0:0:
256,192,323609,1,0,0:0:0:0:
256,192,323690,1,8,0:0:0:0:
256,192,323771,1,0,0:0:0:0:
256,192,323852,1,0,0:0:0:0:
256,192,323933,1,0,0:0:0:0:
256,192,324014,1,8,0:0:0:0:
256,192,324095,1,0,0:0:0:0:
256,192,324176,1,8,0:0:0:0:
256,192,324257,1,8,0:0:0:0:
256,192,324338,1,0,0:0:0:0:
256,192,324500,1,4,0:0:0:0:
256,192,324825,1,0,0:0:0:0:
256,192,324906,1,0,0:0:0:0:
256,192,324987,1,8,0:0:0:0:
256,192,325149,1,0,0:0:0:0:
256,192,325230,1,0,0:0:0:0:
256,192,325311,1,8,0:0:0:0:
256,192,325473,1,8,0:0:0:0:
256,192,325554,1,0,0:0:0:0:
256,192,325636,1,8,0:0:0:0:
256,192,325798,1,8,0:0:0:0:
256,192,325879,1,8,0:0:0:0:
256,192,325960,5,8,0:0:0:0:
256,192,326122,1,0,0:0:0:0:
256,192,326203,1,0,0:0:0:0:
256,192,326284,1,8,0:0:0:0:
256,192,326365,1,0,0:0:0:0:
256,192,326446,1,8,0:0:0:0:
256,192,326609,1,12,0:0:0:0:
256,192,326771,1,4,0:0:0:0:
256,192,326933,1,0,0:0:0:0:
256,192,327095,1,12,0:0:0:0:
256,192,327257,1,0,0:0:0:0:
256,192,327419,1,8,0:0:0:0:
256,192,327500,1,0,0:0:0:0:
256,192,327582,1,8,0:0:0:0:
256,192,327744,1,0,0:0:0:0:
256,192,327825,1,0,0:0:0:0:
256,192,327906,1,8,0:0:0:0:
256,192,328068,1,8,0:0:0:0:
256,192,328149,1,8,0:0:0:0:
256,192,328230,1,8,0:0:0:0:
256,192,328392,1,0,0:0:0:0:
256,192,328473,1,8,0:0:0:0:
256,192,328554,1,8,0:0:0:0:
256,192,328717,1,0,0:0:0:0:
256,192,328798,1,0,0:0:0:0:
256,192,328879,1,8,0:0:0:0:
256,192,328960,1,0,0:0:0:0:
256,192,329041,1,0,0:0:0:0:
256,192,329203,1,8,0:0:0:0:
256,192,329365,1,0,0:0:0:0:
256,192,329527,1,0,0:0:0:0:
256,192,329690,1,12,0:0:0:0:
256,192,330176,1,0,0:0:0:0:
256,192,330500,1,0,0:0:0:0:
256,192,330663,1,8,0:0:0:0:
256,192,330825,1,8,0:0:0:0:
256,192,330987,1,4,0:0:0:0:
256,192,331473,1,0,0:0:0:0:
256,192,331798,1,8,0:0:0:0:
256,192,331960,1,0,0:0:0:0:
256,192,332122,1,8,0:0:0:0:
256,192,332284,1,4,0:0:0:0:
256,192,332771,1,8,0:0:0:0:
256,192,333095,1,0,0:0:0:0:
256,192,333257,1,8,0:0:0:0:
256,192,333419,1,0,0:0:0:0:
256,192,333582,1,12,0:0:0:0:
256,192,334392,1,0,0:0:0:0:
256,192,334554,1,0,0:0:0:0:
256,192,334879,1,12,0:0:0:0:
256,192,335203,1,0,0:0:0:0:
256,192,335284,1,0,0:0:0:0:
256,192,335365,1,8,0:0:0:0:
256,192,335527,1,8,0:0:0:0:
256,192,335609,1,8,0:0:0:0:
256,192,335690,1,0,0:0:0:0:
256,192,335852,1,0,0:0:0:0:
256,192,335933,1,0,0:0:0:0:
256,192,336014,1,8,0:0:0:0:
256,192,336176,1,0,0:0:0:0:
256,192,336257,1,0,0:0:0:0:
256,192,336338,1,0,0:0:0:0:
256,192,336500,1,8,0:0:0:0:
256,192,336582,1,0,0:0:0:0:
256,192,336663,1,8,0:0:0:0:
256,192,336825,1,8,0:0:0:0:
256,192,336906,1,0,0:0:0:0:
256,192,336987,1,0,0:0:0:0:
256,192,337149,1,0,0:0:0:0:
256,192,337311,1,8,0:0:0:0:
256,192,337473,1,4,0:0:0:0:
256,192,337798,1,0,0:0:0:0:
256,192,337879,1,0,0:0:0:0:
256,192,337960,1,8,0:0:0:0:
256,192,338122,1,8,0:0:0:0:
256,192,338203,1,8,0:0:0:0:
256,192,338284,1,0,0:0:0:0:
256,192,338446,1,0,0:0:0:0:
256,192,338527,1,0,0:0:0:0:
256,192,338609,1,8,0:0:0:0:
256,192,338771,1,8,0:0:0:0:
256,192,338933,1,4,0:0:0:0:
256,192,339095,1,0,0:0:0:0:
256,192,339176,1,8,0:0:0:0:
256,192,339257,1,8,0:0:0:0:
256,192,339419,1,0,0:0:0:0:
256,192,339500,1,0,0:0:0:0:
256,192,339582,1,8,0:0:0:0:
256,192,339744,1,0,0:0:0:0:
256,192,339825,1,0,0:0:0:0:
256,192,339906,1,8,0:0:0:0:
256,192,340068,1,4,0:0:0:0:
256,192,340392,1,0,0:0:0:0:
256,192,340473,1,0,0:0:0:0:
256,192,340554,1,8,0:0:0:0:
256,192,340717,1,8,0:0:0:0:
256,192,340798,1,8,0:0:0:0:
256,192,340879,1,8,0:0:0:0:
256,192,341041,1,0,0:0:0:0:
256,192,341122,1,0,0:0:0:0:
256,192,341203,1,8,0:0:0:0:
256,192,341365,1,0,0:0:0:0:
256,192,341446,1,8,0:0:0:0:
256,192,341527,1,0,0:0:0:0:
256,192,341690,1,0,0:0:0:0:
256,192,341771,1,0,0:0:0:0:
256,192,341852,1,8,0:0:0:0:
256,192,342014,1,8,0:0:0:0:
256,192,342095,1,8,0:0:0:0:
256,192,342176,1,0,0:0:0:0:
256,192,342338,1,8,0:0:0:0:
256,192,342500,1,8,0:0:0:0:
256,192,342663,1,4,0:0:0:0:
256,192,342987,1,0,0:0:0:0:
256,192,343068,1,0,0:0:0:0:
256,192,343149,1,8,0:0:0:0:
256,192,343311,1,8,0:0:0:0:
256,192,343392,1,8,0:0:0:0:
256,192,343473,1,0,0:0:0:0:
256,192,343636,1,0,0:0:0:0:
256,192,343798,1,12,0:0:0:0:
256,192,343960,1,0,0:0:0:0:
256,192,344041,1,0,0:0:0:0:
256,192,344122,1,8,0:0:0:0:
256,192,344203,1,8,0:0:0:0:
256,192,344284,1,0,0:0:0:0:
256,192,344365,1,8,0:0:0:0:
256,192,344446,1,8,0:0:0:0:
256,192,344527,1,8,0:0:0:0:
256,192,344609,1,0,0:0:0:0:
256,192,344690,1,0,0:0:0:0:
256,192,344771,1,8,0:0:0:0:
256,192,344852,1,8,0:0:0:0:
256,192,344933,1,0,0:0:0:0:
256,192,345014,1,0,0:0:0:0:
256,192,345095,1,0,0:0:0:0:
256,192,345257,1,12,0:0:0:0:
256,192,345582,1,0,0:0:0:0:
256,192,345663,1,0,0:0:0:0:
256,192,345744,1,8,0:0:0:0:
256,192,345906,1,8,0:0:0:0:
256,192,345987,1,8,0:0:0:0:
256,192,346068,1,0,0:0:0:0:
256,192,346230,1,0,0:0:0:0:
256,192,346311,1,0,0:0:0:0:
256,192,346392,1,8,0:0:0:0:
256,192,346554,1,0,0:0:0:0:
256,192,346636,1,0,0:0:0:0:
256,192,346717,1,0,0:0:0:0:
256,192,346879,1,8,0:0:0:0:
256,192,346960,1,0,0:0:0:0:
256,192,347041,1,8,0:0:0:0:
256,192,347203,1,8,0:0:0:0:
256,192,347284,1,0,0:0:0:0:
256,192,347365,1,0,0:0:0:0:
256,192,347527,1,12,0:0:0:0:
256,192,347690,1,4,0:0:0:0:
256,192,347852,1,12,0:0:0:0:
256,192,348176,1,0,0:0:0:0:
256,192,348257,1,0,0:0:0:0:
256,192,348338,1,8,0:0:0:0:
256,192,348500,1,8,0:0:0:0:
256,192,348582,1,8,0:0:0:0:
256,192,348663,1,0,0:0:0:0:
256,192,348825,1,0,0:0:0:0:
256,192,348906,1,0,0:0:0:0:
256,192,348987,1,8,0:0:0:0:
256,192,349068,1,0,0:0:0:0:
256,192,349149,1,8,0:0:0:0:
256,192,349311,1,4,0:0:0:0:
256,192,349473,1,0,0:0:0:0:
256,192,349636,1,12,0:0:0:0:
256,192,349798,1,0,0:0:0:0:
256,192,349879,1,0,0:0:0:0:
256,192,349960,1,8,0:0:0:0:
256,192,350041,1,8,0:0:0:0:
256,192,350122,1,0,0:0:0:0:
256,192,350203,1,8,0:0:0:0:
256,192,350284,1,0,0:0:0:0:
256,192,350446,1,12,0:0:0:0:
256,192,350771,1,0,0:0:0:0:
256,192,350852,1,0,0:0:0:0:
256,192,350933,1,8,0:0:0:0:
256,192,351095,1,8,0:0:0:0:
256,192,351176,1,8,0:0:0:0:
256,192,351257,1,8,0:0:0:0:
256,192,351419,1,0,0:0:0:0:
256,192,351500,1,0,0:0:0:0:
256,192,351582,1,8,0:0:0:0:
256,192,351744,1,0,0:0:0:0:
256,192,351825,1,8,0:0:0:0:
256,192,351906,1,0,0:0:0:0:
256,192,352068,1,0,0:0:0:0:
256,192,352149,1,0,0:0:0:0:
256,192,352230,1,8,0:0:0:0:
256,192,352392,1,8,0:0:0:0:
256,192,352473,1,8,0:0:0:0:
256,192,352554,1,0,0:0:0:0:
256,192,352717,1,12,0:0:0:0:
256,192,352879,1,8,0:0:0:0:
256,192,353041,1,4,0:0:0:0:
256,192,353365,1,0,0:0:0:0:
256,192,353446,1,0,0:0:0:0:
256,192,353527,1,8,0:0:0:0:
256,192,353690,1,8,0:0:0:0:
256,192,353771,1,8,0:0:0:0:
256,192,353852,1,0,0:0:0:0:
256,192,354014,1,8,0:0:0:0:
256,192,354095,1,0,0:0:0:0:
256,192,354176,1,8,0:0:0:0:
256,192,354338,1,0,0:0:0:0:
256,192,354500,1,4,0:0:0:0:
256,192,354663,1,8,0:0:0:0:
256,192,354825,1,12,0:0:0:0:
256,192,354987,1,0,0:0:0:0:
256,192,355068,1,0,0:0:0:0:
256,192,355149,1,8,0:0:0:0:
256,192,355230,1,8,0:0:0:0:
256,192,355311,1,0,0:0:0:0:
256,192,355392,1,0,0:0:0:0:
256,192,355473,1,8,0:0:0:0:
256,192,355636,1,12,0:0:0:0:
