osu file format v14

[General]
AudioFilename: audio.mp3
AudioLeadIn: 0
PreviewTime: 184314
Countdown: 0
SampleSet: Soft
StackLeniency: 0.3
Mode: 0
LetterboxInBreaks: 0
WidescreenStoryboard: 1

[Editor]
Bookmarks: 29981,56648,78648,99981,121314,163981,185314,207982,246648,267981,278648,299981,326648,347981,371314,393980,491980,497647
DistanceSpacing: 0.7
BeatDivisor: 6
GridSize: 8
TimelineZoom: 5.799996

[Metadata]
Title:Koyoi wa Hyouitsu na Egoist ~ Ego, Schizoid, Beat.
TitleUnicode:今宵は飄逸なエゴイスト ~ Ego, Schizoid, Beat.
Artist:Demetori
ArtistUnicode:Demetori
Creator:verychill
Version:Lunatic.
Source:東方憑依華 ~ Antinomy of Common Flowers.
Tags:instrumental metal marathon Jo'on Yorigami Shion c94 comiket 94 ZUN 東方project touhou Joon Spirit Possession Bloom Tonight Stars an Easygoing Egoistic Flowers 瑰狂鬱嵂 rock
BeatmapID:3352435
BeatmapSetID:1642338

[Difficulty]
HPDrainRate:5
CircleSize:5
OverallDifficulty:9
ApproachRate:9.2
SliderMultiplier:1.5
SliderTickRate:0.5

[Events]
//Background and Video events
0,0,"esb_bg.jpg",0,0
//Break Periods
2,208182,226078
//Storyboard Layer 0 (Background)
//Storyboard Layer 1 (Fail)
//Storyboard Layer 2 (Pass)
//Storyboard Layer 3 (Foreground)
//Storyboard Layer 4 (Overlay)
//Storyboard Sound Samples

[TimingPoints]
1982,333.333333333333,4,2,2,45,1,0
5315,-333.333333333333,4,2,2,45,0,0
7315,-142.857142857143,4,2,2,45,0,0
23315,-200,4,2,2,40,0,0
29815,-200,4,2,2,20,0,0
29981,-100,4,2,1,60,0,0
31981,-66.6666666666667,4,2,1,60,0,0
32231,-66.6666666666667,4,2,1,5,0,0
32315,-66.6666666666667,4,2,1,60,0,0
32565,-66.6666666666667,4,2,1,5,0,0
32648,-100,4,2,1,60,0,0
34648,-66.6666666666667,4,2,1,60,0,0
34898,-66.6666666666667,4,2,1,5,0,0
34981,-66.6666666666667,4,2,1,60,0,0
35231,-66.6666666666667,4,2,1,5,0,0
35315,-100,4,2,1,60,0,0
37315,-66.6666666666667,4,2,1,60,0,0
37565,-66.6666666666667,4,2,1,5,0,0
37648,-66.6666666666667,4,2,1,60,0,0
37898,-66.6666666666667,4,2,1,5,0,0
37981,-100,4,2,1,60,0,0
39981,-66.6666666666667,4,2,1,60,0,0
40648,-166.666666666667,4,2,1,60,0,0
41148,-100,4,2,1,60,0,0
41231,-100,4,2,1,5,0,0
41315,-125,4,2,1,60,0,0
41565,-125,4,2,1,5,0,0
41648,-125,4,2,1,60,0,0
42565,-125,4,2,1,5,0,0
42648,-100,4,2,1,60,0,0
42898,-100,4,2,1,5,0,0
42981,-100,4,2,1,60,0,0
43231,-100,4,2,1,5,0,0
43315,-166.666666666667,4,2,1,60,0,0
43815,-100,4,2,1,60,0,0
43898,-100,4,2,1,5,0,0
43981,-125,4,2,1,60,0,0
44231,-125,4,2,1,5,0,0
44315,-125,4,2,1,60,0,0
45231,-125,4,2,1,5,0,0
45315,-100,4,2,1,60,0,0
45565,-100,4,2,1,5,0,0
45648,-100,4,2,1,60,0,0
45898,-100,4,2,1,5,0,0
45981,-125,4,2,1,60,0,0
46565,-100,4,2,1,60,0,0
47065,-125,4,2,1,60,0,0
48898,-125,4,2,1,5,0,0
48981,-100,4,2,1,60,0,0
50648,-76.9230769230769,4,2,1,60,0,0
50981,-66.6666666666667,4,2,1,60,0,0
51259,-66.6666666666667,4,2,1,20,0,0
51315,-125,4,2,2,60,0,0
51648,-83.3333333333333,4,2,1,60,0,0
52648,-125,4,2,1,60,0,0
53315,-125,4,2,2,60,0,0
53981,-83.3333333333333,4,2,1,60,0,0
54231,-83.3333333333333,4,2,1,5,0,0
54315,-100,4,2,1,60,0,0
54426,-100,4,2,2,60,0,0
55065,-100,4,2,1,5,0,0
55148,-100,4,2,2,60,0,0
55315,-100,4,2,1,60,0,0
55981,-76.9230769230769,4,2,1,60,0,0
56315,-76.9230769230769,4,2,2,60,0,0
56648,-76.9230769230769,4,2,1,70,0,0
67064,-76.9230769230769,4,2,2,70,0,0
67315,-76.9230769230769,4,2,1,70,0,0
76814,-76.9230769230769,4,2,2,70,0,0
76981,-76.9230769230769,4,2,1,70,0,0
77064,-76.9230769230769,4,2,2,70,0,0
77315,-76.9230769230769,4,2,1,70,0,0
77981,-125,4,2,1,50,0,0
78648,333.333333333333,4,2,1,70,1,0
81231,-100,4,2,1,5,0,0
81314,-100,4,2,1,70,0,0
86731,-100,4,2,1,5,0,0
86814,-100,4,2,1,70,0,0
99647,-100,4,2,2,70,0,0
99981,-80,4,2,1,75,0,0
103981,-100,4,2,1,75,0,0
105314,-80,4,2,1,75,0,0
109397,-100,4,2,1,75,0,0
110369,-100,4,2,2,75,0,0
110647,-80,4,2,1,75,0,0
114647,-100,4,2,1,75,0,0
115981,-80,4,2,1,75,0,0
119481,-80,4,2,2,75,0,0
119647,-80,4,2,1,75,0,0
119814,-100,4,2,1,70,0,0
119897,-100,4,2,1,5,0,0
120147,-100,4,2,1,70,0,0
120231,-100,4,2,1,5,0,0
120481,-100,4,2,1,70,0,0
120564,-100,4,2,1,5,0,0
120647,-100,4,2,1,70,0,0
120731,-100,4,2,1,5,0,0
120814,-100,4,2,1,70,0,0
120897,-100,4,2,1,5,0,0
120981,-100,4,2,1,70,0,0
121314,-100,4,2,1,55,0,0
126647,-100,4,2,1,60,0,0
129314,-100,4,2,1,70,0,0
131647,-100,4,2,2,70,0,0
131981,-100,4,2,1,70,0,0
142564,-100,4,2,1,5,0,0
142647,-166.666666666667,4,2,1,70,0,0
143231,-166.666666666667,4,2,1,5,0,0
143314,-166.666666666667,4,2,1,70,0,0
143897,-166.666666666667,4,2,1,5,0,0
143981,-166.666666666667,4,2,1,70,0,0
144897,-166.666666666667,4,2,1,5,0,0
144981,-166.666666666667,4,2,1,70,0,0
146231,-166.666666666667,4,2,1,5,0,0
146314,-166.666666666667,4,2,1,70,0,0
147231,-166.666666666667,4,2,1,5,0,0
147314,-166.666666666667,4,2,1,70,0,0
148147,-133.333333333333,4,2,1,70,0,0
148564,-133.333333333333,4,2,1,5,0,0
148647,-133.333333333333,4,2,1,70,0,0
149231,-133.333333333333,4,2,1,5,0,0
149314,-133.333333333333,4,2,1,70,0,0
150897,-133.333333333333,4,2,1,5,0,0
150981,-133.333333333333,4,2,1,70,0,0
152981,-133.333333333333,4,2,2,70,0,0
153314,-133.333333333333,4,2,1,70,0,0
153481,-111.111111111111,4,2,1,70,0,0
154897,-111.111111111111,4,2,1,5,0,0
154981,-111.111111111111,4,2,1,70,0,0
161314,-100,4,2,1,70,0,0
161481,-100,4,2,2,70,0,0
162314,-100,4,2,1,70,0,0
162397,-100,4,2,2,70,0,0
162481,-100,4,2,1,70,0,0
162564,-100,4,2,2,70,0,0
162647,-100,4,2,1,70,0,0
163397,-100,4,2,2,70,0,0
163481,-100,4,2,1,70,0,0
163564,-100,4,2,2,70,0,0
163981,-100,4,2,1,60,0,0
165231,-100,4,2,2,60,0,0
165897,-100,4,2,1,60,0,0
166481,-100,4,2,2,60,0,0
166647,-100,4,2,1,60,0,0
167898,-100,4,2,2,60,0,0
168481,-100,4,2,1,60,0,0
168647,-100,4,2,2,60,0,0
168981,-100,4,2,1,60,0,0
169231,-100,4,2,1,5,0,0
169314,-100,4,2,1,60,0,0
170564,-100,4,2,2,60,0,0
171231,-100,4,2,1,60,0,0
171814,-100,4,2,2,60,0,0
171981,-100,4,2,1,60,0,0
173981,-100,4,2,2,60,0,0
174314,-100,4,2,1,60,0,0
174564,-100,4,2,1,5,0,0
174647,-100,4,2,1,70,0,0
175981,-76.9230769230769,4,2,1,70,0,0
179813,-76.9230769230769,4,2,2,70,0,0
179981,-76.9230769230769,4,2,1,70,0,0
183981,-83.3333333333333,4,2,1,70,0,0
184147,-125,4,2,2,50,0,0
184314,-125,4,2,1,50,0,0
184647,-125,4,2,2,50,0,0
185314,-71.4285714285714,4,2,1,75,0,1
203981,-80,4,2,1,75,0,1
204870,-80,4,2,2,75,0,1
205314,-80,4,2,1,70,0,1
206147,-111.111111111111,4,2,2,70,0,1
206647,-111.111111111111,4,2,1,70,0,1
207314,-111.111111111111,4,2,2,70,0,1
207982,341.880341880342,4,2,1,60,1,0
209349,333.333333333333,4,2,1,60,1,0
212681,317.460317460317,4,2,1,60,1,0
213315,333.333333333333,4,2,1,60,1,0
226648,-250,4,2,2,45,0,0
227981,-200,4,2,2,45,0,0
229314,-166.666666666667,4,2,2,45,0,0
229898,-166.666666666667,4,2,1,5,0,0
229981,-153.846153846154,4,2,2,45,0,0
231981,-200,4,2,2,45,0,0
234648,-153.846153846154,4,2,2,45,0,0
237314,-200,4,2,2,45,0,0
239981,-166.666666666667,4,2,2,45,0,0
241231,-166.666666666667,4,2,1,5,0,0
241314,-200,4,2,2,45,0,0
241898,-200,4,2,1,5,0,0
241981,-200,4,2,2,45,0,0
242564,-200,4,2,1,5,0,0
242648,-166.666666666667,4,2,2,50,0,0
242981,-142.857142857143,4,2,2,50,0,0
243314,-125,4,2,2,50,0,0
243648,-125,4,2,1,55,0,0
243981,-125,4,2,1,60,0,0
244648,-125,4,2,1,65,0,0
245148,-125,4,2,2,65,0,0
245314,-125,4,2,1,70,0,0
245398,-125,4,2,2,70,0,0
245648,-125,4,2,2,50,0,0
245981,-125,4,2,2,55,0,0
246314,-125,4,2,2,60,0,0
246648,-80,4,2,1,70,0,0
251814,-80,4,2,2,70,0,0
251981,-80,4,2,1,70,0,0
256564,-80,4,2,1,5,0,0
256648,-80,4,2,1,70,0,0
262481,-80,4,2,2,70,0,0
262648,-86.9565217391304,4,2,1,75,0,0
263398,-86.9565217391304,4,2,2,75,0,0
263648,-86.9565217391304,4,2,1,75,0,0
263731,-86.9565217391304,4,2,2,75,0,0
263981,-86.9565217391304,4,2,1,75,0,0
264731,-86.9565217391304,4,2,2,75,0,0
264981,-86.9565217391304,4,2,1,75,0,0
265064,-86.9565217391304,4,2,2,75,0,0
265314,-86.9565217391304,4,2,1,75,0,0
267314,-86.9565217391304,4,2,2,75,0,0
267981,-76.9230769230769,4,2,1,60,0,0
268314,-125,4,2,1,60,0,0
268814,-86.9565217391304,4,2,1,60,0,0
270480,-86.9565217391304,4,2,2,60,0,0
270648,-86.9565217391304,4,2,1,60,0,0
272092,-86.9565217391304,4,2,2,60,0,0
272648,-125,4,2,1,60,0,0
273092,-86.9565217391304,4,2,1,60,0,0
273314,-76.9230769230769,4,2,1,60,0,0
273564,-76.9230769230769,4,2,1,5,0,0
273648,-86.9565217391304,4,2,1,60,0,0
274564,-86.9565217391304,4,2,2,60,0,0
274648,-86.9565217391304,4,2,1,60,0,0
274731,-86.9565217391304,4,2,2,60,0,0
274981,-86.9565217391304,4,2,1,60,0,0
275814,-86.9565217391304,4,2,2,60,0,0
275981,-76.9230769230769,4,2,1,70,0,0
277981,-76.9230769230769,4,2,2,70,0,0
278148,-76.9230769230769,4,2,1,70,0,0
278648,-76.9230769230769,4,2,1,70,0,0
279064,-76.9230769230769,4,2,2,70,0,0
279314,-76.9230769230769,4,2,1,70,0,0
279731,-76.9230769230769,4,2,2,70,0,0
279981,-76.9230769230769,4,2,1,70,0,0
280398,-76.9230769230769,4,2,2,70,0,0
280981,-76.9230769230769,4,2,1,70,0,0
284398,-76.9230769230769,4,2,2,70,0,0
284648,-76.9230769230769,4,2,1,70,0,0
285064,-76.9230769230769,4,2,2,70,0,0
286314,-76.9230769230769,4,2,1,70,0,0
289314,-100,4,2,1,70,0,0
289981,-83.3333333333333,4,2,1,70,0,0
290648,-71.4285714285714,4,2,1,70,0,0
291314,-62.5,4,2,1,70,0,0
292648,-71.4285714285714,4,2,1,70,0,0
293314,-83.3333333333333,4,2,1,70,0,0
293981,-100,4,2,1,70,0,0
294648,-90.9090909090909,4,2,1,70,0,0
298648,-100,4,2,1,70,0,0
299148,-76.9230769230769,4,2,1,70,0,0
299981,-66.6666666666667,4,2,1,75,0,1
310481,-66.6666666666667,4,2,2,75,0,1
310648,-66.6666666666667,4,2,1,75,0,0
315981,-66.6666666666667,4,2,1,75,0,1
316398,-66.6666666666667,4,2,1,5,0,1
316481,-66.6666666666667,4,2,1,75,0,1
319981,-80,4,2,1,70,0,0
320426,-80,4,2,2,70,0,0
320648,-80,4,2,1,70,0,0
320981,-80,4,2,2,70,0,0
321314,-80,4,2,1,75,0,1
323314,-66.6666666666667,4,2,1,75,0,1
323564,-66.6666666666667,4,2,1,5,0,1
323648,-66.6666666666667,4,2,1,75,0,1
323898,-66.6666666666667,4,2,1,5,0,1
323981,-66.6666666666667,4,2,1,75,0,1
324231,-66.6666666666667,4,2,1,5,0,1
324314,-66.6666666666667,4,2,1,75,0,1
325147,-66.6666666666667,4,2,2,75,0,1
325314,-76.9230769230769,4,2,1,75,0,0
325898,-76.9230769230769,4,2,1,5,0,0
325981,-125,4,2,1,60,0,0
326648,-142.857142857143,4,2,1,55,0,0
329314,-153.846153846154,4,2,1,55,0,0
329648,-153.846153846154,4,2,2,55,0,0
330648,-153.846153846154,4,2,1,55,0,0
330981,-117.647058823529,4,2,1,55,0,0
331648,-117.647058823529,4,2,2,55,0,0
331981,-117.647058823529,4,2,1,60,0,0
334648,-86.9565217391304,4,2,1,60,0,0
336981,-86.9565217391304,4,2,2,60,0,0
337314,-80,4,2,1,70,0,0
346981,-80,4,2,2,70,0,0
347064,-80,4,2,1,70,0,0
347148,-80,4,2,2,70,0,0
347231,-80,4,2,1,70,0,0
347314,-80,4,2,2,70,0,0
347369,-80,4,2,1,70,0,0
347480,-80,4,2,2,70,0,0
347648,-80,4,2,1,70,0,0
347814,-80,4,2,2,70,0,0
347981,-100,4,2,1,70,0,0
350314,-100,4,2,2,70,0,0
350648,-100,4,2,1,70,0,0
352759,-100,4,2,2,70,0,0
352981,-100,4,2,1,70,0,0
353981,-80,4,2,1,70,0,0
355648,-80,4,2,2,70,0,0
355814,-80,4,2,1,70,0,0
358314,-80,4,2,2,70,0,0
358648,-80,4,2,1,70,0,0
366814,-80,4,2,2,70,0,0
367148,-80,4,2,1,70,0,0
367981,-57.1428571428571,4,2,1,70,0,0
368481,-250,4,2,2,45,0,0
371314,333.333333333333,4,2,2,50,1,0
371314,-142.857142857143,4,2,2,50,0,0
387314,-166.666666666667,4,2,2,45,0,0
389980,-76.9230769230769,4,2,1,60,0,0
390647,-76.9230769230769,4,2,1,70,0,0
392897,-76.9230769230769,4,2,1,5,0,0
392980,-142.857142857143,4,2,1,60,0,0
393314,-111.111111111111,4,2,1,65,0,0
393647,-80,4,2,1,70,0,0
393980,-80,4,2,1,75,0,1
394814,-66.6666666666667,4,2,1,75,0,1
414813,-66.6666666666667,4,2,1,75,0,0
415313,-80,4,2,1,75,0,1
431480,-66.6666666666667,4,2,1,75,0,1
432647,-80,4,2,1,75,0,1
433563,-105.263157894737,4,2,1,75,0,1
433897,-105.263157894737,4,2,2,5,0,1
433980,-80,4,2,1,75,0,1
434230,-68.9655172413793,4,2,1,75,0,1
434480,-60.6060606060606,4,2,1,75,0,1
435313,-80,4,2,1,75,0,0
435563,-80,4,2,1,5,0,0
435647,-80,4,2,1,65,0,0
435980,-80,4,2,1,70,0,0
436313,-80,4,2,1,75,0,0
436647,-80,4,2,1,80,0,1
437480,-60.6060606060606,4,2,1,80,0,1
454647,-76.9230769230769,4,2,1,80,0,1
455146,-76.9230769230769,4,2,2,80,0,1
455313,-76.9230769230769,4,2,1,80,0,1
457313,-111.111111111111,4,2,2,80,0,1
457980,-166.666666666667,4,2,1,70,0,0
459063,-166.666666666667,4,2,1,5,0,0
459147,-142.857142857143,4,2,1,70,0,0
459813,-142.857142857143,4,2,2,70,0,0
460147,-142.857142857143,4,2,1,70,0,0
460647,-200,4,2,1,70,0,0
460980,-200,4,2,1,5,0,0
461091,-133.333333333333,4,2,1,70,0,0
461425,-133.333333333333,4,2,1,5,0,0
461536,-90.9090909090909,4,2,1,70,0,0
461980,-111.111111111111,4,2,1,70,0,0
462092,382.165605095541,4,2,1,70,1,0
462219,-100,4,2,2,70,0,0
462412,444.444444444444,4,2,2,70,1,0
462412,-83.3333333333333,4,2,2,70,0,0
462634,-83.3333333333333,4,2,1,70,0,0
462636,329.67032967033,4,2,1,70,1,0
463130,368.098159509202,4,2,1,60,1,0
463314,333.333333333333,4,2,1,60,1,0
467814,-100,4,2,2,20,0,0
467980,-153.846153846154,4,2,1,60,0,0
468647,-166.666666666667,4,2,1,60,0,0
469064,-166.666666666667,4,2,1,5,0,0
469147,-166.666666666667,4,2,1,60,0,0
469564,-166.666666666667,4,2,1,5,0,0
469647,-166.666666666667,4,2,1,60,0,0
470064,-166.666666666667,4,2,1,5,0,0
470147,-166.666666666667,4,2,1,60,0,0
470564,-166.666666666667,4,2,1,5,0,0
470647,-166.666666666667,4,2,1,60,0,0
471064,-166.666666666667,4,2,1,5,0,0
471147,-166.666666666667,4,2,1,60,0,0
471564,-166.666666666667,4,2,1,5,0,0
471647,-166.666666666667,4,2,1,60,0,0
472064,-166.666666666667,4,2,1,5,0,0
472147,-166.666666666667,4,2,1,60,0,0
472564,-166.666666666667,4,2,1,5,0,0
472647,-166.666666666667,4,2,1,60,0,0
473064,-166.666666666667,4,2,1,5,0,0
473147,-166.666666666667,4,2,1,60,0,0
473647,-76.9230769230769,4,2,1,60,0,0
473980,-166.666666666667,4,2,1,60,0,0
474397,-166.666666666667,4,2,1,5,0,0
474480,-166.666666666667,4,2,1,60,0,0
474897,-166.666666666667,4,2,1,5,0,0
474980,-166.666666666667,4,2,1,60,0,0
475397,-166.666666666667,4,2,1,5,0,0
475480,-166.666666666667,4,2,1,60,0,0
475897,-166.666666666667,4,2,1,5,0,0
475980,-166.666666666667,4,2,1,60,0,0
476397,-166.666666666667,4,2,1,5,0,0
476480,-166.666666666667,4,2,1,60,0,0
476897,-166.666666666667,4,2,1,5,0,0
476980,-166.666666666667,4,2,1,60,0,0
477397,-166.666666666667,4,2,1,5,0,0
477480,-153.846153846154,4,2,1,60,0,0
477897,-153.846153846154,4,2,1,5,0,0
477980,-142.857142857143,4,2,1,60,0,0
478397,-142.857142857143,4,2,1,5,0,0
478480,-133.333333333333,4,2,1,60,0,0
478980,-76.9230769230769,4,2,1,60,0,0
479230,-76.9230769230769,4,2,1,5,0,0
479314,-133.333333333333,4,2,1,65,0,0
480230,-133.333333333333,4,2,1,5,0,0
480314,-133.333333333333,4,2,1,65,0,0
481230,-133.333333333333,4,2,1,5,0,0
481314,-133.333333333333,4,2,1,65,0,0
481564,-133.333333333333,4,2,1,5,0,0
481647,-133.333333333333,4,2,1,65,0,0
481897,-133.333333333333,4,2,1,5,0,0
481980,-133.333333333333,4,2,1,65,0,0
482897,-133.333333333333,4,2,1,5,0,0
482980,-133.333333333333,4,2,1,65,0,0
484230,-133.333333333333,4,2,1,5,0,0
484314,-66.6666666666667,4,2,1,65,0,0
484564,-66.6666666666667,4,2,1,5,0,0
484647,-133.333333333333,4,2,1,65,0,0
485564,-133.333333333333,4,2,1,5,0,0
485647,-133.333333333333,4,2,1,65,0,0
486564,-133.333333333333,4,2,1,5,0,0
486647,-133.333333333333,4,2,1,65,0,0
486897,-133.333333333333,4,2,1,5,0,0
486980,-133.333333333333,4,2,1,65,0,0
487230,-133.333333333333,4,2,1,5,0,0
487314,-133.333333333333,4,2,1,65,0,0
489314,-100,4,2,1,65,0,0
489647,-80,4,2,1,65,0,0
489980,-80,4,2,1,70,0,0
490647,-71.4285714285714,4,2,1,70,0,0
494980,-66.6666666666667,4,2,1,70,0,0
495313,-66.6666666666667,4,2,1,75,0,0
500146,-66.6666666666667,4,2,2,75,0,0
500313,327.868852459016,4,2,1,75,1,0
500313,-66.6666666666667,4,2,1,75,0,0
500558,-66.6666666666667,4,2,1,5,0,0
500640,340.909090909091,4,2,1,60,1,0
500640,-666.666666666667,4,2,1,60,0,0
501236,-666.666666666667,4,2,1,5,0,0
501321,344.827586206897,4,2,1,60,1,0
501321,-666.666666666667,4,2,1,60,0,0
501924,-666.666666666667,4,2,1,5,0,0
502010,344.036697247706,4,2,1,60,1,0
502010,-666.666666666667,4,2,1,60,0,0
502612,-666.666666666667,4,2,1,5,0,0
502698,-555.555555555556,4,2,1,60,0,0
503300,-555.555555555556,4,2,1,5,0,0
503386,545.454545454546,4,2,1,60,1,0
503386,-264.550264550265,4,2,1,60,0,0
503840,-264.550264550265,4,2,1,5,0,0
503931,436.363636363636,4,2,1,60,1,0
503931,-264.550264550265,4,2,1,60,0,0
504294,-264.550264550265,4,2,1,5,0,0
504367,410.958904109589,4,2,1,60,1,0
504367,-208.333333333333,4,2,1,60,0,0
504675,-208.333333333333,4,2,1,5,0,0
504777,375,4,2,1,60,1,0
504777,-208.333333333333,4,2,1,60,0,0
505058,-208.333333333333,4,2,1,5,0,0
505152,285.714285714286,4,2,1,60,1,0
505152,-185.185185185185,4,2,1,60,0,0
505342,-185.185185185185,4,2,1,5,0,0
505437,250,4,2,1,65,1,0
505437,-166.666666666667,4,2,1,65,0,0
505603,-166.666666666667,4,2,1,5,0,0
505687,-166.666666666667,4,2,1,65,0,0
505853,-166.666666666667,4,2,1,5,0,0
505937,215.827338129496,4,2,1,65,1,0
505937,-166.666666666667,4,2,1,65,0,0
506080,-166.666666666667,4,2,1,5,0,0
506152,337.078651685393,4,2,1,65,1,0
506152,-58.8235294117647,4,2,1,65,0,0
506657,-54.054054054054,4,2,1,65,0,0
506826,296.296296296296,4,2,1,65,1,0
506826,-54.054054054054,4,2,1,65,0,0
507122,-50,4,2,1,65,0,0
507404,279.72027972028,4,2,1,65,1,0
507404,-50,4,2,1,65,0,0
507543,-41.6666666666667,4,2,1,65,0,0
507824,318.302387267905,4,2,1,65,1,0
507824,-58.8235294117647,4,2,1,65,0,0
507983,-58.8235294117647,4,2,2,65,0,0
508142,276.497695852535,4,2,1,65,1,0
508142,-58.8235294117647,4,2,1,65,0,0
508694,-66.6666666666667,4,2,1,65,0,0
509247,279.06976744186,4,2,1,65,1,0
509247,-74.0740740740741,4,2,1,65,0,0
509805,-66.6666666666667,4,2,1,70,0,0
510363,292.682926829268,4,2,1,70,1,0
510363,-72.992700729927,4,2,1,70,0,0
510948,333.333333333333,4,2,1,70,1,0
510948,-86.9565217391304,4,2,1,70,0,0
511614,223.048327137546,4,2,1,70,1,0
511614,-250,4,2,1,70,0,0
511781,-250,4,2,1,5,0,0
511837,249.480249480249,4,2,1,70,1,0
511837,-250,4,2,1,70,0,0
512024,-250,4,2,1,5,0,0
512086,251.046025104603,4,2,1,70,1,0
512086,-250,4,2,1,70,0,0
512274,-250,4,2,1,5,0,0
512337,287.081339712919,4,2,1,70,1,0
512337,-250,4,2,1,70,0,0
512552,-250,4,2,1,5,0,0
512624,361.44578313253,4,2,1,65,1,0
512624,-333.333333333333,4,2,1,65,0,0
512895,-333.333333333333,4,2,1,5,0,0
512987,413.793103448276,4,2,1,60,1,0
512987,-176.460208223046,4,2,1,60,0,0
513297,-176.460208223046,4,2,1,5,0,0
513400,431.654676258993,4,2,1,60,1,0
513400,-176.460208223046,4,2,1,60,0,0
513723,-176.460208223046,4,2,1,5,0,0
513831,558.139534883721,4,2,1,60,1,0
513831,-196.078431372549,4,2,1,60,0,0
514296,-196.078431372549,4,2,1,5,0,0
514389,685.714285714286,4,2,1,60,1,0
514389,-207.900207900208,4,2,1,60,0,0
514960,-207.900207900208,4,2,1,5,0,0
515074,681.818181818182,4,2,1,60,1,0
515074,-231.749710312862,4,2,1,60,0,0
515642,-231.749710312862,4,2,1,5,0,0
515755,674.157303370787,4,2,1,60,1,0
515755,-264.550264550265,4,2,1,60,0,0
516316,-264.550264550265,4,2,1,5,0,0
516429,697.674418604651,4,2,1,60,1,0
516429,-317.460317460317,4,2,1,60,0,0
517010,-317.460317460317,4,2,1,5,0,0
517126,666.666666666667,4,2,2,70,1,0
517792,-100,4,2,2,60,0,0
519792,-100,4,2,2,50,0,0
522459,-100,4,2,2,40,0,0
525126,-100,4,2,2,30,0,0
527792,-100,4,2,2,20,0,0
530459,-100,4,2,2,10,0,0
533126,-100,4,2,2,5,0,0

[Colours]
Combo1 : 186,220,217
Combo2 : 75,83,154
Combo3 : 143,149,201
Combo4 : 220,99,102
Combo5 : 233,156,158
Combo6 : 148,70,132
Combo7 : 202,128,180
Combo8 : 152,203,198

[HitObjects]
213,23,5315,6,0,P|255:36|300:44,2,89.9999972534181,0|0|0,2:0|2:0|2:0,2:0:0:0:
46,105,7315,6,0,P|170:64|300:44,1,262.499991989136,10|0,3:1|2:0,2:0:0:0:
365,7,8315,1,0,2:0:0:0:
365,7,8481,1,0,2:0:0:0:
512,179,8648,102,0,P|380:142|250:138,1,262.499991989136,2|0,2:0|2:0,2:0:0:0:
221,215,9648,1,0,2:0:0:0:
221,215,9815,1,0,2:0:0:0:
353,316,9981,6,0,P|396:285|414:237,1,104.999996795654,2|0,2:0|2:0,2:0:0:0:
426,369,10648,2,0,P|469:338|487:290,1,104.999996795654,2|0,2:0|2:0,2:0:0:0:
223,331,11315,102,0,P|306:220|296:79,1,262.499991989136,2|0,2:0|2:0,2:0:0:0:
254,30,12315,1,0,2:0:0:0:
254,30,12481,1,0,2:0:0:0:
168,179,12648,6,0,P|108:230|73:300,1,157.499995193482,2|0,2:0|2:0,2:0:0:0:
168,179,13648,1,0,2:0:0:0:
168,179,13815,1,0,2:0:0:0:
77,1,13981,102,0,P|30:22|2:66,1,104.999996795654,2|0,2:0|2:0,2:0:0:0:
104,108,14648,2,0,P|57:129|29:173,1,104.999996795654,2|2,2:0|2:0,2:0:0:0:
2,67,15148,1,2,2:0:0:0:
77,1,15315,5,2,2:1:0:0:
141,15,15481,1,2,2:0:0:0:
236,104,15648,1,2,2:0:0:0:
300,89,15815,2,0,P|364:62|452:11,1,157.499995193482,2|0,2:0|2:0,2:0:0:0:
372,199,16648,102,0,P|360:273|289:296,1,157.499995193482,2|0,2:1|2:0,2:0:0:0:
220,231,17315,1,2,2:0:0:0:
296,179,17481,1,2,2:0:0:0:
372,199,17648,1,2,2:0:0:0:
402,256,17815,1,2,2:0:0:0:
411,379,17981,6,0,P|385:371|359:367,2,52.4999983978272,2|0|0,2:1|2:0|2:0,2:0:0:0:
411,379,18648,2,0,P|462:367|512:350,1,104.999996795654,2|0,2:0|2:0,2:0:0:0:
288,305,19148,102,0,P|238:288|186:276,1,104.999996795654,2|0,2:0|2:0,2:0:0:0:
288,305,19648,2,0,P|313:300|339:293,1,52.4999983978272,2|0,2:0|2:0,2:0:0:0:
453,233,19981,5,2,2:0:0:0:
333,209,20231,1,2,2:0:0:0:
400,185,20481,1,2,2:0:0:0:
512,159,20648,102,0,P|468:132|457:82,1,104.999996795654,2|0,2:0|2:0,2:0:0:0:
444,5,21148,1,0,2:0:0:0:
340,133,21315,2,0,P|346:82|387:52,1,104.999996795654,2|0,2:0|2:0,2:0:0:0:
228,6,21981,5,2,2:1:0:0:
267,103,22148,1,2,2:0:0:0:
219,172,22315,1,2,2:0:0:0:
267,314,22481,1,2,2:0:0:0:
267,314,22815,101,0,2:0:0:0:
218,274,22981,1,0,2:0:0:0:
156,288,23148,1,0,2:0:0:0:
68,337,23315,6,0,P|67:355|61:373,2,37.5,2|0|0,2:0|2:0|2:0,2:0:0:0:
68,337,23981,2,0,P|29:331|-2:308,1,75,2|0,2:0|2:0,2:0:0:0:
92,204,24481,102,0,P|98:241|114:275,1,75,2|0,2:0|2:0,2:0:0:0:
0,310,24981,1,0,2:0:0:0:
92,204,25148,2,0,P|130:243|185:235,1,112.5,2|0,2:0|2:0,2:0:0:0:
387,197,25981,6,0,P|320:206|314:139,1,150,2|2,2:0|2:0,2:0:0:0:
199,139,27315,1,2,2:1:0:0:
256,192,27398,12,0,29815,2:0:0:0:
255,63,29981,6,0,L|183:84,1,75,4|2,3:2|2:0,2:0:0:0:
116,96,30231,1,2,2:0:0:0:
108,93,30315,1,2,2:0:0:0:
99,239,30481,2,0,P|111:197|116:166,1,75,6|2,3:2|2:0,2:0:0:0:
108,93,30731,1,2,2:0:0:0:
111,80,30815,1,2,2:0:0:0:
0,12,30981,2,0,P|12:47|40:70,1,75,6|2,3:2|2:0,2:0:0:0:
111,80,31231,1,2,2:0:0:0:
116,96,31315,1,2,2:0:0:0:
255,63,31481,2,0,L|183:84,1,75,4|2,3:2|2:0,2:0:0:0:
116,96,31731,1,2,2:0:0:0:
108,93,31815,1,2,2:0:0:0:
137,297,31981,6,2,P|89:224|40:156,1,168.750006437302,4|0,3:1|2:0,2:1:0:0:
46,154,32315,2,2,P|93:221|140:291,1,168.750006437302,4|0,3:1|2:0,2:1:0:0:
187,208,32648,102,0,L|259:225,1,75,4|2,3:2|2:0,2:0:0:0:
323,244,32898,1,2,2:0:0:0:
331,243,32981,1,2,2:0:0:0:
412,131,33148,2,0,P|380:161|360:185,1,75,4|2,3:2|2:0,2:0:0:0:
331,243,33398,1,2,2:0:0:0:
335,255,33481,1,2,2:0:0:0:
384,377,33648,2,0,P|391:340|378:305,1,75,4|2,3:2|2:0,2:0:0:0:
335,255,33898,1,2,2:0:0:0:
318,259,33981,1,2,2:0:0:0:
187,208,34148,2,0,L|259:225,1,75,4|2,3:2|2:0,2:0:0:0:
323,244,34398,1,2,2:0:0:0:
331,243,34481,1,2,3:2:0:0:
345,254,34565,1,0,3:2:0:0:
360,273,34648,6,2,P|439:254|444:174,1,168.750006437302,12|0,3:1|2:0,2:1:0:0:
512,120,34981,2,2,P|436:151|385:86,1,168.750006437302,4|0,3:1|2:0,2:1:0:0:
378,17,35315,102,0,L|356:88,1,75,4|2,3:2|2:0,2:0:0:0:
307,134,35565,1,2,2:0:0:0:
299,140,35648,1,2,2:0:0:0:
265,264,35815,2,0,P|306:219|298:192,1,75,6|2,3:2|2:0,2:0:0:0:
299,140,36065,1,2,2:0:0:0:
286,129,36148,1,2,2:0:0:0:
180,35,36315,2,0,P|225:45|236:93,1,75,6|2,3:2|2:0,2:0:0:0:
286,129,36565,1,2,2:0:0:0:
263,147,36648,1,2,2:0:0:0:
326,282,36815,2,0,L|305:210,1,75,4|2,3:2|2:0,2:0:0:0:
263,147,37065,1,2,2:0:0:0:
255,141,37148,1,2,2:0:0:0:
90,100,37315,6,2,P|159:52|227:1,1,168.750006437302,4|0,3:1|2:0,2:1:0:0:
229,6,37648,2,2,P|162:56|92:104,1,168.750006437302,4|0,3:1|2:0,2:1:0:0:
0,107,37981,102,0,L|22:178,1,75,4|2,3:2|2:0,2:0:0:0:
71,224,38231,1,2,2:0:0:0:
79,230,38315,1,2,2:0:0:0:
113,354,38481,2,0,P|72:309|80:282,1,75,6|2,3:2|2:0,2:0:0:0:
79,230,38731,1,2,2:0:0:0:
92,219,38815,1,2,2:0:0:0:
198,125,38981,2,0,P|153:135|142:183,1,75,6|2,3:2|2:0,2:0:0:0:
92,219,39231,1,2,2:0:0:0:
115,237,39315,1,2,2:0:0:0:
52,372,39481,2,0,L|73:300,1,75,6|2,3:2|2:0,2:0:0:0:
115,237,39731,1,2,2:0:0:0:
123,231,39815,1,2,3:2:0:0:
143,234,39898,1,0,3:2:0:0:
162,251,39981,6,2,P|195:294|247:285,1,112.500004291535,12|0,3:1|3:2,2:1:0:0:
341,252,40231,1,0,3:2:0:0:
333,267,40315,2,2,P|281:278|247:236,1,112.500004291535,12|0,3:1|3:2,2:1:0:0:
255,159,40565,1,0,3:2:0:0:
261,152,40648,102,0,P|305:157|346:175,1,89.9999972534181,8|0,3:1|3:0,2:0:0:0:
496,169,41148,2,0,P|478:175|460:180,1,37.5,10|0,2:0|2:0,2:0:0:0:
346,175,41315,2,0,P|328:133|323:89,1,89.9999972534181,0|0,3:0|2:0,2:0:0:0:
407,112,41648,2,0,P|463:72|520:65,1,120,10|0,3:2|3:0,2:0:0:0:
362,16,42148,1,8,2:0:0:0:
323,89,42315,2,0,P|296:124|259:151,1,89.9999972534181,0|0,3:0|2:0,2:0:0:0:
356,227,42648,6,2,P|415:231|454:170,1,112.5,10|0,3:2|2:0,2:0:0:0:
358,233,42981,2,2,P|417:237|456:176,1,112.5,10|0,3:2|2:0,2:0:0:0:
315,314,43315,102,0,P|284:280|264:240,1,89.9999972534181,8|0,3:2|3:0,2:0:0:0:
189,115,43815,2,0,P|197:131|201:149,1,37.5,10|0,2:0|2:0,2:0:0:0:
264,241,43981,2,0,P|250:283|226:320,1,89.9999972534181,0|0,3:0|2:0,2:0:0:0:
169,254,44315,2,0,P|125:273|39:251,1,120,10|0,3:2|3:0,2:0:0:0:
152,355,44815,1,8,2:0:0:0:
226,321,44981,2,0,P|269:310|314:312,1,89.9999972534181,0|0,3:0|2:0,2:0:0:0:
264,191,45315,6,2,P|216:161|200:108,1,112.5,10|0,3:1|2:0,2:0:0:0:
127,131,45648,2,2,P|167:93|164:39,1,112.5,10|0,3:1|2:0,2:0:0:0:
81,3,45981,101,10,2:0:0:0:
86,12,46065,2,0,P|35:25|-5:37,1,90,8|0,2:0|3:0,2:0:0:0:
164,39,46481,1,10,2:0:0:0:
154,58,46565,2,0,P|174:94|261:73,1,112.5,8|0,2:0|2:0,2:0:0:0:
65,134,46981,1,10,3:2:0:0:
75,153,47065,2,0,P|27:189|-18:178,1,90,8|0,2:0|3:0,2:0:0:0:
166,192,47481,1,8,2:0:0:0:
161,201,47565,1,8,2:0:0:0:
156,210,47648,2,0,P|174:247|187:278,1,60,0|0,3:2|2:0,2:0:0:0:
221,370,47981,5,10,3:2:0:0:
215,360,48065,1,10,2:0:0:0:
209,350,48148,1,2,2:0:0:0:
342,380,48315,1,10,3:2:0:0:
320,369,48398,1,10,2:0:0:0:
298,359,48481,1,2,2:0:0:0:
512,373,48648,102,0,P|465:373|406:383,1,90,8|0,3:2|2:0,2:0:0:0:
382,314,48981,1,8,3:2:0:0:
390,312,49065,1,8,2:0:0:0:
398,310,49148,1,8,2:0:0:0:
406,309,49231,1,8,2:0:0:0:
414,307,49315,1,8,3:2:0:0:
422,305,49398,1,8,2:0:0:0:
430,304,49481,1,8,2:0:0:0:
438,302,49565,1,8,2:0:0:0:
446,300,49648,1,8,3:2:0:0:
454,299,49731,1,8,2:0:0:0:
462,297,49815,1,8,2:0:0:0:
470,295,49898,1,8,2:0:0:0:
478,293,49981,6,0,P|485:275|487:256,1,37.5,10|0,3:2|2:0,2:0:0:0:
413,225,50148,2,0,P|403:208|399:190,1,37.5,10|0,2:0|2:0,2:0:0:0:
281,185,50315,2,0,P|297:176|316:170,1,37.5,10|0,3:2|2:0,2:0:0:0:
402,185,50481,2,0,P|414:170|422:154,1,37.5,10|0,2:0|2:0,2:0:0:0:
283,63,50648,102,2,P|321:89|361:66,1,97.4999955368044,14|8,3:1|2:0,2:2:0:0:
421,148,50898,1,8,2:0:0:0:
401,135,50981,2,2,P|381:51|462:20,1,187.500007152558,10|0,3:1|0:3,2:0:0:0:
467,24,51315,6,0,L|478:69,3,30,0|0|0|0,3:2|3:2|3:2|3:2,2:0:0:0:
512,198,51648,102,2,B|499:188|499:188|352:213|352:213|338:203,1,179.999994506836,12|0,3:1|3:0,2:0:0:0:
361,65,52148,1,8,2:0:0:0:
361,65,52481,2,0,L|316:58,1,44.999998626709,0|0,3:0|3:0,0:0:0:0:
190,3,52648,69,4,3:3:0:0:
231,59,52759,2,0,P|246:57|260:54,2,20,4|4|4,3:3|3:3|3:3,2:0:0:0:
193,118,52981,2,0,L|125:105,2,40,4|4|4,3:0|3:0|3:0,0:0:0:0:
261,158,53315,101,4,3:3:0:0:
223,209,53426,2,0,P|208:207|193:204,2,20,4|4|4,3:3|3:3|3:3,2:0:0:0:
258,263,53648,2,0,L|326:250,2,40,4|4|4,3:0|3:0|3:0,0:0:0:0:
317,330,53981,70,2,B|240:284|240:284|194:289,1,134.999995880127,4|0,3:2|2:0,2:0:0:0:
195,359,54315,2,0,L|187:388,4,25,4|4|4|4|4,3:3|3:3|3:3|3:3|3:3,2:0:0:0:
134,323,54648,101,4,3:0:0:0:
120,325,54731,1,4,3:0:0:0:
107,328,54815,2,2,B|34:337|34:337|0:319,1,112.5,4|0,3:3|2:3,2:0:0:0:
49,263,55148,1,0,3:0:0:0:
58,242,55231,1,0,3:0:0:0:
67,221,55315,5,12,2:1:0:0:
166,202,55481,1,8,2:1:0:0:
175,181,55565,1,8,2:1:0:0:
274,162,55731,1,8,2:0:0:0:
283,141,55815,1,8,2:0:0:0:
67,221,55981,102,0,P|81:245|118:273,3,48.7499977684022,8|8|4|4,2:2|2:2|3:3|3:3,2:0:0:0:
175,181,56315,2,0,P|169:157|169:133,3,48.7499977684022,4|4|4|4,3:3|3:3|3:3|3:3,2:0:0:0:
283,141,56648,5,4,3:1:0:0:
285,153,56731,1,0,3:2:0:0:
287,165,56815,1,0,3:2:0:0:
289,177,56898,1,0,3:2:0:0:
291,189,56981,1,8,2:0:0:0:
356,160,57148,1,2,3:2:0:0:
358,172,57231,1,0,3:2:0:0:
360,184,57315,1,0,3:3:0:0:
362,196,57398,1,0,3:2:0:0:
364,208,57481,1,8,2:0:0:0:
429,179,57648,1,2,3:2:0:0:
431,190,57731,1,0,3:2:0:0:
433,203,57815,1,0,3:2:0:0:
435,215,57898,1,0,3:2:0:0:
436,226,57981,102,0,L|485:218,3,48.7499977684022,10|0|0|0,2:0|3:2|3:2|3:2,2:0:0:0:
486,145,58315,2,0,P|503:128|512:105,1,48.7499977684022,0|0,3:2|3:2,2:0:0:0:
440,87,58481,2,0,P|440:61|430:39,1,48.7499977684022,10|0,2:0|2:0,2:0:0:0:
368,77,58648,1,0,3:2:0:0:
352,59,58731,1,0,3:2:0:0:
330,50,58815,1,0,3:2:0:0:
181,68,58981,2,0,L|133:77,3,48.7499977684022,10|0|0|0,2:2|2:0|3:2|3:2,2:0:0:0:
252,25,59315,5,6,3:2:0:0:
253,37,59398,1,0,3:2:0:0:
254,49,59481,1,0,3:2:0:0:
256,61,59565,1,0,3:2:0:0:
257,73,59648,1,10,2:3:0:0:
252,25,59815,101,0,3:2:0:0:
253,37,59898,1,0,3:2:0:0:
254,49,59981,1,2,3:0:0:0:
256,61,60065,1,0,3:2:0:0:
257,73,60148,1,8,2:0:0:0:
252,25,60315,5,2,3:0:0:0:
253,37,60398,1,0,3:2:0:0:
254,49,60481,1,0,3:2:0:0:
256,61,60565,1,0,3:2:0:0:
257,73,60648,1,10,2:3:0:0:
252,25,60815,101,0,3:2:0:0:
253,37,60898,1,0,3:2:0:0:
254,49,60981,1,2,3:0:0:0:
256,61,61065,1,0,3:2:0:0:
257,73,61148,1,8,2:0:0:0:
225,238,61315,6,2,L|273:244,1,48.7499977684022,2|0,3:2|0:2,2:0:0:0:
310,315,61481,2,2,L|358:321,1,48.7499977684022,2|0,3:2|0:2,2:0:0:0:
223,244,61648,2,2,L|175:238,1,48.7499977684022,10|0,2:2|0:0,2:0:0:0:
308,321,61815,2,2,L|260:315,1,48.7499977684022,10|0,2:2|0:0,2:0:0:0:
252,165,61981,101,4,3:2:0:0:
240,167,62065,1,0,3:2:0:0:
228,169,62148,1,0,3:2:0:0:
216,171,62231,1,0,3:2:0:0:
204,173,62315,1,8,2:0:0:0:
175,238,62481,1,2,3:2:0:0:
163,240,62565,1,0,3:2:0:0:
151,242,62648,1,0,3:2:0:0:
139,244,62731,1,0,3:2:0:0:
127,246,62815,1,8,2:0:0:0:
98,311,62981,1,2,3:2:0:0:
86,313,63065,1,0,3:2:0:0:
74,315,63148,1,0,3:2:0:0:
62,317,63231,1,0,3:2:0:0:
50,319,63315,6,0,L|41:270,3,48.7499977684022,10|0|0|0,2:0|3:2|3:2|3:2,2:0:0:0:
53,143,63648,2,0,P|29:139|6:147,1,48.7499977684022,0|0,3:0|3:2,2:0:0:0:
136,136,63815,2,0,P|150:116|154:92,1,48.7499977684022,10|0,2:0|2:0,2:0:0:0:
101,207,63981,1,0,3:2:0:0:
110,229,64065,1,0,3:2:0:0:
127,246,64148,1,0,3:2:0:0:
281,191,64315,2,0,L|289:142,3,48.7499977684022,10|0|0|0,2:2|2:0|3:2|3:2,2:0:0:0:
257,73,64648,101,6,3:2:0:0:
256,61,64731,1,0,3:2:0:0:
254,49,64815,1,0,3:2:0:0:
253,37,64898,1,0,3:2:0:0:
252,25,64981,1,10,2:3:0:0:
257,73,65148,5,0,3:2:0:0:
256,61,65231,1,0,3:2:0:0:
254,49,65315,1,2,3:0:0:0:
253,37,65398,1,0,3:2:0:0:
252,25,65481,1,8,2:0:0:0:
257,73,65648,101,2,3:0:0:0:
256,61,65731,1,0,3:2:0:0:
254,49,65815,1,0,3:2:0:0:
253,37,65898,1,0,3:2:0:0:
252,25,65981,6,0,P|209:34|187:42,1,48.7499977684022,12|0,2:1|2:0,2:0:0:0:
188,111,66148,1,0,3:2:0:0:
202,123,66231,2,0,P|245:132|267:140,1,48.7499977684022,8|0,2:0|2:0,2:0:0:0:
266,209,66398,1,0,3:2:0:0:
252,221,66481,2,0,P|209:230|187:238,1,48.7499977684022,8|0,2:0|2:0,2:0:0:0:
252,25,66648,102,0,P|293:40|313:52,3,48.7499977684022,4|8|8|8,3:2|2:2|2:2|2:2,2:0:0:0:
202,123,66981,2,0,P|160:138|140:150,3,48.7499977684022,8|4|4|4,2:0|3:3|3:3|3:3,2:0:0:0:
252,221,67315,5,4,3:1:0:0:
251,209,67398,1,0,3:2:0:0:
250,197,67481,1,0,3:2:0:0:
248,185,67565,1,0,3:2:0:0:
247,173,67648,1,8,2:0:0:0:
270,293,67815,1,2,3:2:0:0:
258,294,67898,1,0,3:2:0:0:
246,295,67981,1,0,3:2:0:0:
234,297,68065,1,0,3:2:0:0:
222,298,68148,1,8,2:0:0:0:
343,275,68315,1,2,3:2:0:0:
344,287,68398,1,0,3:2:0:0:
345,299,68481,1,0,3:2:0:0:
347,311,68565,1,0,3:2:0:0:
348,323,68648,102,0,L|397:315,3,48.7499977684022,10|0|0|0,2:0|3:2|3:2|3:2,2:0:0:0:
461,265,68981,2,0,P|442:248|419:239,1,48.7499977684022,0|0,3:0|3:2,2:0:0:0:
427,158,69148,2,0,P|401:160|380:169,1,48.7499977684022,10|0,2:0|2:0,2:0:0:0:
327,104,69315,1,0,3:2:0:0:
311,122,69398,1,0,3:2:0:0:
302,146,69481,1,0,3:2:0:0:
134,49,69648,2,0,L|182:58,3,48.7499977684022,10|0|0|0,2:2|2:0|3:2|3:2,2:0:0:0:
260,25,69981,5,6,3:2:0:0:
259,37,70065,1,0,3:2:0:0:
258,49,70148,1,0,3:2:0:0:
256,61,70231,1,0,3:2:0:0:
255,73,70315,1,10,2:3:0:0:
260,25,70481,1,0,3:2:0:0:
259,37,70565,1,0,3:2:0:0:
258,49,70648,1,2,3:0:0:0:
256,61,70731,1,0,3:2:0:0:
255,73,70815,1,8,2:0:0:0:
260,25,70981,1,2,3:0:0:0:
259,37,71065,1,0,3:2:0:0:
258,49,71148,1,0,3:2:0:0:
256,61,71231,1,0,3:2:0:0:
255,73,71315,101,10,2:3:0:0:
257,172,71481,1,0,3:2:0:0:
259,196,71565,1,0,3:2:0:0:
262,220,71648,1,2,3:0:0:0:
264,244,71731,1,0,3:2:0:0:
267,268,71815,1,8,2:0:0:0:
248,168,71981,6,2,L|200:174,1,48.7499977684022,2|0,3:2|0:2,2:0:0:0:
264,168,72148,2,2,L|312:162,1,48.7499977684022,2|0,3:2|0:2,2:0:0:0:
156,164,72315,2,2,L|204:170,1,48.7499977684022,10|0,2:2|2:0,2:0:0:0:
355,172,72481,2,2,L|307:166,1,48.7499977684022,10|0,2:2|2:0,2:0:0:0:
267,268,72648,101,4,3:2:0:0:
254,269,72731,1,0,3:2:0:0:
242,270,72815,1,0,3:2:0:0:
230,272,72898,1,0,3:2:0:0:
218,273,72981,1,8,2:0:0:0:
161,322,73148,1,2,3:2:0:0:
162,334,73231,1,0,3:2:0:0:
163,346,73315,1,0,3:2:0:0:
165,358,73398,1,0,3:2:0:0:
166,370,73481,1,8,2:0:0:0:
109,267,73648,1,2,3:2:0:0:
97,268,73731,1,0,3:2:0:0:
85,269,73815,1,0,3:2:0:0:
73,271,73898,1,0,3:2:0:0:
61,272,73981,6,0,P|56:246|65:221,3,48.7499977684022,10|0|0|0,2:0|3:2|3:2|3:2,2:0:0:0:
0,155,74315,2,0,P|23:150|46:157,1,48.7499977684022,0|0,3:0|3:2,2:0:0:0:
117,94,74481,2,0,P|122:117|115:140,1,48.7499977684022,10|0,2:0|2:0,2:0:0:0:
178,211,74648,1,2,3:2:0:0:
155,216,74731,1,0,3:2:0:0:
132,209,74815,1,0,3:2:0:0:
305,190,74981,2,0,L|299:142,3,48.7499977684022,10|0|0|0,2:0|2:0|3:2|3:2,2:0:0:0:
255,73,75315,101,6,3:2:0:0:
256,61,75398,1,0,3:2:0:0:
258,49,75481,1,0,3:2:0:0:
259,37,75565,1,0,3:2:0:0:
260,25,75648,1,10,2:3:0:0:
255,73,75815,5,0,3:2:0:0:
256,61,75898,1,0,3:2:0:0:
258,49,75981,1,2,3:0:0:0:
259,37,76065,1,0,3:2:0:0:
260,25,76148,1,8,2:0:0:0:
255,73,76315,101,2,3:0:0:0:
256,61,76398,1,0,3:2:0:0:
258,49,76481,1,0,3:2:0:0:
259,37,76565,1,0,3:2:0:0:
260,25,76648,6,0,P|284:28|298:33,3,32.4999985122681,8|4|4|4,3:1|3:3|3:3|3:0,3:0:0:0:
442,75,76898,1,4,3:0:0:0:
460,81,76981,2,0,L|527:71,3,48.7499977684022,4|4|4|4,3:3|3:3|3:0|3:0,2:0:0:0:
381,3,77315,101,12,2:0:0:0:
371,40,77398,1,8,2:0:0:0:
362,77,77481,1,8,2:0:0:0:
352,115,77565,1,8,2:0:0:0:
322,138,77648,1,8,2:0:0:0:
313,175,77731,1,8,2:0:0:0:
303,212,77815,1,8,2:0:0:0:
294,250,77898,1,8,2:0:0:0:
263,273,77981,6,0,P|230:266|190:257,1,60,2|2,2:0|2:0,2:0:0:0:
327,338,78315,2,0,P|360:343|401:348,1,60,2|2,2:0|2:0,2:0:0:0:
175,354,78648,101,4,3:2:0:0:
151,366,78731,1,0,3:2:0:0:
125,371,78814,1,0,3:2:0:0:
98,369,78898,1,0,3:2:0:0:
72,363,78981,2,0,P|23:348|-23:350,2,75,8|0|8,2:0|3:2|2:0,2:0:0:0:
78,223,79481,1,2,3:2:0:0:
204,260,79648,1,10,2:0:0:0:
85,221,79814,2,0,P|112:235|124:254,1,37.5,2|0,3:2|3:2,2:0:0:0:
211,258,79981,5,10,2:0:0:0:
236,264,80064,1,0,3:2:0:0:
262,261,80148,1,0,3:2:0:0:
286,249,80231,1,0,3:2:0:0:
304,230,80314,1,10,2:0:0:0:
327,138,80481,2,0,P|367:122|382:91,1,75,2|8,3:2|2:0,2:0:0:0:
231,134,80814,1,2,3:2:0:0:
204,138,80898,1,2,3:2:0:0:
179,128,80981,2,0,P|157:90|184:27,1,112.5,12|0,2:1|2:0,2:0:0:0:
259,24,81314,101,6,3:2:0:0:
258,35,81398,1,0,3:2:0:0:
257,46,81481,1,0,3:2:0:0:
256,57,81564,1,0,3:2:0:0:
255,68,81648,1,2,3:0:0:0:
259,24,81814,5,0,3:2:0:0:
258,35,81898,1,0,3:2:0:0:
257,46,81981,1,10,3:0:0:0:
256,57,82064,1,0,3:2:0:0:
255,68,82148,1,0,3:2:0:0:
259,24,82314,101,2,3:0:0:0:
258,35,82398,1,0,3:2:0:0:
257,46,82481,1,0,3:2:0:0:
256,57,82564,1,0,3:2:0:0:
255,68,82648,1,2,3:0:0:0:
259,24,82814,5,0,3:2:0:0:
258,35,82898,1,0,3:2:0:0:
257,46,82981,1,2,3:0:0:0:
256,57,83064,1,0,3:2:0:0:
255,68,83148,1,0,3:2:0:0:
257,291,83314,101,12,2:0:0:0:
251,251,83398,1,8,2:0:0:0:
260,211,83481,1,8,2:0:0:0:
254,171,83564,1,8,2:0:0:0:
230,133,83648,2,2,L|234:171,1,37.5,4|0,3:3|2:2,2:0:0:0:
261,289,83814,2,2,L|265:327,1,37.5,4|0,3:3|2:2,2:0:0:0:
382,341,83981,5,4,3:2:0:0:
373,312,84064,1,0,3:2:0:0:
380,283,84148,1,0,3:2:0:0:
402,262,84231,1,0,3:2:0:0:
431,255,84314,2,0,P|473:264|532:255,2,75,8|0|8,2:0|3:2|2:0,2:0:0:0:
340,100,84814,1,2,3:2:0:0:
437,7,84981,1,10,2:0:0:0:
338,93,85148,2,0,P|319:91|304:74,1,37.5,2|0,3:2|3:2,2:0:0:0:
435,0,85314,101,10,2:1:0:0:
461,14,85398,1,0,3:2:0:0:
472,41,85481,1,0,3:2:0:0:
468,70,85564,1,0,3:2:0:0:
446,90,85647,2,0,P|410:112|394:147,1,75,10|0,2:0|3:2,2:0:0:0:
371,169,85870,69,0,3:2:0:0:
371,169,85925,101,0,3:2:0:0:
371,169,85981,70,0,P|370:196|388:213,3,37.5,4|4|4|4,3:3|3:3|3:3|3:3,2:0:0:0:
444,185,86314,2,0,P|461:190|479:185,1,37.5,2|0,3:2|3:2,2:0:0:0:
446,90,86481,2,0,P|391:78|335:95,1,112.5,14|0,2:0|2:0,2:0:0:0:
261,114,86814,101,12,2:1:0:0:
259,92,86897,1,8,2:1:0:0:
257,70,86981,1,8,2:1:0:0:
255,48,87064,2,0,L|251:5,2,37.5,8|0|0,2:1|3:0|3:0,2:0:0:0:
261,114,87314,5,12,2:1:0:0:
259,92,87397,1,8,2:1:0:0:
257,70,87481,1,8,2:1:0:0:
255,48,87564,2,0,L|251:5,2,37.5,8|0|0,2:1|3:0|3:0,2:0:0:0:
261,114,87814,101,12,2:1:0:0:
259,92,87897,1,8,2:1:0:0:
257,70,87981,1,8,2:1:0:0:
255,48,88064,2,0,L|251:5,2,37.5,8|0|0,2:1|3:0|3:0,2:0:0:0:
261,114,88314,5,12,2:1:0:0:
263,136,88397,2,0,L|267:179,4,37.5,8|0|0|0|0,2:1|3:0|3:0|3:0|3:0,2:0:0:0:
357,123,88814,2,0,P|379:179|328:268,1,150,14|0,2:1|3:0,2:0:0:0:
272,290,89231,1,0,3:0:0:0:
257,287,89314,101,4,3:2:0:0:
187,227,89481,1,0,3:0:0:0:
192,384,89647,2,0,P|188:346|181:309,1,75,10|0,2:3|3:0,2:0:0:0:
261,292,89981,1,2,3:0:0:0:
183,232,90147,1,0,3:0:0:0:
115,360,90314,1,10,2:3:0:0:
57,225,90481,1,0,3:2:0:0:
0,333,90647,6,0,P|36:332|59:305,1,75,2|0,3:0|3:0,2:0:0:0:
183,232,90981,2,0,P|160:259|124:261,1,75,10|0,2:3|3:0,2:0:0:0:
236,157,91314,2,0,P|200:152|169:131,1,75,2|0,3:0|3:0,2:0:0:0:
35,74,91647,2,0,P|66:95|103:99,1,75,10|0,2:3|3:2,2:0:0:0:
188,12,91981,101,4,3:2:0:0:
228,84,92147,1,0,3:0:0:0:
324,0,92314,2,0,P|317:38|312:81,1,75,10|0,2:3|3:0,2:0:0:0:
185,17,92647,1,2,3:0:0:0:
225,89,92814,1,0,3:0:0:0:
355,142,92981,2,0,P|378:171|376:208,1,75,10|0,2:3|3:2,2:0:0:0:
250,343,93314,5,2,3:0:0:0:
253,317,93397,1,0,3:0:0:0:
255,290,93481,1,2,3:2:0:0:
257,264,93564,1,0,3:0:0:0:
260,237,93647,2,0,P|276:179|292:144,1,75,10|0,2:3|2:0,2:0:0:0:
260,293,93981,101,2,3:0:0:0:
260,279,94064,1,0,3:0:0:0:
259,265,94147,1,2,3:2:0:0:
258,252,94231,1,0,3:0:0:0:
257,239,94314,2,0,P|241:210|187:191,1,75,12|2,2:1|2:0,2:0:0:0:
159,244,94564,1,2,2:0:0:0:
154,255,94647,5,4,3:2:0:0:
67,199,94814,1,0,3:0:0:0:
49,372,94981,2,0,P|53:334|60:297,1,75,10|0,2:3|3:0,2:0:0:0:
149,258,95314,1,2,3:0:0:0:
62,202,95481,1,0,3:0:0:0:
126,362,95647,2,0,P|162:371|187:333,1,75,10|0,2:3|3:2,2:0:0:0:
174,175,95981,101,6,3:2:0:0:
60,297,96147,1,2,3:2:0:0:
186,346,96314,1,10,2:3:0:0:
257,318,96481,2,0,P|336:326|369:396,1,150,2|2,3:2|3:2,2:0:0:0:
444,373,96897,1,2,3:2:0:0:
447,363,96981,2,0,P|490:338|532:354,1,75,12|0,2:1|2:0,2:0:0:0:
401,254,97314,5,4,3:2:0:0:
400,246,97397,1,0,3:0:0:0:
399,238,97481,1,0,3:0:0:0:
398,230,97564,1,0,3:0:0:0:
397,222,97647,1,12,2:0:0:0:
275,164,97814,1,0,3:0:0:0:
307,254,97981,1,12,2:0:0:0:
336,193,98147,1,0,3:0:0:0:
365,132,98314,1,0,3:0:0:0:
344,21,98481,102,0,P|281:61|210:86,1,150,4|0,3:1|3:0,2:0:0:0:
142,93,98897,1,0,3:0:0:0:
133,93,98981,1,12,2:0:0:0:
0,39,99147,1,0,3:0:0:0:
1,30,99231,1,0,3:0:0:0:
7,23,99314,1,12,2:1:0:0:
101,3,99481,1,4,3:3:0:0:
72,64,99647,1,4,3:0:0:0:
43,125,99814,1,4,3:0:0:0:
44,143,99897,1,4,3:0:0:0:
60,160,99981,6,2,P|112:168|134:221,1,93.75,12|0,2:1|3:0,2:2:0:0:
69,226,100231,1,0,3:0:0:0:
60,242,100314,2,0,P|44:287|32:343,1,93.75,8|0,2:0|3:0,2:0:0:0:
193,320,100647,2,2,P|220:356|266:359,1,93.75,10|0,2:0|3:0,2:0:0:0:
254,292,100897,1,0,3:0:0:0:
250,273,100981,1,8,2:0:0:0:
247,254,101064,1,0,3:0:0:0:
244,235,101147,1,0,3:0:0:0:
214,78,101314,102,2,P|241:114|287:117,1,93.75,10|0,2:0|3:0,2:0:0:0:
321,58,101564,1,0,3:0:0:0:
330,42,101647,2,0,P|302:5|256:2,1,93.75,8|0,2:0|3:0,2:0:0:0:
223,62,101897,1,0,3:0:0:0:
209,83,101981,2,2,P|235:117|348:107,1,140.625,14|0,2:1|3:0,2:0:0:0:
389,87,102314,2,0,P|416:50|462:47,1,93.75,8|0,2:0|3:0,2:0:0:0:
497,106,102564,1,0,3:0:0:0:
511,127,102647,6,2,P|470:170|474:254,1,140.625,12|0,2:0|3:0,2:0:0:0:
428,305,102981,2,0,P|469:333|529:337,1,93.75,8|0,2:0|3:0,2:0:0:0:
316,366,103314,2,2,P|350:335|356:289,1,93.75,10|0,2:0|3:0,2:0:0:0:
319,227,103564,1,0,3:0:0:0:
309,229,103647,1,8,2:0:0:0:
156,164,103814,1,0,3:0:0:0:
165,165,103897,1,0,3:0:0:0:
174,166,103981,102,2,P|211:171|248:174,1,75,12|0,2:0|3:0,2:0:0:0:
220,240,104231,1,0,3:0:0:0:
226,248,104314,2,2,P|248:277|272:306,1,75,10|0,2:0|3:0,2:0:0:0:
205,334,104564,1,0,3:0:0:0:
203,343,104647,2,2,P|198:372|196:402,1,37.5,10|0,2:0|3:0,2:0:0:0:
131,353,104814,2,2,P|107:371|84:390,1,37.5,2|0,3:2|3:0,2:0:0:0:
74,311,104981,2,2,P|36:305|0:302,1,75,12|0,2:0|3:0,2:0:0:0:
38,238,105231,1,0,3:0:0:0:
51,216,105314,6,2,P|89:187|134:188,1,93.75,12|0,2:1|3:0,2:1:0:0:
168,193,105536,37,0,3:0:0:0:
168,193,105592,5,0,3:0:0:0:
168,193,105647,38,0,P|147:245|139:298,1,93.75,8|0,2:0|3:0,2:0:0:0:
243,92,105981,2,2,P|270:129|316:132,1,93.75,10|0,2:0|3:0,2:0:0:0:
304,64,106231,1,0,3:0:0:0:
300,45,106314,1,8,2:0:0:0:
297,26,106397,1,0,3:0:0:0:
294,7,106481,1,0,3:0:0:0:
390,231,106647,6,2,P|417:194|463:191,1,93.75,10|0,2:0|3:0,2:0:0:0:
497,251,106897,1,0,3:0:0:0:
507,267,106981,2,0,P|479:303|433:306,1,93.75,8|0,2:0|3:0,2:0:0:0:
399,247,107231,1,0,3:0:0:0:
384,226,107314,102,2,P|376:159|314:132,1,140.625,14|0,2:1|3:0,2:0:0:0:
238,164,107647,2,0,P|283:165|315:132,1,93.75,8|0,2:0|3:0,2:0:0:0:
254,48,107897,1,0,3:0:0:0:
269,27,107981,6,2,B|330:66|330:66|315:132,1,140.625,12|0,2:0|3:0,2:1:0:0:
238,164,108314,2,0,P|199:187|155:176,1,93.75,8|0,2:0|3:0,2:0:0:0:
247,277,108647,2,2,B|233:322|233:322|266:356,1,93.75,10|0,2:0|3:0,2:1:0:0:
313,303,108897,1,0,3:0:0:0:
322,302,108981,1,8,2:0:0:0:
120,321,109147,2,0,P|98:330|76:338,1,46.875,0|0,3:0|3:0,2:0:0:0:
9,316,109314,101,12,2:0:0:0:
8,305,109397,2,2,P|6:266|5:229,1,75,0|0,3:0|3:0,2:0:0:0:
75,201,109647,2,2,P|105:224|134:248,1,75,10|0,2:0|3:0,2:0:0:0:
120,321,109897,1,0,3:0:0:0:
119,338,109981,6,2,P|131:366|161:377,1,37.5,14|0,2:0|2:0,2:0:0:0:
199,306,110147,2,2,P|230:309|254:288,1,37.5,10|0,2:0|2:0,2:0:0:0:
207,220,110314,2,0,P|216:212|222:202,3,25,4|4|4|4,3:3|3:3|3:3|3:3,2:0:0:0:
133,248,110564,1,4,3:3:0:0:
123,232,110647,102,2,P|112:186|139:149,1,93.75,12|0,2:1|3:0,2:0:0:0:
201,122,110897,1,0,3:0:0:0:
219,129,110981,1,8,2:0:0:0:
386,186,111147,1,0,3:0:0:0:
363,86,111314,2,2,P|391:49|437:46,1,93.75,10|0,2:0|3:0,2:0:0:0:
438,121,111564,1,0,3:0:0:0:
457,125,111647,1,8,2:0:0:0:
476,128,111731,1,0,3:0:0:0:
495,131,111814,1,0,3:0:0:0:
315,157,111981,5,10,2:0:0:0:
288,131,112064,1,0,2:0:0:0:
251,128,112147,1,0,3:0:0:0:
218,145,112231,1,0,3:0:0:0:
206,180,112314,2,0,P|234:217|280:220,1,93.75,8|0,2:0|3:0,2:0:0:0:
322,159,112564,1,0,3:0:0:0:
336,138,112647,2,2,P|310:104|197:114,1,140.625,14|0,2:1|3:0,2:0:0:0:
157,136,112981,1,8,2:0:0:0:
5,64,113147,1,0,3:0:0:0:
0,38,113231,1,0,3:0:0:0:
20,24,113314,102,2,P|88:19|140:64,1,140.625,12|0,2:0|3:0,2:0:0:0:
64,98,113647,2,0,P|76:142|50:198,1,93.75,8|0,2:0|3:0,2:0:0:0:
165,251,113981,2,2,P|131:282|125:328,1,93.75,10|0,2:0|3:0,2:0:0:0:
181,374,114231,1,0,3:0:0:0:
191,372,114314,1,8,2:0:0:0:
356,379,114481,1,0,3:0:0:0:
347,378,114564,1,0,3:0:0:0:
338,376,114647,6,2,P|301:371|264:368,1,75,12|0,2:0|3:0,2:0:0:0:
292,302,114897,1,0,3:0:0:0:
286,294,114981,2,2,P|264:265|240:236,1,75,10|0,2:0|3:0,2:0:0:0:
307,208,115231,1,0,3:0:0:0:
309,199,115314,2,2,P|314:170|316:140,1,37.5,10|0,2:0|3:0,2:0:0:0:
381,189,115481,2,2,P|405:171|428:152,1,37.5,2|0,3:2|3:0,2:0:0:0:
438,231,115647,2,2,P|476:237|512:240,1,75,12|0,2:0|3:0,2:0:0:0:
474,304,115897,1,0,3:0:0:0:
461,326,115981,102,2,P|423:355|378:354,1,93.75,12|0,2:1|3:0,2:1:0:0:
344,349,116203,69,0,3:0:0:0:
344,349,116259,101,0,3:0:0:0:
344,349,116314,70,0,P|365:297|372:243,1,93.75,8|0,2:0|3:0,2:0:0:0:
442,76,116647,2,2,P|479:104|482:150,1,93.75,10|0,2:0|3:0,2:0:0:0:
404,141,116897,1,0,3:0:0:0:
385,145,116981,1,8,2:0:0:0:
366,148,117064,1,0,3:0:0:0:
347,151,117147,1,0,3:0:0:0:
185,215,117314,102,2,P|222:188|225:142,1,93.75,10|0,2:0|3:0,2:0:0:0:
165,108,117564,1,0,3:0:0:0:
149,98,117647,2,0,P|113:126|110:172,1,93.75,8|0,2:0|3:0,2:0:0:0:
169,206,117897,1,0,3:0:0:0:
190,221,117981,6,2,P|257:229|284:291,1,140.625,14|0,2:1|3:0,2:0:0:0:
367,280,118314,2,0,P|328:303|284:290,1,93.75,8|0,2:0|3:0,2:0:0:0:
203,311,118564,1,0,3:0:0:0:
182,296,118647,102,2,B|159:253|159:253|190:220,1,93.75,12|0,2:0|3:0,2:1:0:0:
270,209,118897,1,0,3:0:0:0:
300,204,118981,1,8,2:0:0:0:
414,76,119147,2,0,L|444:39,1,46.875,0|0,3:2|3:0,2:0:0:0:
370,149,119314,2,0,L|380:178,2,31.25,4|4|4,3:3|3:3|3:3,2:0:0:0:
348,128,119481,2,0,L|301:120,1,46.875,4|0,3:3|3:0,2:0:0:0:
218,108,119647,1,8,0:2:0:0:
142,27,119814,6,2,L|150:82,1,37.5,2|0,3:2|2:0,2:0:0:0:
138,31,120147,2,2,L|146:86,1,37.5,2|0,3:2|2:0,2:0:0:0:
134,35,120481,2,2,L|142:90,1,37.5,2|0,3:2|2:0,2:0:0:0:
175,223,120647,102,2,L|168:185,1,37.5,2|0,3:2|2:0,2:0:0:0:
97,199,120814,2,2,L|90:161,1,37.5,2|0,3:2|2:0,2:0:0:0:
19,175,120981,1,2,3:2:0:0:
17,165,121064,1,2,3:2:0:0:
15,156,121147,1,2,3:2:0:0:
14,147,121231,1,2,3:2:0:0:
13,138,121314,6,0,P|66:87|139:72,1,150,4|2,3:2|3:2,2:0:0:0:
209,15,121814,2,0,P|244:25|277:43,1,75,2|8,2:0|2:0,2:0:0:0:
382,3,122147,1,2,2:0:0:0:
439,49,122314,1,2,3:2:0:0:
511,38,122481,1,10,2:0:0:0:
486,133,122647,102,0,P|413:138|356:93,1,150,2|2,3:2|3:2,2:0:0:0:
278,44,123147,2,0,P|241:51|207:38,1,75,2|8,2:0|2:0,2:0:0:0:
281,131,123481,2,0,P|254:157|236:190,1,75,2|0,2:0|3:2,2:0:0:0:
275,334,123814,1,10,2:0:0:0:
285,337,123897,1,8,2:0:0:0:
295,340,123981,6,0,P|340:284|314:202,1,150,2|2,3:2|3:2,2:0:0:0:
236,190,124481,2,0,P|233:152|235:115,1,75,2|8,2:0|2:0,2:0:0:0:
206,37,124814,1,2,2:0:0:0:
138,39,124981,1,2,3:2:0:0:
70,43,125147,1,10,2:0:0:0:
6,137,125314,102,0,P|2:214|-1:295,1,150,2|0,3:2|3:2,2:0:0:0:
29,355,125814,1,2,2:0:0:0:
146,269,125981,1,10,3:2:0:0:
167,267,126064,1,8,2:0:0:0:
189,265,126147,1,8,2:0:0:0:
211,262,126231,1,8,2:0:0:0:
230,275,126314,1,10,3:2:0:0:
252,273,126397,1,8,2:0:0:0:
274,271,126481,1,8,2:0:0:0:
296,269,126564,1,8,2:0:0:0:
315,282,126647,5,4,3:2:0:0:
325,362,126814,1,0,3:2:0:0:
214,355,126981,2,0,P|176:339|153:291,1,75,8|0,2:0|2:0,2:0:0:0:
225,195,127314,1,2,3:2:0:0:
230,275,127481,1,2,3:2:0:0:
153,161,127647,1,10,2:0:0:0:
291,150,127814,1,2,2:0:0:0:
315,282,127981,102,0,P|353:275|394:285,1,75,2|0,3:2|3:2,2:0:0:0:
469,231,128314,2,0,P|492:202|498:165,1,75,10|0,2:0|2:0,2:0:0:0:
476,43,128647,1,2,3:2:0:0:
338,54,128814,1,2,3:2:0:0:
415,168,128981,1,10,2:0:0:0:
410,88,129147,1,2,3:2:0:0:
263,25,129314,5,4,3:1:0:0:
261,51,129397,1,0,3:2:0:0:
258,77,129481,1,0,3:2:0:0:
256,103,129564,1,0,3:2:0:0:
254,129,129647,1,10,2:3:0:0:
263,25,129814,101,0,3:2:0:0:
261,51,129897,1,0,3:2:0:0:
258,77,129981,1,2,3:0:0:0:
256,103,130064,1,0,3:2:0:0:
254,129,130147,1,8,2:0:0:0:
263,25,130314,5,2,3:0:0:0:
261,51,130397,1,0,3:2:0:0:
258,77,130481,1,0,3:2:0:0:
256,103,130564,1,0,3:2:0:0:
254,129,130647,101,12,2:1:0:0:
164,144,130814,1,8,2:1:0:0:
162,170,130897,1,8,2:1:0:0:
72,185,131064,1,8,2:0:0:0:
70,211,131147,1,8,2:0:0:0:
254,129,131314,5,8,3:1:0:0:
224,134,131397,1,8,2:1:0:0:
194,139,131481,1,4,3:3:0:0:
164,144,131564,1,4,3:3:0:0:
162,170,131647,1,4,3:0:0:0:
132,175,131731,1,4,3:3:0:0:
102,180,131814,1,4,3:3:0:0:
72,185,131897,1,4,3:3:0:0:
70,211,131981,101,4,3:2:0:0:
163,254,132147,1,0,3:0:0:0:
45,344,132314,2,0,P|81:337|119:332,1,75,10|0,2:3|3:0,2:0:0:0:
74,206,132647,1,2,3:0:0:0:
167,249,132814,1,0,3:0:0:0:
0,254,132981,1,10,2:3:0:0:
116,86,133147,1,0,3:2:0:0:
0,94,133314,6,0,P|16:126|51:137,1,75,2|0,3:0|3:0,2:0:0:0:
167,249,133647,2,0,P|132:238|117:205,1,75,10|0,2:3|3:0,2:0:0:0:
277,293,133981,2,0,P|305:270|341:262,1,75,2|0,3:0|3:0,2:0:0:0:
487,186,134314,2,0,P|450:194|421:217,1,75,10|0,2:3|3:2,2:0:0:0:
259,138,134647,101,4,3:2:0:0:
351,96,134814,1,0,3:0:0:0:
229,41,134981,2,0,P|266:36|303:29,1,75,10|0,2:3|3:0,2:0:0:0:
265,142,135314,1,2,3:0:0:0:
357,100,135481,1,0,3:0:0:0:
421,216,135647,2,0,P|392:232|378:282,1,75,10|0,2:3|3:2,2:0:0:0:
253,376,135981,5,2,3:0:0:0:
163,323,136147,1,2,3:2:0:0:
260,227,136314,2,0,P|268:176|278:134,1,75,10|0,2:3|3:0,2:0:0:0:
252,368,136647,101,2,3:0:0:0:
332,336,136814,1,2,3:2:0:0:
254,223,136981,2,0,P|242:187|217:160,1,75,12|2,2:1|3:2,2:0:0:0:
150,121,137231,1,2,2:0:0:0:
126,129,137314,5,4,3:2:0:0:
70,42,137481,1,0,3:0:0:0:
244,25,137647,2,0,P|207:28|170:35,1,75,10|0,2:3|3:0,2:0:0:0:
131,125,137981,1,2,3:0:0:0:
75,38,138147,1,0,3:0:0:0:
217,160,138314,2,0,P|242:134|232:100,1,75,10|0,2:3|3:2,2:0:0:0:
47,149,138647,101,6,3:2:0:0:
169,35,138814,1,2,3:2:0:0:
217,160,138981,1,10,2:3:0:0:
139,188,139147,2,0,P|77:238|139:294,1,150,2|2,3:2|3:2,2:0:0:0:
169,310,139564,1,2,3:2:0:0:
179,306,139647,2,0,P|195:353|171:389,1,75,12|0,2:1|2:0,2:0:0:0:
290,310,139981,5,4,3:2:0:0:
291,302,140064,1,0,3:0:0:0:
292,294,140147,1,0,3:0:0:0:
293,286,140231,1,0,3:0:0:0:
294,278,140314,1,10,2:3:0:0:
355,249,140481,1,0,3:0:0:0:
416,220,140647,1,0,3:0:0:0:
506,368,140814,1,10,2:3:0:0:
445,339,140981,1,0,3:0:0:0:
383,310,141147,1,0,3:2:0:0:
325,188,141314,102,0,P|352:162|363:127,1,75,12|0,2:0|3:0,2:0:0:0:
246,11,141647,2,0,P|268:40|302:55,1,75,12|0,2:0|3:0,2:0:0:0:
330,41,141870,69,0,3:0:0:0:
330,41,141925,101,0,3:0:0:0:
330,41,141981,69,12,2:0:0:0:
503,63,142147,2,0,P|414:52|363:126,1,187.5,4|0,3:1|2:0,2:0:0:0:
325,188,142647,101,4,3:2:0:0:
271,286,142814,2,0,P|326:275|382:269,1,112.499996566773,2|0,3:2|2:0,2:0:0:0:
319,191,143314,1,12,3:2:0:0:
379,297,143481,2,0,P|325:279|270:285,1,112.499996566773,2|0,3:2|2:0,2:0:0:0:
325,188,143981,1,4,3:2:0:0:
314,367,144147,1,2,3:2:0:0:
319,191,144314,1,2,3:2:0:0:
309,370,144481,2,0,P|315:319|252:286,1,112.499996566773,4|0,3:1|2:0,2:0:0:0:
325,188,144981,5,10,3:2:0:0:
217,341,145147,1,2,3:2:0:0:
179,265,145314,2,0,L|156:262,3,22.4999993133545,6|2|2|2,2:0|2:0|2:0|2:0,2:0:0:0:
53,247,145647,101,2,3:2:0:0:
1,147,145814,2,0,P|55:162|111:158,1,112.499996566773,2|0,3:2|2:0,2:0:0:0:
59,250,146314,1,4,3:2:0:0:
64,74,146481,1,2,3:2:0:0:
53,247,146647,1,4,3:1:0:0:
70,71,146814,2,0,P|113:103|111:157,1,112.499996566773,2|0,3:2|2:0,2:0:0:0:
56,241,147314,5,12,2:1:0:0:
213,230,147481,1,2,3:2:0:0:
208,305,147647,1,2,2:0:0:0:
275,324,147814,1,2,2:0:0:0:
321,278,147981,101,4,3:1:0:0:
365,178,148147,2,0,P|408:231|421:300,1,140.625005364418,2|0,3:2|2:0,2:0:0:0:
325,273,148647,1,12,3:2:0:0:
511,232,148814,2,0,P|496:231|483:229,1,28.1250010728836,2|0,3:2|2:0,2:0:0:0:
444,161,148981,2,0,P|406:179|365:178,1,84.3750032186509,2|0,2:0|2:0,2:0:0:0:
321,278,149314,1,4,3:2:0:0:
497,318,149481,1,2,3:2:0:0:
325,273,149647,1,2,3:2:0:0:
502,314,149814,2,0,P|462:299|420:301,1,84.3750032186509,4|0,3:1|2:0,2:0:0:0:
482,229,150147,2,0,P|468:226|454:226,1,28.1250010728836,2|0,2:0|2:0,2:0:0:0:
321,278,150314,5,2,3:2:0:0:
365,178,150481,2,0,P|378:180|392:180,1,28.1250010728836,2|0,3:2|2:0,2:0:0:0:
346,93,150647,2,0,P|385:107|427:105,1,84.3750032186509,4|0,2:0|2:0,2:0:0:0:
272,76,150981,101,10,2:0:0:0:
424,18,151147,2,0,P|411:25|399:33,1,28.1250010728836,2|2,3:2|2:0,2:0:0:0:
427,105,151314,2,0,P|414:112|402:120,2,28.1250010728836,4|2|2,2:0|2:0|2:0,2:0:0:0:
277,81,151647,1,4,3:2:0:0:
422,207,151814,1,2,3:2:0:0:
272,76,151981,1,4,3:1:0:0:
417,212,152147,2,0,P|384:173|408:116,1,112.500004291535,2|2,3:2|3:2,2:0:0:0:
434,112,152536,69,0,3:1:0:0:
434,112,152592,101,0,3:1:0:0:
434,112,152647,70,0,L|498:105,1,56.2500021457673,12|4,2:1|2:3,2:0:0:0:
400,33,152981,2,0,L|336:40,1,56.2500021457673,4|4,2:3|0:3,2:0:0:0:
196,152,153314,101,4,3:2:0:0:
227,4,153481,2,0,P|252:66|288:123,1,134.999995880127,2|0,3:2|3:2,2:0:0:0:
190,155,153981,1,12,3:2:0:0:
378,223,154147,2,0,P|328:177|288:123,1,134.999995880127,2|0,3:2|3:2,2:0:0:0:
92,179,154647,6,0,P|141:170|190:155,1,101.249996910095,4|0,3:2|2:0,2:0:0:0:
232,223,154981,1,0,3:2:0:0:
244,219,155064,1,2,2:0:0:0:
256,215,155147,1,4,3:1:0:0:
290,300,155314,1,10,2:0:0:0:
278,296,155397,1,2,2:0:0:0:
266,292,155481,1,2,2:0:0:0:
196,152,155647,101,2,3:2:0:0:
159,333,155814,2,0,P|169:319|181:308,1,33.7499989700318,2|0,3:2|2:0,2:0:0:0:
256,215,155981,1,6,2:0:0:0:
244,219,156064,1,2,2:0:0:0:
232,223,156147,1,2,2:0:0:0:
220,227,156231,1,2,2:0:0:0:
208,231,156314,5,2,3:2:0:0:
147,70,156481,2,0,P|140:86|135:102,1,33.7499989700318,2|0,3:2|2:0,2:0:0:0:
90,239,156647,1,12,2:0:0:0:
94,227,156731,1,2,2:0:0:0:
98,215,156814,1,2,2:0:0:0:
208,231,156981,101,4,3:2:0:0:
17,134,157147,1,2,3:2:0:0:
214,227,157314,1,4,3:1:0:0:
23,130,157481,2,0,P|87:144|136:98,1,134.999995880127,2|0,3:2|3:2,2:0:0:0:
98,215,157981,5,12,2:1:0:0:
94,227,158064,1,2,2:0:0:0:
90,239,158147,1,2,3:2:0:0:
25,328,158314,1,2,2:0:0:0:
29,340,158397,1,2,2:0:0:0:
33,352,158481,1,2,3:2:0:0:
63,359,158564,1,2,3:2:0:0:
93,363,158647,101,12,2:1:0:0:
232,295,158814,1,2,3:2:0:0:
219,298,158897,1,2,2:0:0:0:
205,300,158981,2,0,P|177:282|164:252,1,67.4999979400635,2|0,2:0|3:2,2:0:0:0:
99,367,159314,2,0,P|96:343|99:322,1,33.7499989700318,12|0,3:2|2:0,2:0:0:0:
25,253,159481,2,0,P|58:251|90:238,1,67.4999979400635,2|2,3:2|2:0,2:0:0:0:
164,252,159731,1,2,2:0:0:0:
160,240,159814,1,2,3:2:0:0:
93,363,159981,5,12,2:0:0:0:
130,163,160147,1,2,3:2:0:0:
99,367,160314,1,10,2:0:0:0:
125,160,160481,2,0,P|78:167|106:242,1,134.999995880127,4|2,3:1|3:2,2:0:0:0:
160,240,160897,1,2,2:0:0:0:
176,233,160981,1,10,2:0:0:0:
231,103,161147,1,2,3:2:0:0:
214,96,161231,1,2,3:2:0:0:
198,88,161314,102,0,P|189:51|212:23,1,75,12|4,3:1|3:3,2:0:0:0:
300,27,161564,1,4,0:3:0:0:
315,35,161647,2,0,P|322:70|300:99,1,75,4|4,3:3|3:3,2:0:0:0:
261,266,161981,2,2,P|256:248|258:230,1,37.5,4|0,3:3|2:0,2:0:0:0:
335,194,162147,2,2,P|347:181|357:165,1,37.5,4|0,3:3|2:0,2:0:0:0:
255,224,162314,2,2,P|257:205|254:187,1,37.5,4|0,3:3|2:0,2:0:0:0:
169,176,162481,2,2,P|155:163|146:148,1,37.5,4|0,3:3|2:0,2:0:0:0:
312,110,162647,5,12,2:0:0:0:
302,98,162731,2,0,P|290:60|305:18,1,75,8|8,0:2|2:0,2:0:0:0:
212,23,162981,2,0,P|222:58|214:95,1,75,8|8,2:0|2:0,2:0:0:0:
135,138,163231,1,8,2:0:0:0:
145,147,163314,2,2,P|158:158|168:175,1,37.5,12|0,3:0|2:0,2:0:0:0:
254,187,163481,2,2,P|252:205|256:223,1,37.5,4|0,2:3|2:0,2:0:0:0:
357,165,163647,2,2,P|344:179|335:195,1,37.5,4|0,2:3|2:0,2:0:0:0:
258,230,163814,2,2,P|262:247|261:266,1,37.5,4|0,2:3|2:0,2:0:0:0:
379,378,163981,102,0,P|356:347|341:313,1,75,6|0,3:2|3:2,2:0:0:0:
492,226,164314,2,0,P|455:274|428:330,1,112.5,8|4,2:3|3:3,2:0:0:0:
379,378,164647,2,0,P|358:346|357:301,1,75,2|0,3:2|3:2,2:0:0:0:
492,226,164981,2,0,P|456:238|375:246,1,112.5,8|4,2:3|3:3,2:0:0:0:
375,153,165314,6,0,P|339:134|284:136,1,75,2|0,3:2|3:2,2:0:0:0:
331,16,165647,2,0,P|399:53|422:113,1,112.5,8|4,2:3|3:3,2:0:0:0:
375,153,165981,2,0,P|367:170|357:185,2,37.5,2|4|4,3:2|2:3|3:0,2:0:0:0:
331,16,166314,1,8,2:3:0:0:
192,109,166481,1,4,3:3:0:0:
190,119,166564,1,4,3:3:0:0:
198,126,166647,102,0,P|240:103|245:62,1,75,4|0,3:1|3:2,2:0:0:0:
122,8,166981,2,0,P|101:55|137:124,1,112.5,8|4,2:3|3:3,2:0:0:0:
198,126,167314,2,0,P|206:93|259:57,1,75,2|0,3:2|3:2,2:0:0:0:
122,8,167647,2,0,P|120:65|99:129,1,112.5,8|4,2:3|3:3,2:0:0:0:
54,177,167981,6,0,P|17:172|-1:141,1,75,2|0,3:2|3:2,2:0:0:0:
42,324,168314,1,8,2:3:0:0:
54,177,168481,2,0,L|91:187,1,37.5,4|4,0:3|0:3,2:0:0:0:
48,251,168647,2,0,L|85:261,1,37.5,4|4,3:3|3:3,2:0:0:0:
42,324,168814,2,0,L|79:334,1,37.5,4|4,3:0|3:3,2:0:0:0:
136,382,168981,2,0,P|187:380|245:331,1,112.5,12|0,2:0|2:0,2:0:0:0:
218,256,169314,102,0,P|174:242|156:204,1,75,4|0,3:1|3:2,2:0:0:0:
240,110,169647,2,0,P|300:154|297:210,1,112.5,8|4,2:3|3:3,2:0:0:0:
218,256,169981,1,2,3:2:0:0:
229,183,170147,1,0,3:2:0:0:
240,110,170314,2,0,P|317:124|364:120,1,112.5,10|4,2:0|3:3,2:0:0:0:
343,46,170647,6,0,P|366:17|402:10,1,75,2|0,3:2|3:2,2:0:0:0:
426,147,170981,2,0,P|462:82|478:26,1,112.5,8|4,2:3|3:3,2:0:0:0:
401,9,171314,2,0,P|372:16|347:42,2,37.5,2|4|4,3:2|2:3|3:0,2:0:0:0:
426,147,171647,1,8,2:3:0:0:
329,213,171814,1,4,3:3:0:0:
327,220,171897,1,4,3:3:0:0:
325,227,171981,101,4,3:1:0:0:
242,223,172147,1,0,3:2:0:0:
159,219,172314,2,0,L|280:270,1,112.5,8|4,2:3|3:3,2:0:0:0:
325,227,172647,1,2,3:2:0:0:
242,223,172814,1,0,3:2:0:0:
159,219,172981,1,8,2:3:0:0:
113,373,173147,1,4,3:3:0:0:
120,352,173231,1,4,3:3:0:0:
127,332,173314,5,2,3:2:0:0:
230,328,173481,1,0,3:2:0:0:
333,323,173647,1,8,2:3:0:0:
127,332,173814,2,0,L|181:309,1,37.5,4|4,0:3|0:3,2:0:0:0:
230,328,173981,2,0,L|284:305,1,37.5,4|4,3:3|3:3,2:0:0:0:
333,323,174147,2,0,L|387:300,1,37.5,4|4,3:0|3:0,2:0:0:0:
451,237,174314,2,0,P|379:229|326:188,1,112.5,12|0,2:1|2:0,2:0:0:0:
313,135,174647,101,4,3:2:0:0:
314,123,174731,1,0,3:2:0:0:
315,111,174814,1,0,3:2:0:0:
317,98,174897,1,0,3:2:0:0:
318,87,174981,1,10,2:3:0:0:
398,47,175147,1,0,3:2:0:0:
399,59,175231,1,0,3:2:0:0:
401,71,175314,1,2,3:0:0:0:
402,83,175397,1,0,3:2:0:0:
403,95,175481,1,8,2:0:0:0:
483,135,175647,1,2,3:0:0:0:
484,123,175731,1,0,3:2:0:0:
485,111,175814,1,0,3:2:0:0:
487,99,175897,1,0,3:2:0:0:
488,87,175981,5,12,0:0:0:0:
484,73,176064,1,0,3:2:0:0:
480,59,176147,1,0,3:2:0:0:
475,45,176231,1,0,3:2:0:0:
470,31,176314,1,2,3:3:0:0:
403,95,176481,1,8,2:0:0:0:
398,109,176564,1,0,3:2:0:0:
393,123,176647,1,2,3:0:0:0:
389,137,176731,1,0,3:2:0:0:
385,151,176814,1,0,3:2:0:0:
189,143,176981,2,0,L|174:86,3,48.7499977684022,10|0|0|0,2:3|3:2|3:2|3:2,2:0:0:0:
252,18,177314,101,6,3:1:0:0:
254,42,177397,1,0,3:2:0:0:
256,66,177481,1,0,3:2:0:0:
258,90,177564,1,0,3:2:0:0:
260,114,177647,1,10,2:3:0:0:
252,18,177814,5,0,3:2:0:0:
254,42,177897,1,0,3:2:0:0:
256,66,177981,1,2,3:0:0:0:
258,90,178064,1,0,3:2:0:0:
260,114,178147,1,8,2:0:0:0:
252,18,178314,101,2,3:0:0:0:
254,42,178397,1,0,3:2:0:0:
256,66,178481,1,0,3:2:0:0:
258,90,178564,1,0,3:2:0:0:
260,114,178647,6,2,L|263:162,1,48.7499977684022,14|0,0:2|0:2,2:0:0:0:
410,148,178814,1,0,3:2:0:0:
412,172,178897,1,0,3:2:0:0:
414,196,178981,2,2,L|417:244,1,48.7499977684022,12|0,0:2|0:2,2:0:0:0:
265,114,179147,1,0,3:0:0:0:
267,137,179231,1,0,3:0:0:0:
269,162,179314,101,12,2:1:0:0:
306,172,179397,1,8,2:0:0:0:
344,180,179481,1,8,2:0:0:0:
381,189,179564,1,8,2:0:0:0:
419,196,179647,2,0,L|422:244,3,48.7499977684022,8|4|4|4,2:0|3:3|3:3|3:3,2:0:0:0:
468,358,179981,5,12,2:0:0:0:
439,362,180064,1,0,3:2:0:0:
409,365,180147,1,0,3:2:0:0:
379,368,180231,1,0,3:2:0:0:
352,354,180314,1,10,2:3:0:0:
323,358,180397,1,0,3:2:0:0:
294,361,180481,1,0,3:2:0:0:
264,364,180564,1,0,3:2:0:0:
237,350,180647,101,10,2:3:0:0:
235,340,180731,1,0,3:2:0:0:
234,330,180814,1,0,3:2:0:0:
233,320,180897,1,0,3:2:0:0:
248,293,180981,1,10,2:3:0:0:
246,283,181064,1,0,3:2:0:0:
245,273,181147,1,0,3:2:0:0:
244,263,181231,1,0,3:2:0:0:
259,236,181314,6,0,L|210:242,3,48.7499977684022,12|0|0|0,2:1|3:2|3:2|3:2,2:0:0:0:
163,174,181647,2,0,L|115:181,3,48.7499977684022,10|0|0|0,2:3|3:2|3:2|3:2,2:0:0:0:
28,253,181981,101,10,2:3:0:0:
69,256,182064,1,0,3:2:0:0:
99,279,182147,1,0,3:2:0:0:
115,312,182231,1,0,3:2:0:0:
113,342,182314,1,12,2:1:0:0:
123,366,182397,1,0,3:2:0:0:
142,378,182481,1,0,3:2:0:0:
156,379,182564,1,0,3:2:0:0:
163,371,182647,6,0,L|68:345,1,97.4999955368044,12|8,3:2|0:2,2:2:0:0:
119,206,182981,1,8,3:2:0:0:
25,180,183147,1,8,0:2:0:0:
68,345,183314,101,8,3:2:0:0:
233,302,183481,1,8,0:2:0:0:
25,180,183647,1,8,3:2:0:0:
190,137,183814,1,8,0:2:0:0:
218,32,183981,70,0,L|225:3,5,29.9999990844727,4|4|4|4|4|4,3:0|3:3|3:3|3:0|3:0|3:0,2:0:0:0:
180,29,184314,6,0,P|243:56|299:51,2,120,14|2|2,2:2|2:0|2:0,2:0:0:0:
5,81,185314,69,4,3:1:0:0:
29,71,185397,1,0,3:2:0:0:
53,62,185481,1,10,3:0:0:0:
78,53,185564,1,0,3:2:0:0:
104,46,185647,1,0,3:2:0:0:
129,39,185731,1,0,3:2:0:0:
155,34,185814,1,10,3:0:0:0:
180,29,185897,1,0,3:2:0:0:
206,25,185981,1,0,3:2:0:0:
232,22,186064,1,0,3:2:0:0:
258,18,186147,102,2,P|279:33|294:54,1,52.4999983978272,10|0,3:0|3:2,2:0:0:0:
358,12,186314,2,2,P|368:35|371:61,1,52.4999983978272,2|0,3:2|3:2,2:0:0:0:
447,56,186481,2,2,P|444:82|433:106,1,52.4999983978272,10|0,3:0|3:2,2:0:0:0:
495,203,186647,5,2,3:2:0:0:
470,192,186731,1,0,3:2:0:0:
445,185,186814,1,10,3:0:0:0:
420,177,186897,1,0,3:2:0:0:
394,171,186981,1,0,3:2:0:0:
369,166,187064,1,0,3:2:0:0:
343,163,187147,1,10,3:0:0:0:
316,161,187231,1,0,3:2:0:0:
290,159,187314,1,0,3:2:0:0:
264,160,187397,1,0,3:2:0:0:
236,160,187481,102,2,P|244:184|261:204,1,52.4999983978272,10|0,3:0|3:2,2:0:0:0:
168,233,187647,2,2,P|187:250|211:259,1,52.4999983978272,2|0,3:2|3:2,2:0:0:0:
171,332,187814,2,2,P|197:338|223:334,1,52.4999983978272,10|0,3:0|3:2,2:0:0:0:
340,341,187981,5,4,3:2:0:0:
348,345,188064,1,0,3:2:0:0:
356,343,188147,2,2,P|372:323|381:298,1,52.4999983978272,10|0,3:0|3:2,2:0:0:0:
426,368,188314,1,2,3:2:0:0:
434,372,188397,1,0,3:2:0:0:
442,370,188481,2,2,P|458:350|467:325,1,52.4999983978272,10|0,3:0|3:2,2:0:0:0:
385,292,188647,1,2,3:2:0:0:
395,281,188731,1,0,3:2:0:0:
397,264,188814,2,2,P|393:238|382:214,1,52.4999983978272,10|0,3:0|3:2,2:0:0:0:
471,319,188981,1,2,3:2:0:0:
481,308,189064,1,0,3:2:0:0:
483,291,189147,2,2,P|479:265|468:241,1,52.4999983978272,10|0,3:0|3:2,2:0:0:0:
223,334,189314,101,2,3:2:0:0:
244,318,189397,1,0,3:2:0:0:
262,299,189481,1,10,3:0:0:0:
279,279,189564,1,0,3:2:0:0:
292,256,189647,1,0,3:2:0:0:
302,232,189731,1,0,3:2:0:0:
309,207,189814,1,10,3:0:0:0:
313,181,189897,1,0,3:2:0:0:
314,155,189981,1,0,3:2:0:0:
310,129,190064,1,0,3:2:0:0:
304,103,190147,6,2,P|276:102|247:120,1,52.4999983978272,10|0,3:0|3:2,2:0:0:0:
178,88,190314,2,2,P|163:109|161:135,1,52.4999983978272,2|0,3:2|3:2,2:0:0:0:
89,169,190481,2,2,P|101:192|123:207,1,52.4999983978272,10|0,3:3|3:2,2:0:0:0:
200,261,190647,101,4,3:1:0:0:
177,275,190731,1,0,3:2:0:0:
157,292,190814,1,10,3:0:0:0:
140,311,190897,1,0,3:2:0:0:
125,333,190981,1,0,3:2:0:0:
113,356,191064,1,0,3:2:0:0:
104,381,191147,2,2,P|125:365|143:345,1,52.4999983978272,10|0,3:0|3:2,2:0:0:0:
50,327,191314,2,2,P|67:307|88:291,3,52.4999983978272,2|0|10|0,3:2|3:2|3:0|3:2,2:0:0:0:
123,207,191647,2,2,P|98:187|78:161,1,52.4999983978272,2|0,3:2|3:2,2:0:0:0:
177,153,191814,2,2,P|159:133|138:117,1,52.4999983978272,10|0,3:0|3:2,2:0:0:0:
25,20,191981,5,2,3:1:0:0:
46,18,192064,1,0,3:2:0:0:
62,32,192147,2,2,P|59:57|38:77,1,52.4999983978272,10|0,3:0|3:2,2:0:0:0:
171,0,192314,1,2,3:1:0:0:
191,6,192397,1,0,3:2:0:0:
201,23,192481,2,2,P|189:46|163:58,1,52.4999983978272,10|0,3:0|3:2,2:0:0:0:
40,82,192647,1,2,3:1:0:0:
29,70,192731,1,0,3:2:0:0:
16,70,192814,2,2,P|0:89|0:118,1,52.4999983978272,10|0,3:0|3:2,2:0:0:0:
177,153,192981,2,2,P|174:178|157:198,1,52.4999983978272,2|0,3:1|3:2,2:0:0:0:
84,171,193147,2,2,P|86:145|104:126,1,52.4999983978272,10|0,3:0|3:2,2:0:0:0:
166,57,193314,101,4,3:1:0:0:
186,55,193397,1,0,3:0:0:0:
207,54,193481,1,10,3:3:0:0:
227,53,193564,1,0,3:0:0:0:
247,52,193647,2,0,L|299:49,1,52.4999983978272,0|0,3:0|3:2,2:0:0:0:
361,3,193814,2,0,L|413:0,3,52.4999983978272,10|0|0|0,3:0|3:2|3:2|3:2,2:0:0:0:
293,129,194147,2,0,L|345:126,1,52.4999983978272,10|0,3:3|3:2,2:0:0:0:
407,80,194314,2,0,L|459:77,3,52.4999983978272,0|0|10|0,3:2|3:2|3:0|3:2,2:0:0:0:
458,239,194647,5,4,3:2:0:0:
427,214,194731,1,0,3:2:0:0:
394,195,194814,1,10,3:0:0:0:
355,189,194897,1,0,3:2:0:0:
317,194,194981,1,0,3:2:0:0:
279,208,195064,1,0,3:2:0:0:
247,231,195147,1,10,3:0:0:0:
225,264,195231,1,0,3:2:0:0:
220,304,195314,102,2,P|230:328|250:345,1,52.4999983978272,4|0,3:3|3:2,2:0:0:0:
310,269,195481,2,2,P|335:279|360:277,1,52.4999983978272,4|0,3:0|3:0,2:0:0:0:
389,171,195647,2,2,P|409:153|434:146,1,52.4999983978272,8|0,3:3|3:2,2:0:0:0:
458,239,195814,2,2,P|485:240|508:252,1,52.4999983978272,8|0,3:2|3:2,2:0:0:0:
487,373,195981,6,2,P|479:347|464:326,1,52.4999983978272,4|0,3:1|3:2,2:0:0:0:
509,246,196147,2,2,P|486:234|460:233,1,52.4999983978272,10|0,3:0|3:2,2:0:0:0:
430,142,196314,2,2,P|405:149|386:167,3,52.4999983978272,2|0|10|0,3:2|3:2|3:0|3:2,2:0:0:0:
464,326,196647,1,2,3:2:0:0:
444,305,196731,1,0,3:2:0:0:
419,291,196814,1,10,3:0:0:0:
391,286,196897,1,0,3:2:0:0:
362,288,196981,1,0,3:2:0:0:
338,302,197064,1,0,3:2:0:0:
319,322,197147,102,2,P|294:335|266:338,3,52.4999983978272,10|0|0|0,3:0|3:2|3:1|3:2,2:0:0:0:
267,245,197481,2,2,P|240:237|218:219,1,52.4999983978272,10|0,3:0|3:2,2:0:0:0:
284,153,197647,2,2,P|270:128|267:99,1,52.4999983978272,2|0,3:2|3:2,2:0:0:0:
397,44,197814,1,8,3:0:0:0:
389,48,197897,1,2,3:2:0:0:
383,54,197981,6,2,P|367:75|361:100,1,52.4999983978272,2|0,3:2|3:2,2:0:0:0:
263,100,198147,1,10,3:0:0:0:
263,108,198231,2,2,P|266:133|279:156,1,52.4999983978272,2|0,3:2|3:2,2:0:0:0:
214,223,198397,1,2,3:2:0:0:
219,228,198481,2,2,P|239:243|265:250,1,52.4999983978272,10|0,3:0|3:2,2:0:0:0:
429,209,198647,101,4,3:1:0:0:
424,218,198731,1,0,3:2:0:0:
415,222,198814,2,2,P|391:207|366:179,1,52.4999983978272,10|0,3:0|3:2,2:0:0:0:
489,122,198981,1,2,3:2:0:0:
487,136,199064,1,0,3:2:0:0:
477,144,199147,2,2,P|453:129|428:101,1,52.4999983978272,10|0,3:0|3:2,2:0:0:0:
366,23,199314,1,2,3:2:0:0:
351,19,199397,1,0,3:2:0:0:
337,27,199481,2,2,P|323:51|316:88,1,52.4999983978272,10|0,3:0|3:2,2:0:0:0:
145,114,199647,1,2,3:2:0:0:
143,139,199731,1,0,3:2:0:0:
150,162,199814,2,2,P|184:188|194:227,1,52.4999983978272,10|0,3:0|3:2,2:0:0:0:
210,4,199981,5,2,3:1:0:0:
200,47,200064,1,0,3:2:0:0:
212,90,200147,1,10,3:0:0:0:
237,127,200231,1,0,3:2:0:0:
275,147,200314,1,0,3:2:0:0:
302,182,200397,1,0,3:2:0:0:
313,226,200481,2,0,P|310:256|304:279,3,52.4999983978272,10|0|0|0,3:3|3:2|3:2|3:0,2:0:0:0:
255,374,200814,101,4,3:0:0:0:
246,367,200897,1,4,3:0:0:0:
233,361,200981,1,8,3:2:0:0:
214,356,201064,1,8,3:2:0:0:
191,354,201147,1,8,3:2:0:0:
162,356,201231,1,8,3:2:0:0:
128,362,201314,6,2,P|136:335|128:309,1,52.4999983978272,4|0,3:2|3:2,2:0:0:0:
57,249,201481,2,2,P|84:243|102:222,1,52.4999983978272,10|0,3:0|3:2,2:0:0:0:
121,130,201647,2,2,P|139:150|166:155,3,52.4999983978272,2|0|10|0,3:2|3:2|3:0|3:2,2:0:0:0:
129,312,201981,1,2,3:2:0:0:
160,291,202064,1,0,3:2:0:0:
196,282,202147,1,10,3:0:0:0:
234,282,202231,1,0,3:2:0:0:
271,290,202314,1,0,3:2:0:0:
303,307,202397,1,0,3:2:0:0:
337,322,202481,102,2,P|352:289|349:249,3,52.4999983978272,10|0|0|0,3:0|3:2|3:1|3:2,2:0:0:0:
293,193,202814,2,2,P|271:177|246:169,1,52.4999983978272,10|0,3:0|3:2,2:0:0:0:
447,235,202981,2,2,P|473:236|498:229,1,52.4999983978272,2|0,3:2|3:2,2:0:0:0:
384,153,203147,1,10,3:0:0:0:
377,184,203231,1,0,3:2:0:0:
370,214,203314,1,0,3:2:0:0:
362,244,203397,1,0,3:2:0:0:
354,274,203481,1,12,2:0:0:0:
431,302,203647,1,12,2:0:0:0:
306,124,203814,1,0,3:2:0:0:
310,137,203897,1,0,3:2:0:0:
306,150,203981,38,2,P|273:163|245:171,1,62.5,12|0,2:1|2:0,2:1:0:0:
235,271,204203,2,2,P|206:259|182:239,1,62.5,4|0,3:3|2:0,2:1:0:0:
60,282,204425,2,2,P|77:230|97:216,1,62.5,4|0,3:3|2:0,2:1:0:0:
0,86,204647,102,2,P|30:82|53:109,1,62.5,4|0,3:1|2:0,2:1:0:0:
169,8,204870,2,2,P|188:31|173:57,1,62.5,4|0,3:3|2:0,2:1:0:0:
81,226,205092,2,2,P|44:211|75:188,1,62.5,4|0,3:3|2:0,2:1:0:0:
150,147,205314,6,2,P|232:149|335:87,1,187.5,4|4,3:2|3:3,2:1:0:0:
337,131,205703,101,4,3:3:0:0:
337,131,205759,5,4,3:3:0:0:
337,131,205814,70,0,L|325:182,1,46.875,4|4,3:3|3:3,2:0:0:0:
273,242,205981,1,4,3:3:0:0:
254,239,206064,1,4,3:3:0:0:
236,236,206147,2,0,L|229:266,3,22.4999993133545,4|4|4|4,3:0|3:0|3:0|3:3,2:0:0:0:
95,372,206481,1,4,3:3:0:0:
97,360,206564,1,4,3:3:0:0:
99,348,206647,38,0,L|75:343,2,22.4999993133545,12|8|8,2:0|2:0|2:0,2:0:0:0:
171,323,206870,1,8,2:0:0:0:
225,368,206981,1,8,2:0:0:0:
276,328,207092,1,4,2:3:0:0:
313,359,207203,1,4,2:3:0:0:
347,338,207314,2,0,P|392:330|452:320,2,89.999997253418,4|4|4,2:3|2:3|2:3,2:0:0:0:
195,172,207982,5,6,3:1:0:0:
443,371,226648,6,0,P|382:343|318:329,1,120,2|0,2:0|2:0,2:0:0:0:
229,246,227981,2,0,P|300:222|375:213,1,150,2|0,2:0|2:0,2:0:0:0:
381,73,229314,102,0,P|313:61|345:119,1,157.499995193482,2|0,2:1|2:0,2:0:0:0:
374,213,229981,2,0,B|379:220|376:237|353:249|306:237|308:153|321:108|393:102|427:181|530:92|405:-81|303:-69|207:47|285:82|339:116|290:159|251:196|205:179,1,487.499977684022,2|0,2:0|2:0,2:0:0:0:
224,182,231981,6,0,P|200:105|168:39,3,150,2|0|0|0,2:0|2:0|2:0|2:0,2:0:0:0:
87,330,234648,102,0,B|116:331|137:371|48:396|8:361|-55:212|3:113|144:52|335:84|405:295|215:381|150:237,1,682.499968757631,2|0,2:1|2:0,2:0:0:0:
149,236,237314,6,0,P|210:308|216:375,3,150,2|0|0|0,2:0|2:0|2:0|2:0,2:0:0:0:
469,211,239981,102,0,B|474:222|483:222|512:201|497:164|439:171|380:179|463:327|311:262|280:235|280:188|281:171|306:155|286:116|250:109,1,337.499989700318,2|0,2:0|2:0,2:0:0:0:
214,45,241314,2,0,P|215:109|167:151,1,131.25,2|0,2:0|2:0,2:0:0:0:
114,198,241981,2,0,P|137:144|82:130,1,131.25,2|0,2:0|2:0,2:0:0:0:
0,218,242648,6,0,L|38:237,1,44.999998626709,4|4,3:3|3:3,2:0:0:0:
31,313,242981,2,0,L|82:303,1,52.4999983978272,4|4,3:3|3:3,2:0:0:0:
137,365,243314,2,0,L|186:330,1,60,4|4,3:3|3:3,2:0:0:0:
409,295,243648,101,4,3:3:0:0:
359,248,243814,1,4,3:3:0:0:
275,307,243981,1,4,3:0:0:0:
274,223,244148,1,4,3:3:0:0:
115,198,244314,1,4,3:0:0:0:
202,160,244481,1,4,3:3:0:0:
84,44,244648,5,4,3:0:0:0:
206,74,244814,1,4,3:3:0:0:
358,4,244981,1,4,3:0:0:0:
295,70,245148,1,4,3:3:0:0:
299,78,245231,1,4,3:3:0:0:
304,85,245314,102,0,L|343:90,3,30,10|0|0|0,2:0|2:0|2:0|2:0,2:0:0:0:
405,113,245648,2,0,L|444:107,3,30,2|0|0|0,2:0|2:0|2:0|2:0,2:0:0:0:
512,24,245981,1,2,2:0:0:0:
500,22,246064,1,2,2:0:0:0:
487,20,246148,1,2,2:0:0:0:
475,19,246231,1,2,2:0:0:0:
463,30,246314,1,2,2:0:0:0:
440,33,246398,1,2,2:0:0:0:
416,35,246481,1,2,2:0:0:0:
391,37,246564,1,2,2:0:0:0:
358,4,246648,38,2,B|339:23|339:23|333:109,1,93.75,12|0,2:0|3:0,2:1:0:0:
269,122,246898,1,0,3:0:0:0:
285,150,246981,1,2,3:0:0:0:
314,164,247064,1,0,3:0:0:0:
346,166,247148,1,8,2:3:0:0:
354,260,247314,1,2,3:0:0:0:
376,260,247398,1,0,3:0:0:0:
399,253,247481,1,0,3:0:0:0:
418,240,247564,1,0,3:0:0:0:
431,220,247648,1,10,2:3:0:0:
493,339,247814,1,0,3:0:0:0:
506,331,247898,1,0,3:0:0:0:
512,315,247981,102,2,B|459:305|459:305|399:375,1,140.625,10|0,2:3|3:2,2:1:0:0:
329,368,248314,2,2,P|289:317|300:294,1,93.75,2|8,3:3|2:3,2:1:0:0:
306,141,248648,1,2,3:0:0:0:
335,154,248731,1,0,3:0:0:0:
356,178,248814,1,0,3:0:0:0:
369,208,248898,1,0,3:0:0:0:
369,240,248981,1,12,2:1:0:0:
212,275,249148,1,0,3:0:0:0:
207,293,249231,1,0,3:0:0:0:
216,308,249314,6,2,B|247:327|247:327|329:280,1,93.75,12|0,2:0|3:0,2:1:0:0:
295,223,249564,1,0,3:0:0:0:
283,212,249648,2,2,B|269:206|269:206|229:222,1,46.875,2|0,3:0|3:0,2:0:0:0:
154,198,249814,2,2,B|138:295,1,93.75,8|2,2:3|3:0,2:1:0:0:
80,338,250064,1,0,3:0:0:0:
52,345,250148,1,0,3:0:0:0:
24,341,250231,1,0,3:0:0:0:
0,325,250314,1,10,2:3:0:0:
28,233,250481,1,0,3:0:0:0:
50,230,250564,1,0,3:0:0:0:
66,243,250648,1,10,2:3:0:0:
44,134,250814,101,2,3:2:0:0:
31,126,250898,1,2,3:2:0:0:
22,111,250981,1,2,3:0:0:0:
24,91,251064,1,2,3:2:0:0:
43,78,251148,2,2,P|83:90|90:110,1,46.875,10|0,2:0|2:0,2:0:0:0:
200,107,251314,2,2,P|218:121|242:121,1,46.875,2|0,3:3|3:0,2:0:0:0:
163,0,251481,2,2,P|163:23|149:41,1,46.875,2|0,3:2|3:0,2:0:0:0:
133,157,251648,2,2,P|120:175|121:199,3,46.875,10|4|4|4,2:3|3:3|3:0|3:0,2:0:0:0:
84,91,251981,6,2,B|40:74|40:74|15:113,1,93.75,12|0,2:0|3:0,2:1:0:0:
23,194,252231,1,0,3:0:0:0:
64,200,252314,1,2,3:0:0:0:
105,189,252398,1,0,3:0:0:0:
133,157,252481,1,8,2:3:0:0:
303,101,252648,1,2,3:0:0:0:
287,124,252731,1,0,3:0:0:0:
261,136,252814,1,0,3:0:0:0:
233,140,252898,1,0,3:0:0:0:
206,132,252981,1,10,2:3:0:0:
375,75,253148,1,0,3:0:0:0:
388,80,253231,1,0,3:0:0:0:
400,73,253314,1,10,2:3:0:0:
496,21,253481,101,2,3:2:0:0:
489,39,253564,1,2,3:2:0:0:
471,43,253648,2,2,P|460:32|469:-3,1,46.875,2|0,3:0|2:0,2:0:0:0:
469,116,253814,2,2,P|445:77|400:73,1,93.75,10|2,2:1|3:0,2:1:0:0:
367,4,254064,1,0,3:0:0:0:
336,27,254148,1,0,3:0:0:0:
322,61,254231,1,0,3:0:0:0:
327,97,254314,1,12,2:1:0:0:
417,191,254481,1,0,3:0:0:0:
425,202,254564,1,0,3:0:0:0:
417,217,254648,6,2,B|371:222|371:222|324:207,1,93.75,12|0,2:0|3:0,2:1:0:0:
250,222,254898,1,0,3:0:0:0:
249,193,254981,1,2,3:0:0:0:
260,167,255064,1,0,3:0:0:0:
280,148,255148,1,8,2:3:0:0:
166,182,255314,1,2,3:0:0:0:
143,187,255398,1,0,3:0:0:0:
124,201,255481,1,0,3:0:0:0:
112,221,255564,1,0,3:0:0:0:
109,244,255648,1,10,2:3:0:0:
52,320,255814,1,0,3:0:0:0:
46,309,255898,1,0,3:0:0:0:
50,298,255981,102,2,B|89:316|89:316|78:366,1,93.75,10|0,2:3|3:2,2:0:0:0:
0,362,256231,1,2,3:2:0:0:
13,377,256314,2,2,B|81:381|81:381|85:377|85:377|152:379,1,140.625,2|0,3:0|2:0,2:1:0:0:
201,330,256648,1,2,3:0:0:0:
227,321,256731,1,0,3:0:0:0:
249,329,256814,1,0,3:0:0:0:
260,345,256898,1,0,3:0:0:0:
262,355,256981,1,10,2:3:0:0:
273,371,257064,1,8,2:3:0:0:
295,379,257148,1,0,3:0:0:0:
321,370,257231,1,0,3:0:0:0:
339,344,257314,6,2,B|339:329|339:329|319:303,1,46.875,14|0,2:1|2:0,2:1:0:0:
347,237,257481,2,2,B|340:224|340:224|309:215,1,46.875,2|0,3:2|3:0,2:0:0:0:
287,126,257648,2,2,B|274:132|274:132|265:163,1,46.875,2|0,3:2|3:0,2:0:0:0:
161,158,257814,2,2,B|167:170|167:170|198:179,1,46.875,10|0,2:0|2:0,2:0:0:0:
221,268,257981,2,2,B|233:261|233:261|242:230,1,46.875,2|0,3:2|3:0,2:0:0:0:
220,100,258148,1,2,3:2:0:0:
203,100,258231,1,2,3:2:0:0:
188,92,258314,2,2,B|168:66|168:66|169:52,1,46.875,10|0,2:2|2:0,2:1:0:0:
282,16,258481,1,2,3:2:0:0:
308,8,258564,1,2,3:2:0:0:
331,23,258648,102,2,B|309:41|309:41|245:37,1,93.75,10|0,2:1|3:2,2:1:0:0:
169,52,258898,1,0,3:2:0:0:
141,49,258981,1,2,3:0:0:0:
113,47,259064,1,0,3:2:0:0:
85,44,259148,1,8,2:0:0:0:
42,192,259314,1,2,3:0:0:0:
32,181,259398,2,2,P|42:159|66:148,1,46.875,2|0,3:2|3:0,2:0:0:0:
6,73,259564,1,2,3:2:0:0:
0,90,259648,2,2,B|21:114|21:114|51:125|51:125|80:120,1,93.75,14|0,2:1|3:0,2:1:0:0:
136,168,259898,1,0,3:0:0:0:
146,146,259981,6,2,B|157:126|157:126|182:124,1,46.875,14|0,2:0|2:0,2:1:0:0:
184,250,260148,2,2,B|183:227|183:227|203:213,1,46.875,2|0,3:2|3:0,2:0:0:0:
308,214,260314,2,2,B|285:214|285:214|271:194,1,46.875,2|0,3:2|3:0,2:0:0:0:
311,85,260481,2,2,B|311:107|311:107|291:121,1,46.875,10|0,2:0|2:0,2:0:0:0:
187,121,260648,2,2,B|209:120|209:120|223:140,1,46.875,2|0,3:2|3:0,2:2:0:0:
313,211,260814,1,2,3:2:0:0:
331,214,260898,1,2,3:2:0:0:
350,209,260981,2,2,B|360:189|360:189|385:186,1,46.875,10|0,2:2|2:0,2:1:0:0:
436,295,261148,1,2,3:2:0:0:
459,303,261231,1,2,3:2:0:0:
477,293,261314,102,2,B|482:275|482:275|449:228|449:228|453:210,1,93.75,10|0,2:1|3:2,2:1:0:0:
385,186,261564,1,2,3:2:0:0:
389,167,261648,1,2,3:0:0:0:
393,148,261731,1,2,3:2:0:0:
397,129,261814,1,8,2:0:0:0:
320,281,261981,2,0,B|344:286|344:286|357:304,3,46.875,2|0|0|0,3:0|3:0|3:0|3:0,2:0:0:0:
428,383,262314,1,12,2:0:0:0:
390,382,262398,1,4,3:3:0:0:
352,381,262481,1,4,3:0:0:0:
314,380,262564,1,4,3:0:0:0:
279,376,262648,6,2,P|243:353|264:303,1,86.2500016450882,12|2,2:1|3:2,2:2:0:0:
320,281,262898,1,2,2:0:0:0:
317,270,262981,2,2,P|302:229|278:171,1,86.2500016450882,10|2,2:0|3:2,2:0:0:0:
214,167,263231,1,2,3:2:0:0:
201,171,263314,2,2,P|176:176|145:187,3,43.1250008225441,10|0|0|0,2:0|2:0|3:2|2:0,2:0:0:0:
268,101,263648,2,2,P|288:109|309:115,3,43.1250008225441,10|0|0|0,2:0|2:0|3:2|3:2,2:0:0:0:
216,1,263981,102,2,P|202:43|186:82,1,86.2500016450882,10|2,2:0|3:2,2:0:0:0:
113,96,264231,1,2,2:0:0:0:
103,83,264314,2,0,P|67:58|20:84,1,86.2500016450882,10|2,2:0|3:2,2:0:0:0:
4,139,264564,1,2,3:2:0:0:
14,154,264648,2,2,P|15:175|5:194,1,43.1250008225441,10|0,2:0|2:0,2:0:0:0:
123,211,264814,2,2,P|102:217|90:234,1,43.1250008225441,2|0,3:2|2:0,2:0:0:0:
59,320,264981,2,2,P|64:339|80:353,3,43.1250008225441,10|0|0|0,2:0|2:0|3:2|3:2,2:0:0:0:
204,260,265314,5,12,2:0:0:0:
184,276,265398,1,2,2:0:0:0:
152,282,265481,1,2,3:2:0:0:
117,269,265564,1,2,2:0:0:0:
90,233,265648,2,2,P|75:209|63:168,1,43.1250008225441,10|0,2:0|2:0,2:2:0:0:
207,254,265814,101,2,3:2:0:0:
163,228,265898,1,2,3:2:0:0:
150,177,265981,2,2,P|157:139|176:126,1,43.1250008225441,10|0,2:0|2:0,2:2:0:0:
209,249,266148,5,2,3:2:0:0:
234,197,266231,1,2,2:0:0:0:
286,173,266314,2,2,P|328:175|350:219,1,86.2500016450882,10|0,2:0|3:2,2:2:0:0:
313,283,266564,1,2,3:2:0:0:
300,297,266648,38,2,L|246:306,2,28.7500005483627,12|8|8,2:0|2:0|2:0,2:1:0:0:
349,355,266870,1,8,2:0:0:0:
422,348,266981,1,4,3:3:0:0:
459,283,267092,1,4,3:3:0:0:
436,213,267203,1,4,3:3:0:0:
350,210,267314,54,2,P|364:240|390:245,3,43.1250008225441,2|2|2|2,3:1|0:0|0:0|0:0,0:2:0:0:
436,213,267648,69,4,3:3:0:0:
417,146,267759,1,4,3:3:0:0:
451,86,267870,1,4,3:3:0:0:
512,55,267981,6,2,B|488:49|488:49|396:85|396:85|374:81,1,146.249993305207,12|0,2:1|3:2,2:1:0:0:
326,21,268314,2,0,P|284:33|277:76,1,90,8|8,2:0|2:0,2:2:0:0:
313,146,268648,5,8,2:0:0:0:
389,209,268814,2,0,P|382:144|373:80,1,129.375002467632,8|8,2:0|2:0,2:0:0:0:
313,146,269148,2,2,L|319:198,1,43.1250008225441,8|0,2:0|2:0,2:2:0:0:
276,74,269314,102,2,P|236:114|196:99,1,86.2500016450882,12|8,3:1|2:0,2:1:0:0:
141,106,269564,1,8,2:0:0:0:
143,94,269648,1,8,2:0:0:0:
0,9,269814,2,2,P|37:16|97:40,1,86.2500016450882,4|8,3:1|2:0,2:1:0:0:
151,16,270064,1,8,2:0:0:0:
153,5,270148,1,8,2:0:0:0:
64,144,270314,2,0,L|71:101,3,43.1250008225441,4|4|4|4,3:0|3:3|3:3|3:3,2:0:0:0:
153,5,270648,5,4,3:2:0:0:
150,30,270731,1,0,3:2:0:0:
147,55,270814,1,0,3:2:0:0:
144,81,270898,1,0,3:2:0:0:
141,106,270981,1,8,2:0:0:0:
288,156,271148,1,0,3:2:0:0:
286,147,271231,1,0,3:2:0:0:
285,138,271314,70,0,L|320:131,2,28.7500005483627,8|8|8,2:0|2:0|2:0,2:0:0:0:
213,124,271537,1,8,2:0:0:0:
243,61,271648,5,8,2:0:0:0:
284,56,271759,1,4,2:3:0:0:
331,50,271870,1,4,2:3:0:0:
379,99,271981,101,4,3:0:0:0:
383,131,272092,1,4,3:3:0:0:
388,161,272203,1,4,3:3:0:0:
345,210,272314,5,4,3:3:0:0:
328,212,272426,1,0,3:2:0:0:
313,214,272537,1,0,3:2:0:0:
285,138,272648,102,0,L|205:145,1,80,8|4,2:0|3:1,2:0:0:0:
155,185,272981,1,2,2:0:0:0:
200,231,273092,2,2,P|228:232|245:255,1,57.5000010967255,4|0,3:1|2:0,2:1:0:0:
184,355,273314,22,2,B|208:349|208:349|300:385|300:385|323:380,1,146.249993305207,4|0,3:2|2:0,2:1:0:0:
350,298,273648,2,2,P|329:295|311:305,1,43.1250008225441,10|0,2:2|2:0,2:1:0:0:
245,255,273814,2,2,P|223:252|204:261,3,43.1250008225441,10|4|4|4,0:2|3:3|3:0|3:0,2:1:0:0:
184,355,274148,1,8,3:3:0:0:
209,350,274231,1,4,3:3:0:0:
232,358,274314,2,2,P|255:370|289:362,1,43.1250008225441,2|0,3:2|3:0,2:1:0:0:
350,298,274481,2,2,P|329:295|311:305,1,43.1250008225441,10|4,2:2|3:3,2:1:0:0:
205,261,274648,5,10,2:1:0:0:
235,262,274731,1,4,3:3:0:0:
259,244,274814,1,4,3:0:0:0:
264,214,274898,1,4,3:0:0:0:
254,185,274981,2,2,P|238:169|195:157,3,43.1250008225441,10|4|0|0,2:2|3:3|3:0|3:0,2:0:0:0:
381,113,275314,1,8,2:3:0:0:
346,136,275398,1,8,2:3:0:0:
305,127,275481,1,8,2:3:0:0:
283,91,275564,1,8,2:3:0:0:
292,50,275648,2,2,L|303:8,5,28.7500005483627,4|4|4|4|4|4,3:3|3:3|3:3|3:0|3:0|3:0,2:1:0:0:
321,57,275981,102,0,L|415:31,1,97.4999955368044,12|8,3:2|0:0,2:2:0:0:
274,247,276314,1,8,3:2:0:0:
376,206,276481,1,8,0:0:0:0:
511,102,276648,5,8,3:2:0:0:
321,57,276814,1,8,0:0:0:0:
464,292,276981,1,8,3:2:0:0:
274,247,277148,1,8,0:0:0:0:
242,363,277314,102,2,P|264:355|289:351,1,48.7499977684022,10|0,0:2|2:0,2:0:0:0:
169,298,277481,1,4,3:0:0:0:
163,305,277564,2,2,P|164:329|170:353,1,48.7499977684022,10|0,2:0|2:0,2:0:0:0:
93,314,277731,1,4,3:0:0:0:
85,317,277814,2,2,P|62:325|38:330,1,48.7499977684022,10|0,2:0|2:0,2:0:0:0:
243,364,277981,5,2,3:2:0:0:
245,355,278064,1,4,3:3:0:0:
239,343,278148,1,4,3:3:0:0:
222,336,278231,1,4,3:3:0:0:
200,343,278314,1,10,2:2:0:0:
170,353,278398,1,8,2:3:0:0:
133,347,278481,1,8,2:3:0:0:
107,315,278564,1,8,2:3:0:0:
85,317,278648,5,4,3:1:0:0:
112,289,278731,1,2,2:0:0:0:
127,253,278814,1,10,2:0:0:0:
130,213,278898,1,2,2:0:0:0:
128,174,278981,2,0,P|99:168|72:180,3,48.7499977684022,2|0|8|0,3:2|3:2|2:3|2:0,2:0:0:0:
238,199,279314,1,2,3:2:0:0:
209,204,279398,1,2,2:0:0:0:
180,202,279481,1,10,2:0:0:0:
151,192,279564,1,2,2:0:0:0:
128,174,279648,2,0,P|108:148|98:117,3,48.7499977684022,2|0|8|0,3:2|3:2|2:3|2:0,2:0:0:0:
210,130,279981,1,2,3:2:0:0:
185,130,280064,1,2,2:0:0:0:
162,141,280148,1,10,2:0:0:0:
143,155,280231,1,2,2:0:0:0:
128,174,280314,2,0,P|111:207|111:228,3,48.7499977684022,2|0|8|0,3:2|3:2|2:3|2:0,2:0:0:0:
19,116,280648,2,0,P|40:126|64:131,3,48.7499977684022,2|0|8|0,3:2|2:0|2:3|2:0,2:0:0:0:
128,174,280981,2,0,P|143:177|158:183,3,32.4999985122681,2|2|2|10,3:2|3:2|3:2|2:0,2:0:0:0:
268,54,281314,5,2,3:1:0:0:
230,76,281398,1,2,2:0:0:0:
217,117,281481,1,10,2:0:0:0:
226,159,281564,1,2,2:0:0:0:
263,182,281648,2,0,P|301:183|326:159,1,48.7499977684022,2|0,3:2|3:2,2:0:0:0:
268,54,281814,101,10,2:1:0:0:
230,76,281898,1,2,2:0:0:0:
217,117,281981,1,2,3:2:0:0:
226,159,282064,1,2,2:0:0:0:
263,182,282148,2,0,P|264:220|240:245,1,48.7499977684022,10|0,2:2|2:0,2:0:0:0:
268,54,282314,5,2,3:1:0:0:
230,76,282398,1,2,3:2:0:0:
217,117,282481,1,10,2:0:0:0:
226,159,282564,1,2,3:2:0:0:
263,182,282648,2,0,P|301:183|326:159,1,48.7499977684022,2|0,3:2|2:0,2:0:0:0:
268,54,282814,101,10,2:1:0:0:
230,76,282898,1,2,2:0:0:0:
217,117,282981,1,2,3:2:0:0:
226,159,283064,1,2,3:2:0:0:
263,182,283148,2,0,P|264:220|240:245,1,48.7499977684022,10|0,2:2|2:0,2:0:0:0:
144,276,283314,6,0,P|179:276|209:286,3,48.7499977684022,2|2|10|2,3:2|2:0|2:0|2:0,2:0:0:0:
333,307,283648,2,0,L|301:305,3,32.4999985122681,2|2|2|10,3:2|3:2|3:2|2:0,2:0:0:0:
231,352,283898,1,2,2:0:0:0:
250,377,283981,102,0,P|304:378|351:382,1,97.4999955368044,4|10,3:2|2:0,2:0:0:0:
398,328,284231,1,2,2:0:0:0:
415,334,284314,2,0,L|421:385,3,48.7499977684022,2|0|8|0,3:2|3:2|2:3|2:0,2:0:0:0:
512,353,284648,1,2,3:2:0:0:
488,348,284731,1,2,2:0:0:0:
463,344,284814,1,10,2:0:0:0:
439,339,284898,1,2,2:0:0:0:
415,334,284981,2,0,L|411:280,3,48.7499977684022,2|0|8|0,3:2|3:2|2:3|2:0,2:0:0:0:
446,169,285314,5,2,3:2:0:0:
475,167,285398,2,0,P|479:190|473:213,2,48.7499977684022,2|8|0,2:0|2:3|2:0,2:0:0:0:
400,87,285648,1,2,3:2:0:0:
384,69,285731,2,0,P|366:84|356:106,2,48.7499977684022,2|8|0,3:2|2:3|2:0,2:0:0:0:
491,85,285981,1,2,3:2:0:0:
477,84,286064,2,0,P|472:60|478:37,2,48.7499977684022,2|8|0,2:0|2:3|2:0,2:0:0:0:
368,193,286314,2,2,P|365:205|362:216,6,24.3749988842011,2|2|2|2|10|2|2,3:2|2:0|3:2|2:0|2:0|2:0|2:0,2:0:0:0:
263,182,286648,101,2,3:2:0:0:
226,159,286731,1,2,2:0:0:0:
217,117,286814,1,10,2:0:0:0:
230,76,286898,1,2,2:0:0:0:
268,54,286981,2,0,P|290:46|314:50,1,48.7499977684022,2|0,3:1|3:2,2:0:0:0:
263,182,287148,5,10,2:0:0:0:
226,159,287231,1,2,2:0:0:0:
217,117,287314,1,2,3:2:0:0:
230,76,287398,1,2,2:0:0:0:
268,54,287481,2,0,P|269:16|245:-9,1,48.7499977684022,10|0,2:1|2:0,2:0:0:0:
263,182,287648,101,2,3:2:0:0:
226,159,287731,1,2,3:2:0:0:
217,117,287814,1,10,2:0:0:0:
230,76,287898,1,2,3:2:0:0:
268,54,287981,2,0,P|287:82|313:86,1,48.7499977684022,6|0,3:1|2:0,2:0:0:0:
377,19,288148,5,10,2:0:0:0:
347,16,288231,1,2,2:0:0:0:
317,23,288314,1,2,3:2:0:0:
291,36,288398,1,2,3:2:0:0:
268,54,288481,102,2,P|260:84|260:108,1,48.7499977684022,14|0,2:0|2:0,2:0:0:0:
263,182,288648,2,2,P|270:207|268:243,1,48.7499977684022,2|0,3:1|2:0,2:0:0:0:
235,302,288814,2,2,P|218:319|197:331,1,48.7499977684022,10|0,2:2|2:0,2:0:0:0:
257,185,288981,1,10,2:0:0:0:
265,225,289064,1,10,2:0:0:0:
252,265,289148,1,10,2:0:0:0:
231,297,289231,1,10,2:0:0:0:
199,324,289314,6,0,P|192:306|187:288,3,37.5,4|2|10|2,3:1|2:0|2:3|2:0,2:0:0:0:
138,237,289648,2,0,P|131:219|126:201,1,37.5,2|2,3:2|3:2,2:0:0:0:
101,331,289814,2,0,P|94:313|89:295,1,37.5,10|2,0:3|0:2,2:0:0:0:
30,241,289981,2,0,P|40:221|48:199,3,44.999998626709,2|2|10|2,3:2|2:0|2:3|2:0,2:0:0:0:
126,202,290314,2,0,P|136:180|144:158,1,44.999998626709,2|2,3:2|3:2,2:0:0:0:
187,288,290481,2,0,P|197:265|206:242,1,44.999998626709,10|2,2:3|0:2,2:0:0:0:
245,169,290648,2,0,P|232:146|225:121,3,52.4999983978272,2|2|10|2,3:2|2:0|2:3|2:0,2:0:0:0:
143,161,290981,2,0,P|133:140|128:111,1,52.4999983978272,2|2,3:2|3:2,2:0:0:0:
48,200,291148,2,0,P|36:176|32:150,1,52.4999983978272,10|2,2:3|0:2,2:0:0:0:
39,39,291314,2,0,P|68:37|91:18,3,60,2|2|10|2,3:2|2:0|2:3|2:0,2:0:0:0:
128,112,291648,2,0,P|138:96|135:64,3,40,2|2|2|10,3:2|3:2|3:2|2:3,2:0:0:0:
305,6,291981,101,2,3:1:0:0:
295,35,292064,1,2,0:2:0:0:
267,47,292148,2,0,P|237:49|210:37,1,60,10|0,0:3|0:2,2:0:0:0:
97,17,292314,1,2,3:1:0:0:
126,27,292398,1,2,3:2:0:0:
138,55,292481,2,0,P|140:85|128:112,1,60,10|0,0:3|0:2,2:0:0:0:
0,86,292648,5,2,3:1:0:0:
6,113,292731,1,2,0:2:0:0:
21,135,292814,2,0,P|37:155|58:171,1,52.4999983978272,10|0,0:3|0:2,2:0:0:0:
134,59,292981,1,2,3:1:0:0:
127,85,293064,1,2,3:2:0:0:
128,112,293148,2,0,P|132:138|143:161,1,52.4999983978272,10|0,0:3|0:2,2:0:0:0:
252,148,293314,101,2,3:1:0:0:
246,171,293398,1,2,0:2:0:0:
237,192,293481,2,0,P|218:205|193:216,1,44.999998626709,10|0,2:3|0:2,2:0:0:0:
133,116,293648,1,2,3:1:0:0:
141,138,293731,1,2,3:2:0:0:
143,161,293814,2,0,P|134:182|125:203,1,44.999998626709,10|0,2:3|0:2,2:0:0:0:
30,267,293981,6,0,P|48:266|67:264,3,37.5,2|2|10|2,3:1|0:2|0:3|2:0,2:0:0:0:
127,208,294314,2,0,L|135:231,3,25,2|2|2|10,3:2|3:2|3:2|2:3,2:0:0:0:
128,307,294564,1,2,2:0:0:0:
149,309,294648,102,0,P|179:337|188:383,1,82.5000025177003,4|8,3:1|2:0,2:0:0:0:
284,319,294981,1,0,3:2:0:0:
280,308,295064,1,0,3:2:0:0:
276,297,295148,1,8,2:0:0:0:
420,319,295314,2,0,P|384:280|381:201,2,123.75000377655,2|2|10,3:2|2:0|2:0,2:0:0:0:
256,182,295981,5,2,3:2:0:0:
262,199,296064,1,2,2:0:0:0:
256,215,296148,2,0,P|197:203|186:86,1,165.000005035401,10|10,2:0|2:0,2:0:0:0:
0,173,296648,2,0,P|39:169|62:137,1,82.5000025177003,2|8,3:2|2:0,2:0:0:0:
98,252,296981,1,0,3:2:0:0:
102,241,297064,1,0,3:2:0:0:
106,230,297148,1,8,2:0:0:0:
207,1,297314,102,0,P|278:41|356:21,1,165.000005035401,2|0,3:2|3:2,2:0:0:0:
440,24,297731,1,0,3:0:0:0:
448,36,297814,2,0,P|459:82|448:125,1,82.5000025177003,8|0,2:0|3:2,2:0:0:0:
276,205,298148,1,10,2:0:0:0:
276,220,298231,1,2,2:0:0:0:
292,224,298314,1,2,3:2:0:0:
309,240,298398,1,2,3:2:0:0:
328,226,298481,1,10,2:0:0:0:
355,230,298564,1,2,2:0:0:0:
379,205,298648,2,2,P|358:114|360:21,1,187.5,4|0,3:1|3:2,2:0:0:0:
266,114,299148,6,2,P|242:107|222:93,1,48.7499977684022,10|0,2:1|2:0,2:1:0:0:
453,115,299314,2,2,P|462:109|476:107,6,24.3749988842011,2|2|10|2|10|2|10,3:2|2:0|2:0|2:0|2:0|2:0|2:0,2:1:0:0:
360,21,299648,1,8,2:1:0:0:
360,66,299731,1,8,2:1:0:0:
360,112,299814,1,8,2:1:0:0:
360,157,299898,1,8,2:1:0:0:
358,209,299981,6,2,P|330:206|307:190,1,56.2500021457673,6|0,3:1|3:2,2:0:0:0:
266,114,300148,2,2,P|268:86|284:63,1,56.2500021457673,10|0,3:3|3:2,2:0:0:0:
360,21,300314,2,2,P|387:22|410:37,1,56.2500021457673,2|0,3:2|3:2,2:0:0:0:
453,115,300481,2,2,P|451:142|436:165,1,56.2500021457673,10|0,3:3|3:2,2:0:0:0:
456,290,300648,2,2,P|472:265|473:236,1,56.2500021457673,2|0,3:2|3:2,2:0:0:0:
430,163,300814,2,2,P|407:146|379:144,1,56.2500021457673,10|0,3:3|3:2,2:0:0:0:
303,188,300981,2,2,P|287:211|286:238,1,56.2500021457673,2|0,3:2|3:2,2:0:0:0:
328,315,301148,2,2,P|351:330|378:331,1,56.2500021457673,10|0,3:3|3:2,2:0:0:0:
467,236,301314,2,2,P|466:263|450:286,3,56.2500021457673,2|0|10|0,3:2|3:2|3:0|3:2,2:0:0:0:
292,242,301648,2,2,P|292:214|307:190,3,56.2500021457673,2|0|10|0,3:2|3:2|3:0|3:2,2:0:0:0:
380,236,301981,5,2,3:2:0:0:
381,225,302064,1,2,3:2:0:0:
393,223,302148,1,10,3:0:0:0:
398,234,302231,1,2,3:2:0:0:
390,250,302314,1,2,3:2:0:0:
371,240,302398,1,2,3:2:0:0:
374,218,302481,1,10,3:0:0:0:
397,214,302564,1,2,3:2:0:0:
407,235,302648,101,6,3:2:0:0:
390,271,302731,1,0,3:2:0:0:
360,297,302814,1,10,3:0:0:0:
325,315,302898,1,0,3:2:0:0:
286,324,302981,1,2,3:2:0:0:
246,327,303064,1,0,3:2:0:0:
207,323,303148,1,10,3:0:0:0:
171,306,303231,1,0,3:2:0:0:
142,279,303314,2,0,P|161:258|186:247,1,56.2500021457673,2|0,3:2|3:2,2:0:0:0:
202,165,303481,2,0,P|181:145|170:120,1,56.2500021457673,10|0,3:3|3:2,2:0:0:0:
88,105,303648,2,2,P|68:125|43:136,1,56.2500021457673,2|0,3:2|3:2,2:0:0:0:
28,219,303814,2,2,P|48:238|59:263,1,56.2500021457673,10|0,3:3|3:2,2:0:0:0:
184,242,303981,2,2,P|158:254|139:274,3,56.2500021457673,2|0|10|0,3:2|3:2|3:0|3:2,2:0:0:0:
46,142,304314,2,2,P|72:130|91:110,3,56.2500021457673,2|0|10|0,3:2|3:2|3:0|3:2,2:0:0:0:
111,193,304648,5,2,3:2:0:0:
105,184,304731,1,2,3:2:0:0:
94,189,304814,1,10,3:0:0:0:
95,201,304898,1,2,3:2:0:0:
111,210,304981,1,2,3:2:0:0:
123,190,305064,1,2,3:2:0:0:
107,173,305148,1,10,3:0:0:0:
86,183,305231,1,2,3:2:0:0:
88,206,305314,102,2,P|112:219|139:218,1,56.2500021457673,6|0,3:1|3:2,2:0:0:0:
50,83,305481,2,2,P|36:108|38:135,1,56.2500021457673,10|0,3:3|3:2,2:0:0:0:
173,44,305648,2,2,P|149:31|122:32,1,56.2500021457673,2|0,3:2|3:2,2:0:0:0:
211,168,305814,2,2,P|224:144|223:117,1,56.2500021457673,10|0,3:3|3:2,2:0:0:0:
244,3,305981,2,2,P|272:1|296:15,1,56.2500021457673,2|0,3:2|3:2,2:0:0:0:
160,104,306148,2,2,P|158:76|172:52,1,56.2500021457673,10|0,3:3|3:2,2:0:0:0:
261,189,306314,2,2,P|233:191|209:177,1,56.2500021457673,2|0,3:2|3:2,2:0:0:0:
345,86,306481,2,2,P|347:114|333:138,1,56.2500021457673,10|0,3:3|3:2,2:0:0:0:
295,22,306648,2,2,P|270:8|243:10,3,56.2500021457673,2|0|10|0,3:2|3:2|3:0|3:2,2:0:0:0:
211,169,306981,2,2,P|236:183|264:181,3,56.2500021457673,2|0|10|0,3:2|3:2|3:0|3:2,2:0:0:0:
250,96,307314,5,2,3:2:0:0:
239,95,307398,1,2,3:2:0:0:
237,83,307481,1,10,3:0:0:0:
248,78,307564,1,2,3:2:0:0:
264,86,307648,1,2,3:2:0:0:
253,107,307731,1,2,3:2:0:0:
270,123,307814,1,10,3:0:0:0:
290,113,307898,1,2,3:2:0:0:
287,91,307981,101,4,3:1:0:0:
241,68,308064,1,0,3:2:0:0:
190,77,308148,1,10,3:0:0:0:
153,113,308231,1,0,3:2:0:0:
144,163,308314,1,2,3:1:0:0:
168,210,308398,1,0,3:2:0:0:
215,234,308481,1,10,3:0:0:0:
265,225,308564,1,0,3:2:0:0:
301,189,308648,1,2,3:1:0:0:
339,152,308731,1,0,3:2:0:0:
389,145,308814,1,10,3:0:0:0:
436,168,308898,1,0,3:2:0:0:
459,215,308981,1,2,3:1:0:0:
451,265,309064,1,0,3:2:0:0:
414,302,309148,1,10,3:0:0:0:
363,310,309231,1,0,3:2:0:0:
317,286,309314,2,2,P|288:282|258:295,3,56.2500021457673,2|0|10|0,3:1|3:2|3:0|3:2,2:0:0:0:
115,224,309648,2,2,P|141:231|160:252,3,56.2500021457673,2|0|10|0,3:1|3:2|3:0|3:2,2:0:0:0:
185,342,309981,5,2,3:2:0:0:
197,337,310064,1,10,2:0:0:0:
195,325,310148,1,10,2:0:0:0:
183,324,310231,1,10,2:0:0:0:
171,337,310314,1,10,2:0:0:0:
148,335,310398,1,4,3:3:0:0:
144,312,310481,1,4,3:0:0:0:
163,301,310564,1,4,3:0:0:0:
179,316,310648,70,2,B|150:318|150:318|125:304,3,56.2500021457673,12|0|0|0,3:1|3:2|3:2|3:2,2:1:0:0:
0,365,310981,2,2,B|13:340|13:340|40:328,3,56.2500021457673,10|0|0|0,3:0|3:2|3:2|3:2,2:1:0:0:
46,194,311314,2,2,B|62:216|62:216|62:245,3,56.2500021457673,10|0|0|0,3:0|3:2|3:2|3:2,2:1:0:0:
177,325,311648,2,2,B|148:325|148:325|124:308,1,56.2500021457673,10|0,3:0|3:2,2:1:0:0:
6,371,311814,2,2,B|17:345|17:345|42:330,1,56.2500021457673,2|0,3:2|3:2,2:1:0:0:
67,244,311981,5,10,3:0:0:0:
100,238,312064,1,0,3:2:0:0:
134,236,312148,1,0,3:2:0:0:
168,236,312231,1,0,3:2:0:0:
202,240,312314,1,10,3:0:0:0:
236,246,312398,1,0,3:2:0:0:
270,253,312481,1,0,3:2:0:0:
302,264,312564,1,0,3:2:0:0:
334,277,312648,2,0,L|342:205,3,56.2500021457673,10|0|0|0,3:0|3:2|3:2|3:2,2:2:0:0:
422,100,312981,1,10,3:0:0:0:
383,105,313064,1,0,3:2:0:0:
343,104,313148,1,0,3:2:0:0:
304,99,313231,1,0,3:2:0:0:
266,89,313314,102,2,B|274:62|274:62|265:34,1,56.2500021457673,12|0,3:1|3:2,2:1:0:0:
209,123,313481,2,2,B|182:114|182:114|154:123,1,56.2500021457673,2|0,3:2|3:2,2:1:0:0:
244,179,313648,2,2,B|235:205|235:205|244:233,1,56.2500021457673,10|0,3:0|3:2,2:1:0:0:
300,145,313814,2,2,B|326:153|326:153|354:144,1,56.2500021457673,2|0,3:2|3:2,2:1:0:0:
260,35,313981,2,2,B|252:62|252:62|263:89,1,56.2500021457673,10|0,3:0|3:2,2:1:0:0:
154,129,314148,2,2,B|181:136|181:136|208:125,1,56.2500021457673,2|0,3:2|3:2,2:1:0:0:
249,235,314314,2,2,B|256:207|256:207|245:180,1,56.2500021457673,10|0,3:0|3:2,2:1:0:0:
355,141,314481,2,2,B|327:133|327:133|300:144,1,56.2500021457673,2|0,3:2|3:2,2:1:0:0:
156,124,314648,5,12,3:2:0:0:
128,159,314731,1,0,3:2:0:0:
84,170,314814,1,0,3:2:0:0:
39,164,314898,1,0,3:2:0:0:
5,134,314981,2,0,L|-3:62,3,56.2500021457673,12|0|0|0,3:2|3:2|3:2|3:2,2:0:0:0:
145,5,315314,101,12,2:1:0:0:
150,44,315398,1,8,2:1:0:0:
153,84,315481,1,8,2:1:0:0:
156,124,315564,1,8,2:1:0:0:
143,146,315648,1,8,2:1:0:0:
146,173,315731,1,8,2:1:0:0:
148,200,315814,1,8,2:1:0:0:
151,228,315898,1,8,2:1:0:0:
141,247,315981,38,2,B|96:285|49:209|-26:271|-2:337|23:361|73:370|108:357|116:315,1,281.250010728836,4|0,3:2|0:2,2:1:0:0:
175,357,316481,1,10,3:0:0:0:
183,352,316564,1,2,3:2:0:0:
195,352,316648,1,2,3:2:0:0:
211,360,316731,1,2,3:2:0:0:
229,357,316814,2,2,P|235:329|237:301,1,56.2500021457673,10|0,3:0|3:2,2:0:0:0:
323,365,316981,1,2,3:2:0:0:
312,368,317064,1,2,3:2:0:0:
302,365,317148,2,2,P|304:337|310:309,1,56.2500021457673,10|0,3:0|3:2,2:0:0:0:
456,211,317314,101,4,3:1:0:0:
460,205,317398,1,0,3:2:0:0:
463,195,317481,1,10,3:0:0:0:
461,179,317564,1,0,3:2:0:0:
449,160,317648,1,2,3:2:0:0:
426,148,317731,1,0,3:2:0:0:
392,150,317814,1,10,3:0:0:0:
362,176,317898,1,0,3:2:0:0:
350,217,317981,1,2,3:2:0:0:
307,233,318064,1,2,3:2:0:0:
267,211,318148,2,2,P|255:185|254:157,1,56.2500021457673,10|0,3:0|3:2,2:0:0:0:
145,232,318314,1,2,3:2:0:0:
166,239,318398,1,2,3:2:0:0:
188,230,318481,2,2,P|187:202|175:176,1,56.2500021457673,10|0,3:0|3:2,2:0:0:0:
107,6,318648,5,4,3:1:0:0:
98,3,318731,1,0,3:2:0:0:
82,3,318814,1,10,3:0:0:0:
65,18,318898,1,0,3:2:0:0:
58,45,318981,1,2,3:2:0:0:
76,74,319064,1,2,3:2:0:0:
114,84,319148,1,10,3:0:0:0:
151,58,319231,1,2,3:2:0:0:
172,14,319314,1,2,3:2:0:0:
221,7,319398,1,2,3:2:0:0:
253,45,319481,2,2,P|254:72|230:98,1,56.2500021457673,12|0,2:0|2:0,2:1:0:0:
366,49,319648,2,2,P|323:108|343:162,1,112.500004291535,12|0,2:0|3:2,2:1:0:0:
396,179,319898,1,0,3:2:0:0:
414,193,319981,6,2,L|450:184,2,31.25,12|8|8,2:1|2:0|2:0,2:2:0:0:
350,234,320203,1,8,2:0:0:0:
286,193,320314,1,4,3:3:0:0:
222,233,320426,1,4,3:3:0:0:
158,193,320537,1,4,3:0:0:0:
94,234,320648,2,0,L|55:240,5,31.25,12|4|4|4|4|4,3:0|3:0|3:0|3:0|3:0|3:0,2:0:0:0:
121,271,320981,2,0,L|151:275,5,31.25,4|4|4|4|4|4,3:0|3:0|3:0|3:0|3:0|3:0,2:0:0:0:
106,315,321314,85,12,3:1:0:0:
137,357,321398,1,0,3:2:0:0:
185,377,321481,1,0,3:2:0:0:
238,382,321564,1,0,3:2:0:0:
287,361,321648,1,0,3:2:0:0:
319,319,321731,1,0,3:2:0:0:
362,329,321814,5,12,3:2:0:0:
331,303,321898,1,0,3:2:0:0:
313,267,321981,1,0,3:2:0:0:
306,228,322064,1,0,3:2:0:0:
309,188,322148,1,0,3:2:0:0:
327,153,322231,1,0,3:2:0:0:
346,124,322314,101,12,3:2:0:0:
357,143,322398,1,0,3:2:0:0:
362,165,322481,1,0,3:2:0:0:
362,187,322564,1,0,3:2:0:0:
358,209,322648,1,0,3:2:0:0:
348,229,322731,1,0,3:2:0:0:
361,256,322814,5,12,3:2:0:0:
354,269,322898,1,0,3:2:0:0:
351,285,322981,1,0,3:2:0:0:
351,300,323064,1,0,3:2:0:0:
354,316,323148,1,0,3:2:0:0:
362,329,323231,1,0,3:2:0:0:
414,330,323314,102,2,P|332:350|249:366,1,168.750006437302,12|0,3:1|0:2,2:1:0:0:
246,360,323648,2,2,P|328:344|410:323,1,168.750006437302,12|0,3:1|0:2,2:1:0:0:
488,352,323981,6,2,B|485:287|485:287|460:256|460:256|457:192,1,168.750006437302,12|0,3:2|2:0,2:1:0:0:
509,139,324314,1,8,3:2:0:0:
512,127,324398,1,8,2:0:0:0:
507,111,324481,1,8,2:0:0:0:
489,90,324564,1,8,2:0:0:0:
446,81,324648,1,8,3:2:0:0:
399,88,324731,1,8,2:0:0:0:
356,117,324814,1,8,2:0:0:0:
328,160,324898,1,8,2:0:0:0:
311,212,324981,2,0,P|306:230|304:248,5,37.5000014305115,8|4|4|4|4|4,3:2|3:3|3:3|3:0|3:3|3:3,2:0:0:0:
300,190,325314,102,2,B|324:176|314:146|305:106|165:69|59:212|131:272|159:281,1,341.249984378815,12|0,2:1|2:0,2:1:0:0:
165,283,325981,70,0,P|194:290|223:287,1,60,6|2,3:2|2:0,2:0:0:0:
283,334,326314,2,0,P|297:307|300:278,1,60,2|2,2:0|2:0,2:0:0:0:
0,349,326648,102,0,P|129:368|225:286,1,262.499991989136,4|2,3:2|2:0,2:0:0:0:
132,283,327648,1,2,2:0:0:0:
132,283,327814,1,2,2:0:0:0:
161,142,327981,2,0,P|206:166|256:153,1,104.999996795654,4|2,3:2|2:0,2:0:0:0:
338,93,328481,2,0,P|397:81|435:107,2,104.999996795654,2|2|2,2:0|2:0|2:0,2:0:0:0:
161,142,329314,6,0,P|149:92|182:60,1,97.4999955368044,4|0,3:1|2:0,2:0:0:0:
262,7,329814,2,0,P|259:80|256:153,1,146.249993305207,0|0,2:0|2:0,2:0:0:0:
256,153,330648,101,4,3:1:0:0:
263,0,330814,1,0,3:0:0:0:
256,160,330981,2,0,P|253:212|251:264,1,95.6250018239022,8|8,2:0|2:0,2:0:0:0:
247,325,331314,5,8,2:0:0:0:
158,243,331481,1,4,2:3:0:0:
247,332,331648,101,4,2:3:0:0:
158,250,331814,1,4,2:3:0:0:
347,266,331981,6,0,L|426:277,1,63.7500012159348,4|0,3:1|2:0,2:0:0:0:
449,201,332314,2,0,L|528:212,2,63.7500012159348,2|0|2,3:0|2:0|3:0,2:0:0:0:
333,92,332814,101,2,2:0:0:0:
417,11,332981,1,2,3:0:0:0:
331,85,333148,1,2,2:0:0:0:
415,4,333314,6,0,P|447:44|447:71,1,63.7500012159348,4|0,3:2|2:0,2:0:0:0:
403,135,333648,2,0,P|378:155|368:185,1,63.7500012159348,2|0,3:0|2:0,2:0:0:0:
449,55,333981,2,0,P|401:51|321:97,1,127.50000243187,2|2,3:0|3:0,2:0:0:0:
222,131,334481,2,0,L|191:137,2,21.2500004053116,2|0|0,3:2|3:2|3:2,2:0:0:0:
257,154,334648,102,0,P|254:96|230:65,1,86.2500016450882,12|8,3:2|0:2,2:0:0:0:
98,27,334981,1,8,3:2:0:0:
116,108,335148,1,8,0:2:0:0:
193,214,335314,5,8,3:2:0:0:
239,73,335481,1,8,0:2:0:0:
98,27,335648,1,8,3:2:0:0:
52,168,335814,1,8,0:2:0:0:
257,154,335981,101,12,3:2:0:0:
193,214,336148,1,8,2:0:0:0:
193,226,336231,1,8,2:0:0:0:
129,286,336398,1,8,2:0:0:0:
129,298,336481,1,8,2:0:0:0:
257,154,336648,6,0,P|260:174|271:203,3,43.1250008225441,8|8|4|4,2:0|2:0|3:3|3:3,2:0:0:0:
193,226,336981,2,0,P|176:212|162:196,3,43.1250008225441,4|4|4|4,3:3|3:3|3:0|3:0,2:0:0:0:
129,298,337314,6,0,P|219:314|292:338,1,140.625,12|0,2:1|3:0,2:0:0:0:
311,270,337648,1,10,2:3:0:0:
130,304,337814,2,0,P|191:313|246:331,1,93.75,0|10,3:0|2:3,2:0:0:0:
341,348,338148,1,2,3:2:0:0:
344,362,338231,1,2,3:2:0:0:
347,376,338314,1,10,2:3:0:0:
481,310,338481,1,2,3:2:0:0:
498,308,338564,1,2,3:2:0:0:
507,323,338648,6,0,P|442:330|382:263,1,140.625,10|0,2:3|3:0,2:0:0:0:
311,270,338981,2,0,P|267:274|230:227,1,93.75,10|0,2:3|3:0,2:0:0:0:
386,175,339314,2,0,P|430:166|467:136,1,93.75,10|2,2:3|3:2,2:0:0:0:
379,99,339564,1,2,3:2:0:0:
390,90,339648,2,0,P|413:49|415:3,1,93.75,10|2,2:3|3:2,2:0:0:0:
333,30,339898,1,2,3:2:0:0:
309,27,339981,102,0,P|249:57|242:135,1,140.625,12|0,2:0|3:0,2:0:0:0:
293,167,340314,1,10,2:3:0:0:
309,22,340481,2,0,P|241:55|228:102,1,93.75,0|10,3:0|2:3,2:0:0:0:
163,167,340814,1,2,3:2:0:0:
173,186,340898,1,2,3:2:0:0:
193,196,340981,1,10,2:3:0:0:
281,341,341148,1,2,3:2:0:0:
271,360,341231,1,2,3:2:0:0:
251,370,341314,6,2,P|265:337|286:308,1,46.875,10|0,2:3|2:0,2:0:0:0:
354,313,341481,2,2,P|373:284|400:259,1,46.875,2|0,2:0|3:0,2:0:0:0:
261,220,341648,2,2,P|300:168|327:122,1,93.75,10|0,2:3|3:0,2:0:0:0:
251,363,341981,102,2,P|246:325|211:274,1,93.75,10|2,2:3|3:2,2:0:0:0:
257,215,342231,1,2,3:2:0:0:
240,204,342314,2,2,P|196:202|151:241,1,93.75,10|2,2:3|3:2,2:0:0:0:
101,284,342564,1,2,3:2:0:0:
76,289,342648,6,0,P|16:253|0:187,1,140.625,12|0,2:1|3:0,2:0:0:0:
65,156,342981,1,10,2:3:0:0:
73,294,343148,2,0,P|29:275|2:238,1,93.75,0|10,3:0|2:3,2:0:0:0:
134,172,343481,1,2,3:2:0:0:
137,158,343564,1,2,3:2:0:0:
140,144,343648,1,10,2:3:0:0:
33,23,343814,1,2,3:2:0:0:
16,20,343898,1,2,3:2:0:0:
4,31,343981,102,0,P|58:71|154:31,1,140.625,10|0,2:3|3:0,2:0:0:0:
195,22,344314,1,10,2:3:0:0:
305,71,344481,1,2,3:2:0:0:
144,149,344648,2,0,P|184:128|225:149,1,93.75,10|2,2:3|3:2,2:0:0:0:
301,148,344898,1,2,3:2:0:0:
296,159,344981,2,0,P|310:207|376:211,1,93.75,10|2,2:3|3:2,2:0:0:0:
421,207,345231,1,2,3:2:0:0:
434,231,345314,6,0,P|498:191|503:114,1,140.625,12|0,2:0|3:0,2:0:0:0:
435,110,345648,2,0,P|390:97|344:90,1,93.75,10|0,2:3|3:0,2:0:0:0:
512,20,345981,1,10,2:3:0:0:
414,3,346148,1,2,3:2:0:0:
401,8,346231,1,2,3:2:0:0:
388,13,346314,1,12,2:0:0:0:
292,29,346481,1,2,3:2:0:0:
265,20,346564,1,2,3:2:0:0:
238,10,346648,102,2,L|230:80,1,46.875,12|0,2:1|2:3,2:0:0:0:
344,91,346814,2,2,L|312:154,1,46.875,4|0,3:3|3:3,2:0:0:0:
237,159,346981,2,2,L|229:229,1,46.875,4|0,3:3|2:3,2:0:0:0:
280,267,347148,2,2,L|248:330,1,46.875,4|0,3:3|2:3,2:0:0:0:
203,351,347314,2,2,L|191:405,5,31.25,4|4|4|4|4|4,3:3|3:3|3:3|3:0|3:0|3:0,2:0:0:0:
186,316,347648,5,12,3:2:0:0:
269,382,347814,1,4,3:3:0:0:
95,318,347981,102,0,P|57:314|19:317,2,75,12|0|2,2:1|3:0|3:0,2:0:0:0:
113,137,348481,1,10,2:0:0:0:
211,193,348648,2,0,P|247:196|287:181,1,75,2|0,3:0|3:0,2:0:0:0:
134,64,348981,1,10,2:3:0:0:
116,66,349064,1,0,3:0:0:0:
98,68,349148,1,0,3:0:0:0:
80,70,349231,1,0,3:0:0:0:
61,70,349314,6,0,P|25:59|-1:33,2,75,10|0|2,2:0|3:0|3:0,2:0:0:0:
113,224,349814,1,8,2:0:0:0:
196,182,349981,2,0,P|236:169|275:163,1,75,2|0,3:0|3:0,2:0:0:0:
323,335,350314,2,0,L|298:330,3,25,4|4|4|4,3:3|3:0|3:0|3:0,2:0:0:0:
270,257,350564,1,4,3:3:0:0:
278,267,350648,102,0,P|276:299|235:326,2,75,12|0|2,2:1|3:0|3:0,2:0:0:0:
481,179,351148,1,8,2:0:0:0:
360,146,351314,2,0,P|328:126|323:91,1,75,2|0,3:0|3:0,2:0:0:0:
423,275,351648,1,10,2:3:0:0:
420,290,351731,1,0,3:0:0:0:
417,305,351814,1,0,3:0:0:0:
414,320,351898,1,0,3:0:0:0:
411,333,351981,6,0,P|440:367|480:363,2,75,10|0|0,2:0|3:0|3:0,2:0:0:0:
321,210,352481,2,0,L|355:222,1,37.5,10|0,2:2|2:0,2:0:0:0:
374,154,352648,2,0,L|397:144,3,25,4|4|4|4,3:3|3:3|3:3|3:3,2:0:0:0:
351,88,352898,1,4,3:3:0:0:
349,74,352981,2,0,P|333:30|302:2,1,75,12|0,2:0|3:0,2:0:0:0:
71,117,353314,101,12,2:0:0:0:
238,68,353481,1,2,3:2:0:0:
211,180,353648,1,2,3:0:0:0:
75,110,353814,1,10,2:0:0:0:
127,32,353981,2,0,P|161:62|161:107,1,93.75,2|0,3:0|3:0,2:0:0:0:
297,145,354314,1,10,2:3:0:0:
300,163,354398,1,0,3:0:0:0:
303,181,354481,1,0,3:0:0:0:
306,199,354564,1,0,3:0:0:0:
309,215,354648,5,12,2:1:0:0:
476,264,354814,1,2,3:2:0:0:
449,152,354981,1,2,3:0:0:0:
313,222,355148,1,10,2:0:0:0:
403,226,355314,2,0,P|386:269|378:315,1,93.75,2|0,3:0|3:0,2:0:0:0:
129,341,355648,2,0,L|97:344,3,31.25,4|4|4|4,3:3|3:3|3:3|3:0,2:0:0:0:
52,282,355898,1,4,3:3:0:0:
48,266,355981,101,12,0:1:0:0:
242,245,356148,1,2,3:2:0:0:
196,376,356314,1,2,3:0:0:0:
49,259,356481,1,8,2:0:0:0:
159,279,356648,1,2,3:0:0:0:
201,371,356814,1,0,3:0:0:0:
282,365,356981,1,10,2:3:0:0:
287,348,357064,1,0,3:0:0:0:
292,330,357148,1,0,3:0:0:0:
295,312,357231,1,0,3:0:0:0:
299,295,357314,6,2,P|236:284|145:280,1,140.625,12|8,2:0|2:0,2:0:0:0:
198,202,357648,2,2,P|168:165|136:131,1,93.75,8|8,2:0|2:0,2:0:0:0:
206,85,357898,1,8,2:0:0:0:
209,67,357981,1,8,2:0:0:0:
367,129,358148,1,4,2:3:0:0:
331,202,358314,1,4,2:3:0:0:
285,134,358481,1,4,2:3:0:0:
501,117,358648,102,0,P|465:145|465:191,1,93.75,12|0,2:1|3:0,2:0:0:0:
510,306,358981,2,0,P|463:298|418:287,1,93.75,2|0,3:0|3:0,2:0:0:0:
317,369,359314,2,0,P|299:328|324:291,1,93.75,10|0,2:3|3:0,2:0:0:0:
380,191,359648,1,2,3:0:0:0:
352,198,359731,1,0,3:0:0:0:
324,196,359814,1,0,3:0:0:0:
296,189,359898,1,0,3:0:0:0:
268,176,359981,6,0,P|293:138|274:97,1,93.75,12|0,2:0|3:0,2:0:0:0:
83,161,360314,2,0,P|129:168|174:179,1,93.75,2|0,3:0|3:0,2:0:0:0:
324,291,360648,1,14,2:0:0:0:
299,278,360731,1,0,3:0:0:0:
272,269,360814,1,0,3:0:0:0:
244,264,360898,1,0,3:0:0:0:
216,261,360981,1,10,2:0:0:0:
187,261,361064,1,0,3:0:0:0:
159,266,361148,1,0,3:0:0:0:
132,272,361231,1,0,3:0:0:0:
106,282,361314,101,12,2:1:0:0:
268,176,361481,1,0,3:0:0:0:
110,287,361648,1,2,3:0:0:0:
272,181,361814,1,0,3:0:0:0:
239,370,361981,1,10,2:3:0:0:
117,183,362148,1,0,3:0:0:0:
235,375,362314,1,2,3:0:0:0:
230,347,362398,1,0,3:0:0:0:
226,319,362481,1,0,3:0:0:0:
222,291,362564,1,0,3:0:0:0:
218,263,362648,6,2,P|259:256|324:254,1,93.75,12|0,2:0|3:0,2:0:0:0:
272,181,362898,1,0,3:0:0:0:
285,163,362981,2,2,P|310:128|354:80,1,93.75,14|0,2:0|3:0,2:0:0:0:
261,68,363231,1,0,3:0:0:0:
259,46,363314,2,2,P|255:24|254:-6,1,46.875,12|0,2:1|2:0,2:0:0:0:
181,34,363481,2,2,P|163:20|139:0,1,46.875,10|0,2:2|2:0,2:0:0:0:
119,80,363648,2,2,P|97:82|65:83,3,46.875,4|4|4|4,3:3|3:0|3:0|3:0,2:0:0:0:
0,171,363981,101,12,2:0:0:0:
33,165,364064,1,0,3:2:0:0:
71,162,364148,1,0,3:2:0:0:
105,158,364231,1,0,3:2:0:0:
138,175,364314,1,10,2:3:0:0:
172,170,364398,1,0,3:2:0:0:
207,166,364481,1,0,3:2:0:0:
243,163,364564,1,0,3:2:0:0:
276,180,364648,5,10,2:3:0:0:
278,192,364731,1,0,3:2:0:0:
279,204,364814,1,0,3:2:0:0:
280,216,364898,1,0,3:2:0:0:
262,248,364981,1,10,2:3:0:0:
265,260,365064,1,0,3:2:0:0:
266,272,365148,1,0,3:2:0:0:
267,284,365231,1,0,3:2:0:0:
249,317,365314,102,0,L|324:307,3,46.875,12|0|0|0,2:1|3:2|3:2|3:2,2:0:0:0:
339,380,365648,2,0,L|420:369,3,46.875,10|0|0|0,2:3|3:2|3:2|3:2,2:0:0:0:
487,330,365981,5,10,2:3:0:0:
453,304,366064,1,0,3:2:0:0:
427,270,366148,1,0,3:2:0:0:
409,231,366231,1,0,3:2:0:0:
396,190,366314,2,2,P|385:142|379:82,1,93.75,12|0,3:2|3:2,2:0:0:0:
344,37,366564,1,0,3:2:0:0:
367,7,366648,102,2,P|424:16|443:58,1,93.75,12|4,2:1|3:3,2:2:0:0:
512,81,366898,1,4,3:3:0:0:
499,99,366981,1,4,3:0:0:0:
480,113,367064,1,4,3:0:0:0:
457,117,367148,1,12,2:1:0:0:
239,162,367314,1,4,3:3:0:0:
270,152,367398,1,4,3:3:0:0:
301,159,367481,1,4,3:0:0:0:
323,183,367564,1,4,3:0:0:0:
327,215,367648,1,12,2:0:0:0:
200,374,367814,1,4,3:3:0:0:
208,326,367898,1,4,3:3:0:0:
253,311,367981,6,2,P|277:330|304:363,1,65.6250006258488,10|0,2:0|2:0,2:1:0:0:
117,249,368148,2,2,P|86:261|54:267,1,65.6250006258488,10|0,2:0|2:0,2:1:0:0:
238,161,368314,2,2,P|215:100|200:37,1,131.250001251698,10|0,2:1|2:0,2:1:0:0:
200,36,369314,70,0,B|239:20|260:34|253:42|276:56|315:39,2,120,0|0|0,2:0|2:0|2:0,2:0:0:0:
15,6,371314,6,0,P|87:123|116:250,1,262.499991989136,10|2,3:1|2:0,2:0:0:0:
41,309,372314,1,10,2:0:0:0:
41,309,372480,1,2,2:0:0:0:
217,371,372647,101,10,2:0:0:0:
186,300,372814,1,8,2:0:0:0:
191,220,372980,2,0,P|210:168|240:122,1,104.999996795654,8|8,2:0|2:1,2:0:0:0:
334,94,373480,1,2,2:0:0:0:
334,94,373647,1,2,2:0:0:0:
334,94,373814,1,2,2:0:0:0:
487,199,373980,6,0,P|424:165|377:179,1,104.999996795654,8|10,2:1|2:0,2:0:0:0:
319,191,374480,1,0,2:0:0:0:
512,87,374647,2,0,P|470:56|418:59,1,104.999996795654,10|10,2:0|2:0,2:0:0:0:
482,352,375314,101,10,2:0:0:0:
420,302,375480,2,0,P|348:271|270:279,1,157.499995193482,10|8,2:1|2:0,2:0:0:0:
210,196,376147,1,2,2:0:0:0:
210,196,376314,1,8,2:1:0:0:
210,196,376480,1,2,2:0:0:0:
78,43,376647,6,0,P|18:91|8:168,1,157.499995193482,8|10,2:1|2:0,2:0:0:0:
66,222,377314,2,0,P|95:221|129:222,1,52.4999983978272,10|0,2:0|2:0,2:0:0:0:
210,196,377647,1,10,2:0:0:0:
210,196,377814,1,2,2:0:0:0:
324,8,377980,101,10,2:0:0:0:
262,58,378147,1,10,2:0:0:0:
276,136,378314,1,10,2:0:0:0:
196,5,378647,2,0,P|155:37|144:87,1,104.999996795654,8|2,2:1|2:0,2:0:0:0:
276,136,379147,1,2,2:0:0:0:
324,8,379314,5,10,2:1:0:0:
378,70,379480,1,2,2:0:0:0:
325,228,379647,1,10,2:0:0:0:
379,289,379814,2,0,P|413:353|424:393,1,104.999996795654,10|0,2:0|2:0,2:0:0:0:
481,312,380314,2,0,P|459:276|452:251,1,52.4999983978272,8|0,2:0|2:0,2:0:0:0:
378,70,380647,102,0,P|446:44|466:115,1,157.499995193482,10|8,2:1|2:1,2:0:0:0:
402,211,381314,1,10,2:0:0:0:
281,171,381480,1,2,2:0:0:0:
195,228,381647,1,8,2:1:0:0:
211,310,381814,1,2,2:0:0:0:
99,378,381980,5,8,2:1:0:0:
33,366,382147,1,2,2:0:0:0:
23,300,382314,2,0,P|37:278|58:263,1,52.4999983978272,2|8,2:0|2:1,2:0:0:0:
99,378,382647,2,0,P|108:327|135:282,1,104.999996795654,0|8,2:0|2:0,2:0:0:0:
290,309,383147,2,0,P|273:259|238:220,1,104.999996795654,10|2,2:0|2:0,2:0:0:0:
353,217,383647,2,0,P|335:198|311:187,1,52.4999983978272,2|8,2:0|2:1,2:0:0:0:
277,58,383980,101,2,2:0:0:0:
159,120,384230,1,2,2:0:0:0:
238,128,384480,1,10,2:0:0:0:
138,23,384647,6,0,P|86:29|43:3,1,104.999996795654,8|10,2:1|2:0,2:0:0:0:
0,74,385147,1,8,2:1:0:0:
73,171,385314,2,0,P|47:166|26:151,1,52.4999983978272,2|0,2:0|2:0,2:0:0:0:
146,267,385647,2,0,P|171:259|190:242,1,52.4999983978272,10|8,2:0|2:0,2:0:0:0:
211,74,385980,101,10,2:1:0:0:
243,148,386147,1,2,2:0:0:0:
345,169,386314,1,2,2:0:0:0:
479,87,386480,1,8,2:1:0:0:
479,87,386814,5,2,2:0:0:0:
412,128,386980,1,10,2:0:0:0:
416,206,387147,1,10,2:0:0:0:
471,303,387314,102,0,P|491:314|519:309,2,44.999998626709,8|0|0,2:1|2:0|2:0,2:0:0:0:
471,303,387980,2,0,P|458:342|418:369,1,89.9999972534181,2|0,2:0|2:0,2:0:0:0:
338,222,388480,6,0,P|349:258|394:291,1,89.9999972534181,2|2,2:0|2:0,2:0:0:0:
419,369,388980,1,2,2:0:0:0:
338,222,389147,2,0,P|383:178|359:118,1,134.999995880127,2|2,2:0|2:0,2:0:0:0:
95,214,389980,102,0,B|49:194|49:194|48:146,1,97.4999955368044,12|8,3:2|2:0,2:2:0:0:
239,90,390314,1,8,3:2:0:0:
246,169,390480,1,8,2:0:0:0:
360,119,390647,5,8,3:2:0:0:
126,141,390814,1,8,2:0:0:0:
232,13,390980,1,8,3:2:0:0:
253,247,391147,1,8,2:0:0:0:
264,375,391314,102,2,B|223:313|223:313|154:289,1,146.249993305207,12|8,3:1|2:0,2:1:0:0:
115,225,391647,2,2,P|61:305|77:376,1,146.249993305207,8|8,2:0|2:0,2:2:0:0:
147,368,391980,1,8,2:0:0:0:
253,247,392147,6,2,P|307:167|291:96,1,146.249993305207,8|8,2:0|2:0,2:2:0:0:
220,131,392480,2,2,P|209:152|205:176,1,48.7499977684022,8|0,2:0|2:0,2:1:0:0:
11,151,392647,2,2,B|40:151|40:151|99:215|99:215|129:216,1,146.249993305207,12|0,3:1|2:0,2:1:0:0:
205,176,392980,102,0,P|204:189|200:201,3,26.2499991989136,10|8|8|8,3:2|2:0|2:0|2:0,2:0:0:0:
137,132,393314,2,0,P|138:115|145:99,3,33.7499989700318,10|8|8|8,3:2|2:0|2:0|2:0,2:0:0:0:
221,4,393647,2,0,P|220:27|212:49,3,46.875,10|8|8|8,3:2|2:0|2:0|2:0,2:0:0:0:
15,6,393980,69,4,3:1:0:0:
32,40,394064,1,0,3:2:0:0:
48,76,394147,1,10,3:0:0:0:
62,113,394230,1,0,3:2:0:0:
76,150,394314,1,0,3:2:0:0:
88,188,394397,1,0,3:2:0:0:
99,225,394480,1,10,3:0:0:0:
108,264,394564,1,0,3:2:0:0:
116,302,394647,1,0,3:2:0:0:
122,341,394730,1,0,3:2:0:0:
127,380,394814,102,2,P|106:354|68:337,1,56.2500021457673,10|0,3:0|3:2,2:0:0:0:
117,224,394980,2,2,P|129:248|133:276,1,56.2500021457673,2|0,3:2|3:2,2:0:0:0:
188,188,395147,2,2,P|199:162|202:135,1,56.2500021457673,10|0,3:0|3:2,2:0:0:0:
209,360,395314,5,2,3:2:0:0:
219,322,395397,1,0,3:2:0:0:
231,285,395480,1,10,3:0:0:0:
245,248,395564,1,0,3:2:0:0:
259,211,395647,1,0,3:2:0:0:
276,175,395730,1,0,3:2:0:0:
293,140,395814,1,10,3:0:0:0:
312,105,395897,1,0,3:2:0:0:
332,71,395980,1,0,3:2:0:0:
353,38,396064,1,0,3:2:0:0:
374,6,396147,102,2,P|350:20|322:25,1,56.2500021457673,10|0,3:0|3:2,2:0:0:0:
269,145,396314,2,2,P|291:127|305:103,1,56.2500021457673,2|0,3:2|3:2,2:0:0:0:
292,222,396480,2,2,P|287:267|267:294,1,56.2500021457673,10|0,3:0|3:2,2:0:0:0:
412,244,396647,5,4,3:2:0:0:
406,238,396730,1,0,3:2:0:0:
405,229,396814,2,2,P|428:210|454:202,1,56.2500021457673,10|0,3:0|3:2,2:0:0:0:
463,121,396980,1,2,3:2:0:0:
469,115,397064,1,0,3:2:0:0:
470,106,397147,2,2,P|447:87|421:79,1,56.2500021457673,10|0,3:0|3:2,2:0:0:0:
458,206,397314,1,2,3:2:0:0:
451,222,397397,1,0,3:2:0:0:
457,237,397480,2,2,P|486:239|512:231,1,56.2500021457673,10|0,3:0|3:2,2:0:0:0:
417,83,397647,1,2,3:2:0:0:
424,99,397730,1,0,3:2:0:0:
418,114,397814,2,2,P|388:116|362:108,1,56.2500021457673,10|0,3:0|3:2,2:0:0:0:
475,339,397980,101,2,3:2:0:0:
440,316,398064,1,0,3:2:0:0:
405,299,398147,1,10,3:0:0:0:
368,288,398230,1,0,3:2:0:0:
328,281,398314,1,0,3:2:0:0:
289,280,398397,1,0,3:2:0:0:
250,285,398480,1,10,3:0:0:0:
212,293,398564,1,0,3:2:0:0:
176,308,398647,1,0,3:2:0:0:
145,334,398730,1,0,3:2:0:0:
121,364,398814,6,2,P|102:342|93:316,1,56.2500021457673,10|0,3:0|3:2,2:0:0:0:
64,210,398980,2,2,P|54:236|36:257,1,56.2500021457673,2|0,3:2|3:2,2:0:0:0:
138,170,399147,2,2,P|156:149|166:123,1,56.2500021457673,10|0,3:3|3:2,2:0:0:0:
101,6,399313,101,4,3:1:0:0:
61,2,399397,1,0,3:2:0:0:
25,19,399480,1,10,3:0:0:0:
8,53,399563,1,0,3:2:0:0:
8,92,399647,1,0,3:2:0:0:
28,125,399730,1,0,3:2:0:0:
67,132,399813,2,2,P|84:110|95:84,1,56.2500021457673,10|0,3:0|3:2,2:0:0:0:
166,123,399980,2,2,P|148:144|138:171,3,56.2500021457673,2|0|10|0,3:2|3:2|3:0|3:2,2:0:0:0:
271,252,400313,2,2,P|260:225|242:204,1,56.2500021457673,2|0,3:2|3:2,2:0:0:0:
311,160,400480,2,2,P|321:186|339:207,1,56.2500021457673,10|0,3:0|3:2,2:0:0:0:
424,65,400647,5,2,3:1:0:0:
422,31,400730,1,0,3:2:0:0:
392,14,400813,2,2,P|368:29|356:61,1,56.2500021457673,10|0,3:0|3:2,2:0:0:0:
203,18,400980,1,2,3:1:0:0:
204,53,401063,1,0,3:2:0:0:
235,69,401147,2,2,P|259:54|271:22,1,56.2500021457673,10|0,3:0|3:2,2:0:0:0:
353,60,401313,1,2,3:1:0:0:
349,82,401397,1,0,3:2:0:0:
362,99,401480,2,2,P|386:114|398:146,1,56.2500021457673,10|0,3:0|3:2,2:0:0:0:
269,153,401647,2,2,P|257:177|234:193,1,56.2500021457673,2|0,3:1|3:2,2:0:0:0:
305,248,401813,2,2,P|316:223|339:207,1,56.2500021457673,10|0,3:0|3:2,2:0:0:0:
425,239,401980,101,4,3:1:0:0:
427,261,402063,1,0,3:2:0:0:
430,283,402147,1,10,3:0:0:0:
432,305,402230,1,0,3:2:0:0:
435,327,402313,2,0,L|443:396,3,56.2500021457673,0|0|10|0,3:2|3:2|3:0|3:2,2:0:0:0:
512,313,402647,1,0,3:2:0:0:
510,291,402730,1,0,3:2:0:0:
507,269,402813,1,10,3:0:0:0:
505,247,402897,1,0,3:2:0:0:
502,225,402980,2,0,L|494:156,3,56.2500021457673,0|0|10|0,3:2|3:2|3:0|3:2,2:0:0:0:
447,14,403313,5,4,3:2:0:0:
452,56,403397,1,0,3:2:0:0:
435,98,403480,1,10,3:0:0:0:
395,118,403563,1,0,3:2:0:0:
351,107,403647,1,0,3:2:0:0:
308,95,403730,1,0,3:2:0:0:
267,114,403813,1,10,3:0:0:0:
250,156,403897,1,0,3:2:0:0:
274,195,403980,102,2,P|271:222|257:246,1,56.2500021457673,4|0,3:3|3:2,2:0:0:0:
169,190,404147,2,2,P|148:207|120:213,1,56.2500021457673,4|0,3:0|3:0,2:0:0:0:
94,329,404313,2,2,P|97:356|111:380,1,56.2500021457673,8|0,3:2|3:2,2:0:0:0:
199,324,404480,2,2,P|220:341|248:347,1,56.2500021457673,8|0,3:2|3:2,2:0:0:0:
0,312,404647,6,2,P|6:284|23:262,1,56.2500021457673,4|0,3:1|3:2,2:0:0:0:
119,379,404813,2,2,P|104:355|101:327,1,56.2500021457673,10|0,3:0|3:2,2:0:0:0:
251,342,404980,2,2,P|223:335|201:318,3,56.2500021457673,2|0|10|0,3:2|3:2|3:0|3:2,2:0:0:0:
22,262,405313,1,2,3:2:0:0:
60,254,405397,1,0,3:2:0:0:
96,240,405480,1,10,3:0:0:0:
127,216,405563,1,0,3:2:0:0:
154,186,405647,1,0,3:2:0:0:
168,149,405730,1,0,3:2:0:0:
175,110,405813,102,2,P|163:84|142:67,3,56.2500021457673,10|0|0|0,3:0|3:2|3:1|3:2,2:0:0:0:
248,161,406147,2,2,P|264:138|269:111,1,56.2500021457673,10|0,3:0|3:2,2:0:0:0:
241,251,406313,2,2,P|268:252|294:241,1,56.2500021457673,2|0,3:2|3:2,2:0:0:0:
314,114,406480,1,8,3:0:0:0:
290,99,406563,1,2,3:2:0:0:
263,107,406647,6,2,P|247:130|242:157,1,56.2500021457673,2|0,3:2|3:2,2:0:0:0:
140,59,406813,1,10,3:0:0:0:
137,71,406897,2,2,P|148:96|169:114,1,56.2500021457673,2|0,3:2|3:2,2:0:0:0:
34,154,407063,1,2,3:2:0:0:
42,162,407147,2,2,P|69:164|95:155,1,56.2500021457673,10|0,3:0|3:2,2:0:0:0:
219,38,407313,101,4,3:1:0:0:
213,27,407397,1,0,3:2:0:0:
217,17,407480,2,2,P|243:25|267:45,1,56.2500021457673,10|0,3:0|3:2,2:0:0:0:
241,158,407647,1,2,3:2:0:0:
239,142,407730,1,0,3:2:0:0:
226,135,407813,2,2,P|200:143|176:163,1,56.2500021457673,10|0,3:0|3:2,2:0:0:0:
378,119,407980,1,2,3:2:0:0:
392,102,408063,1,0,3:2:0:0:
413,111,408147,2,2,P|412:141|401:166,1,56.2500021457673,10|0,3:0|3:2,2:0:0:0:
278,320,408313,1,2,3:2:0:0:
309,338,408397,1,0,3:2:0:0:
341,325,408480,2,2,P|332:294|307:283,1,56.2500021457673,10|0,3:0|3:2,2:0:0:0:
100,241,408647,5,2,3:1:0:0:
152,240,408730,1,0,3:2:0:0:
204,233,408813,1,10,3:0:0:0:
256,221,408897,1,0,3:2:0:0:
305,206,408980,1,0,3:2:0:0:
354,188,409063,1,0,3:2:0:0:
403,164,409147,1,10,3:3:0:0:
446,134,409230,1,0,3:2:0:0:
466,105,409313,101,0,3:3:0:0:
474,113,409397,1,0,3:3:0:0:
485,129,409480,1,4,3:3:0:0:
496,149,409563,1,4,3:3:0:0:
503,175,409647,1,8,3:3:0:0:
506,205,409730,1,8,3:3:0:0:
506,238,409813,1,8,3:3:0:0:
501,274,409897,1,8,3:3:0:0:
482,312,409980,6,2,P|464:290|458:262,1,56.2500021457673,4|0,3:2|3:2,2:0:0:0:
367,378,410147,2,2,P|370:350|384:326,1,56.2500021457673,10|0,3:0|3:2,2:0:0:0:
238,343,410313,2,2,P|259:325|287:319,3,56.2500021457673,2|0|10|0,3:2|3:2|3:0|3:2,2:0:0:0:
458,263,410647,1,2,3:2:0:0:
418,263,410730,1,0,3:2:0:0:
379,253,410813,1,10,3:0:0:0:
346,231,410897,1,0,3:2:0:0:
327,195,410980,1,0,3:2:0:0:
329,155,411063,1,0,3:2:0:0:
339,116,411147,102,2,P|315:130|302:155,3,56.2500021457673,10|0|0|0,3:0|3:2|3:1|3:2,2:0:0:0:
230,13,411480,2,2,P|231:40|245:64,1,56.2500021457673,10|0,3:0|3:2,2:0:0:0:
87,54,411647,2,2,P|111:67|139:65,1,56.2500021457673,2|0,3:2|3:2,2:0:0:0:
89,158,411813,1,10,3:0:0:0:
62,179,411897,1,0,3:2:0:0:
49,210,411980,1,0,3:2:0:0:
55,242,412063,1,0,3:2:0:0:
76,268,412147,1,10,3:0:0:0:
107,278,412230,1,0,3:2:0:0:
140,273,412313,2,2,P|138:245|124:221,3,56.2500021457673,2|0|10|0,3:2|3:2|3:0|3:2,2:0:0:0:
139,65,412647,5,4,3:1:0:0:
136,109,412730,1,0,3:2:0:0:
161,146,412813,1,10,3:0:0:0:
202,161,412897,1,0,3:2:0:0:
245,148,412980,2,2,P|269:134|283:110,3,56.2500021457673,0|0|10|0,3:2|3:2|3:0|3:2,2:0:0:0:
383,246,413313,101,4,3:2:0:0:
379,268,413397,1,0,3:2:0:0:
365,285,413480,1,10,3:0:0:0:
345,294,413563,1,0,3:2:0:0:
323,294,413647,2,2,P|299:280|286:255,3,56.2500021457673,0|0|10|0,3:2|3:2|3:0|3:2,2:0:0:0:
512,263,413980,5,4,3:1:0:0:
472,235,414063,1,0,3:2:0:0:
440,202,414147,1,10,3:0:0:0:
413,166,414230,1,0,3:2:0:0:
390,130,414313,1,0,3:2:0:0:
374,93,414397,1,0,3:2:0:0:
365,57,414480,1,10,3:0:0:0:
360,31,414563,1,0,3:2:0:0:
356,18,414647,1,0,3:2:0:0:
349,7,414730,1,0,3:2:0:0:
340,6,414813,101,10,2:0:0:0:
328,18,414897,1,10,2:0:0:0:
311,33,414980,1,10,2:0:0:0:
285,46,415063,1,10,2:0:0:0:
255,56,415147,1,10,2:0:0:0:
220,59,415230,1,10,2:0:0:0:
182,51,415313,102,2,B|92:21|104:40|-10:4,2,187.5,4|0|0,3:1|3:0|3:0,2:1:0:0:
370,7,416147,1,10,2:3:0:0:
370,16,416230,1,2,2:0:0:0:
361,27,416313,1,2,3:2:0:0:
342,35,416397,1,2,3:2:0:0:
318,23,416480,1,10,2:3:0:0:
290,19,416563,1,2,2:0:0:0:
268,37,416647,102,0,P|254:63|255:108,3,46.875,2|2|10|2,3:2|2:0|2:3|2:0,2:0:0:0:
249,170,416980,2,0,P|241:191|223:213,3,46.875,2|2|10|2,3:2|3:2|2:3|2:0,2:0:0:0:
115,165,417313,2,0,P|97:178|85:203,3,46.875,2|2|10|2,3:2|2:0|2:3|2:0,2:0:0:0:
84,291,417647,2,0,L|78:321,3,31.25,2|2|2|10,3:2|3:2|3:2|2:3,2:0:0:0:
10,364,417897,1,2,2:0:0:0:
20,373,417980,5,2,3:2:0:0:
63,357,418063,1,2,2:0:0:0:
104,363,418147,1,10,2:3:0:0:
136,348,418230,1,2,2:0:0:0:
170,349,418313,2,2,P|189:335|212:331,1,46.875,2|0,3:2|3:2,2:0:0:0:
343,377,418480,2,0,P|322:366|307:348,3,46.875,10|2|2|2,2:3|2:0|3:2|2:0,2:0:0:0:
208,254,418813,2,2,P|232:256|252:268,1,46.875,10|0,2:3|2:0,2:0:0:0:
364,304,418980,2,0,P|386:307|409:301,3,46.875,2|2|10|2,3:2|3:2|2:3|2:0,2:0:0:0:
462,199,419313,101,2,3:2:0:0:
420,175,419397,1,2,2:0:0:0:
379,191,419480,1,10,2:3:0:0:
366,217,419563,1,2,2:0:0:0:
378,233,419647,1,2,3:2:0:0:
402,199,419730,1,2,3:2:0:0:
389,165,419813,1,10,2:3:0:0:
370,156,419897,1,2,2:0:0:0:
357,166,419980,1,2,3:2:0:0:
384,185,420063,1,2,2:0:0:0:
410,174,420147,1,10,2:3:0:0:
419,157,420230,1,2,2:0:0:0:
416,145,420313,2,0,L|405:102,3,31.25,2|2|2|10,3:2|3:2|3:2|2:3,2:0:0:0:
492,114,420563,1,2,2:0:0:0:
511,129,420647,6,2,P|420:111|349:52,1,187.5,4|2,3:1|3:2,2:1:0:0:
406,7,421063,1,2,3:2:0:0:
426,6,421147,2,0,P|489:33|526:70,1,93.75,10|0,2:3|3:0,2:0:0:0:
228,188,421480,2,2,P|281:148|321:161,1,93.75,10|2,2:3|3:2,2:2:0:0:
300,228,421730,1,2,3:2:0:0:
318,233,421813,2,2,P|295:247|255:243,1,46.875,10|0,2:3|2:0,2:2:0:0:
349,52,421980,102,2,P|375:141|419:224,1,187.5,2|2,3:2|3:2,2:1:0:0:
490,190,422397,1,2,3:2:0:0:
498,172,422480,1,10,2:3:0:0:
455,98,422647,1,2,3:2:0:0:
303,151,422813,1,10,2:3:0:0:
275,248,422980,1,2,3:2:0:0:
273,264,423063,1,2,3:2:0:0:
282,271,423147,2,2,P|305:267|324:254,1,46.875,10|0,2:3|2:0,2:0:0:0:
419,224,423313,6,2,P|314:171|203:214,1,234.375,4|0,3:2|3:2,2:1:0:0:
205,293,423813,2,0,P|184:323|180:379,1,93.75,10|0,2:2|3:2,2:0:0:0:
51,232,424147,2,2,P|86:258|131:242,1,93.75,10|2,2:3|3:2,0:2:0:0:
132,163,424397,1,2,3:2:0:0:
116,158,424480,2,2,P|91:151|59:162,1,46.875,10|0,2:3|0:0,0:2:0:0:
201,118,424647,102,2,P|225:53|281:51,1,93.75,6|10,3:2|2:3,2:1:0:0:
301,93,424897,1,2,2:0:0:0:
303,104,424980,2,2,P|291:126|270:141,3,46.875,2|2|10|2,3:2|3:2|2:3|2:0,2:0:0:0:
210,207,425313,6,2,P|192:247|224:311,1,93.75,4|8,3:1|2:0,2:1:0:0:
131,341,425563,1,8,2:0:0:0:
141,354,425647,2,0,P|158:369|179:378,3,46.875,10|10|10|10,2:0|2:0|2:0|2:0,2:0:0:0:
304,380,425980,101,4,3:1:0:0:
317,369,426063,2,0,P|327:348|329:324,1,46.875,2|10,2:0|2:3,2:0:0:0:
459,327,426230,1,2,2:0:0:0:
442,326,426313,2,0,P|420:316|404:299,1,46.875,2|0,3:2|3:2,2:0:0:0:
280,367,426480,1,10,2:3:0:0:
300,360,426563,2,0,P|318:345|329:325,1,46.875,2|0,2:0|3:2,2:0:0:0:
469,302,426730,1,2,2:0:0:0:
449,308,426813,2,0,P|425:308|403:299,1,46.875,10|0,2:3|2:0,2:0:0:0:
345,247,426980,1,2,3:2:0:0:
337,226,427063,1,2,3:2:0:0:
329,205,427147,1,10,2:3:0:0:
219,271,427313,5,2,3:2:0:0:
210,285,427397,2,0,P|192:300|170:308,1,46.875,2|10,2:0|2:3,2:0:0:0:
76,227,427563,1,2,2:0:0:0:
73,243,427647,2,0,P|76:265|88:286,1,46.875,2|0,3:2|3:2,2:0:0:0:
238,310,427813,1,10,2:3:0:0:
215,300,427897,2,0,P|191:299|169:308,1,46.875,2|0,2:0|3:2,2:0:0:0:
34,245,428063,1,2,2:0:0:0:
59,251,428147,2,0,P|77:265|88:285,1,46.875,10|0,2:3|2:0,2:0:0:0:
150,218,428313,2,0,L|162:169,3,31.25,2|2|2|10,3:2|3:2|3:2|2:3,2:0:0:0:
291,187,428647,101,2,3:2:0:0:
302,172,428730,2,0,P|319:155|340:145,1,46.875,2|10,2:0|2:3,2:0:0:0:
432,228,428897,1,2,2:0:0:0:
436,210,428980,2,0,P|435:186|424:165,1,46.875,2|0,3:2|3:2,2:0:0:0:
269,167,429147,1,10,2:3:0:0:
294,154,429230,2,0,P|316:145|340:145,1,46.875,2|0,2:0|3:2,2:0:0:0:
461,228,429397,1,2,2:0:0:0:
453,201,429480,2,0,P|442:180|424:166,1,46.875,10|0,2:3|2:0,2:0:0:0:
409,30,429647,1,2,3:2:0:0:
404,57,429730,1,2,3:2:0:0:
397,84,429813,1,10,2:3:0:0:
195,2,429980,5,2,3:1:0:0:
179,19,430063,2,0,P|167:39|163:62,1,46.875,2|10,2:0|2:3,2:0:0:0:
12,66,430230,1,2,2:1:0:0:
35,67,430313,2,0,P|56:73|74:89,1,46.875,2|0,3:2|3:2,2:0:0:0:
236,60,430480,1,10,2:3:0:0:
208,69,430563,2,0,P|184:70|161:60,1,46.875,2|0,2:0|3:2,2:0:0:0:
15,131,430730,1,2,2:1:0:0:
45,124,430813,2,0,P|63:110|74:89,1,46.875,10|0,2:3|2:0,2:0:0:0:
144,156,430980,2,0,L|152:185,3,31.25,2|2|2|10,3:2|3:2|3:2|2:3,2:0:0:0:
217,294,431313,101,4,3:2:0:0:
129,365,431480,2,2,B|118:373|138:384|164:371|183:328|106:298|83:440|-21:425|2:244|26:174|117:182|291:233|295:352|199:358|154:433|305:467|579:405|470:198|373:141|282:151|227:245|284:281|327:291,1,675.000025749207,10|10,2:2|2:3,2:1:0:0:
412,108,432647,6,2,P|389:123|370:139,1,46.875,4|0,3:1|2:0,2:0:0:0:
306,280,432813,2,2,P|330:214|347:145,1,140.625,10|0,2:3|3:2,2:0:0:0:
307,74,433147,1,10,2:3:0:0:
414,212,433313,2,2,P|429:253|391:274,1,93.75,2|10,3:2|2:3,2:0:0:0:
424,200,433563,2,2,P|486:228|507:166,1,142.49999619484,2|0,2:0|2:0,2:0:0:0:
347,145,433980,102,2,P|307:161|330:207,1,93.75,4|10,3:1|2:3,2:1:0:0:
374,138,434230,2,2,P|416:88|394:65,1,108.750003318787,2|0,2:0|3:2,2:1:0:0:
510,174,434480,2,2,B|468:133|386:148|397:168|315:187|272:154,1,247.500002360344,10|10,2:3|2:3,2:1:0:0:
204,226,434980,5,0,3:2:0:0:
214,232,435063,1,0,3:2:0:0:
216,244,435147,1,10,2:3:0:0:
10,152,435313,2,2,B|46:136|77:147|77:156|110:168|147:152,1,140.625,4|0,3:2|2:0,2:2:0:0:
116,78,435647,69,10,3:2:0:0:
110,69,435730,1,8,2:0:0:0:
103,74,435813,1,8,2:0:0:0:
102,85,435897,1,8,2:0:0:0:
114,90,435980,1,10,3:2:0:0:
124,79,436063,1,8,2:0:0:0:
122,62,436147,1,8,2:0:0:0:
103,49,436230,1,8,2:0:0:0:
72,49,436313,1,10,3:2:0:0:
45,65,436397,1,8,2:0:0:0:
32,97,436480,1,8,2:0:0:0:
45,133,436563,1,8,2:0:0:0:
10,152,436647,69,4,3:1:0:0:
30,113,436730,1,0,3:2:0:0:
59,80,436813,1,10,3:0:0:0:
92,51,436897,1,0,3:2:0:0:
127,29,436980,1,0,3:2:0:0:
168,13,437063,1,0,3:2:0:0:
210,3,437147,1,10,3:0:0:0:
254,1,437230,1,0,3:2:0:0:
297,6,437313,1,0,3:2:0:0:
338,16,437397,1,0,3:2:0:0:
377,37,437480,102,2,P|393:64|396:95,1,61.875000590086,10|0,3:0|3:2,2:0:0:0:
512,154,437647,2,2,P|481:154|453:142,1,61.875000590086,2|0,3:2|3:2,2:0:0:0:
343,211,437813,2,2,P|375:170|409:158,1,61.875000590086,10|0,3:0|3:2,2:0:0:0:
477,310,437980,5,2,3:2:0:0:
463,266,438063,1,0,3:2:0:0:
441,228,438147,1,10,3:0:0:0:
414,194,438230,1,0,3:2:0:0:
383,166,438313,1,0,3:2:0:0:
347,141,438397,1,0,3:2:0:0:
307,124,438480,1,10,3:0:0:0:
264,113,438563,1,0,3:2:0:0:
221,111,438647,1,0,3:2:0:0:
180,113,438730,1,0,3:2:0:0:
138,122,438813,102,2,P|141:152|133:182,1,61.875000590086,10|0,3:0|3:2,2:0:0:0:
98,283,438980,2,2,P|122:264|152:256,1,61.875000590086,2|0,3:2|3:2,2:0:0:0:
258,237,439147,2,2,P|229:225|208:203,1,61.875000590086,10|0,3:0|3:2,2:0:0:0:
365,306,439313,5,4,3:2:0:0:
380,314,439397,1,0,3:2:0:0:
388,329,439480,2,2,P|378:358|356:379,1,61.875000590086,10|0,3:0|3:2,2:0:0:0:
409,225,439647,1,2,3:2:0:0:
425,221,439730,1,0,3:2:0:0:
437,208,439813,2,2,P|435:176|420:151,1,61.875000590086,10|0,3:0|3:2,2:0:0:0:
352,376,439980,1,2,3:2:0:0:
338,355,440063,1,0,3:2:0:0:
343,333,440147,2,2,P|366:311|395:304,1,61.875000590086,10|0,3:0|3:2,2:0:0:0:
414,154,440313,1,2,3:2:0:0:
395,170,440397,1,0,3:2:0:0:
394,193,440480,2,2,P|410:220|436:234,1,61.875000590086,10|0,3:0|3:2,2:0:0:0:
195,345,440647,101,2,3:2:0:0:
232,324,440730,1,0,3:2:0:0:
265,295,440813,1,10,3:0:0:0:
290,260,440897,1,0,3:2:0:0:
306,220,440980,1,0,3:2:0:0:
313,177,441063,1,0,3:2:0:0:
310,134,441147,1,10,3:0:0:0:
298,92,441230,1,0,3:2:0:0:
276,55,441313,1,0,3:2:0:0:
238,33,441397,1,0,3:2:0:0:
194,32,441480,6,2,P|168:42|150:77,1,61.875000590086,10|0,3:0|3:2,2:0:0:0:
224,178,441647,2,2,P|228:150|207:117,1,61.875000590086,2|0,3:2|3:2,2:0:0:0:
82,130,441813,2,2,P|103:147|142:145,1,61.875000590086,10|0,3:3|3:2,2:0:0:0:
226,304,441980,101,4,3:1:0:0:
207,271,442063,1,0,3:2:0:0:
176,249,442147,1,10,3:0:0:0:
141,233,442230,1,0,3:2:0:0:
105,227,442313,1,0,3:2:0:0:
68,231,442397,1,0,3:2:0:0:
31,243,442480,2,2,P|10:263|0:303,1,61.875000590086,10|0,3:0|3:2,2:0:0:0:
82,377,442647,1,2,3:2:0:0:
120,356,442730,1,0,3:2:0:0:
142,319,442813,1,10,3:0:0:0:
148,275,442897,1,0,3:2:0:0:
141,232,442980,2,2,P|106:223|84:202,1,61.875000590086,2|0,3:2|3:2,2:0:0:0:
132,128,443147,2,2,P|161:134|185:153,1,61.875000590086,10|0,3:0|3:2,2:0:0:0:
50,87,443313,5,2,3:1:0:0:
10,74,443397,1,0,3:2:0:0:
5,34,443480,2,2,P|32:19|62:20,1,61.875000590086,10|0,3:0|3:2,2:0:0:0:
200,4,443647,1,2,3:1:0:0:
219,40,443730,1,0,3:2:0:0:
195,72,443813,2,2,P|165:63|144:40,1,61.875000590086,10|0,3:0|3:2,2:0:0:0:
62,27,443980,1,2,3:1:0:0:
32,30,444063,1,0,3:2:0:0:
17,57,444147,2,2,P|2:84|3:114,1,61.875000590086,10|0,3:0|3:2,2:0:0:0:
178,215,444313,2,2,P|155:235|125:235,1,61.875000590086,2|0,3:1|3:2,2:0:0:0:
90,148,444480,2,2,P|112:128|143:128,1,61.875000590086,10|0,3:0|3:2,2:0:0:0:
145,41,444647,101,4,3:1:0:0:
169,40,444730,1,0,3:0:0:0:
193,38,444813,1,10,3:3:0:0:
217,38,444897,1,0,3:0:0:0:
241,37,444980,2,0,L|238:98,1,61.875000590086,0|0,3:0|3:2,2:0:0:0:
325,83,445147,2,0,L|386:86,3,61.875000590086,10|0|0|0,3:0|3:2|3:2|3:2,2:0:0:0:
425,240,445480,2,0,L|427:178,1,61.875000590086,10|0,3:0|3:2,2:0:0:0:
341,195,445647,2,0,L|280:192,3,61.875000590086,0|0|10|0,3:0|3:2|3:3|3:2,2:0:0:0:
392,24,445980,5,4,3:2:0:0:
345,38,446063,1,0,3:2:0:0:
325,83,446147,1,10,3:0:0:0:
343,131,446230,1,0,3:2:0:0:
388,148,446313,1,0,3:2:0:0:
405,196,446397,1,0,3:2:0:0:
386,241,446480,1,10,3:0:0:0:
339,256,446563,1,0,3:2:0:0:
332,239,446647,101,4,3:3:0:0:
343,236,446730,1,4,3:3:0:0:
359,243,446813,1,4,3:0:0:0:
376,261,446897,1,4,3:0:0:0:
382,294,446980,1,8,3:2:0:0:
379,328,447063,1,8,3:2:0:0:
403,355,447147,1,8,3:2:0:0:
442,359,447230,1,8,3:2:0:0:
481,340,447313,6,0,P|467:312|442:295,1,61.875000590086,4|0,3:1|3:2,2:0:0:0:
288,260,447480,2,2,P|319:261|346:247,1,61.875000590086,10|0,3:0|3:2,2:0:0:0:
477,193,447647,1,2,3:2:0:0:
481,155,447730,1,0,3:2:0:0:
453,130,447813,2,2,P|436:155|435:186,1,61.875000590086,10|0,3:0|3:2,2:0:0:0:
442,295,447980,1,2,3:2:0:0:
418,338,448063,1,0,3:2:0:0:
373,361,448147,1,10,3:0:0:0:
324,367,448230,1,0,3:2:0:0:
274,361,448313,1,0,3:2:0:0:
233,331,448397,1,0,3:2:0:0:
224,282,448480,101,10,3:0:0:0:
257,309,448563,1,0,3:2:0:0:
300,313,448647,1,0,3:1:0:0:
336,290,448730,1,0,3:2:0:0:
346,248,448813,2,2,P|338:224|285:220,1,61.875000590086,10|0,3:0|3:2,2:0:0:0:
175,137,448980,2,2,P|199:142|229:98,1,61.875000590086,2|0,3:2|3:2,2:0:0:0:
371,105,449147,1,8,3:0:0:0:
376,71,449230,1,2,3:2:0:0:
355,43,449313,2,2,P|338:61|361:109,1,61.875000590086,2|0,3:2|3:2,2:0:0:0:
435,186,449480,6,2,P|465:188|494:199,1,61.875000590086,12|2,3:2|3:2,2:1:0:0:
306,210,449647,2,2,P|400:174|481:98,1,185.625001770258,12|0,3:2|2:0,2:1:0:0:
491,45,449980,101,12,3:1:0:0:
459,31,450063,1,0,3:2:0:0:
432,35,450147,1,0,3:2:0:0:
422,45,450230,1,0,3:2:0:0:
430,51,450313,5,12,3:1:0:0:
392,50,450397,1,0,3:2:0:0:
362,64,450480,1,0,3:2:0:0:
354,82,450563,1,0,3:2:0:0:
367,85,450647,101,12,3:2:0:0:
321,99,450730,1,0,3:2:0:0:
294,127,450813,1,0,3:2:0:0:
294,149,450897,1,0,3:2:0:0:
309,149,450980,5,12,3:2:0:0:
342,104,451063,1,0,3:2:0:0:
331,48,451147,1,0,3:2:0:0:
283,19,451230,1,0,3:2:0:0:
228,21,451313,102,2,B|214:49|214:49|222:79,1,61.875000590086,10|0,3:1|3:2,2:1:0:0:
309,149,451480,2,2,P|247:147|191:172,1,123.750001180172,8|0,3:0|3:2,2:1:0:0:
219,237,451730,1,8,3:0:0:0:
250,240,451813,2,2,P|280:233|307:219,1,61.875000590086,8|0,3:0|3:2,2:0:0:0:
284,363,451980,2,2,B|298:335|298:335|290:305,1,61.875000590086,8|0,3:0|3:2,2:0:0:0:
191,172,452147,5,10,3:2:0:0:
170,186,452230,1,8,3:2:0:0:
156,211,452313,1,10,3:2:0:0:
154,246,452397,1,8,3:2:0:0:
169,284,452480,1,10,3:2:0:0:
175,328,452563,1,8,3:2:0:0:
141,363,452647,102,2,B|127:335|127:335|135:305,1,61.875000590086,4|0,3:2|3:2,2:0:0:0:
3,218,452813,2,2,B|33:219|33:219|55:242,1,61.875000590086,10|0,3:0|3:2,2:0:0:0:
128,131,452980,1,2,3:2:0:0:
171,132,453063,1,0,3:2:0:0:
191,172,453147,2,2,B|173:197|173:197|143:205,1,61.875000590086,10|0,3:0|3:2,2:0:0:0:
135,305,453313,1,2,3:2:0:0:
178,304,453397,1,0,3:2:0:0:
219,292,453480,1,10,3:0:0:0:
255,268,453563,1,0,3:2:0:0:
284,235,453647,1,0,3:2:0:0:
301,195,453730,1,0,3:2:0:0:
307,152,453813,5,10,3:0:0:0:
327,192,453897,1,0,3:2:0:0:
367,211,453980,1,0,3:1:0:0:
411,215,454063,1,0,3:2:0:0:
452,196,454147,2,2,B|480:186|480:186|509:198,1,61.875000590086,10|0,3:0|3:2,2:0:0:0:
302,153,454313,2,2,B|271:144|271:144|253:119,1,61.875000590086,2|0,3:2|3:2,2:0:0:0:
346,286,454480,2,2,L|329:345,1,61.875000590086,10|0,3:0|3:2,2:0:0:0:
367,211,454647,102,2,L|398:97,1,97.4999955368044,0|8,3:2|2:0,2:0:0:0:
415,43,454897,1,8,2:0:0:0:
419,31,454980,2,0,L|435:-28,5,32.4999985122681,12|4|4|4|4|4,3:2|3:0|3:0|3:0|3:0|3:0,2:0:0:0:
469,10,455313,5,14,3:1:0:0:
484,67,455397,1,2,3:2:0:0:
451,115,455480,1,2,3:2:0:0:
393,117,455563,1,2,3:2:0:0:
353,74,455647,1,10,3:0:0:0:
297,58,455730,1,2,3:2:0:0:
244,82,455813,1,2,3:2:0:0:
225,138,455897,1,2,3:2:0:0:
269,159,455980,101,10,3:0:0:0:
242,125,456063,1,2,3:2:0:0:
202,113,456147,1,2,3:2:0:0:
164,116,456230,1,2,3:2:0:0:
127,129,456313,1,10,3:0:0:0:
91,120,456397,1,2,3:2:0:0:
72,93,456480,1,2,3:2:0:0:
70,64,456563,1,2,3:2:0:0:
77,40,456647,38,0,L|40:48,2,32.4999985122681,12|8|8,2:0|2:0|2:0,2:0:0:0:
157,83,456869,1,8,2:0:0:0:
219,33,456980,1,8,3:0:0:0:
277,78,457091,1,4,3:3:0:0:
323,29,457202,1,4,3:3:0:0:
364,54,457313,2,0,P|409:62|469:72,2,89.999997253418,4|4|4,2:3|2:3|2:3,2:0:0:0:
157,83,457980,70,0,P|288:146|365:290,1,292.499991073609,4|0,3:2|2:0,2:0:0:0:
488,294,459147,6,0,P|386:292|307:358,1,209.999993591309,4|0,3:1|2:0,2:0:0:0:
307,359,460147,2,0,L|307:377,3,17.4999994659424,0|0|0|8,3:2|3:2|3:2|2:0,2:0:0:0:
145,236,460647,102,2,P|149:271|192:287,1,75,4|0,3:1|2:0,2:0:0:0:
106,85,461091,6,2,P|54:74|36:127,1,112.500004291535,4|0,3:1|2:0,2:0:0:0:
256,128,461536,102,2,P|276:77|209:45,1,137.500004196167,4|4,3:2|2:3,2:0:0:0:
169,150,461897,1,4,2:3:0:0:
180,158,461980,6,0,P|196:175|207:195,1,44.999998626709,10|8,2:1|2:0,2:0:0:0:
256,264,462219,2,0,L|256:297,2,25,4|4|4,2:3|2:3|2:3,2:0:0:0:
305,193,462412,2,0,P|316:174|331:158,2,44.999998626709,0|0|8,3:2|3:2|2:0,2:0:0:0:
256,128,463130,5,0,3:2:0:0:
256,128,463191,5,0,3:2:0:0:
256,128,463252,101,0,3:2:0:0:
256,128,463314,5,12,2:1:0:0:
256,192,463397,12,0,467814,2:0:0:0:
256,128,467980,37,12,2:1:0:0:
137,128,468147,2,0,L|111:226,1,97.4999955368044,0|0,3:2|3:2,2:0:0:0:
121,361,468647,6,0,P|151:314|191:274,1,112.499996566773,4|0,3:2|2:0,2:0:0:0:
40,343,469147,2,0,P|36:285|19:232,1,112.499996566773,10|0,2:3|2:0,2:0:0:0:
126,363,469647,2,0,P|156:316|196:276,1,112.499996566773,2|0,3:0|2:0,2:0:0:0:
45,345,470147,2,0,P|41:287|24:234,1,112.499996566773,10|0,2:3|2:0,2:0:0:0:
121,361,470647,2,0,P|151:314|191:274,1,112.499996566773,2|0,3:0|2:0,2:0:0:0:
40,343,471147,2,0,P|36:285|19:232,1,112.499996566773,10|0,2:3|2:0,2:0:0:0:
126,363,471647,2,0,P|156:316|196:276,1,112.499996566773,2|0,3:0|2:0,2:0:0:0:
45,345,472147,2,0,P|41:287|24:234,1,112.499996566773,10|0,2:3|2:0,2:0:0:0:
121,361,472647,2,0,P|151:314|191:274,1,112.499996566773,2|0,3:0|2:0,2:0:0:0:
20,233,473147,2,0,P|35:286|41:333,1,89.9999972534181,10|0,2:3|3:0,2:0:0:0:
110,374,473564,101,0,3:0:0:0:
126,363,473647,2,2,P|151:351|185:347,1,48.7499977684022,10|0,2:0|2:0,2:0:0:0:
195,276,473814,2,2,P|219:274|243:278,1,48.7499977684022,10|0,2:0|2:0,2:0:0:0:
419,277,473980,6,0,P|366:257|332:214,1,112.499996566773,4|0,3:2|2:0,2:0:0:0:
496,224,474480,2,0,P|500:168|475:118,1,112.499996566773,10|0,2:3|2:0,2:0:0:0:
421,272,474980,2,0,P|368:252|334:209,1,112.499996566773,2|0,3:0|2:0,2:0:0:0:
492,226,475480,2,0,P|496:170|471:120,1,112.499996566773,10|0,2:3|2:0,2:0:0:0:
419,277,475980,2,0,P|366:257|332:214,1,112.499996566773,2|0,3:0|2:0,2:0:0:0:
496,224,476480,2,0,P|500:168|475:118,1,112.499996566773,10|0,2:3|2:0,2:0:0:0:
421,272,476980,2,0,P|368:252|334:209,1,112.499996566773,2|0,3:0|2:0,2:0:0:0:
492,226,477480,102,2,P|478:168|415:152,1,121.874994421006,10|0,2:3|2:0,2:0:0:0:
332,214,477980,2,2,P|345:275|416:278,1,131.249995994568,2|0,3:0|2:0,2:0:0:0:
496,224,478480,2,2,P|472:181|404:199,1,112.500004291535,10|0,2:3|3:0,2:0:0:0:
409,290,478897,5,0,3:0:0:0:
421,271,478980,2,2,B|493:251|493:251|510:320,1,146.249993305207,10|0,2:1|2:0,2:1:0:0:
454,374,479314,101,10,2:0:0:0:
443,376,479397,2,0,P|402:362|346:350,1,84.3750032186509,8|0,2:0|3:0,2:0:0:0:
339,240,479814,1,10,2:0:0:0:
343,229,479897,1,8,2:0:0:0:
347,218,479980,2,0,P|316:237|323:297,1,84.3750032186509,0|0,3:2|2:0,2:0:0:0:
362,353,480314,1,10,3:2:0:0:
351,351,480397,2,0,P|310:365|254:377,1,84.3750032186509,8|0,2:0|3:2,2:0:0:0:
347,218,480814,5,10,2:0:0:0:
343,207,480897,1,8,2:0:0:0:
339,196,480980,2,0,P|327:155|311:116,1,84.3750032186509,0|0,3:2|2:0,2:0:0:0:
225,158,481314,1,10,3:2:0:0:
233,180,481397,2,2,P|242:212|255:244,1,56.2500021457673,8|0,2:0|2:0,2:0:0:0:
352,214,481647,1,10,2:0:0:0:
344,192,481730,2,2,P|334:159|321:127,1,56.2500021457673,8|0,2:0|2:0,2:0:0:0:
220,161,481980,101,10,2:0:0:0:
228,183,482064,2,0,P|239:223|255:262,1,84.3750032186509,8|0,2:0|3:0,2:0:0:0:
59,306,482480,1,10,2:0:0:0:
48,302,482564,1,8,2:0:0:0:
40,295,482647,2,0,P|59:259|106:254,1,84.3750032186509,0|0,3:2|2:0,2:0:0:0:
124,331,482980,1,10,3:2:0:0:
135,334,483064,2,0,P|183:358|210:397,1,84.3750032186509,8|0,2:0|3:2,2:0:0:0:
180,153,483480,1,10,2:0:0:0:
172,161,483564,1,10,2:0:0:0:
162,166,483647,2,0,P|127:181|92:177,1,56.2500021457673,2|0,3:2|2:0,2:0:0:0:
30,2,483980,1,10,3:2:0:0:
40,5,484064,2,2,P|67:13|93:22,1,56.2500021457673,8|0,2:0|2:0,2:0:0:0:
129,95,484314,5,10,2:1:0:0:
121,112,484397,2,2,B|77:75|77:75|93:22,1,112.500004291535,8|0,2:1|2:0,2:1:0:0:
168,7,484647,101,10,2:0:0:0:
179,5,484730,2,0,P|218:18|259:28,1,84.3750032186509,8|0,2:0|3:0,2:0:0:0:
254,153,485147,1,10,2:0:0:0:
243,157,485230,1,8,2:0:0:0:
231,159,485314,2,0,P|206:133|224:83,1,84.3750032186509,0|0,3:2|2:0,2:0:0:0:
260,29,485647,1,10,3:2:0:0:
271,31,485730,2,0,P|310:17|351:7,1,84.3750032186509,8|0,2:0|3:2,2:0:0:0:
231,159,486147,5,10,2:0:0:0:
227,170,486230,1,8,2:0:0:0:
223,181,486314,2,0,P|211:221|195:260,1,84.3750032186509,0|0,3:2|2:0,2:0:0:0:
286,299,486647,1,10,3:2:0:0:
294,276,486730,2,2,P|305:250|325:231,1,56.2500021457673,8|0,2:0|2:0,2:0:0:0:
217,181,486980,1,10,2:0:0:0:
209,203,487064,2,2,P|197:228|177:247,1,56.2500021457673,8|0,2:0|2:0,2:0:0:0:
292,301,487314,101,10,2:0:0:0:
317,308,487397,2,0,P|335:271|324:231,1,84.3750032186509,8|0,2:0|3:0,2:0:0:0:
433,145,487814,1,10,2:0:0:0:
452,152,487897,1,10,2:0:0:0:
470,158,487980,1,2,3:2:0:0:
406,68,488147,1,2,2:0:0:0:
416,231,488314,1,10,3:2:0:0:
401,236,488397,1,10,2:0:0:0:
387,241,488480,1,2,2:0:0:0:
441,365,488647,5,2,3:1:0:0:
475,287,488814,1,10,2:0:0:0:
483,285,488897,1,10,2:0:0:0:
491,284,488980,2,2,P|494:270|496:256,1,28.1250010728836,10|0,3:2|2:0,2:0:0:0:
416,231,489147,2,2,P|410:218|407:204,1,28.1250010728836,10|0,2:0|2:0,2:0:0:0:
288,143,489314,2,2,P|307:141|325:148,1,37.5,10|0,3:2|2:0,2:0:0:0:
413,204,489480,2,2,P|428:192|437:175,1,37.5,10|0,2:0|2:0,2:0:0:0:
375,23,489647,2,2,P|372:45|356:62,1,46.875,10|0,3:2|2:0,2:0:0:0:
437,170,489814,2,2,P|420:154|414:132,1,46.875,10|0,2:0|2:0,2:0:0:0:
482,7,489980,101,6,3:2:0:0:
476,38,490064,1,2,3:2:0:0:
470,69,490147,1,2,3:2:0:0:
325,148,490314,1,10,2:3:0:0:
414,132,490480,1,2,3:2:0:0:
408,163,490564,1,2,3:2:0:0:
401,193,490647,2,0,P|453:187|505:176,1,104.999996795654,2|0,3:0|3:2,2:0:0:0:
346,258,490980,1,10,2:3:0:0:
340,289,491063,1,0,3:2:0:0:
334,320,491147,1,0,3:2:0:0:
325,148,491313,6,0,P|258:157|197:173,1,104.999996795654,2|2,3:0|3:2,2:0:0:0:
170,215,491563,1,2,3:2:0:0:
152,220,491647,2,0,P|107:178|130:132,1,104.999996795654,10|0,2:3|3:2,2:0:0:0:
279,20,491980,1,2,3:0:0:0:
275,44,492063,1,2,3:2:0:0:
270,68,492147,1,2,3:2:0:0:
132,50,492313,1,10,2:3:0:0:
159,74,492397,1,2,3:2:0:0:
186,98,492480,1,2,3:2:0:0:
40,120,492647,101,4,3:1:0:0:
44,100,492730,1,2,3:2:0:0:
48,80,492813,1,2,3:2:0:0:
152,220,492980,1,10,2:3:0:0:
81,184,493147,1,2,3:2:0:0:
77,204,493230,1,2,3:2:0:0:
73,223,493313,2,0,P|23:232|0:278,1,104.999996795654,2|0,3:0|3:2,2:0:0:0:
108,330,493647,1,10,2:3:0:0:
112,310,493730,1,0,3:2:0:0:
116,290,493813,1,0,3:2:0:0:
236,374,493980,6,0,P|286:359|338:351,1,104.999996795654,2|2,3:0|3:2,2:0:0:0:
394,299,494230,1,2,3:2:0:0:
390,279,494313,1,10,2:3:0:0:
229,283,494480,2,0,L|218:232,1,52.4999983978272,0|0,3:2|3:2,2:0:0:0:
271,115,494647,101,6,3:1:0:0:
308,96,494730,1,0,3:2:0:0:
349,99,494813,1,0,3:2:0:0:
381,125,494897,1,0,3:2:0:0:
382,170,494980,2,2,B|342:184|342:184|318:173|318:173|277:188,1,112.500004291535,14|0,2:0|3:2,2:1:0:0:
218,232,495230,1,0,3:2:0:0:
222,252,495313,5,12,2:1:0:0:
255,257,495397,1,2,3:2:0:0:
288,262,495480,1,2,3:2:0:0:
475,308,495647,1,10,2:3:0:0:
397,373,495813,1,2,3:2:0:0:
384,341,495897,1,2,3:2:0:0:
372,309,495980,1,10,2:3:0:0:
288,375,496147,1,2,3:2:0:0:
412,162,496313,1,10,2:3:0:0:
391,188,496397,1,2,3:2:0:0:
370,214,496480,1,2,3:2:0:0:
307,68,496647,101,10,2:3:0:0:
385,3,496813,1,2,3:2:0:0:
398,35,496897,1,2,3:2:0:0:
410,67,496980,1,10,2:3:0:0:
494,1,497147,1,2,3:2:0:0:
370,214,497313,1,10,2:3:0:0:
326,207,497397,1,2,3:2:0:0:
283,200,497480,1,2,3:2:0:0:
131,302,497647,1,10,2:3:0:0:
159,268,497730,1,2,3:2:0:0:
187,234,497813,1,2,3:2:0:0:
189,91,497980,5,14,2:0:0:0:
197,112,498063,1,2,3:2:0:0:
205,133,498147,1,2,3:2:0:0:
5,43,498313,1,10,2:3:0:0:
52,107,498480,1,2,3:2:0:0:
64,93,498563,1,2,3:2:0:0:
75,77,498647,1,10,2:3:0:0:
125,141,498813,1,2,3:2:0:0:
127,219,498980,1,10,2:3:0:0:
114,218,499063,1,2,3:2:0:0:
100,216,499147,1,2,3:2:0:0:
102,296,499313,101,10,2:3:0:0:
23,318,499480,1,2,3:2:0:0:
28,325,499563,1,2,3:2:0:0:
33,332,499647,1,10,2:3:0:0:
235,233,499813,2,0,L|192:269,1,56.2500021457673,2|0,3:2|3:2,2:0:0:0:
235,383,499980,6,2,L|228:346,5,37.5000014305115,10|4|4|4|4|4,2:3|3:0|3:0|3:0|3:0|3:0,2:0:0:0:
258,373,500313,2,2,B|120:350|120:350|136:375,1,168.750006437302,14|0,2:1|2:0,2:1:0:0:
141,372,500640,70,0,L|121:337,1,39.3749987983704,4|0,3:1|2:0,2:0:0:0:
136,375,501321,2,0,L|113:342,1,39.3749987983704,4|0,3:2|2:0,2:0:0:0:
131,378,502010,2,0,L|106:347,1,39.3749987983704,4|0,3:2|2:0,2:0:0:0:
96,333,502698,6,0,P|79:316|58:304,1,47.2500011535645,4|0,3:1|2:0,2:0:0:0:
110,329,503386,2,0,P|100:299|99:279,1,47.2500003749084,4|0,3:2|2:0,2:0:0:0:
128,337,503931,2,0,P|134:314|129:290,1,47.2499985580445,4|0,3:2|2:0,2:0:0:0:
122,283,504367,6,0,P|151:274|181:281,1,54.0000013183594,4|0,3:1|2:0,2:0:0:0:
89,268,504777,2,0,P|93:241|103:216,1,54.0000013183594,4|0,3:2|2:0,2:0:0:0:
64,282,505152,2,0,P|44:263|30:240,1,54.0000013183594,4|0,3:2|2:0,2:0:0:0:
32,221,505437,6,2,P|57:202|74:168,1,59.9999981689454,4|0,3:1|2:0,2:0:0:0:
94,213,505687,2,2,P|123:209|148:193,1,59.9999981689454,0|0,3:2|2:0,2:0:0:0:
123,252,505937,2,2,P|146:282|175:287,1,59.9999981689454,0|0,3:2|2:0,2:0:0:0:
157,308,506152,38,2,P|188:300|220:302,1,63.7500012159348,2|0,3:1|2:0,2:0:0:0:
217,204,506320,2,2,P|188:218|157:220,1,63.7500012159348,2|0,3:2|2:0,2:0:0:0:
101,161,506489,2,2,P|124:138|154:128,1,63.7500012159348,2|0,3:2|2:0,2:0:0:0:
219,128,506657,6,2,P|183:141|146:136,1,69.3749997353554,2|0,3:2|2:0,2:0:0:0:
221,227,506826,2,2,P|251:206|288:205,1,69.3749997353554,2|0,3:2|2:0,2:0:0:0:
275,322,506974,2,2,P|239:322|208:301,1,69.3749997353554,2|0,3:2|2:0,2:0:0:0:
304,311,507122,70,2,P|342:304|376:321,1,75,2|0,3:2|2:0,2:0:0:0:
349,205,507270,2,2,P|315:221|278:219,1,75,2|0,3:2|2:0,2:0:0:0:
231,151,507404,2,2,P|262:133|276:98,1,75,2|0,3:2|2:0,2:0:0:0:
302,103,507543,6,2,P|340:134|384:137,1,89.9999972534181,2|0,3:2|2:0,2:0:0:0:
377,221,507683,2,2,P|337:243|310:292,1,89.9999972534181,2|0,3:2|2:0,2:0:0:0:
379,323,507824,38,2,P|398:366|363:336,1,127.50000243187,0|0,3:1|2:1,2:2:0:0:
512,308,508142,6,0,P|487:290|463:256,7,63.7500012159348,2|0|0|0|0|0|0|0,3:1|3:2|3:2|3:2|3:2|3:2|3:2|3:2,2:0:0:0:
472,192,508694,2,0,P|496:173|520:139,7,56.2500021457673,2|0|0|0|0|0|0|0,3:2|3:2|3:2|3:2|3:2|3:2|3:2|3:2,2:0:0:0:
489,86,509247,2,0,P|480:66|477:21,7,50.6250001931191,2|0|0|0|0|0|0|0,3:2|3:2|3:2|3:2|3:2|3:2|3:2|3:2,2:0:0:0:
374,59,509805,38,2,P|352:93|357:117,1,56.2500021457673,6|0,3:1|2:0,2:1:0:0:
427,144,509944,2,2,P|446:159|445:210,1,56.2500021457673,2|0,3:2|2:0,2:1:0:0:
366,198,510084,2,2,P|347:222|309:227,1,56.2500021457673,2|0,3:2|2:0,2:1:0:0:
292,159,510223,2,2,P|264:139|256:111,1,56.2500021457673,2|0,3:2|2:0,2:1:0:0:
274,271,510363,38,2,P|284:242|316:211,1,51.3750014502526,2|0,3:2|2:0,2:1:0:0:
371,181,510509,2,2,P|387:155|396:125,1,51.3750014502526,2|0,3:2|2:0,2:1:0:0:
306,140,510655,2,2,P|302:112|284:78,1,51.3750014502526,2|0,3:2|2:0,2:1:0:0:
238,175,510802,2,2,P|216:157|178:142,1,51.3750014502526,2|0,3:2|2:0,2:1:0:0:
95,90,510948,102,2,P|115:96|137:96,1,43.1250008225441,2|0,3:2|2:0,2:1:0:0:
155,9,511114,2,2,P|153:30|159:51,1,43.1250008225441,2|0,3:2|2:0,2:1:0:0:
236,44,511281,2,2,P|216:51|200:65,1,43.1250008225441,2|0,3:2|2:0,2:1:0:0:
192,91,511448,2,2,P|210:101|220:121,1,43.1250008225441,2|0,3:2|2:0,2:1:0:0:
165,95,511614,70,2,P|161:116|141:125,1,45,2|0,3:2|2:0,2:0:0:0:
164,62,511837,2,2,P|149:45|127:41,1,45,2|0,3:2|2:0,2:0:0:0:
172,49,512086,2,2,P|191:38|194:16,1,45,2|0,3:2|2:0,2:0:0:0:
193,74,512337,2,2,P|214:76|236:68,1,45,2|0,3:2|2:0,2:0:0:0:
175,90,512624,102,2,L|193:123,1,33.7499989700318,2|0,3:2|2:0,2:0:0:0:
220,302,512987,102,0,P|188:300|158:308,1,63.7500012159348,2|0,3:2|2:0,2:0:0:0:
217,204,513400,2,0,P|189:218|158:221,1,63.7500012159348,2|0,3:2|2:0,2:0:0:0:
154,128,513831,2,0,P|124:138|102:161,1,63.7500003890991,2|0,3:2|2:0,2:0:0:0:
166,287,514389,102,0,P|138:277|123:252,1,60.1250001100922,2|0,3:2|2:0,2:0:0:0:
102,216,515074,2,0,P|92:241|89:268,1,53.9375000534964,2|0,3:2|2:0,2:0:0:0:
129,291,515755,2,0,P|134:315|129:338,1,47.2499985580445,2|0,3:2|2:0,2:0:0:0:
121,337,516429,2,0,L|141:372,1,39.3749987983704,2|0,3:2|2:0,2:0:0:0:
256,384,517126,69,14,3:1:0:0:
256,192,517209,12,0,533126,2:0:0:0:
