osu file format v14

[General]
AudioFilename: audio.mp3
AudioLeadIn: 0
PreviewTime: 435696
Countdown: 0
SampleSet: None
StackLeniency: 0
Mode: 0
LetterboxInBreaks: 0
EpilepsyWarning: 1
WidescreenStoryboard: 1

[Editor]
Bookmarks: 5375,7375,23373,30040,50703,56706,78697,100030,119869,121372,142705,164039,184363,208030,242705,278705,300039,321372,326705,348039,369362,415362,468705,479371,500689,512672,514437,535840
DistanceSpacing: 1.2
BeatDivisor: 4
GridSize: 4
TimelineZoom: 1.900001

[Metadata]
Title:Koyoi wa Hyouitsu na Egoist ~ Ego, Schizoid, Beat.
TitleUnicode:今宵は飄逸なエゴイスト ~ Ego,Schizoid,Beat.
Artist:Demetori
ArtistUnicode:Demetori
Creator:GoldenWolf
Version:The Most Despicable and Disastrous God of Destitution and Misery.
Source:東方憑依華 ~ Antinomy of Common Flowers.
Tags:Shion Joon Yorigami Spirit Possession Bloom Tonight Stars an Easygoing Egoistic Flowers 瑰狂鬱嵂 metal C94 ZUN woof
BeatmapID:1729489
BeatmapSetID:825377

[Difficulty]
HPDrainRate:5
CircleSize:4.5
OverallDifficulty:9
ApproachRate:9.3
SliderMultiplier:1.4
SliderTickRate:1

[Events]
//Background and Video events
0,0,"orz211.jpg",0,0
//Break Periods
//Storyboard Layer 0 (Background)
//Storyboard Layer 1 (Fail)
//Storyboard Layer 2 (Pass)
//Storyboard Layer 3 (Foreground)
//Storyboard Sound Samples

[TimingPoints]
2031,333.333333333333,4,2,1,40,1,0
4697,-250,4,2,1,40,0,0
7364,-250,4,2,1,55,0,0
7530,-250,4,2,1,40,0,0
10280,-250,4,2,1,5,0,0
10364,-200,4,2,1,40,0,0
10614,-200,4,2,1,5,0,0
10697,-166.666666666667,4,2,1,40,0,0
10947,-166.666666666667,4,2,1,5,0,0
11030,-142.857142857143,4,2,1,40,0,0
11280,-142.857142857143,4,2,1,5,0,0
11364,-250,4,2,1,40,0,0
13364,-250,4,2,1,5,0,0
13697,-250,4,2,1,40,0,0
14030,-166.666666666667,4,2,1,40,0,0
14280,-166.666666666667,4,2,1,5,0,0
14364,-125,4,2,1,40,0,0
14614,-125,4,2,1,5,0,0
14697,-250,4,2,1,40,0,0
16697,-181.818181818182,4,2,1,40,0,0
18030,-181.818181818182,4,2,1,40,0,0
19780,-181.818181818182,4,2,1,5,0,0
20030,-181.818181818182,4,2,1,40,0,0
20697,-250,4,2,1,40,0,0
20947,-250,4,2,1,5,0,0
21031,-200,4,2,1,40,0,0
21281,-200,4,2,1,5,0,0
21364,-166.666666666667,4,2,1,40,0,0
21614,-166.666666666667,4,2,1,5,0,0
21697,-142.857142857143,4,2,1,40,0,0
21947,-142.857142857143,4,2,1,5,0,0
22030,-125,4,2,1,40,0,0
23030,-250,4,2,1,40,0,0
25780,-250,4,2,1,5,0,0
26030,-250,4,2,1,40,0,0
26197,-250,4,2,1,5,0,0
26697,-333.333333333333,4,2,1,40,0,0
26864,-333.333333333333,4,2,1,5,0,0
27364,-250,4,2,1,40,0,0
27447,-250,4,2,1,5,0,0
30030,-100,4,3,5,70,0,0
32030,-100,4,3,2,70,0,0
32114,-100,4,3,2,5,0,0
32364,-100,4,3,4,70,0,0
32447,-100,4,3,4,5,0,0
32697,-100,4,3,5,70,0,0
34697,-100,4,3,4,70,0,0
34780,-100,4,3,4,5,0,0
35030,-100,4,3,1,70,0,0
35114,-100,4,3,1,5,0,0
35364,-100,4,3,5,70,0,0
37364,-100,4,3,2,70,0,0
37447,-100,4,3,2,5,0,0
37697,-100,4,3,4,70,0,0
37780,-100,4,3,4,5,0,0
38030,-100,4,3,5,70,0,0
40030,-100,4,3,4,70,0,0
40364,-100,4,3,1,70,0,0
40697,-333.333333333333,4,3,1,85,0,0
40780,-333.333333333333,4,3,1,40,0,0
41197,-333.333333333333,4,3,1,85,0,0
41280,-333.333333333333,4,3,1,40,0,0
41697,-333.333333333333,4,3,1,85,0,0
41780,-333.333333333333,4,3,1,40,0,0
42197,-333.333333333333,4,3,1,85,0,0
42280,-333.333333333333,4,3,1,40,0,0
42697,-166.666666666667,4,3,1,85,0,0
42780,-166.666666666667,4,3,1,40,0,0
43030,-166.666666666667,4,3,1,85,0,0
43114,-166.666666666667,4,3,1,40,0,0
43364,-333.333333333333,4,3,1,85,0,0
43447,-333.333333333333,4,3,1,40,0,0
43864,-333.333333333333,4,3,1,85,0,0
43947,-333.333333333333,4,3,1,40,0,0
44364,-333.333333333333,4,3,1,85,0,0
44447,-333.333333333333,4,3,1,40,0,0
44864,-333.333333333333,4,3,1,85,0,0
44947,-333.333333333333,4,3,1,40,0,0
45364,-166.666666666667,4,3,1,85,0,0
45447,-166.666666666667,4,3,1,40,0,0
45697,-166.666666666667,4,3,1,85,0,0
45781,-166.666666666667,4,3,1,40,0,0
46030,-250,4,3,1,85,0,0
46197,-250,4,3,1,40,0,0
46530,-250,4,3,1,85,0,0
46697,-250,4,3,1,40,0,0
47030,-250,4,3,1,85,0,0
47197,-250,4,3,1,40,0,0
47530,-250,4,3,1,85,0,0
47697,-250,4,3,1,40,0,0
48030,-250,4,3,1,85,0,0
48697,-250,4,3,1,55,0,0
48780,-250,4,3,1,25,0,0
48864,-250,4,3,1,40,0,0
48947,-250,4,3,1,25,0,0
49030,-250,4,3,1,70,0,0
49114,-250,4,3,1,40,0,0
49197,-250,4,3,1,55,0,0
49280,-250,4,3,1,40,0,0
49364,-250,4,3,1,85,0,0
49447,-250,4,3,1,55,0,0
49530,-250,4,3,1,70,0,0
49614,-250,4,3,1,55,0,0
49697,-250,4,3,1,85,0,0
49780,-250,4,3,1,55,0,0
49863,-250,4,3,1,70,0,0
49947,-250,4,3,1,55,0,0
50030,-100,4,3,1,85,0,0
50114,-100,4,3,1,70,0,0
50197,-100,4,3,1,85,0,0
50280,-100,4,3,1,70,0,0
50364,-100,4,3,1,85,0,0
50447,-100,4,3,1,70,0,0
50530,-100,4,3,1,85,0,0
50614,-100,4,3,1,70,0,0
50697,-100,4,3,4,70,0,0
50780,-100,4,3,4,25,0,0
50864,-100,4,3,1,40,0,0
50947,-100,4,3,1,55,0,0
51030,-100,4,3,1,85,0,0
51114,-100,4,3,1,70,0,0
51197,-100,4,3,12,70,0,0
51253,-100,4,3,11,70,0,0
51308,-100,4,3,10,70,0,0
51364,-100,4,3,4,70,0,0
51697,-133.333333333333,4,3,4,70,0,0
52697,-133.333333333333,4,3,12,70,0,0
53142,-133.333333333333,4,3,11,70,0,0
53586,-133.333333333333,4,3,10,70,0,0
54030,-100,4,3,2,70,0,0
54364,-100,4,3,12,70,0,0
54475,-100,4,3,11,70,0,0
54614,-100,4,3,10,70,0,0
54697,-100,4,3,1,85,0,0
54864,-100,4,3,11,70,0,0
54975,-100,4,3,10,70,0,0
55197,-100,4,3,1,85,0,0
55364,-100,4,3,4,70,0,0
55530,-100,4,3,1,85,0,0
56114,-100,4,3,1,70,0,0
56197,-100,4,3,12,85,0,0
56280,-100,4,3,12,70,0,0
56364,-100,4,3,11,85,0,0
56447,-100,4,3,11,70,0,0
56530,-100,4,3,10,85,0,0
56614,-100,4,3,10,70,0,0
56697,-100,4,3,1,85,0,0
56780,-100,4,3,1,70,0,0
59364,-100,4,3,5,70,0,0
59447,-100,4,3,1,70,0,0
61697,-100,4,3,1,85,0,0
61780,-100,4,3,1,55,0,0
61864,-100,4,3,1,85,0,0
61947,-100,4,3,1,70,0,0
62030,-100,4,3,1,85,0,0
62114,-100,4,3,1,70,0,0
64697,-100,4,3,2,70,0,0
64780,-100,4,3,1,70,0,0
66030,-74.0740740740741,4,3,3,70,0,0
66280,-74.0740740740741,4,3,4,70,0,0
66530,-100,4,3,5,70,0,0
66780,-100,4,3,5,40,0,0
66864,-100,4,3,5,55,0,0
66947,-100,4,3,5,70,0,0
67030,-100,4,3,5,85,0,0
67114,-100,4,3,12,85,0,0
67197,-100,4,3,11,85,0,0
67280,-100,4,3,10,85,0,0
67364,-100,4,3,1,85,0,0
67447,-100,4,3,1,70,0,0
69697,-100,4,3,5,70,0,0
70030,-100,4,3,3,70,0,0
70114,-100,4,3,1,70,0,0
72364,-100,4,3,1,85,0,0
72447,-100,4,3,1,55,0,0
72531,-100,4,3,1,85,0,0
72614,-100,4,3,1,70,0,0
72697,-100,4,3,1,85,0,0
72781,-100,4,3,1,70,0,0
75030,-100,4,3,4,70,0,0
75364,-100,4,3,1,70,0,0
75447,-100,4,3,1,70,0,0
76697,-100,4,3,1,85,0,0
76753,-100,4,3,12,85,0,0
76808,-100,4,3,11,85,0,0
77030,-100,4,3,12,85,0,0
77086,-100,4,3,11,85,0,0
77142,-100,4,3,10,85,0,0
77364,-100,4,3,1,85,0,0
77447,-100,4,3,1,40,0,0
77530,-100,4,3,1,70,0,0
77614,-100,4,3,1,55,0,0
77697,-100,4,3,1,70,0,0
77780,-100,4,3,1,55,0,0
77864,-100,4,3,1,70,0,0
77947,-100,4,3,1,85,0,0
78697,333.333333333333,4,3,1,85,1,0
78697,-62.5,4,3,1,85,0,0
78780,-80,4,3,1,70,0,0
81030,-80,4,3,4,70,0,0
81363,-80,4,3,1,70,0,0
83363,-80,4,3,1,85,0,0
83447,-80,4,3,1,70,0,0
83530,-80,4,3,1,85,0,0
83613,-80,4,3,1,70,0,0
83697,-80,4,3,12,85,0,0
83780,-80,4,3,12,70,0,0
83863,-80,4,3,11,85,0,0
83947,-80,4,3,11,70,0,0
84030,-80,4,3,2,85,0,0
84113,-80,4,3,1,70,0,0
86030,-80,4,3,12,85,0,0
86113,-80,4,3,12,70,0,0
86363,-80,4,3,11,85,0,0
86446,-80,4,3,11,70,0,0
86530,-80,4,3,4,70,0,0
88863,-153.846153846154,4,3,3,70,0,0
89363,-80,4,3,1,85,0,0
89446,-80,4,3,1,70,0,0
92030,-80,4,3,2,70,0,0
92113,-80,4,3,1,70,0,0
94363,-80,4,3,4,70,0,0
94696,-80,4,3,3,70,0,0
94780,-80,4,3,1,70,0,0
96030,-80,4,3,2,70,0,0
96113,-80,4,3,1,70,0,0
97363,-80,4,3,2,70,0,0
98363,-80,4,3,1,70,0,0
99030,-80,4,3,4,70,0,0
99530,-80,4,3,12,70,0,0
99696,-80,4,3,11,70,0,0
99863,-80,4,3,10,70,0,0
100030,-100,4,3,3,70,0,0
100113,-100,4,3,1,70,0,0
102030,-100,4,3,2,70,0,0
102113,-100,4,3,1,70,0,0
102696,-100,4,3,2,70,0,0
102780,-100,4,3,1,70,0,0
104030,-100,4,3,2,70,0,0
104113,-100,4,3,1,70,0,0
105363,-100,4,3,3,70,0,0
105446,-100,4,3,1,70,0,0
107363,-100,4,3,2,70,0,0
107446,-100,4,3,1,70,0,0
108030,-83.3333333333333,4,3,4,70,0,0
108113,-100,4,3,1,70,0,0
109363,-100,4,3,4,70,0,0
110030,-100,4,3,4,85,0,0
110113,-100,4,3,4,70,0,0
110196,-100,4,3,4,85,0,0
110280,-100,4,3,4,70,0,0
110363,-100,4,3,12,85,0,0
110419,-100,4,3,11,85,0,0
110474,-100,4,3,10,85,0,0
110696,-100,4,3,3,70,0,0
110780,-100,4,3,1,70,0,0
112696,-100,4,3,2,70,0,0
112779,-100,4,3,1,70,0,0
113362,-100,4,3,2,70,0,0
113446,-100,4,3,1,70,0,0
114696,-100,4,3,2,70,0,0
114779,-100,4,3,1,70,0,0
116029,-100,4,3,3,70,0,0
116112,-100,4,3,1,70,0,0
118029,-100,4,3,2,70,0,0
118112,-100,4,3,1,70,0,0
118696,-83.3333333333333,4,3,4,70,0,0
119363,-100,4,3,12,85,0,0
119419,-100,4,3,11,85,0,0
119474,-100,4,3,10,85,0,0
119696,-66.6666666666667,4,3,1,85,0,0
119863,-66.6666666666667,4,3,5,85,0,0
119884,-66.6666666666667,4,3,5,5,0,0
120196,-66.6666666666667,4,3,5,85,0,0
120217,-66.6666666666667,4,3,5,5,0,0
120530,-66.6666666666667,4,3,5,85,0,0
120551,-66.6666666666667,4,3,5,5,0,0
120696,-66.6666666666667,4,3,5,85,0,0
120717,-66.6666666666667,4,3,5,5,0,0
120863,-66.6666666666667,4,3,5,85,0,0
120884,-66.6666666666667,4,3,5,5,0,0
121030,-66.6666666666667,4,3,5,85,0,0
121051,-66.6666666666667,4,3,5,5,0,0
121113,-66.6666666666667,4,3,5,85,0,0
121134,-66.6666666666667,4,3,5,5,0,0
121196,-66.6666666666667,4,3,5,85,0,0
121217,-66.6666666666667,4,3,5,5,0,0
121280,-66.6666666666667,4,3,5,85,0,0
121301,-66.6666666666667,4,3,5,5,0,0
121363,-100,4,3,4,85,0,0
121446,-100,4,3,1,70,0,0
121780,-100,4,3,2,70,0,0
122363,-100,4,3,1,70,0,0
122446,-100,4,3,2,70,0,0
123030,-100,4,3,1,70,0,0
123113,-100,4,3,2,70,0,0
123696,-100,4,3,1,70,0,0
123863,-100,4,3,2,85,0,0
123946,-100,4,3,2,55,0,0
124030,-100,4,3,2,70,0,0
124363,-100,4,3,1,70,0,0
124446,-100,4,3,2,70,0,0
125530,-100,4,3,2,40,0,0
125696,-100,4,3,1,70,0,0
126030,-80,4,3,1,70,0,0
126113,-80,4,3,1,55,0,0
126196,-80,4,3,1,75,0,0
126280,-80,4,3,1,60,0,0
126363,-80,4,3,1,80,0,0
126446,-80,4,3,1,65,0,0
126530,-80,4,3,1,85,0,0
126613,-80,4,3,1,70,0,0
126696,-100,4,3,3,70,0,0
126780,-100,4,3,2,70,0,0
129696,-100,4,3,4,70,0,0
130696,-100,4,3,1,85,0,0
130946,-100,4,3,1,70,0,0
131113,-100,4,3,1,85,0,0
131196,-100,4,3,1,70,0,0
131363,-100,4,3,1,85,0,0
131446,-100,4,3,1,70,0,0
131530,-100,4,3,12,85,0,0
131613,-100,4,3,12,70,0,0
131696,-100,4,3,11,85,0,0
131780,-100,4,3,11,70,0,0
131863,-100,4,3,10,85,0,0
131946,-100,4,3,10,70,0,0
132030,-80,4,3,1,85,0,0
132113,-80,4,3,1,70,0,0
134696,-80,4,3,2,70,0,0
134780,-80,4,3,1,70,0,0
136363,-80,4,3,4,70,0,0
136446,-80,4,3,1,70,0,0
137030,-80,4,3,4,70,0,0
137363,-80,4,3,2,85,0,0
137446,-80,4,3,1,70,0,0
138696,-80,4,3,2,70,0,0
138780,-80,4,3,1,70,0,0
139696,-80,4,3,3,70,0,0
140030,-80,4,3,1,70,0,0
140363,-80,4,3,3,70,0,0
141363,-80,4,3,1,70,0,0
142030,-80,4,3,1,85,0,0
142196,-200,4,3,1,70,0,0
142280,-200,4,3,4,5,0,0
142696,-285.714285714286,4,3,4,70,0,0
142946,-285.714285714286,4,3,4,5,0,0
143363,-285.714285714286,4,3,4,70,0,0
143613,-285.714285714286,4,3,4,5,0,0
144030,-285.714285714286,4,3,4,70,0,0
144196,-285.714285714286,4,3,1,70,0,0
144363,-285.714285714286,4,3,4,70,0,0
144613,-285.714285714286,4,3,4,5,0,0
145030,-285.714285714286,4,3,4,70,0,0
145280,-285.714285714286,4,3,4,5,0,0
145696,-285.714285714286,4,3,4,70,0,0
145946,-285.714285714286,4,3,4,5,0,0
146363,-285.714285714286,4,3,4,70,0,0
146530,-285.714285714286,4,3,1,70,0,0
146696,-285.714285714286,4,3,4,70,0,0
146946,-285.714285714286,4,3,4,5,0,0
147363,-285.714285714286,4,3,4,70,0,0
147613,-285.714285714286,4,3,4,5,0,0
148030,-285.714285714286,4,3,3,85,0,0
148196,-285.714285714286,4,3,1,70,0,0
148280,-285.714285714286,4,3,4,5,0,0
148696,-285.714285714286,4,3,4,70,0,0
148946,-285.714285714286,4,3,4,5,0,0
149363,-285.714285714286,4,3,4,70,0,0
149530,-285.714285714286,4,3,1,70,0,0
149696,-285.714285714286,4,3,4,70,0,0
149946,-285.714285714286,4,3,4,5,0,0
150363,-285.714285714286,4,3,4,70,0,0
150613,-285.714285714286,4,3,2,5,0,0
151030,-285.714285714286,4,3,4,70,0,0
151280,-285.714285714286,4,3,4,5,0,0
151696,-285.714285714286,4,3,3,70,0,0
151863,-285.714285714286,4,3,1,70,0,0
152030,-285.714285714286,4,3,2,70,0,0
152196,-285.714285714286,4,3,4,70,0,0
152696,-285.714285714286,4,3,3,85,0,0
152863,-285.714285714286,4,3,12,85,0,0
153030,-285.714285714286,4,3,11,85,0,0
153196,-285.714285714286,4,3,10,85,0,0
153363,-285.714285714286,4,3,1,70,0,0
153530,-285.714285714286,4,3,4,70,0,0
154697,-285.714285714286,4,3,2,70,0,0
154863,-285.714285714286,4,3,1,70,0,0
155030,-142.857142857143,4,3,2,70,0,0
155197,-142.857142857143,4,3,1,70,0,0
155363,-285.714285714286,4,3,4,70,0,0
155947,-285.714285714286,4,3,4,5,0,0
156363,-142.857142857143,4,3,4,70,0,0
156696,-285.714285714286,4,3,4,70,0,0
157030,-285.714285714286,4,3,3,70,0,0
157197,-285.714285714286,4,3,1,70,0,0
157363,-285.714285714286,4,3,2,70,0,0
157530,-285.714285714286,4,3,4,70,0,0
158697,-285.714285714286,4,3,1,70,0,0
158863,-285.714285714286,4,3,4,70,0,0
160030,-285.714285714286,4,3,3,70,0,0
160197,-285.714285714286,4,3,1,70,0,0
160363,-285.714285714286,4,3,2,70,0,0
160530,-285.714285714286,4,3,4,70,0,0
161030,-285.714285714286,4,3,2,70,0,0
161363,-100,4,3,4,85,0,0
161530,-100,4,3,1,25,0,0
161696,-100,4,3,1,40,0,0
161863,-100,4,3,1,55,0,0
162030,-100,4,3,1,70,0,0
162196,-100,4,3,1,55,0,0
162363,-100,4,3,1,85,0,0
162530,-100,4,3,1,70,0,0
162696,-100,4,3,3,85,0,0
162946,-100,4,3,3,70,0,0
163030,-100,4,3,3,85,0,0
163196,-100,4,3,3,40,0,0
163280,-100,4,3,3,70,0,0
163363,-100,4,3,3,85,0,0
163530,-100,4,3,12,85,0,0
163696,-100,4,3,11,85,0,0
163863,-100,4,3,10,85,0,0
164030,-100,4,3,1,85,0,0
164113,-100,4,3,1,70,0,0
164613,-100,4,3,11,70,0,0
165030,-100,4,3,1,70,0,0
165280,-100,4,3,10,70,0,0
165696,-100,4,3,1,70,0,0
165946,-100,4,3,11,70,0,0
166113,-100,4,3,10,70,0,0
166363,-100,4,3,1,70,0,0
166530,-100,4,3,10,70,0,0
166696,-100,4,3,2,70,0,0
167280,-100,4,3,10,70,0,0
167696,-100,4,3,1,70,0,0
167946,-100,4,3,10,70,0,0
168363,-100,4,3,1,70,0,0
168530,-100,4,3,12,70,0,0
168613,-100,4,3,11,70,0,0
168780,-100,4,3,10,70,0,0
169030,-100,4,3,3,70,0,0
169363,-100,4,3,1,85,0,0
169446,-100,4,3,1,70,0,0
169946,-100,4,3,11,70,0,0
170113,-100,4,3,1,5,0,0
170196,-100,4,3,1,70,0,0
170280,-100,4,3,1,5,0,0
170363,-100,4,3,1,70,0,0
170613,-100,4,3,10,70,0,0
171030,-100,4,3,1,70,0,0
171280,-100,4,3,11,70,0,0
171446,-100,4,3,10,70,0,0
171696,-100,4,3,1,70,0,0
171863,-100,4,3,10,70,0,0
172030,-100,4,3,2,70,0,0
172613,-100,4,3,11,70,0,0
173030,-100,4,3,1,70,0,0
173280,-100,4,3,10,70,0,0
173696,-100,4,3,4,70,0,0
173863,-100,4,3,12,70,0,0
174113,-100,4,3,11,70,0,0
174363,-100,4,3,3,70,0,0
174696,-100,4,3,1,85,0,0
174780,-100,4,3,1,70,0,0
177030,-100,4,3,4,70,0,0
177363,-100,4,3,2,70,0,0
177446,-100,4,3,1,70,0,0
178696,-100,4,3,4,70,0,0
179363,-100,4,3,1,85,0,0
179446,-100,4,3,1,40,0,0
179530,-100,4,3,1,55,0,0
179613,-100,4,3,1,70,0,0
179696,-100,4,3,1,85,0,0
179780,-100,4,3,12,85,0,0
180030,-80,4,3,3,85,0,0
180113,-80,4,3,1,70,0,0
181363,-80,4,3,2,70,0,0
181446,-80,4,3,1,70,0,0
182363,-80,4,3,4,70,0,0
182696,-133.333333333333,4,3,3,70,0,0
182863,-133.333333333333,4,3,1,40,0,0
183030,-86.9565217391304,4,3,1,55,0,0
183196,-86.9565217391304,4,3,1,70,0,0
183363,-100,4,3,1,85,0,0
183530,-100,4,3,1,70,0,0
183696,-100,4,3,1,85,0,0
183863,-100,4,3,1,70,0,0
184030,-100,4,3,12,85,0,0
184085,-100,4,3,11,85,0,0
184141,-100,4,3,10,85,0,0
184363,-100,4,3,1,85,0,0
185363,-62.5,4,3,1,100,0,1
185530,-76.9230769230769,4,3,6,70,0,1
186696,-76.9230769230769,4,3,2,70,0,1
186780,-76.9230769230769,4,3,6,70,0,1
188030,-76.9230769230769,4,3,4,70,0,1
188113,-76.9230769230769,4,3,6,70,0,1
189363,-76.9230769230769,4,3,2,70,0,1
189446,-76.9230769230769,4,3,6,70,0,1
190530,-76.9230769230769,4,3,4,70,0,1
190696,-76.9230769230769,4,3,6,70,0,1
193196,-76.9230769230769,4,3,2,70,0,1
193363,-76.9230769230769,4,3,6,70,0,1
194696,-76.9230769230769,4,3,4,70,0,1
194780,-76.9230769230769,4,3,6,70,0,1
195363,-76.9230769230769,4,3,2,70,0,1
195530,-76.9230769230769,4,3,1,40,0,1
195613,-76.9230769230769,4,3,1,55,0,1
195696,-76.9230769230769,4,3,1,85,0,1
195780,-76.9230769230769,4,3,1,70,0,1
195863,-76.9230769230769,4,3,1,85,0,1
195946,-76.9230769230769,4,3,1,70,0,1
196030,-76.9230769230769,4,3,1,85,0,1
196113,-76.9230769230769,4,3,6,70,0,1
196696,-76.9230769230769,4,3,2,70,0,1
196863,-76.9230769230769,4,3,6,70,0,1
198696,-76.9230769230769,4,3,2,70,0,1
198780,-76.9230769230769,4,3,6,70,0,1
200196,-76.9230769230769,4,3,4,70,0,1
200780,-76.9230769230769,4,3,1,40,0,1
200863,-76.9230769230769,4,3,1,55,0,1
200946,-76.9230769230769,4,3,1,70,0,1
201029,-76.9230769230769,4,3,1,85,0,1
201113,-76.9230769230769,4,3,1,70,0,1
201196,-76.9230769230769,4,3,1,85,0,1
201279,-76.9230769230769,4,3,1,70,0,1
201363,-76.9230769230769,4,3,3,85,0,1
201446,-76.9230769230769,4,3,6,70,0,1
202030,-76.9230769230769,4,3,2,70,0,1
202113,-76.9230769230769,4,3,6,70,0,1
203530,-76.9230769230769,4,3,4,70,0,1
204030,-76.9230769230769,4,3,1,85,0,1
204252,-76.9230769230769,4,3,11,85,0,1
204696,-76.9230769230769,4,3,2,85,0,1
204919,-76.9230769230769,4,3,12,85,0,1
205363,-76.9230769230769,4,3,3,85,0,1
205696,-76.9230769230769,4,3,12,85,0,1
205808,-76.9230769230769,4,3,10,85,0,1
205946,-76.9230769230769,4,3,10,70,0,1
206030,-76.9230769230769,4,3,1,85,0,1
206196,-76.9230769230769,4,3,11,85,0,1
206363,-76.9230769230769,4,3,10,85,0,1
206696,-76.9230769230769,4,3,1,85,0,1
206752,-76.9230769230769,4,3,1,55,0,1
206808,-76.9230769230769,4,3,1,85,0,1
206919,-76.9230769230769,4,3,1,70,0,1
207030,-76.9230769230769,4,3,1,85,0,1
207141,-76.9230769230769,4,3,12,85,0,1
207252,-76.9230769230769,4,3,12,70,0,1
207363,-76.9230769230769,4,3,11,85,0,1
207585,-76.9230769230769,4,3,10,85,0,1
208030,341.880341880342,4,3,1,70,1,0
208030,-500,4,3,1,70,0,0
208115,-500,4,2,2,5,0,0
209397,333.333333333333,4,2,1,25,1,0
209397,-500,4,2,1,25,0,0
209480,-500,4,2,1,5,0,0
210063,-500,4,2,1,25,0,0
210147,-500,4,2,1,5,0,0
210730,-500,4,2,1,25,0,0
210813,-500,4,2,1,5,0,0
211397,-500,4,2,1,25,0,0
211480,-500,4,2,1,5,0,0
212063,-500,4,2,1,25,0,0
212147,-500,4,2,1,5,0,0
212729,317.460317460317,4,2,1,25,1,0
212729,-500,4,2,1,25,0,0
212808,-500,4,2,1,5,0,0
213363,333.333333333333,4,2,1,35,1,0
213363,-500,4,2,2,35,0,0
213446,-500,4,2,1,5,0,0
214696,-500,4,2,1,20,0,0
214780,-500,4,2,1,5,0,0
215363,-500,4,2,1,15,0,0
215447,-500,4,2,1,5,0,0
216029,-500,4,2,1,35,0,0
216113,-500,4,2,1,5,0,0
216696,-500,4,2,1,25,0,0
216780,-500,4,2,1,5,0,0
217363,-500,4,2,1,25,0,0
217447,-500,4,2,1,5,0,0
218029,-500,4,2,1,25,0,0
218113,-500,4,2,1,5,0,0
218696,-500,4,2,3,45,0,0
218780,-500,4,2,1,5,0,0
219363,-500,4,2,1,15,0,0
219447,-500,4,2,1,5,0,0
220029,-500,4,2,1,15,0,0
220113,-500,4,2,1,5,0,0
220696,-500,4,2,1,15,0,0
220780,-500,4,2,1,5,0,0
221363,-500,4,2,1,25,0,0
221447,-500,4,2,1,5,0,0
222029,-500,4,2,1,15,0,0
222113,-500,4,2,1,5,0,0
222696,-500,4,2,1,25,0,0
222780,-500,4,2,1,5,0,0
223363,-500,4,2,1,15,0,0
223447,-500,4,2,1,5,0,0
224029,-500,4,2,4,25,0,0
224113,-500,4,2,1,5,0,0
225363,-500,4,2,1,25,0,0
225447,-500,4,2,1,5,0,0
226029,-500,4,2,1,25,0,0
226113,-500,4,2,1,5,0,0
226696,-500,4,2,2,35,0,0
226780,-500,4,2,5,5,0,0
228029,-500,4,2,3,35,0,0
228113,-500,4,2,1,5,0,0
229362,-333.333333333333,4,2,3,35,0,0
229446,-333.333333333333,4,2,1,5,0,0
230029,-333.333333333333,4,2,1,25,0,0
230113,-333.333333333333,4,2,1,5,0,0
230696,-333.333333333333,4,2,1,25,0,0
230780,-333.333333333333,4,2,1,5,0,0
231362,-333.333333333333,4,2,1,25,0,0
231446,-333.333333333333,4,2,1,5,0,0
232029,-333.333333333333,4,2,1,25,0,0
232113,-333.333333333333,4,2,1,5,0,0
232696,-333.333333333333,4,2,1,15,0,0
232780,-333.333333333333,4,2,1,5,0,0
233362,-333.333333333333,4,2,1,15,0,0
233446,-333.333333333333,4,2,1,5,0,0
234029,-333.333333333333,4,2,1,15,0,0
234113,-333.333333333333,4,2,1,5,0,0
234696,-250,4,2,3,35,0,0
234780,-250,4,2,1,5,0,0
235362,-250,4,2,1,15,0,0
235446,-250,4,2,1,5,0,0
236029,-250,4,2,1,25,0,0
236113,-250,4,2,1,5,0,0
236696,-250,4,2,1,15,0,0
236780,-250,4,2,1,5,0,0
237362,-250,4,2,1,25,0,0
237446,-250,4,2,1,5,0,0
238029,-250,4,2,1,15,0,0
238113,-250,4,2,1,5,0,0
238696,-250,4,2,1,15,0,0
238780,-250,4,2,1,5,0,0
239362,-250,4,2,1,25,0,0
239446,-250,4,2,1,5,0,0
240029,-200,4,2,1,40,0,0
240113,-200,4,2,1,5,0,0
240362,-200,4,2,1,20,0,0
240446,-200,4,2,1,5,0,0
240696,-200,4,2,1,20,0,0
241029,-200,4,2,1,10,0,0
241362,-200,4,2,1,20,0,0
241446,-200,4,2,1,5,0,0
241696,-200,4,2,1,10,0,0
241780,-200,4,2,1,5,0,0
242029,-166.666666666667,4,2,1,30,0,0
242113,-166.666666666667,4,2,1,5,0,0
242362,-142.857142857143,4,2,1,40,0,0
242446,-142.857142857143,4,2,1,5,0,0
242696,-100,4,3,10,25,0,0
242862,-100,4,3,10,10,0,0
243029,-100,4,3,10,40,0,0
243196,-100,4,3,10,25,0,0
243362,-100,4,3,10,55,0,0
243529,-100,4,3,10,40,0,0
243696,-100,4,3,10,70,0,0
243862,-100,4,3,10,55,0,0
244029,-100,4,3,10,85,0,0
244196,-100,4,3,10,70,0,0
244362,-100,4,3,10,85,0,0
244529,-100,4,3,10,70,0,0
244696,-100,4,3,10,85,0,0
244863,-100,4,3,10,70,0,0
245029,-100,4,3,10,85,0,0
245362,-200,4,3,1,85,0,0
245446,-200,4,3,1,55,0,0
246696,-50,4,3,1,100,0,1
246779,-83.3333333333333,4,3,1,70,0,1
248362,-83.3333333333333,4,3,4,70,0,1
248446,-83.3333333333333,4,3,1,70,0,1
249029,-83.3333333333333,4,3,4,70,0,1
249362,-83.3333333333333,4,3,1,85,0,1
249446,-83.3333333333333,4,3,1,70,0,1
251029,-83.3333333333333,4,3,4,70,0,1
251112,-83.3333333333333,4,3,1,70,0,1
251696,-83.3333333333333,4,3,1,85,0,1
251779,-83.3333333333333,4,3,12,85,0,1
251862,-83.3333333333333,4,3,12,70,0,1
252029,-66.6666666666667,4,3,3,70,0,1
252112,-66.6666666666667,4,3,1,70,0,1
252529,-83.3333333333333,4,3,1,70,0,1
253696,-83.3333333333333,4,3,4,70,0,1
253862,-57.1428571428571,4,3,1,70,0,1
254362,-57.1428571428571,4,3,3,70,0,1
254696,-57.1428571428571,4,3,1,85,0,1
254779,-83.3333333333333,4,3,1,70,0,1
256362,-83.3333333333333,4,3,4,70,0,1
256446,-83.3333333333333,4,3,1,70,0,1
257029,-50,4,3,1,85,0,1
257112,-83.3333333333333,4,3,1,70,0,1
257362,-83.3333333333333,4,3,3,85,0,1
257446,-66.6666666666667,4,3,1,70,0,1
259029,-83.3333333333333,4,3,4,70,0,1
259112,-83.3333333333333,4,3,1,70,0,1
259696,-57.1428571428571,4,3,4,70,0,1
260029,-83.3333333333333,4,3,2,85,0,1
260112,-83.3333333333333,4,3,1,70,0,1
261696,-83.3333333333333,4,3,4,70,0,1
261862,-83.3333333333333,4,3,1,85,0,1
262029,-83.3333333333333,4,3,1,70,0,1
262362,-66.6666666666667,4,3,3,70,0,1
262446,-83.3333333333333,4,3,12,70,0,1
262696,-66.6666666666667,4,3,1,85,0,1
262779,-83.3333333333333,4,3,1,70,0,1
263696,-62.5,4,3,1,70,0,1
264362,-50,4,3,1,70,0,1
265029,-66.6666666666667,4,3,1,70,0,1
266362,-66.6666666666667,4,3,3,70,0,1
266696,-66.6666666666667,4,3,1,85,0,1
266751,-66.6666666666667,4,3,1,55,0,1
266807,-66.6666666666667,4,3,1,85,0,1
266918,-66.6666666666667,4,3,1,70,0,1
267029,-66.6666666666667,4,3,4,70,0,1
267140,-66.6666666666667,4,3,12,85,0,1
267251,-66.6666666666667,4,3,1,70,0,1
267362,-66.6666666666667,4,3,12,85,0,1
267474,-66.6666666666667,4,3,11,85,0,1
267696,-66.6666666666667,4,3,10,85,0,1
268029,-100,4,3,3,85,0,0
268612,-100,4,3,1,70,0,0
268696,-100,4,3,1,85,0,0
268862,-100,4,3,1,70,0,0
268946,-100,4,3,1,25,0,0
269112,-100,4,3,1,55,0,0
269196,-100,4,3,1,85,0,0
269279,-100,4,3,1,25,0,0
269362,-100,4,3,1,85,0,0
269446,-100,4,3,1,40,0,0
269612,-100,4,3,1,70,0,0
269696,-100,4,3,1,85,0,0
269779,-100,4,3,1,25,0,0
269862,-100,4,3,1,85,0,0
269946,-100,4,3,1,25,0,0
270029,-100,4,3,1,40,0,0
270112,-100,4,3,1,70,0,0
270196,-100,4,3,1,85,0,0
270279,-100,4,3,1,40,0,0
270362,-100,4,3,12,85,0,0
270446,-100,4,3,12,70,0,0
270529,-100,4,3,10,85,0,0
270612,-100,4,3,10,70,0,0
270696,-66.6666666666667,4,3,1,70,0,0
271029,-100,4,3,1,85,0,0
271362,-100,4,3,1,85,0,0
271417,-100,4,3,1,55,0,0
271473,-100,4,3,1,70,0,0
271584,-100,4,3,1,85,0,0
271696,-100,4,3,1,70,0,0
271807,-100,4,3,12,85,0,0
271918,-100,4,3,12,70,0,0
272029,-100,4,3,11,85,0,0
272140,-100,4,3,11,70,0,0
272251,-100,4,3,10,85,0,0
272362,-100,4,3,10,70,0,0
272474,-100,4,3,1,70,0,0
272918,-50,4,3,3,70,0,0
273140,-50,4,3,1,70,0,0
273362,-100,4,3,4,70,0,0
273446,-100,4,3,4,5,0,0
273696,-100,4,3,1,85,0,0
273779,-100,4,3,12,85,0,0
273862,-100,4,3,1,85,0,0
273946,-100,4,3,12,85,0,0
274196,-100,4,3,1,85,0,0
274279,-100,4,3,11,85,0,0
274529,-100,4,3,1,85,0,0
274612,-100,4,3,11,85,0,0
274696,-100,4,3,1,85,0,0
274779,-100,4,3,11,85,0,0
275029,-100,4,3,1,85,0,0
275112,-100,4,3,10,85,0,0
275362,-100,4,3,1,85,0,0
275446,-100,4,3,1,70,0,0
275529,-100,4,3,1,85,0,0
275612,-100,4,3,1,55,0,0
275696,-100,4,3,12,85,0,0
275751,-100,4,3,11,85,0,0
275807,-100,4,3,10,85,0,0
276029,-100,4,3,4,85,0,0
276362,-100,4,3,4,55,0,0
276529,-100,4,3,4,40,0,0
276696,-100,4,3,4,70,0,0
276862,-100,4,3,4,55,0,0
277029,-100,4,3,4,85,0,0
277196,-100,4,3,4,70,0,0
277362,-86.9565217391304,4,3,1,85,0,0
277446,-86.9565217391304,4,3,12,85,0,0
277612,-86.9565217391304,4,3,1,85,0,0
277696,-86.9565217391304,4,3,11,85,0,0
277862,-86.9565217391304,4,3,1,85,0,0
277946,-86.9565217391304,4,3,1,70,0,0
278029,-86.9565217391304,4,3,11,85,0,0
278112,-86.9565217391304,4,3,10,85,0,0
278362,-86.9565217391304,4,3,1,85,0,0
278446,-86.9565217391304,4,3,1,70,0,0
278529,-86.9565217391304,4,3,1,85,0,0
278612,-86.9565217391304,4,3,1,70,0,0
278696,-76.9230769230769,4,2,69,85,0,0
278779,-76.9230769230769,4,2,66,70,0,0
278862,-76.9230769230769,4,2,64,70,0,0
278946,-76.9230769230769,4,2,61,70,0,0
279029,-76.9230769230769,4,2,66,70,0,0
279112,-76.9230769230769,4,2,64,70,0,0
279196,-76.9230769230769,4,2,61,70,0,0
279279,-76.9230769230769,4,2,59,70,0,0
279362,-76.9230769230769,4,2,64,70,0,0
279446,-76.9230769230769,4,2,61,70,0,0
279529,-76.9230769230769,4,2,59,70,0,0
279612,-76.9230769230769,4,2,57,70,0,0
279696,-76.9230769230769,4,2,61,70,0,0
279779,-76.9230769230769,4,2,59,70,0,0
279862,-76.9230769230769,4,2,57,70,0,0
279946,-76.9230769230769,4,2,54,70,0,0
280029,-76.9230769230769,4,2,59,70,0,0
280112,-76.9230769230769,4,2,57,70,0,0
280196,-76.9230769230769,4,2,54,70,0,0
280279,-76.9230769230769,4,2,52,70,0,0
280362,-76.9230769230769,4,2,57,70,0,0
280446,-76.9230769230769,4,2,54,70,0,0
280529,-76.9230769230769,4,2,52,70,0,0
280612,-76.9230769230769,4,2,50,70,0,0
280696,-76.9230769230769,4,2,54,70,0,0
280779,-76.9230769230769,4,2,52,70,0,0
280862,-76.9230769230769,4,2,49,70,0,0
280946,-76.9230769230769,4,2,45,70,0,0
281029,-76.9230769230769,4,2,52,70,0,0
281085,-76.9230769230769,4,2,49,70,0,0
281140,-76.9230769230769,4,2,47,70,0,0
281196,-76.9230769230769,4,2,45,70,0,0
281362,-76.9230769230769,4,2,54,70,0,0
281446,-76.9230769230769,4,2,59,70,0,0
281529,-76.9230769230769,4,2,61,70,0,0
281612,-76.9230769230769,4,2,64,70,0,0
281696,-76.9230769230769,4,2,69,70,0,0
281862,-76.9230769230769,4,2,54,70,0,0
281946,-76.9230769230769,4,2,59,70,0,0
282029,-76.9230769230769,4,2,61,70,0,0
282112,-76.9230769230769,4,2,64,70,0,0
282196,-76.9230769230769,4,2,73,70,0,0
282362,-76.9230769230769,4,2,54,70,0,0
282446,-76.9230769230769,4,2,59,70,0,0
282529,-76.9230769230769,4,2,61,70,0,0
282612,-76.9230769230769,4,2,64,70,0,0
282696,-76.9230769230769,4,2,69,70,0,0
282862,-76.9230769230769,4,2,54,70,0,0
282946,-76.9230769230769,4,2,59,70,0,0
283029,-76.9230769230769,4,2,61,70,0,0
283112,-76.9230769230769,4,2,64,70,0,0
283196,-76.9230769230769,4,2,73,70,0,0
283362,-76.9230769230769,4,2,57,70,0,0
283446,-76.9230769230769,4,2,56,70,0,0
283529,-76.9230769230769,4,2,52,70,0,0
283612,-76.9230769230769,4,2,47,70,0,0
283696,-76.9230769230769,4,2,68,70,0,0
283751,-76.9230769230769,4,2,64,70,0,0
283862,-76.9230769230769,4,2,59,70,0,0
284029,-76.9230769230769,4,2,52,70,0,0
284112,-76.9230769230769,4,2,45,70,0,0
284196,-76.9230769230769,4,2,47,70,0,0
284279,-76.9230769230769,4,2,52,70,0,0
284362,-76.9230769230769,4,2,45,70,0,0
284446,-76.9230769230769,4,2,47,70,0,0
284529,-76.9230769230769,4,2,52,70,0,0
284612,-76.9230769230769,4,2,50,70,0,0
284696,-76.9230769230769,4,2,54,70,0,0
284779,-76.9230769230769,4,2,57,70,0,0
284862,-76.9230769230769,4,2,59,70,0,0
284946,-76.9230769230769,4,2,64,70,0,0
285029,-76.9230769230769,4,2,57,70,0,0
285112,-76.9230769230769,4,2,59,70,0,0
285196,-76.9230769230769,4,2,64,70,0,0
285279,-76.9230769230769,4,2,69,70,0,0
285362,-76.9230769230769,4,2,61,70,0,0
285474,-76.9230769230769,4,2,73,70,0,0
285585,-76.9230769230769,4,2,66,70,0,0
285696,-76.9230769230769,4,2,60,70,0,0
285807,-76.9230769230769,4,2,72,70,0,0
285918,-76.9230769230769,4,2,66,70,0,0
286029,-76.9230769230769,4,2,59,70,0,0
286140,-76.9230769230769,4,2,71,70,0,0
286251,-76.9230769230769,4,2,66,70,0,0
286362,-76.9230769230769,4,2,73,70,0,0
286418,-76.9230769230769,4,2,71,70,0,0
286474,-76.9230769230769,4,2,70,70,0,0
286529,-76.9230769230769,4,2,69,70,0,0
286585,-76.9230769230769,4,2,68,70,0,0
286640,-76.9230769230769,4,2,66,70,0,0
286696,-76.9230769230769,4,3,1,70,0,0
286862,-76.9230769230769,4,2,61,70,0,0
286945,-76.9230769230769,4,2,64,70,0,0
287029,-76.9230769230769,4,2,69,70,0,0
287196,-76.9230769230769,4,2,54,70,0,0
287280,-76.9230769230769,4,2,59,70,0,0
287363,-76.9230769230769,4,2,61,70,0,0
287446,-76.9230769230769,4,2,64,70,0,0
287530,-76.9230769230769,4,2,73,70,0,0
287696,-76.9230769230769,4,2,54,70,0,0
287780,-76.9230769230769,4,2,59,70,0,0
287863,-76.9230769230769,4,2,61,70,0,0
287946,-76.9230769230769,4,2,64,70,0,0
288029,-76.9230769230769,4,2,73,70,0,0
288196,-76.9230769230769,4,2,54,70,0,0
288280,-76.9230769230769,4,2,59,70,0,0
288363,-76.9230769230769,4,2,61,70,0,0
288446,-76.9230769230769,4,2,64,70,0,0
288530,-76.9230769230769,4,2,69,70,0,0
288696,-76.9230769230769,4,3,2,70,0,0
288779,-76.9230769230769,4,3,2,25,0,0
288862,-76.9230769230769,4,2,69,40,0,0
288946,-76.9230769230769,4,3,2,55,0,0
289029,-76.9230769230769,4,2,56,70,0,0
289112,-76.9230769230769,4,3,2,55,0,0
289196,-76.9230769230769,4,3,2,85,0,0
289279,-76.9230769230769,4,3,2,70,0,0
289362,-76.9230769230769,4,2,52,85,0,0
289446,-76.9230769230769,4,2,53,70,0,0
289529,-76.9230769230769,4,2,54,70,0,0
289612,-76.9230769230769,4,2,55,70,0,0
289696,-76.9230769230769,4,2,56,70,0,0
289779,-76.9230769230769,4,2,55,70,0,0
289863,-76.9230769230769,4,2,56,70,0,0
289946,-76.9230769230769,4,2,57,70,0,0
290029,-76.9230769230769,4,2,58,70,0,0
290112,-76.9230769230769,4,2,57,70,0,0
290195,-76.9230769230769,4,2,58,70,0,0
290279,-76.9230769230769,4,2,59,70,0,0
290362,-76.9230769230769,4,2,60,70,0,0
290446,-76.9230769230769,4,2,59,70,0,0
290529,-76.9230769230769,4,2,60,70,0,0
290612,-76.9230769230769,4,2,61,70,0,0
290696,-76.9230769230769,4,2,62,70,0,0
290779,-76.9230769230769,4,2,61,70,0,0
290863,-76.9230769230769,4,2,62,70,0,0
290946,-76.9230769230769,4,2,63,70,0,0
291029,-76.9230769230769,4,2,64,70,0,0
291112,-76.9230769230769,4,2,63,70,0,0
291195,-76.9230769230769,4,2,64,70,0,0
291279,-76.9230769230769,4,2,65,70,0,0
291362,-76.9230769230769,4,2,66,70,0,0
291446,-76.9230769230769,4,2,65,70,0,0
291529,-76.9230769230769,4,2,66,70,0,0
291612,-76.9230769230769,4,2,67,70,0,0
291696,-76.9230769230769,4,2,68,70,0,0
291751,-76.9230769230769,4,2,67,70,0,0
291807,-76.9230769230769,4,2,66,70,0,0
291862,-76.9230769230769,4,2,68,70,0,0
292029,-76.9230769230769,4,2,69,70,0,0
292112,-76.9230769230769,4,2,64,70,0,0
292196,-76.9230769230769,4,2,61,70,0,0
292279,-76.9230769230769,4,2,64,70,0,0
292362,-76.9230769230769,4,2,70,70,0,0
292445,-76.9230769230769,4,2,65,70,0,0
292529,-76.9230769230769,4,2,62,70,0,0
292612,-76.9230769230769,4,2,65,70,0,0
292696,-76.9230769230769,4,2,71,70,0,0
292779,-76.9230769230769,4,2,66,70,0,0
292863,-76.9230769230769,4,2,63,70,0,0
292946,-76.9230769230769,4,2,66,70,0,0
293029,-76.9230769230769,4,2,70,70,0,0
293112,-76.9230769230769,4,2,65,70,0,0
293196,-76.9230769230769,4,2,62,70,0,0
293279,-76.9230769230769,4,2,65,70,0,0
293362,-76.9230769230769,4,2,69,70,0,0
293445,-76.9230769230769,4,2,64,70,0,0
293529,-76.9230769230769,4,2,61,70,0,0
293612,-76.9230769230769,4,2,64,70,0,0
293696,-76.9230769230769,4,2,68,70,0,0
293779,-76.9230769230769,4,2,63,70,0,0
293863,-76.9230769230769,4,2,60,70,0,0
293946,-76.9230769230769,4,2,63,70,0,0
294029,-76.9230769230769,4,2,67,70,0,0
294112,-76.9230769230769,4,2,62,70,0,0
294196,-76.9230769230769,4,2,59,70,0,0
294279,-76.9230769230769,4,2,62,70,0,0
294362,-76.9230769230769,4,2,66,70,0,0
294418,-76.9230769230769,4,2,60,70,0,0
294529,-76.9230769230769,4,3,4,70,0,0
294696,-142.857142857143,4,2,56,70,0,0
295612,-142.857142857143,4,2,57,70,0,0
295862,-142.857142857143,4,2,59,70,0,0
296029,-142.857142857143,4,2,61,70,0,0
296696,-142.857142857143,4,2,65,70,0,0
297362,-142.857142857143,4,2,66,70,0,0
298237,-142.857142857143,4,2,61,70,0,0
298279,-142.857142857143,4,2,66,70,0,0
298321,-142.857142857143,4,2,61,70,0,0
298363,-142.857142857143,4,2,66,70,0,0
298404,-142.857142857143,4,2,61,70,0,0
298446,-142.857142857143,4,2,66,70,0,0
298487,-142.857142857143,4,2,61,70,0,0
298529,-142.857142857143,4,2,66,70,0,0
298571,-142.857142857143,4,2,61,70,0,0
298613,-142.857142857143,4,2,66,70,0,0
298654,-142.857142857143,4,2,61,70,0,0
298696,-142.857142857143,4,2,66,70,0,0
298737,-142.857142857143,4,2,61,70,0,0
298779,-142.857142857143,4,2,66,70,0,0
298821,-142.857142857143,4,2,61,70,0,0
298863,-142.857142857143,4,2,66,70,0,0
299196,-142.857142857143,4,2,69,70,0,0
299237,-144.927536231884,4,2,72,70,0,0
299279,-142.857142857143,4,2,73,70,0,0
299321,-142.857142857143,4,2,75,70,0,0
299362,-142.857142857143,4,2,77,70,0,0
299529,-142.857142857143,4,3,1,55,0,0
299612,-142.857142857143,4,3,1,40,0,0
299696,-142.857142857143,4,3,1,70,0,0
299779,-142.857142857143,4,3,1,55,0,0
299862,-142.857142857143,4,3,1,85,0,0
299946,-142.857142857143,4,3,1,70,0,0
300029,-71.4285714285714,4,3,1,85,0,0
300112,-71.4285714285714,4,3,1,70,0,0
302696,-100,4,3,2,85,0,0
302779,-100,4,3,1,70,0,0
305362,-71.4285714285714,4,3,1,85,0,0
305446,-71.4285714285714,4,3,1,70,0,0
308029,-55.5555555555556,4,3,3,85,0,0
308112,-55.5555555555556,4,3,1,70,0,0
309029,-55.5555555555556,4,3,2,70,0,0
309112,-55.5555555555556,4,3,1,70,0,0
310029,-55.5555555555556,4,3,4,70,0,0
310112,-55.5555555555556,4,3,1,40,0,0
310196,-55.5555555555556,4,3,1,55,0,0
310279,-55.5555555555556,4,3,1,70,0,0
310362,-55.5555555555556,4,3,1,85,0,0
310446,-55.5555555555556,4,3,11,85,0,0
310696,-76.9230769230769,4,3,4,85,0,0
310779,-76.9230769230769,4,3,1,70,0,0
312029,-76.9230769230769,4,3,2,70,0,0
312112,-76.9230769230769,4,3,1,70,0,0
313029,-76.9230769230769,4,3,3,70,0,0
313112,-76.9230769230769,4,3,1,70,0,0
314696,-76.9230769230769,4,3,4,70,0,0
315362,-100,4,3,1,85,0,0
315445,-100,4,3,1,40,0,0
315528,-100,4,3,1,55,0,0
315612,-100,4,3,1,70,0,0
315695,-100,4,3,1,85,0,0
315778,-100,4,3,1,70,0,0
315862,-100,4,3,1,85,0,0
315945,-100,4,3,1,70,0,0
316029,-62.5,4,3,3,85,0,0
316112,-76.9230769230769,4,3,1,70,0,0
317362,-76.9230769230769,4,3,2,70,0,0
317446,-76.9230769230769,4,3,1,70,0,0
318696,-76.9230769230769,4,3,2,70,0,0
318779,-76.9230769230769,4,3,1,70,0,0
319529,-76.9230769230769,4,3,4,70,0,0
319862,-86.9565217391304,4,3,2,70,0,0
320029,-76.9230769230769,4,3,1,85,0,0
320084,-76.9230769230769,4,3,1,55,0,0
320140,-76.9230769230769,4,3,1,70,0,0
320251,-76.9230769230769,4,3,1,85,0,0
320363,-76.9230769230769,4,3,12,85,0,0
320474,-76.9230769230769,4,3,12,70,0,0
320696,-76.9230769230769,4,3,1,85,0,0
320751,-76.9230769230769,4,3,12,85,0,0
320918,-76.9230769230769,4,3,11,85,0,0
321140,-76.9230769230769,4,3,10,85,0,0
321362,-86.9565217391304,4,3,3,70,0,0
321862,-86.9565217391304,4,3,4,70,0,0
322362,-86.9565217391304,4,3,2,70,0,0
322862,-86.9565217391304,4,3,4,70,0,0
323362,-86.9565217391304,4,3,1,70,0,0
323696,-86.9565217391304,4,3,2,70,0,0
324029,-100,4,3,3,85,0,0
324112,-100,4,3,1,10,0,0
324196,-100,4,3,1,20,0,0
324279,-100,4,3,1,30,0,0
324362,-100,4,3,1,55,0,0
324446,-100,4,3,1,25,0,0
324529,-100,4,3,1,35,0,0
324612,-100,4,3,1,45,0,0
324696,-100,4,3,1,70,0,0
324779,-100,4,3,1,50,0,0
324862,-100,4,3,1,60,0,0
324946,-100,4,3,1,70,0,0
325029,-100,4,3,1,85,0,0
325085,-100,4,3,12,85,0,0
325140,-100,4,3,11,85,0,0
325362,-100,4,3,4,85,0,0
325585,-100,4,3,12,85,0,0
325807,-100,4,3,11,85,0,0
326029,-100,4,3,2,85,0,0
326251,-100,4,3,11,85,0,0
326474,-100,4,3,10,85,0,0
326696,-100,4,3,3,85,0,0
328029,-100,4,3,1,85,0,0
329362,-100,4,3,4,85,0,0
330696,-100,4,3,1,70,0,0
331029,-100,4,3,1,85,0,0
331196,-100,4,3,1,40,0,0
331279,-100,4,3,1,70,0,0
331362,-100,4,3,1,85,0,0
331529,-100,4,3,12,85,0,0
331696,-100,4,3,11,85,0,0
331862,-100,4,3,10,85,0,0
332029,-100,4,3,3,85,0,0
332112,-100,4,3,1,70,0,0
334696,-200,4,3,4,70,0,0
334862,-200,4,3,1,25,0,0
335028,-133.333333333333,4,3,1,40,0,0
335195,-100,4,3,1,55,0,0
335362,-100,4,3,1,70,0,0
335528,-100,4,3,1,55,0,0
335695,-100,4,3,1,85,0,0
335862,-100,4,3,1,70,0,0
336029,-100,4,3,4,85,0,0
336196,-100,4,3,1,70,0,0
336279,-100,4,3,1,85,0,0
336529,-100,4,3,1,70,0,0
336696,-100,4,3,1,85,0,0
336779,-100,4,3,1,70,0,0
336862,-100,4,3,12,85,0,0
336946,-100,4,3,12,70,0,0
337029,-100,4,3,11,85,0,0
337112,-100,4,3,11,70,0,0
337362,-76.9230769230769,4,3,1,85,0,0
337446,-76.9230769230769,4,3,1,70,0,0
340029,-76.9230769230769,4,3,2,70,0,0
340112,-76.9230769230769,4,3,1,70,0,0
345362,-76.9230769230769,4,3,2,70,0,0
345446,-76.9230769230769,4,3,1,70,0,0
346362,-76.9230769230769,4,3,4,70,0,0
346696,-76.9230769230769,4,3,1,85,0,0
346779,-76.9230769230769,4,3,12,85,0,0
347029,-76.9230769230769,4,3,11,85,0,0
347362,-76.9230769230769,4,3,12,85,0,0
347529,-76.9230769230769,4,3,11,85,0,0
347696,-76.9230769230769,4,3,2,70,0,0
348029,-100,4,3,3,85,0,0
348112,-100,4,3,1,70,0,0
350362,-100,4,3,12,70,0,0
350417,-100,4,3,11,70,0,0
350474,-100,4,3,10,70,0,0
350696,-100,4,3,4,70,0,0
350779,-100,4,3,1,70,0,0
352029,-100,4,3,3,70,0,0
352529,-100,4,3,4,70,0,0
352696,-100,4,3,11,70,0,0
352751,-100,4,3,10,70,0,0
353029,-100,4,3,4,70,0,0
353362,-100,4,3,3,70,0,0
353446,-100,4,3,1,70,0,0
354696,-100,4,3,4,70,0,0
354779,-100,4,3,1,70,0,0
355696,-100,4,3,12,70,0,0
355751,-100,4,3,11,70,0,0
355808,-100,4,3,10,70,0,0
356029,-100,4,3,3,70,0,0
356112,-100,4,3,1,70,0,0
357362,-100,4,3,4,85,0,0
357529,-100,4,3,4,40,0,0
357612,-100,4,3,1,70,0,0
357696,-100,4,3,1,85,0,0
357862,-100,4,3,1,55,0,0
357946,-100,4,3,1,70,0,0
358029,-100,4,3,1,85,0,0
358196,-100,4,3,12,85,0,0
358362,-100,4,3,11,85,0,0
358529,-100,4,3,10,85,0,0
358696,-100,4,3,4,70,0,0
360029,-100,4,3,2,70,0,0
360112,-100,4,3,4,70,0,0
361362,-100,4,3,3,70,0,0
361446,-100,4,3,4,70,0,0
362696,-100,4,3,2,70,0,0
363029,-100,4,3,3,70,0,0
363362,-100,4,3,1,85,0,0
363446,-100,4,3,1,70,0,0
363529,-100,4,3,1,85,0,0
363612,-100,4,3,1,70,0,0
363696,-100,4,3,12,85,0,0
363751,-100,4,3,11,85,0,0
363808,-100,4,3,10,85,0,0
364029,-100,4,3,1,85,0,0
364112,-100,4,3,1,70,0,0
365362,-100,4,3,2,70,0,0
365446,-100,4,3,1,70,0,0
366362,-83.3333333333333,4,3,3,70,0,0
366696,-100,4,3,2,70,0,0
366862,-100,4,3,12,70,0,0
367196,-100,4,3,4,70,0,0
367362,-100,4,3,11,70,0,0
367696,-100,4,3,5,70,0,0
368029,-100,4,3,1,100,0,0
369362,-250,4,2,1,40,0,0
369446,-250,4,2,1,5,0,0
370029,-166.666666666667,4,2,1,40,0,0
370112,-166.666666666667,4,2,1,5,0,0
370696,-125,4,2,1,40,0,0
370779,-125,4,2,1,5,0,0
371363,333.333333333333,4,3,1,70,1,0
371363,-133.333333333333,4,3,1,70,0,0
371446,-133.333333333333,4,2,1,40,0,0
375613,-133.333333333333,4,2,1,5,0,0
376029,-133.333333333333,4,2,1,40,0,0
384696,-250,4,2,1,40,0,0
385029,-181.818181818182,4,2,1,40,0,0
385363,-142.857142857143,4,2,1,40,0,0
385696,-117.647058823529,4,2,1,40,0,0
386029,-100,4,2,4,40,0,0
386113,-100,4,2,1,5,0,0
386696,-100,4,2,1,40,0,0
387363,-142.857142857143,4,2,1,40,0,0
388029,-142.857142857143,4,2,1,40,0,0
389196,-211.193241816262,4,2,1,40,0,0
389279,-211.193241816262,4,2,1,5,0,0
389696,-211.193241816262,4,2,3,55,0,0
390029,-100,4,3,2,85,0,0
390196,-100,4,3,1,25,0,0
390363,-100,4,3,1,40,0,0
390529,-100,4,3,1,55,0,0
390696,-100,4,3,1,85,0,0
390863,-100,4,3,1,70,0,0
391029,-100,4,3,1,85,0,0
391196,-100,4,3,1,70,0,0
391363,-100,4,3,3,85,0,0
391613,-100,4,3,1,55,0,0
391696,-100,4,3,1,85,0,0
391946,-100,4,3,1,70,0,0
392029,-100,4,3,1,85,0,0
392196,-100,4,3,1,70,0,0
392529,-100,4,3,1,85,0,0
392696,-100,4,3,4,85,0,0
392863,-100,4,3,1,25,0,0
392946,-100,4,3,1,40,0,0
393029,-100,4,3,1,70,0,0
393113,-100,4,3,1,55,0,0
393196,-100,4,3,1,40,0,0
393279,-100,4,3,1,55,0,0
393363,-83.3333333333333,4,3,1,70,0,0
393446,-83.3333333333333,4,3,1,55,0,0
393529,-83.3333333333333,4,3,1,65,0,0
393613,-83.3333333333333,4,3,1,75,0,0
393696,-71.4285714285714,4,3,1,85,0,0
393779,-71.4285714285714,4,3,1,55,0,0
393863,-71.4285714285714,4,3,1,70,0,0
393946,-71.4285714285714,4,3,1,85,0,0
394029,-52.6315789473684,4,3,1,100,0,1
394113,-68.9655172413793,4,3,6,70,0,1
395363,-68.9655172413793,4,3,2,70,0,1
395446,-68.9655172413793,4,3,6,70,0,1
396696,-68.9655172413793,4,3,2,70,0,1
396779,-68.9655172413793,4,3,6,70,0,1
398029,-68.9655172413793,4,3,3,70,0,1
398113,-68.9655172413793,4,3,6,70,0,1
399196,-68.9655172413793,4,3,3,70,0,1
399363,-68.9655172413793,4,3,1,85,0,1
399446,-68.9655172413793,4,3,6,70,0,1
401862,-68.9655172413793,4,3,4,70,0,1
402029,-90.9090909090909,4,3,6,70,0,1
403362,-68.9655172413793,4,3,2,70,0,1
403529,-68.9655172413793,4,3,6,70,0,1
404112,-68.9655172413793,4,3,1,40,0,1
404196,-68.9655172413793,4,3,1,55,0,1
404279,-68.9655172413793,4,3,1,70,0,1
404362,-68.9655172413793,4,3,1,85,0,1
404446,-68.9655172413793,4,3,1,70,0,1
404529,-68.9655172413793,4,3,1,85,0,1
404612,-68.9655172413793,4,3,1,70,0,1
404696,-68.9655172413793,4,3,3,85,0,1
404779,-68.9655172413793,4,3,6,70,0,1
405362,-68.9655172413793,4,3,2,70,0,1
405446,-68.9655172413793,4,3,6,70,0,1
407362,-68.9655172413793,4,3,2,70,0,1
407446,-68.9655172413793,4,3,6,70,0,1
408862,-68.9655172413793,4,3,4,70,0,1
409362,-68.9655172413793,4,3,1,70,0,1
409446,-68.9655172413793,4,3,1,40,0,1
409529,-68.9655172413793,4,3,1,55,0,1
409612,-68.9655172413793,4,3,1,70,0,1
409695,-68.9655172413793,4,3,1,85,0,1
409779,-68.9655172413793,4,3,1,70,0,1
409862,-68.9655172413793,4,3,1,85,0,1
409945,-68.9655172413793,4,3,1,70,0,1
410029,-68.9655172413793,4,3,3,85,0,1
410112,-68.9655172413793,4,3,6,70,0,1
410696,-68.9655172413793,4,3,2,70,0,1
410779,-68.9655172413793,4,3,6,70,0,1
411196,-68.9655172413793,4,3,4,70,0,1
411362,-68.9655172413793,4,3,6,70,0,1
412696,-68.9655172413793,4,3,2,70,0,1
412779,-68.9655172413793,4,3,6,70,0,1
413362,-68.9655172413793,4,3,4,70,0,1
413446,-68.9655172413793,4,3,6,70,0,1
414029,-68.9655172413793,4,3,2,70,0,1
414112,-68.9655172413793,4,3,6,70,0,1
414696,-68.9655172413793,4,3,1,70,0,0
414779,-68.9655172413793,4,3,1,40,0,0
414863,-68.9655172413793,4,3,1,55,0,0
414946,-68.9655172413793,4,3,1,70,0,0
415029,-68.9655172413793,4,3,1,85,0,0
415113,-68.9655172413793,4,3,1,70,0,0
415196,-68.9655172413793,4,3,1,85,0,0
415279,-68.9655172413793,4,3,1,70,0,0
415362,-62.5,4,3,1,100,0,1
415446,-68.9655172413793,4,3,1,70,0,1
416529,-50,4,3,1,70,0,1
417696,-68.9655172413793,4,3,1,70,0,1
417862,-50,4,3,1,70,0,1
419696,-55.5555555555556,4,3,1,70,0,1
420196,-62.5,4,3,1,70,0,1
420529,-62.5,4,3,4,70,0,1
420696,-68.9655172413793,4,3,1,85,0,1
420779,-68.9655172413793,4,3,1,70,0,1
422029,-68.9655172413793,4,3,2,70,0,1
422112,-68.9655172413793,4,3,1,70,0,1
423362,-68.9655172413793,4,3,3,70,0,1
423446,-68.9655172413793,4,3,1,70,0,1
424696,-68.9655172413793,4,3,2,70,0,1
424779,-68.9655172413793,4,3,1,70,0,1
425362,-68.9655172413793,4,3,4,70,0,1
425446,-68.9655172413793,4,3,1,40,0,1
425530,-68.9655172413793,4,3,1,55,0,1
425613,-68.9655172413793,4,3,1,70,0,1
425696,-68.9655172413793,4,3,1,85,0,1
425780,-68.9655172413793,4,3,1,70,0,1
425863,-68.9655172413793,4,3,1,85,0,1
425946,-68.9655172413793,4,3,1,70,0,1
426029,-68.9655172413793,4,3,3,85,0,1
426112,-57.1428571428571,4,3,1,70,0,1
427362,-57.1428571428571,4,3,2,70,0,1
427446,-57.1428571428571,4,3,1,70,0,1
428696,-57.1428571428571,4,3,4,70,0,1
428779,-57.1428571428571,4,3,1,70,0,1
430029,-50,4,3,3,70,0,1
430112,-50,4,3,1,70,0,1
431196,-57.1428571428571,4,3,4,70,0,1
431362,-57.1428571428571,4,3,1,85,0,1
431446,-50,4,3,1,70,0,1
432362,-68.9655172413793,4,3,2,70,0,1
432862,-68.9655172413793,4,3,1,70,0,1
433862,-68.9655172413793,4,3,3,70,0,1
434029,-68.9655172413793,4,3,1,70,0,1
435362,-68.9655172413793,4,3,2,70,0,0
435446,-68.9655172413793,4,3,1,35,0,0
435529,-68.9655172413793,4,3,1,45,0,0
435612,-68.9655172413793,4,3,1,55,0,0
435695,-68.9655172413793,4,3,1,85,0,0
435779,-68.9655172413793,4,3,1,55,0,0
435862,-68.9655172413793,4,3,1,40,0,0
435945,-68.9655172413793,4,3,1,55,0,0
436029,-60.6060606060606,4,3,1,70,0,0
436112,-60.6060606060606,4,3,1,55,0,0
436195,-60.6060606060606,4,3,1,65,0,0
436279,-60.6060606060606,4,3,1,75,0,0
436362,-54.054054054054,4,3,1,85,0,0
436445,-54.054054054054,4,3,1,55,0,0
436529,-54.054054054054,4,3,1,70,0,0
436612,-54.054054054054,4,3,1,85,0,0
436696,-45.4545454545455,4,3,1,100,0,1
436779,-62.5,4,3,6,70,0,1
438029,-62.5,4,3,2,70,0,1
438112,-62.5,4,3,6,70,0,1
439362,-62.5,4,3,2,70,0,1
439445,-62.5,4,3,6,70,0,1
440695,-62.5,4,3,3,70,0,1
440779,-62.5,4,3,6,70,0,1
441529,-62.5,4,3,4,70,0,1
442029,-62.5,4,3,1,85,0,1
442112,-62.5,4,3,6,70,0,1
444528,-62.5,4,3,4,70,0,1
444695,-62.5,4,3,6,70,0,1
446028,-50,4,3,2,70,0,1
446195,-62.5,4,3,6,70,0,1
446778,-62.5,4,3,1,40,0,1
446862,-62.5,4,3,1,55,0,1
446945,-62.5,4,3,1,70,0,1
447028,-62.5,4,3,1,85,0,1
447112,-62.5,4,3,1,70,0,1
447195,-62.5,4,3,1,85,0,1
447278,-62.5,4,3,1,70,0,1
447362,-62.5,4,3,3,85,0,1
447445,-62.5,4,3,6,70,0,1
448028,-62.5,4,3,2,70,0,1
448112,-62.5,4,3,6,70,0,1
449529,-62.5,4,3,4,70,0,1
450696,-62.5,4,3,3,70,0,1
451029,-62.5,4,3,2,85,0,1
452028,-62.5,4,3,1,70,0,1
452195,-62.5,4,3,1,55,0,1
452278,-62.5,4,3,1,70,0,1
452361,-62.5,4,3,1,85,0,1
452445,-62.5,4,3,1,70,0,1
452528,-62.5,4,3,1,85,0,1
452611,-62.5,4,3,1,70,0,1
452695,-62.5,4,3,3,85,0,1
452778,-62.5,4,3,6,70,0,1
453362,-62.5,4,3,2,70,0,1
453862,-62.5,4,3,4,70,0,1
454779,-62.5,4,3,1,55,0,1
454862,-62.5,4,3,1,70,0,1
454946,-62.5,4,3,1,85,0,1
455029,-62.5,4,3,1,85,0,1
455085,-62.5,4,3,11,85,0,1
455140,-62.5,4,3,10,85,0,1
455362,-62.5,4,3,2,70,0,1
455696,-62.5,4,3,4,70,0,1
456028,-62.5,4,3,2,70,0,1
456362,-62.5,4,3,3,70,0,1
456695,-62.5,4,3,1,85,0,1
456751,-62.5,4,3,1,70,0,1
456807,-62.5,4,3,1,55,0,1
456918,-62.5,4,3,1,70,0,1
457029,-62.5,4,3,1,85,0,1
457140,-62.5,4,3,12,85,0,1
457251,-62.5,4,3,12,70,0,1
457362,-62.5,4,3,11,85,0,1
457474,-62.5,4,3,11,5,0,1
457585,-62.5,4,3,11,70,0,1
457696,-62.5,4,3,11,5,0,1
457807,-62.5,4,3,10,85,0,1
457918,-62.5,4,3,10,5,0,1
458029,-100,4,3,1,85,0,1
459196,-100,4,3,3,85,0,1
460196,-100,4,3,10,85,0,1
460362,-100,4,3,1,85,0,1
460696,-166.666666666667,4,3,1,85,0,1
460751,-166.666666666667,4,3,1,5,0,1
461140,-111.111111111111,4,3,4,85,0,1
461196,-111.111111111111,4,3,4,5,0,1
461585,-83.3333333333333,4,3,2,85,0,1
461640,-83.3333333333333,4,3,2,5,0,1
462029,-83.3333333333333,4,3,1,100,0,1
462140,382.165605095541,4,3,1,85,1,1
462267,-100,4,3,10,85,0,1
462331,-100,4,3,12,85,0,1
462394,-100,4,3,11,85,0,1
462460,444.444444444444,4,3,1,85,1,1
462684,329.67032967033,4,3,1,100,1,0
463178,368.098159509202,4,3,1,55,1,0
463239,-100,4,3,1,70,0,0
463300,-100,4,3,1,85,0,0
463362,333.333333333333,4,3,1,100,1,0
463445,-100,4,2,1,5,0,0
468028,-50,4,3,1,100,0,0
468112,-50,4,3,1,5,0,0
468195,-200,4,3,1,70,0,0
468695,-285.714285714286,4,3,1,85,0,0
468778,-285.714285714286,4,3,1,5,0,0
469195,-285.714285714286,4,3,4,85,0,0
469278,-285.714285714286,4,3,1,5,0,0
469695,-285.714285714286,4,3,3,85,0,0
469778,-285.714285714286,4,3,1,5,0,0
470195,-285.714285714286,4,3,2,85,0,0
470278,-285.714285714286,4,3,1,5,0,0
470695,-285.714285714286,4,3,1,85,0,0
470778,-285.714285714286,4,3,1,5,0,0
471195,-285.714285714286,4,3,4,85,0,0
471278,-285.714285714286,4,3,1,5,0,0
471695,-285.714285714286,4,3,3,85,0,0
471778,-285.714285714286,4,3,1,5,0,0
472195,-285.714285714286,4,3,2,85,0,0
472278,-285.714285714286,4,3,1,5,0,0
472695,-285.714285714286,4,3,1,85,0,0
472778,-285.714285714286,4,3,1,5,0,0
473195,-285.714285714286,4,3,4,85,0,0
473695,-100,4,3,4,85,0,0
473778,-100,4,3,4,5,0,0
473862,-100,4,3,4,85,0,0
473945,-100,4,3,4,5,0,0
474028,-285.714285714286,4,3,1,85,0,0
474112,-285.714285714286,4,3,1,5,0,0
474528,-285.714285714286,4,3,4,85,0,0
474612,-285.714285714286,4,3,1,5,0,0
475028,-285.714285714286,4,3,3,85,0,0
475112,-285.714285714286,4,3,1,5,0,0
475528,-285.714285714286,4,3,2,85,0,0
475612,-285.714285714286,4,3,1,5,0,0
476028,-285.714285714286,4,3,1,85,0,0
476112,-285.714285714286,4,3,1,5,0,0
476528,-285.714285714286,4,3,4,85,0,0
476612,-285.714285714286,4,3,1,5,0,0
477028,-285.714285714286,4,3,3,85,0,0
477112,-285.714285714286,4,3,1,5,0,0
477528,-285.714285714286,4,3,2,85,0,0
477612,-285.714285714286,4,3,1,5,0,0
478028,-285.714285714286,4,3,1,85,0,0
478112,-285.714285714286,4,3,1,5,0,0
478528,-285.714285714286,4,3,4,85,0,0
479028,-100,4,3,3,85,0,0
479112,-100,4,3,3,5,0,0
479362,-166.666666666667,4,3,1,85,0,0
479445,-166.666666666667,4,3,1,70,0,0
479862,-166.666666666667,4,3,1,85,0,0
479945,-166.666666666667,4,3,1,70,0,0
480362,-166.666666666667,4,3,1,85,0,0
480445,-166.666666666667,4,3,1,70,0,0
480862,-166.666666666667,4,3,1,85,0,0
480945,-166.666666666667,4,3,1,70,0,0
481362,-166.666666666667,4,3,1,85,0,0
481445,-166.666666666667,4,3,1,70,0,0
481695,-166.666666666667,4,3,1,85,0,0
481778,-166.666666666667,4,3,1,70,0,0
482028,-166.666666666667,4,3,1,85,0,0
482111,-166.666666666667,4,3,1,70,0,0
482528,-166.666666666667,4,3,1,85,0,0
482611,-166.666666666667,4,3,1,70,0,0
483028,-166.666666666667,4,3,1,85,0,0
483111,-166.666666666667,4,3,1,70,0,0
483528,-166.666666666667,4,3,1,85,0,0
483611,-166.666666666667,4,3,1,70,0,0
484028,-166.666666666667,4,3,1,85,0,0
484111,-166.666666666667,4,3,1,70,0,0
484362,-166.666666666667,4,3,1,85,0,0
484445,-166.666666666667,4,3,1,70,0,0
484695,-166.666666666667,4,3,1,85,0,0
484778,-166.666666666667,4,3,1,70,0,0
485195,-166.666666666667,4,3,1,85,0,0
485278,-166.666666666667,4,3,1,70,0,0
485695,-166.666666666667,4,3,1,85,0,0
485778,-166.666666666667,4,3,1,70,0,0
486195,-166.666666666667,4,3,1,85,0,0
486278,-166.666666666667,4,3,1,70,0,0
486695,-166.666666666667,4,3,1,85,0,0
486778,-166.666666666667,4,3,1,70,0,0
487028,-166.666666666667,4,3,1,85,0,0
487111,-166.666666666667,4,3,1,70,0,0
487362,-166.666666666667,4,3,1,85,0,0
487445,-166.666666666667,4,3,1,70,0,0
487862,-166.666666666667,4,3,1,85,0,0
487945,-166.666666666667,4,3,1,70,0,0
488362,-166.666666666667,4,3,1,85,0,0
488445,-166.666666666667,4,3,1,70,0,0
488695,-166.666666666667,4,3,1,85,0,0
488778,-166.666666666667,4,3,1,25,0,0
488862,-166.666666666667,4,3,1,35,0,0
488945,-166.666666666667,4,3,1,45,0,0
489028,-125,4,3,1,70,0,0
489112,-125,4,3,1,55,0,0
489195,-125,4,3,1,40,0,0
489278,-125,4,3,1,55,0,0
489362,-100,4,3,1,70,0,0
489445,-100,4,3,1,55,0,0
489528,-100,4,3,1,65,0,0
489612,-100,4,3,1,75,0,0
489695,-83.3333333333333,4,3,1,85,0,0
489778,-83.3333333333333,4,3,1,70,0,0
489862,-83.3333333333333,4,3,1,85,0,0
489945,-83.3333333333333,4,3,1,70,0,0
490028,-100,4,3,2,85,0,0
490112,-100,4,3,1,70,0,0
492695,-100,4,3,2,70,0,0
492778,-100,4,3,1,70,0,0
494361,-100,4,3,4,70,0,0
494695,-100,4,3,4,70,0,0
495361,-100,4,3,3,85,0,0
495445,-100,4,3,1,70,0,0
498028,-100,4,3,2,70,0,0
498111,-100,4,3,1,70,0,0
500028,-100,4,3,1,85,0,0
500084,-100,4,3,12,85,0,0
500139,-100,4,3,11,85,0,0
500195,-100,4,3,10,85,0,0
500362,327.868852459016,4,3,4,85,1,0
500690,340.909090909091,4,3,1,85,1,0
501371,344.827586206897,4,3,3,85,1,0
502060,344.036697247706,4,3,2,85,1,0
502748,-100,4,3,4,85,0,0
503436,545.454545454546,4,3,1,85,1,0
503981,436.363636363636,4,3,2,85,1,0
504417,410.958904109589,4,3,4,85,1,0
504827,375,4,3,2,85,1,0
505202,285.714285714286,4,3,3,85,1,0
505202,-200,4,3,3,85,0,0
505487,250,4,3,2,85,1,0
505737,-200,4,3,1,85,0,0
505986,215.827338129496,4,3,2,85,1,0
506201,337.078651685393,4,3,4,85,1,0
506201,-100,4,3,4,85,0,0
506369,-100,4,3,2,85,0,0
506538,-100,4,3,1,85,0,0
506706,-100,4,3,2,85,0,0
506859,296.296296296296,4,3,3,85,1,0
506859,-66.6666666666667,4,3,3,85,0,0
507007,-66.6666666666667,4,3,1,85,0,0
507155,-66.6666666666667,4,3,2,85,0,0
507303,-66.6666666666667,4,3,1,85,0,0
507452,279.72027972028,4,3,1,85,1,0
507452,-50,4,3,1,85,0,0
507591,-50,4,3,2,85,0,0
507731,-50,4,3,3,85,0,0
507872,318.302387267905,4,3,2,85,1,0
508190,276.497695852535,4,3,5,85,1,0
509295,279.06976744186,4,3,5,85,1,0
509295,-66.6666666666667,4,3,5,85,0,0
509853,-50,4,3,3,85,0,0
509992,-50,4,3,1,85,0,0
510132,-50,4,3,2,85,0,0
510271,-50,4,3,3,85,0,0
510411,292.682926829268,4,3,1,85,1,0
510411,-66.6666666666667,4,3,1,85,0,0
510557,-66.6666666666667,4,3,2,85,0,0
510703,-66.6666666666667,4,3,3,85,0,0
510850,-66.6666666666667,4,3,2,85,0,0
510996,333.333333333333,4,3,1,85,1,0
511162,-100,4,3,3,85,0,0
511329,-100,4,3,1,85,0,0
511496,-100,4,3,2,85,0,0
511662,223.048327137546,4,3,1,85,1,0
511662,-200,4,3,1,85,0,0
511885,249.480249480249,4,3,2,85,1,0
512134,251.046025104603,4,3,1,85,1,0
512134,-200,4,3,2,85,0,0
512385,287.081339712919,4,3,3,85,1,0
512672,361.44578313253,4,3,4,85,1,0
513035,413.793103448276,4,3,3,85,1,0
513448,431.654676258993,4,3,2,85,1,0
513879,558.139534883721,4,3,3,85,1,0
514437,685.714285714286,4,3,1,85,1,0
515122,681.818181818182,4,3,2,85,1,0
515803,674.157303370787,4,3,1,85,1,0
516477,697.674418604651,4,3,3,85,1,0
517174,666.666666666667,4,3,1,100,1,0
517257,-100,4,3,1,5,0,0

[Colours]
Combo1 : 241,56,56
Combo2 : 14,106,220
Combo3 : 209,24,94
Combo4 : 96,163,244
Combo5 : 244,189,96
Combo6 : 201,201,201
Combo7 : 116,116,116

[HitObjects]
80,344,5364,69,2,0:0:0:0:
152,292,6030,1,2,0:0:0:0:
152,204,6697,1,2,0:0:0:0:
88,140,7364,6,0,P|136:152|208:72,1,168,4|0,3:0|0:0,0:0:0:0:
192,156,8530,1,0,0:0:0:0:
248,220,8697,86,0,P|284:208|312:204,1,56,2|0,0:0|0:0,0:0:0:0:
180,264,9197,1,2,0:0:0:0:
64,156,9530,6,0,P|56:152|36:148,2,28
128,200,10030,86,0,P|144:192|168:184,1,42,2|0,0:0|0:0,0:0:0:0:
232,208,10364,2,0,P|256:212|280:200,1,52.5,2|0,0:0|0:0,0:0:0:0:
312,132,10697,2,0,P|308:108|312:68,1,62.9999980773926,2|0,0:0|0:0,0:0:0:0:
240,44,11030,2,0,P|212:56|172:40,1,73.4999977569581,2|0,0:0|0:0,0:0:0:0:
124,104,11364,6,0,P|120:124|116:160,1,56,2|2,0:0|0:0,0:0:0:0:
116,159,12197,1,2,0:0:0:0:
192,136,12364,1,0,0:0:0:0:
268,160,12530,1,0,0:0:0:0:
300,236,12697,86,0,P|296:272|292:292,1,56,2|0,0:0|0:0,0:0:0:0:
352,172,13197,2,0,P|376:160|432:164,1,84,2|2,0:0|0:0,0:0:0:0:
400,236,13864,1,2,0:0:0:0:
340,164,14030,6,0,P|332:132|332:100,1,62.9999980773926,2|0,0:0|0:0,0:0:0:0:
260,176,14364,2,0,P|268:220|252:256,1,84,2|0,0:0|0:0,0:0:0:0:
196,208,14697,2,0,P|172:200|136:196,1,56,2|2,0:0|0:0,0:0:0:0:
308,304,15197,86,0,P|324:280|324:248,1,56,2|2,0:0|0:0,0:0:0:0:
300,184,15697,1,2,0:0:0:0:
344,124,15864,2,0,P|392:128|424:80,1,112,2|0,0:0|0:0,0:0:0:0:
368,224,16697,6,0,P|336:212|308:300,1,154.000004699707,2|2,0:0|0:0,0:0:0:0:
264,216,17530,1,2,0:0:0:0:
180,204,17697,1,2,0:0:0:0:
120,252,17864,1,2,0:0:0:0:
192,356,18030,86,0,P|204:352|232:348,2,38.5000011749268,2|0|0,0:0|0:0|0:0,0:0:0:0:
192,356,18697,2,0,P|200:320|192:280,1,77.0000023498536,2|0,0:0|0:0,0:0:0:0:
140,204,19197,2,0,P|176:212|216:204,1,77.0000023498536,2|2,0:0|0:0,0:0:0:0:
280,100,19697,2,0,P|276:128|272:168,1,57.7500017623902,2|0,0:0|0:0,0:0:0:0:
368,276,20030,2,0,B|396:272|396:272|420:256,2,57.7500017623902,2|2|2,0:0|0:0|0:0,0:0:0:0:
276,340,20697,6,0,P|256:332|236:328,1,42,2|0,0:0|0:0,0:0:0:0:
244,244,21030,2,0,P|216:245|190:251,1,42,2|0,0:0|0:0,0:0:0:0:
172,160,21364,2,0,P|147:173|120:201,1,62.9999980773926,2|0,0:0|0:0,0:0:0:0:
112,344,21697,2,0,P|128:321|132:276,1,73.4999977569581,2|0,0:0|0:0,0:0:0:0:
28,136,22030,86,0,P|56:144|96:84,1,112,2|0,0:0|0:0,0:0:0:0:
164,60,22530,2,0,P|136:68|96:8,1,112,2|0,0:0|0:0,0:0:0:0:
172,52,23030,6,0,L|168:80,1,28
224,136,23364,2,0,L|252:132,2,28
216,132,24030,86,0,P|245:134|272:140,1,56
328,192,24530,2,0,P|352:196|384:184,1,56
400,164,25030,1,0,0:0:0:0:
400,136,25197,2,0,P|396:108|400:80,1,56
408,64,25697,2,0,P|389:69|368:72,1,42
304,116,26030,6,0,P|264:116|220:108,1,84
152,168,26697,2,0,P|151:199|156:232,1,62.9999980773926
184,312,27364,1,0,0:0:0:0:
256,192,27447,12,0,29864,0:0:0:0:
256,336,30030,85,4,0:0:0:0:
256,336,30530,1,4,0:0:0:0:
256,336,31030,1,4,0:0:0:0:
256,336,31530,1,4,0:0:0:0:
256,336,32030,2,0,B|260:300|260:300|284:276|284:276|288:240,1,105,4|0,0:0|2:0,0:0:0:0:
332,144,32364,2,0,B|336:180|336:180|360:204|360:204|364:240,1,105,4|0,0:0|2:0,0:0:0:0:
376,344,32697,5,4,0:0:0:0:
376,344,33197,1,4,0:0:0:0:
376,344,33697,1,4,0:0:0:0:
376,344,34197,1,4,0:0:0:0:
316,256,34530,1,0,0:0:0:0:
324,264,34614,1,0,0:0:0:0:
332,272,34697,2,0,B|328:236|328:236|304:212|304:212|300:176,1,105,12|0,0:0|2:0,0:0:0:0:
224,176,35030,2,0,B|228:140|228:140|252:116|252:116|256:80,1,105,4|0,0:0|2:0,0:0:0:0:
161,230,35364,85,4,0:0:0:0:
161,230,35864,1,4,0:0:0:0:
161,230,36364,1,4,0:0:0:0:
161,230,36864,1,4,0:0:0:0:
161,230,37364,2,0,B|157:194|157:194|133:170|133:170|129:134,1,105,4|0,0:0|2:0,0:0:0:0:
85,38,37698,2,0,B|81:74|81:74|57:98|57:98|53:134,1,105,4|0,0:0|2:0,0:0:0:0:
41,238,38031,5,4,0:0:0:0:
41,238,38530,1,4,0:0:0:0:
41,238,39030,1,4,0:0:0:0:
41,238,39530,1,4,0:0:0:0:
124,308,39864,1,0,0:0:0:0:
114,300,39947,1,0,0:0:0:0:
104,292,40030,2,0,B|136:296|136:296|168:276,1,70,12|0,0:0|0:0,0:0:0:0:
251,181,40280,1,0,0:0:0:0:
240,188,40364,2,0,B|272:184|272:184|304:204,1,70,12|0,0:0|0:0,0:0:0:0:
365,298,40614,1,0,0:0:0:0:
376,292,40697,86,0,L|332:296,1,41.9999987182618,8|0,0:0|0:0,0:0:0:0:
416,216,41197,2,0,L|372:220,1,41.9999987182618,8|0,0:0|0:0,0:0:0:0:
456,140,41697,2,0,L|412:144,1,41.9999987182618,8|0,0:0|0:0,0:0:0:0:
496,64,42197,2,0,L|452:68,1,41.9999987182618,8|0,0:0|0:0,0:0:0:0:
334,295,42697,6,0,L|376:292,1,41.9999987182618,8|0,0:0|0:0,0:0:0:0:
414,143,43030,2,0,L|456:140,1,41.9999987182618,8|0,0:0|0:0,0:0:0:0:
136,292,43364,86,0,L|180:296,1,41.9999987182618,8|0,0:0|0:0,0:0:0:0:
96,216,43864,2,0,L|140:220,1,41.9999987182618,8|0,0:0|0:0,0:0:0:0:
56,140,44364,2,0,L|100:144,1,41.9999987182618,8|0,0:0|0:0,0:0:0:0:
16,64,44864,2,0,L|60:68,1,41.9999987182618,8|0,0:0|0:0,0:0:0:0:
177,295,45364,6,0,L|136:292,1,41.9999987182618,8|0,0:0|0:0,0:0:0:0:
97,143,45697,2,0,L|56:140,1,41.9999987182618,8|0,0:0|0:0,0:0:0:0:
376,292,46030,85,8,0:0:0:0:
376,292,46114,2,0,L|332:296,1,42,8|0,2:3|0:0,0:0:0:0:
416,216,46530,1,8,0:0:0:0:
416,216,46614,2,0,L|372:220,1,42,8|0,2:3|0:0,0:0:0:0:
135,291,47030,5,8,0:0:0:0:
135,291,47114,2,0,L|179:295,1,42,8|0,2:3|0:0,0:0:0:0:
96,216,47530,1,8,0:0:0:0:
96,216,47614,2,0,L|140:220,1,42,8|0,2:3|0:0,0:0:0:0:
456,140,48030,85,8,0:0:0:0:
456,140,48114,1,8,2:3:0:0:
56,140,48364,5,8,0:0:0:0:
56,140,48448,1,8,2:3:0:0:
256,352,48697,85,8,0:0:0:0:
260,348,48780,1,8,2:3:0:0:
264,344,48864,1,8,2:3:0:0:
268,340,48947,1,8,2:3:0:0:
272,336,49030,1,8,0:0:0:0:
268,324,49114,1,8,2:3:0:0:
264,312,49197,1,8,2:3:0:0:
260,300,49280,1,8,2:3:0:0:
256,288,49364,5,8,0:0:0:0:
276,268,49447,1,8,2:3:0:0:
296,248,49530,1,8,2:3:0:0:
316,228,49614,1,8,2:3:0:0:
336,208,49697,1,8,0:0:0:0:
316,188,49780,1,8,2:3:0:0:
296,168,49864,1,8,2:3:0:0:
276,148,49947,1,8,2:3:0:0:
256,128,50030,86,0,L|260:88,1,35,8|8,0:0|2:3,0:0:0:0:
408,72,50197,2,0,L|412:32,1,35,8|8,2:3|2:3,0:0:0:0:
336,208,50364,2,0,L|332:168,1,35,8|8,0:0|2:3,0:0:0:0:
184,152,50530,2,0,L|180:112,1,35,8|8,2:3|2:3,0:0:0:0:
256,288,50697,6,0,L|252:324,1,35,4|8,0:0|2:3,0:0:0:0:
340,328,50864,2,0,L|318:357,1,35,8|8,2:3|2:3,0:0:0:0:
164,296,51030,2,0,L|178:329,1,35,8|8,0:0|2:3,0:0:0:0:
264,212,51197,5,8,0:0:0:0:
260,210,51253,1,8,0:0:0:0:
256,208,51308,1,8,0:0:0:0:
252,206,51364,69,0,0:0:0:0:
260,170,51447,1,0,0:0:0:0:
268,134,51530,1,0,0:0:0:0:
276,98,51614,1,0,0:0:0:0:
284,62,51697,6,0,P|244:74|192:42,1,105.000004005432,12|0,0:0|0:0,0:0:0:0:
88,100,52197,2,0,L|92:116,1,13.125000500679,8|8,2:3|2:3,0:0:0:0:
164,296,52530,2,0,L|168:264,1,26.2500010013581
232,204,52697,5,8,0:0:0:0:
156,192,52808,1,8,0:0:0:0:
152,188,52864,1,8,0:0:0:0:
148,184,52919,2,0,L|152:148,1,35.0000013351441,8|8,0:0|0:0,0:0:0:0:
236,208,53142,2,0,L|232:244,1,35.0000013351441,8|8,0:0|0:0,0:0:0:0:
304,164,53364,1,8,0:0:0:0:
380,176,53475,1,8,0:0:0:0:
384,180,53531,1,8,0:0:0:0:
388,184,53586,2,0,L|384:220,1,35.0000013351441,8|8,0:0|0:0,0:0:0:0:
300,160,53808,2,0,L|304:124,1,35.0000013351441,8|8,0:0|0:0,0:0:0:0:
256,316,54030,69,4,0:0:0:0:
196,212,54364,22,0,L|191:189,2,23.3333333333333,8|8|8,0:0|0:0|0:0,0:0:0:0:
201,215,54530,86,0,L|237:207,1,35,8|8,0:0|0:0,0:0:0:0:
308,240,54697,2,0,L|344:232,1,35
380,320,54864,6,0,L|385:297,2,23.3333333333333,8|8|8,0:0|0:0|0:0,0:0:0:0:
376,324,55030,70,0,L|340:316,1,35,8|8,0:0|0:0,0:0:0:0:
269,349,55197,2,0,L|233:341,1,35
112,312,55364,5,12,0:0:0:0:
72,216,55530,1,8,0:0:0:0:
88,220,55614,1,0,0:0:0:0:
208,148,55780,1,8,0:0:0:0:
184,140,55864,1,0,0:0:0:0:
96,28,56030,85,8,0:0:0:0:
108,50,56114,1,8,2:3:0:0:
130,64,56196,1,8,0:0:0:0:
156,66,56280,1,8,0:0:0:0:
179,56,56364,5,8,0:0:0:0:
220,40,56447,1,8,0:0:0:0:
263,46,56530,1,8,0:0:0:0:
297,72,56614,1,8,0:0:0:0:
315,111,56697,86,0,P|312:136|308:148,3,35,4|0|0|0,0:0|0:0|0:0|0:0,0:0:0:0:
260,196,57030,1,10,0:0:0:0:
264,204,57197,2,0,P|267:229|271:241,3,35,0|0|2|0,0:0|0:0|0:0|0:0,0:0:0:0:
319,289,57530,1,8,0:0:0:0:
324,284,57697,6,0,P|349:287|361:291,3,35,2|0|0|0,0:0|0:0|0:0|0:0,0:0:0:0:
252,332,58030,86,0,P|227:329|215:325,3,35,10|0|0|0,0:0|0:0|0:0|0:0,0:0:0:0:
164,268,58364,1,2,0:0:0:0:
160,252,58447,1,0,0:0:0:0:
156,236,58530,1,8,0:0:0:0:
216,144,58697,6,0,L|212:184,2,35,2|0|0,0:0|0:0|0:0,0:0:0:0:
212,128,58947,1,0,0:0:0:0:
208,112,59030,1,10,0:0:0:0:
316,180,59197,1,0,0:0:0:0:
312,196,59280,1,0,0:0:0:0:
308,212,59364,86,0,P|333:215|345:219,3,35,4|0|0|0,0:0|0:0|0:0|0:0,0:0:0:0:
408,256,59697,1,10,0:0:0:0:
409,248,59864,2,0,P|412:223|416:211,3,35,0|0|2|0,0:0|0:0|0:0|0:0,0:0:0:0:
453,148,60197,1,8,0:0:0:0:
445,150,60364,6,0,P|420:147|408:143,3,35,2|0|0|0,0:0|0:0|0:0|0:0,0:0:0:0:
345,106,60697,1,10,0:0:0:0:
346,113,60864,2,0,P|343:138|339:150,3,35,0|0|2|0,0:0|0:0|0:0|0:0,0:0:0:0:
302,213,61197,1,8,0:0:0:0:
240,168,61364,86,0,P|216:164|204:164,1,35,2|0,0:0|0:0,0:0:0:0:
144,212,61530,2,0,P|120:216|108:216,1,35
28,124,61697,5,8,2:3:0:0:
32,164,61780,1,8,2:3:0:0:
36,204,61864,1,8,2:3:0:0:
40,244,61947,1,8,2:3:0:0:
44,284,62030,86,0,P|68:288|80:292,3,35,4|0|0|0,0:0|0:0|0:0|0:0,0:0:0:0:
152,316,62364,1,10,0:0:0:0:
160,316,62530,2,0,P|184:312|196:308,3,35,0|0|2|0,0:0|0:0|0:0|0:0,0:0:0:0:
268,284,62864,1,8,0:0:0:0:
276,284,63030,6,0,P|300:288|312:292,3,35,2|0|0|0,0:0|0:0|0:0|0:0,0:0:0:0:
384,316,63364,86,0,P|408:312|420:308,3,35,10|0|0|0,0:0|0:0|0:0|0:0,0:0:0:0:
472,252,63697,1,2,0:0:0:0:
476,236,63780,1,0,0:0:0:0:
480,220,63864,1,8,0:0:0:0:
384,160,64030,6,0,L|388:200,2,35,2|0|0,0:0|0:0|0:0,0:0:0:0:
388,144,64280,1,0,0:0:0:0:
392,128,64363,1,10,0:0:0:0:
304,216,64530,1,0,0:0:0:0:
308,232,64613,1,0,0:0:0:0:
312,248,64697,86,0,P|287:251|275:255,3,35,4|0|0|0,0:0|0:0|0:0|0:0,0:0:0:0:
208,288,65030,1,10,0:0:0:0:
200,288,65197,2,0,P|175:285|163:281,3,35,0|0|2|0,0:0|0:0|0:0|0:0,0:0:0:0:
96,248,65530,1,8,0:0:0:0:
88,248,65697,6,0,P|63:251|51:255,3,35,2|0|0|0,0:0|0:0|0:0|0:0,0:0:0:0:
168,196,66030,86,0,B|184:151|184:151|160:108,1,94.5000003604889,12|0,0:0|0:0,0:0:0:0:
301,105,66280,2,0,B|254:104|254:104|224:68,1,94.5000003604889,12|0,0:0|0:0,0:0:0:0:
260,192,66530,2,0,L|252:264,1,70,12|0,0:0|0:0,0:0:0:0:
250,286,66780,1,8,2:3:0:0:
264,280,66864,1,8,2:3:0:0:
285,279,66947,1,8,2:3:0:0:
311,290,67030,5,8,0:0:0:0:
328,321,67114,1,8,0:0:0:0:
343,351,67197,1,8,0:0:0:0:
374,366,67280,1,8,0:0:0:0:
407,358,67364,86,0,P|412:336|416:324,3,35,4|0|0|0,0:0|0:0|0:0|0:0,0:0:0:0:
444,256,67697,1,10,0:0:0:0:
444,248,67864,2,0,P|439:226|435:214,3,35,0|0|2|0,0:0|0:0|0:0|0:0,0:0:0:0:
407,146,68197,1,8,0:0:0:0:
408,140,68364,6,0,P|413:118|417:106,3,35,2|0|0|0,0:0|0:0|0:0|0:0,0:0:0:0:
320,80,68697,86,0,P|325:96|328:113,3,35,10|0|0|0,0:0|0:0|0:0|0:0,0:0:0:0:
280,176,69030,1,2,0:0:0:0:
264,180,69114,1,0,0:0:0:0:
248,184,69197,1,8,0:0:0:0:
336,272,69364,6,0,L|376:276,2,35,2|0|0,0:0|0:0|0:0,0:0:0:0:
328,284,69614,1,0,0:0:0:0:
320,296,69697,1,12,0:0:0:0:
184,280,69864,1,0,0:0:0:0:
176,268,69947,1,0,0:0:0:0:
168,256,70030,86,0,P|172:244|176:220,3,35,4|0|0|0,0:0|0:0|0:0|0:0,0:0:0:0:
176,148,70364,1,10,0:0:0:0:
184,152,70530,2,0,P|196:156|220:160,3,35,0|0|2|0,0:0|0:0|0:0|0:0,0:0:0:0:
292,160,70864,1,8,0:0:0:0:
288,168,71030,6,0,P|284:180|280:204,3,35,2|0|0|0,0:0|0:0|0:0|0:0,0:0:0:0:
280,276,71364,1,10,0:0:0:0:
272,272,71530,2,0,P|260:268|236:264,3,35,0|0|2|0,0:0|0:0|0:0|0:0,0:0:0:0:
164,264,71864,1,8,0:0:0:0:
124,188,72030,86,0,P|140:180|156:176,1,35,2|0,0:0|0:0,0:0:0:0:
188,104,72197,2,0,P|204:112|220:116,1,35,2|0,0:0|0:0,0:0:0:0:
276,190,72364,5,8,0:0:0:0:
312,165,72447,1,8,2:3:0:0:
354,157,72530,1,8,2:3:0:0:
397,165,72613,1,8,2:3:0:0:
434,188,72697,86,0,P|432:196|428:224,3,35,4|0|0|0,0:0|0:0|0:0|0:0,0:0:0:0:
428,296,73030,1,10,0:0:0:0:
432,304,73197,2,0,P|424:302|396:298,3,35,0|0|2|0,0:0|0:0|0:0|0:0,0:0:0:0:
324,298,73530,1,8,0:0:0:0:
316,304,73697,6,0,P|314:296|310:268,3,35,2|0|0|0,0:0|0:0|0:0|0:0,0:0:0:0:
252,172,74030,86,0,P|250:180|246:208,3,35,10|0|0|0,0:0|0:0|0:0|0:0,0:0:0:0:
184,268,74364,1,2,0:0:0:0:
168,264,74447,1,0,0:0:0:0:
152,260,74530,1,8,0:0:0:0:
128,152,74697,6,0,P|125:134|122:117,2,35,2|0|0,0:0|0:0|0:0,0:0:0:0:
120,164,74947,1,0,0:0:0:0:
112,176,75030,1,12,0:0:0:0:
96,316,75197,1,0,0:0:0:0:
100,332,75280,1,0,0:0:0:0:
104,348,75364,86,0,P|120:340|136:336,3,35,4|0|0|0,0:0|0:0|0:0|0:0,0:0:0:0:
212,328,75697,1,10,0:0:0:0:
220,332,75864,2,0,P|236:340|252:344,3,35,0|0|2|0,0:0|0:0|0:0|0:0,0:0:0:0:
328,352,76197,1,8,0:0:0:0:
336,348,76364,6,0,P|352:340|368:336,3,35,2|0|0|0,0:0|0:0|0:0|0:0,0:0:0:0:
440,304,76697,5,8,0:0:0:0:
436,300,76753,1,8,0:0:0:0:
432,296,76808,1,8,0:0:0:0:
428,292,76864,2,0,P|432:276|432:256,1,35
336,256,77030,1,8,0:0:0:0:
340,252,77086,1,8,0:0:0:0:
344,248,77141,1,8,0:0:0:0:
348,244,77197,2,0,P|344:228|344:208,1,35
420,132,77364,70,0,L|380:136,1,35,8|8,0:0|2:3,0:0:0:0:
180,96,77530,2,0,L|220:92,1,35,8|8,2:3|2:3,0:0:0:0:
388,360,77697,6,0,L|348:364,1,35,8|8,0:0|2:3,0:0:0:0:
116,308,77863,2,0,L|156:304,1,35,8|8,2:3|2:3,0:0:0:0:
116,308,78697,54,0,B|148:304|176:276|176:276|204:292|220:320|220:320|256:284|304:296,1,224,4|10,0:0|0:0,0:0:0:0:
472,208,79197,2,0,P|428:204|392:224,1,87.5,0|10,0:0|0:0,0:0:0:0:
446,284,79530,1,0,0:0:0:0:
498,132,79697,1,10,0:0:0:0:
380,220,79863,2,0,P|364:216|336:212,1,43.75
224,272,80030,5,10,0:0:0:0:
232,251,80113,1,0,0:0:0:0:
233,230,80196,1,0,0:0:0:0:
226,209,80279,1,0,0:0:0:0:
212,192,80363,1,10,0:0:0:0:
68,256,80530,2,0,P|96:248|156:240,1,87.5,0|10,0:0|0:0,0:0:0:0:
332,300,80863,1,0,0:0:0:0:
376,308,80947,1,0,0:0:0:0:
416,292,81030,1,12,0:0:0:0:
416,292,81363,6,0,L|420:248,1,43.75,4|0,0:0|0:0,0:0:0:0:
372,144,81530,2,0,L|376:100,2,43.75,0|0|2,0:0|0:0|0:0,0:0:0:0:
372,144,81863,6,0,L|328:140,1,43.75
240,212,82030,2,0,L|196:208,2,43.75,10|0|0,0:0|0:0|0:0,0:0:0:0:
240,212,82363,86,0,L|244:168,1,43.75,2|0,0:0|0:0,0:0:0:0:
196,64,82530,2,0,L|200:20,2,43.75,0|0|2,0:0|0:0|0:0,0:0:0:0:
196,64,82863,6,0,L|152:60,1,43.75
64,132,83030,2,0,L|20:128,2,43.75,2|0|0,0:0|0:0|0:0,0:0:0:0:
64,132,83363,86,0,L|72:176,1,43.75,8|8,2:3|2:3,0:0:0:0:
188,216,83530,2,0,L|180:260,1,43.75,8|8,2:3|2:3,0:0:0:0:
24,320,83697,5,8,0:0:0:0:
51,302,83780,1,8,0:0:0:0:
83,301,83863,1,8,0:0:0:0:
112,315,83946,1,8,0:0:0:0:
130,343,84030,54,0,B|164:344|196:364|196:364|216:336|248:324|248:324|264:331|280:344,1,175,4|10,0:0|0:0,0:0:0:0:
388,252,84530,2,0,B|400:220|400:188|400:188|388:168,1,87.5,0|10,0:0|0:0,0:0:0:0:
336,104,84863,1,0,0:0:0:0:
296,252,85030,1,10,0:0:0:0:
445,213,85197,2,0,P|452:188|460:172,1,43.75
336,104,85363,5,10,0:0:0:0:
303,109,85446,1,0,0:0:0:0:
272,100,85529,1,0,0:0:0:0:
248,78,85612,1,0,0:0:0:0:
236,48,85696,1,10,0:0:0:0:
116,132,85863,38,0,L|120:164,2,29.1666666666667
76,236,86030,53,8,0:0:0:0:
117,249,86113,1,8,0:0:0:0:
159,240,86196,1,0,0:0:0:0:
192,212,86280,1,0,0:0:0:0:
224,184,86363,1,8,0:0:0:0:
267,175,86446,1,8,0:0:0:0:
308,188,86529,1,12,0:0:0:0:
308,188,86863,6,0,L|304:232,1,43.75,8|8,2:3|2:3,0:0:0:0:
220,280,87030,2,0,L|216:324,1,43.75,8|8,2:3|2:3,0:0:0:0:
152,192,87196,1,0,0:0:0:0:
148,188,87280,1,0,0:0:0:0:
144,184,87363,6,0,L|148:140,1,43.75,8|8,2:3|2:3,0:0:0:0:
232,92,87530,2,0,L|236:48,1,43.75,8|8,2:3|2:3,0:0:0:0:
308,188,87696,1,0,0:0:0:0:
312,192,87780,1,0,0:0:0:0:
316,196,87863,86,0,L|312:240,1,43.75,8|8,2:3|2:3,0:0:0:0:
228,288,88030,2,0,L|224:332,1,43.75,8|8,2:3|2:3,0:0:0:0:
144,184,88196,1,0,0:0:0:0:
140,180,88280,1,0,0:0:0:0:
136,176,88363,6,0,L|140:132,1,43.75,8|8,2:3|2:3,0:0:0:0:
224,84,88530,1,0,0:0:0:0:
244,80,88613,1,0,0:0:0:0:
264,76,88696,1,0,0:0:0:0:
284,72,88780,1,0,0:0:0:0:
304,68,88863,86,0,P|328:72|356:64,1,45.4999979171754,12|0,0:0|0:0,0:0:0:0:
456,152,89196,1,0,0:0:0:0:
460,156,89280,1,0,0:0:0:0:
464,160,89363,70,0,P|456:184|452:204,1,43.75,4|0,0:0|0:0,0:0:0:0:
380,248,89530,2,0,P|340:240|300:260,1,87.5,0|10,0:0|0:0,0:0:0:0:
244,328,89863,1,0,0:0:0:0:
240,336,90030,1,2,0:0:0:0:
176,276,90196,1,0,0:0:0:0:
88,260,90363,1,10,0:0:0:0:
200,192,90530,1,0,0:0:0:0:
86,130,90696,6,0,P|78:90|98:50,1,87.5,2|0,0:0|0:0,0:0:0:0:
200,192,91030,2,0,P|224:196|244:204,2,43.75,10|0|0,0:0|2:0|0:0,0:0:0:0:
328,100,91363,2,0,P|368:88|412:80,1,87.5,2|0,0:0|0:0,0:0:0:0:
512,204,91696,2,0,P|500:244|492:288,1,87.5,10|0,0:0|0:0,0:0:0:0:
284,360,92030,86,0,B|252:372|213:370|213:370|192:348|182:319|182:319|156:316|136:302,1,175,4|10,0:0|0:0,0:0:0:0:
88,216,92530,1,0,0:0:0:0:
84,208,92696,1,2,0:0:0:0:
188,228,92863,1,0,0:0:0:0:
152,128,93030,2,0,P|144:84|140:41,1,87.5,10|0,0:0|0:0,0:0:0:0:
284,168,93363,5,2,0:0:0:0:
282,189,93447,1,0,0:0:0:0:
280,211,93530,1,0,0:0:0:0:
276,233,93613,1,0,0:0:0:0:
272,254,93696,2,0,P|308:244|360:240,1,87.5,10|0,0:0|2:0,0:0:0:0:
480,112,94030,1,2,0:0:0:0:
461,124,94113,1,0,0:0:0:0:
440,128,94196,1,0,0:0:0:0:
419,123,94279,1,0,0:0:0:0:
402,110,94363,1,12,0:0:0:0:
284,168,94530,2,0,P|276:148|272:124,1,43.75,0|0,2:0|2:0,0:0:0:0:
328,40,94696,86,0,B|268:64|224:24|224:24|196:44|152:36,1,175,4|10,0:0|0:0,0:0:0:0:
72,120,95196,1,0,0:0:0:0:
76,128,95363,1,10,0:0:0:0:
160,156,95530,1,0,0:0:0:0:
216,224,95696,2,0,P|252:208|300:200,1,87.5,10|0,0:0|0:0,0:0:0:0:
480,272,96030,6,0,P|412:296|372:216,1,175,4|10,0:0|0:0,0:0:0:0:
452,32,96530,2,0,B|436:68|432:112|432:112|448:148|444:208,1,175,2|0,0:0|0:0,0:0:0:0:
424,236,96946,1,0,0:0:0:0:
388,252,97030,1,10,0:0:0:0:
388,252,97363,85,4,0:0:0:0:
363,230,97446,1,0,0:0:0:0:
333,217,97529,1,0,0:0:0:0:
301,213,97612,1,0,0:0:0:0:
269,219,97696,2,0,P|264:260|256:308,1,87.5,12|0,0:0|0:0,0:0:0:0:
128,160,98030,2,0,P|132:116|140:72,1,87.5,12|0,0:0|0:0,0:0:0:0:
48,268,98363,1,2,0:0:0:0:
128,252,98530,1,2,0:0:0:0:
128,252,98863,5,0,0:0:0:0:
120,288,98946,1,0,0:0:0:0:
112,324,99030,1,12,0:0:0:0:
28,172,99196,1,0,0:0:0:0:
20,136,99279,1,0,0:0:0:0:
12,100,99363,1,12,0:0:0:0:
144,180,99530,1,8,0:0:0:0:
264,116,99696,1,8,0:0:0:0:
372,184,99863,1,8,0:0:0:0:
388,180,99946,1,8,0:0:0:0:
404,176,100030,6,0,P|368:164|336:160,1,70,4|0,0:0|0:0,0:0:0:0:
323,160,100280,1,0,0:0:0:0:
310,162,100363,1,10,0:0:0:0:
240,220,100530,1,0,0:0:0:0:
184,140,100696,2,0,P|172:104|168:72,1,70,10|0,0:0|0:0,0:0:0:0:
169,59,100946,1,0,0:0:0:0:
172,46,101030,2,0,P|175:27|180:12,2,35,10|0|0,0:0|0:0|0:0,0:0:0:0:
152,220,101363,6,0,B|120:232|120:232|88:216,1,70,10|0,0:0|0:0,0:0:0:0:
76,209,101613,1,0,0:0:0:0:
65,202,101696,1,10,0:0:0:0:
228,168,101863,1,0,0:0:0:0:
241,165,101946,1,0,0:0:0:0:
254,162,102030,2,0,P|240:212|236:264,1,105,12|0,0:0|0:0,0:0:0:0:
238,278,102363,1,10,0:0:0:0:
328,336,102530,1,0,0:0:0:0:
341,339,102613,1,0,0:0:0:0:
354,342,102696,86,0,B|388:328|388:328|416:340|416:340|452:324,1,105,12|0,0:0|0:0,0:0:0:0:
463,319,103030,1,10,0:0:0:0:
416,240,103196,1,0,0:0:0:0:
460,160,103363,2,0,P|468:128|472:92,1,70,10|0,0:0|0:0,0:0:0:0:
471,78,103613,1,0,0:0:0:0:
468,65,103696,1,10,0:0:0:0:
316,61,103863,1,0,0:0:0:0:
304,56,103946,1,0,0:0:0:0:
292,52,104030,6,0,P|244:44|188:40,1,105,12|0,0:0|0:0,0:0:0:0:
177,48,104363,2,0,P|180:82|189:116,1,70,10|0,0:0|0:0,0:0:0:0:
224,186,104613,1,0,0:0:0:0:
232,196,104696,2,0,P|216:192|192:188,1,35,10|0,0:0|0:0,0:0:0:0:
196,264,104863,2,0,P|179:267|156:273,1,35
192,340,105030,1,10,0:0:0:0:
276,264,105196,2,0,P|292:268|310:271,1,35
364,216,105363,6,0,P|356:184|352:148,1,70,12|0,0:0|0:0,0:0:0:0:
352,142,105585,1,0,0:0:0:0:
353,137,105640,1,0,0:0:0:0:
355,132,105696,2,0,P|316:140|284:140,1,70,10|0,0:0|0:0,0:0:0:0:
136,96,106030,70,0,P|172:92|200:108,1,70,10|0,0:0|0:0,0:0:0:0:
208,120,106280,1,0,0:0:0:0:
213,133,106364,2,0,P|214:152|212:169,2,35,10|0|0,0:0|0:0|0:0,0:0:0:0:
180,296,106696,6,0,B|212:308|212:308|244:292,1,70,10|0,0:0|0:0,0:0:0:0:
256,286,106946,1,0,0:0:0:0:
268,280,107030,1,10,0:0:0:0:
88,224,107196,1,0,0:0:0:0:
76,220,107280,1,0,0:0:0:0:
64,216,107363,86,0,P|60:160|88:124,1,105,12|0,0:0|0:0,0:0:0:0:
102,120,107696,1,10,0:0:0:0:
240,192,107863,1,0,0:0:0:0:
252,188,107946,1,0,0:0:0:0:
264,184,108030,6,0,B|288:176|320:180|320:180|340:196|340:196|360:188|388:184,1,125.999996154785,12|0,0:0|0:0,0:0:0:0:
396,184,108363,1,10,0:0:0:0:
328,292,108530,1,0,0:0:0:0:
264,184,108696,2,0,P|256:152|252:116,1,70,10|0,0:0|0:0,0:0:0:0:
253,102,108946,1,0,0:0:0:0:
256,89,109030,1,10,0:0:0:0:
132,200,109196,1,0,0:0:0:0:
120,204,109280,1,0,0:0:0:0:
108,208,109363,86,0,P|156:224|204:248,1,105,12|0,0:0|0:0,0:0:0:0:
224,264,109696,1,12,0:0:0:0:
304,364,109863,2,0,P|308:340|312:328,1,35
372,208,110030,5,8,2:3:0:0:
335,230,110113,1,8,2:3:0:0:
292,225,110196,1,8,2:3:0:0:
261,195,110279,1,8,2:3:0:0:
255,153,110363,5,8,0:0:0:0:
257,149,110419,1,8,0:0:0:0:
259,145,110474,1,8,0:0:0:0:
261,141,110530,2,0,L|258:107,1,35
136,40,110696,70,0,P|172:32|204:28,1,70,4|0,0:0|0:0,0:0:0:0:
219,27,110946,1,0,0:0:0:0:
233,28,111030,1,10,0:0:0:0:
328,64,111196,1,0,0:0:0:0:
261,141,111363,2,0,P|256:168|252:212,1,70,10|0,0:0|0:0,0:0:0:0:
252,224,111613,1,0,0:0:0:0:
254,237,111696,2,0,P|255:252|259:272,2,35,10|0|0,0:0|0:0|0:0,0:0:0:0:
408,312,112030,6,0,B|383:336|383:336|348:332,1,70,10|0,0:0|0:0,0:0:0:0:
334,330,112280,1,0,0:0:0:0:
321,328,112363,1,10,0:0:0:0:
184,276,112530,1,0,0:0:0:0:
176,264,112613,1,0,0:0:0:0:
168,252,112696,2,0,P|180:200|184:148,1,105,12|0,0:0|0:0,0:0:0:0:
182,134,113030,1,10,0:0:0:0:
340,236,113196,1,0,0:0:0:0:
352,228,113280,1,0,0:0:0:0:
364,220,113363,86,0,B|368:180|368:180|352:156|352:156|348:116,1,105,12|0,0:0|0:0,0:0:0:0:
350,102,113696,1,10,0:0:0:0:
396,24,113863,1,0,0:0:0:0:
280,44,114030,2,0,P|244:48|208:48,1,70,10|0,0:0|0:0,0:0:0:0:
196,47,114280,1,0,0:0:0:0:
182,45,114363,1,10,0:0:0:0:
112,204,114530,1,0,0:0:0:0:
125,202,114613,1,0,0:0:0:0:
138,201,114696,6,0,P|124:152|116:96,1,105,12|0,0:0|0:0,0:0:0:0:
116,84,115030,1,10,0:0:0:0:
212,244,115196,1,0,0:0:0:0:
208,256,115280,1,0,0:0:0:0:
204,268,115363,1,10,0:0:0:0:
240,264,115446,1,0,0:0:0:0:
276,260,115530,1,0,0:0:0:0:
312,256,115613,1,0,0:0:0:0:
348,252,115696,1,10,0:0:0:0:
432,352,115863,2,0,P|436:340|440:316,1,35
436,220,116030,6,0,P|432:200|432:148,1,70,12|0,0:0|0:0,0:0:0:0:
432,145,116252,1,0,0:0:0:0:
433,140,116308,1,0,0:0:0:0:
434,135,116363,2,0,P|438:115|438:63,1,70,10|0,0:0|0:0,0:0:0:0:
296,180,116696,70,0,P|264:172|228:168,1,70,10|0,0:0|0:0,0:0:0:0:
214,168,116946,1,0,0:0:0:0:
201,169,117030,2,0,P|176:172|164:176,2,35,10|0|0,0:0|0:0|0:0,0:0:0:0:
120,352,117363,6,0,B|132:320|132:320|120:284,1,70,10|0,0:0|0:0,0:0:0:0:
116,272,117613,1,0,0:0:0:0:
111,258,117696,1,10,0:0:0:0:
48,128,117863,1,0,0:0:0:0:
53,114,117946,1,0,0:0:0:0:
58,100,118030,2,0,B|84:96|108:104|108:104|136:100|160:84,1,105,12|0,0:0|0:0,0:0:0:0:
172,76,118363,1,10,0:0:0:0:
360,128,118530,1,0,0:0:0:0:
368,148,118613,1,0,0:0:0:0:
384,168,118697,86,0,P|344:156|300:160,1,83.9999974365235,12|0,0:0|0:0,0:0:0:0:
192,220,118946,1,0,0:0:0:0:
172,236,119030,2,0,P|184:196|180:152,1,83.9999974365235,12|0,0:0|0:0,0:0:0:0:
152,44,119363,21,8,0:0:0:0:
153,48,119419,1,8,0:0:0:0:
154,52,119474,1,8,0:0:0:0:
155,56,119530,2,0,L|192:48,1,35
276,32,119696,85,8,0:0:0:0:
252,200,119863,86,0,L|256:172,1,26.2500010013581,2|0,0:0|2:0,0:0:0:0:
256,204,120196,6,0,L|252:232,1,26.2500010013581,2|0,0:0|2:0,0:0:0:0:
260,208,120530,86,0,L|264:180,1,26.2500010013581,2|0,0:0|2:0,0:0:0:0:
264,212,120696,6,0,L|260:240,1,26.2500010013581,2|0,0:0|2:0,0:0:0:0:
268,216,120863,86,0,L|272:188,1,26.2500010013581,2|0,0:0|2:0,0:0:0:0:
272,220,121030,6,0,L|268:248,1,26.2500010013581,2|0,0:0|2:0,0:0:0:0:
276,224,121113,86,0,L|280:196,1,26.2500010013581,2|0,0:0|2:0,0:0:0:0:
280,228,121196,6,0,L|276:256,1,26.2500010013581,2|0,0:0|2:0,0:0:0:0:
284,232,121280,86,0,L|288:204,1,26.2500010013581,2|0,0:0|2:0,0:0:0:0:
288,236,121363,70,0,P|360:216|424:224,2,140,4|2|10,0:0|0:0|0:0,0:0:0:0:
220,296,122196,1,2,2:3:0:0:
184,156,122363,1,2,0:0:0:0:
160,236,122530,1,8,0:0:0:0:
160,76,122696,6,0,P|232:84|284:44,1,140,2|2,0:0|0:0,0:0:0:0:
348,168,123196,2,0,P|316:156|280:164,1,70,0|10,2:0|0:0,0:0:0:0:
160,236,123530,2,0,P|128:228|92:224,1,70,2|2,2:3|0:0,0:0:0:0:
264,336,123863,1,8,2:3:0:0:
292,308,123946,1,8,2:3:0:0:
308,272,124030,86,0,B|340:288|340:288|376:280|404:264|404:264|420:276|440:280,2,140,4|2|10,0:0|0:0|0:0,0:0:0:0:
324,120,125030,1,2,0:0:0:0:
348,200,125196,1,8,0:0:0:0:
320,112,125363,6,0,P|324:80|332:44,1,70,2|2,0:0|2:3,0:0:0:0:
336,36,125613,1,2,2:3:0:0:
342,30,125696,1,2,0:0:0:0:
342,30,126030,6,0,L|296:32,1,43.75,8|8,0:0|2:3,0:0:0:0:
168,96,126196,2,0,L|214:98,1,43.75,8|8,2:3|2:3,0:0:0:0:
360,164,126363,6,0,L|314:166,1,43.75,8|8,0:0|2:3,0:0:0:0:
150,230,126530,2,0,L|196:232,1,43.75,8|8,2:3|2:3,0:0:0:0:
400,317,126696,53,4,0:0:0:0:
414,219,126863,1,0,0:0:0:0:
323,256,127030,2,0,B|286:259|286:259|262:235|262:235|230:227|194:231,1,140,10|2,0:0|0:0,0:0:0:0:
120,324,127530,1,0,0:0:0:0:
64,244,127696,1,10,0:0:0:0:
48,148,127863,1,0,2:0:0:0:
217,78,128030,6,0,P|224:112|228:148,1,70,2|0,0:0|0:0,0:0:0:0:
225,270,128363,2,0,B|260:260|285:240|285:240|320:248|352:268,1,140,10|2,0:0|0:0,0:0:0:0:
400,328,128863,1,0,0:0:0:0:
380,196,129030,1,10,0:0:0:0:
400,124,129196,1,0,0:0:0:0:
276,280,129363,5,4,0:0:0:0:
250,287,129446,1,0,0:0:0:0:
225,284,129529,1,0,0:0:0:0:
202,271,129612,1,0,0:0:0:0:
185,251,129696,1,12,0:0:0:0:
320,192,129863,5,0,0:0:0:0:
350,200,129946,1,0,0:0:0:0:
380,196,130029,1,0,0:0:0:0:
407,181,130112,1,0,0:0:0:0:
428,157,130196,1,12,0:0:0:0:
308,84,130363,85,0,0:0:0:0:
272,93,130446,1,0,0:0:0:0:
236,89,130529,1,0,0:0:0:0:
204,72,130612,1,0,0:0:0:0:
181,43,130696,5,8,0:0:0:0:
104,172,130863,1,8,0:0:0:0:
112,180,130946,2,0,L|160:176,1,35,8|0,0:0|0:0,0:0:0:0:
228,244,131113,1,8,0:0:0:0:
236,252,131196,2,0,L|284:248,1,35,8|0,0:0|0:0,0:0:0:0:
72,300,131363,85,8,0:0:0:0:
101,282,131446,1,8,2:3:0:0:
136,280,131529,1,8,0:0:0:0:
168,294,131613,1,8,0:0:0:0:
189,321,131696,5,8,0:0:0:0:
216,352,131779,1,8,0:0:0:0:
256,364,131862,1,8,0:0:0:0:
296,352,131946,1,8,0:0:0:0:
324,320,132030,54,0,P|330:294|338:278,1,43.75,4|0,0:0|2:0,0:0:0:0:
410,202,132196,2,0,P|370:210|330:186,1,87.5,0|10,0:0|0:0,0:0:0:0:
386,126,132530,1,0,0:0:0:0:
384,134,132696,1,2,0:0:0:0:
342,58,132863,1,0,0:0:0:0:
410,2,133030,1,10,0:0:0:0:
382,141,133196,1,0,0:0:0:0:
266,42,133363,6,0,P|225:29|181:21,1,87.5,2|0,0:0|0:0,0:0:0:0:
44,132,133696,2,0,P|48:148|52:180,2,43.75,10|0|0,0:0|2:0|0:0,0:0:0:0:
160,264,134030,2,0,P|188:244|236:220,1,87.5,2|0,0:0|0:0,0:0:0:0:
376,308,134363,2,0,P|356:336|332:384,1,87.5,10|0,0:0|0:0,0:0:0:0:
272,128,134696,86,0,B|288:116|312:116|312:116|328:96|328:96|348:112|348:112|388:100|428:120,1,175,4|10,0:0|0:0,0:0:0:0:
504,168,135196,1,0,0:0:0:0:
512,176,135363,1,2,0:0:0:0:
456,256,135530,1,0,0:0:0:0:
496,344,135696,2,0,P|452:348|412:364,1,87.5,10|0,0:0|0:0,0:0:0:0:
228,256,136030,5,2,0:0:0:0:
340,276,136196,1,0,0:0:0:0:
208,352,136363,2,0,P|212:308|224:264,1,87.5,12|0,0:0|0:0,0:0:0:0:
414,190,136696,2,0,P|388:196|372:204,1,43.75,2|0,0:0|2:0,0:0:0:0:
302,170,136862,1,0,0:0:0:0:
434,94,137029,2,0,P|430:138|418:182,1,87.5,12|0,0:0|0:0,0:0:0:0:
315,263,137280,1,0,2:0:0:0:
308,268,137363,86,0,B|288:280|264:288|264:288|228:272|200:248|200:248|172:248|148:256,1,175,4|10,0:0|0:0,0:0:0:0:
72,296,137863,1,0,0:0:0:0:
64,304,138030,1,2,0:0:0:0:
92,204,138196,1,0,0:0:0:0:
24,124,138363,2,0,P|12:164|8:212,1,87.5,10|0,0:0|0:0,0:0:0:0:
192,264,138696,6,0,P|216:180|196:96,1,175,4|10,0:0|0:0,0:0:0:0:
104,280,139196,2,0,P|108:348|200:348,1,175,2|0,0:0|0:0,0:0:0:0:
208,306,139613,1,0,0:0:0:0:
192,264,139696,1,12,0:0:0:0:
192,264,140030,85,2,0:0:0:0:
223,273,140113,1,0,0:0:0:0:
255,269,140196,1,0,0:0:0:0:
284,253,140280,1,0,0:0:0:0:
303,228,140363,5,12,0:0:0:0:
216,149,140530,1,0,0:0:0:0:
192,264,140696,1,0,0:0:0:0:
319,122,140863,85,12,0:0:0:0:
274,328,141030,1,0,0:0:0:0:
116,188,141196,1,0,0:0:0:0:
344,237,141363,6,0,P|388:225|432:217,1,87.5,12|0,0:0|0:0,0:0:0:0:
163,297,141696,2,0,P|119:285|75:277,1,87.5,10|0,0:0|0:0,0:0:0:0:
71,276,141919,37,0,0:0:0:0:
65,275,141974,1,0,0:0:0:0:
59,274,142030,1,8,0:0:0:0:
268,328,142196,86,0,P|304:332|336:316,1,70,4|0,0:0|2:0,0:0:0:0:
400,216,142696,85,4,0:0:0:0:
344,108,142863,2,0,P|348:76|356:48,1,61.2499981307984,0|0,0:0|2:0,0:0:0:0:
362,36,143363,5,12,0:0:0:0:
344,108,143530,2,0,P|348:76|356:48,1,61.2499981307984,0|0,0:0|2:0,0:0:0:0:
362,36,144030,85,12,0:0:0:0:
276,160,144196,1,4,0:0:0:0:
362,36,144363,5,4,0:0:0:0:
276,160,144530,2,0,P|244:164|216:172,1,61.2499981307984,0|0,0:0|2:0,0:0:0:0:
204,178,145030,85,4,0:0:0:0:
276,160,145196,2,0,P|244:164|216:172,1,61.2499981307984,0|0,0:0|2:0,0:0:0:0:
204,178,145696,5,4,0:0:0:0:
276,160,145863,2,0,P|244:164|216:172,1,61.2499981307984,0|0,0:0|2:0,0:0:0:0:
204,178,146363,85,4,0:0:0:0:
356,193,146530,1,4,0:0:0:0:
204,178,146696,5,4,0:0:0:0:
356,193,146863,2,0,P|381:212|401:233,1,61.2499981307984,0|0,0:0|2:0,0:0:0:0:
409,244,147363,85,12,0:0:0:0:
356,193,147530,2,0,P|381:212|401:233,1,61.2499981307984,0|0,0:0|2:0,0:0:0:0:
409,244,148030,5,4,0:0:0:0:
205,105,148196,2,0,P|176:93|147:86,1,61.2499981307984,0|0,0:0|2:0,0:0:0:0:
76,80,148696,85,12,0:0:0:0:
205,105,148863,2,0,P|176:93|147:86,1,61.2499981307984,0|0,0:0|2:0,0:0:0:0:
76,80,149363,5,4,0:0:0:0:
340,160,149530,1,4,0:0:0:0:
76,80,149696,85,4,0:0:0:0:
340,160,149863,2,0,P|365:141|386:119,1,61.2499981307984,0|0,0:0|2:0,0:0:0:0:
426,61,150363,5,4,0:0:0:0:
340,160,150530,2,0,P|365:141|386:119,1,61.2499981307984,0|0,0:0|2:0,0:0:0:0:
426,61,151030,85,12,0:0:0:0:
340,160,151196,2,0,P|365:141|386:119,1,61.2499981307984,0|0,0:0|2:0,0:0:0:0:
426,61,151696,5,4,0:0:0:0:
225,250,151863,1,4,0:0:0:0:
426,61,152029,1,4,0:0:0:0:
225,250,152196,6,0,P|228:281|236:308,1,48.9999985046387,0|0,0:0|2:0,0:0:0:0:
235,304,152585,1,0,0:0:0:0:
237,309,152641,1,0,0:0:0:0:
240,314,152696,85,0,0:0:0:0:
256,172,152863,1,8,0:0:0:0:
140,88,153030,1,8,0:0:0:0:
124,230,153196,1,8,0:0:0:0:
240,314,153363,85,4,0:0:0:0:
256,172,153530,2,0,P|252:148|244:124,1,48.9999985046387
240,314,154030,5,12,0:0:0:0:
256,172,154196,2,0,P|252:148|244:124,1,48.9999985046387
240,314,154696,85,4,0:0:0:0:
256,172,154863,1,4,0:0:0:0:
240,314,155030,6,0,L|212:300,1,24.4999992523194,4|0,0:0|2:0,0:0:0:0:
256,172,155196,2,0,L|228:184,1,24.4999992523194,0|0,0:0|2:0,0:0:0:0:
124,228,155363,2,0,L|80:220,1,36.749998878479,8|0,0:0|2:0,0:0:0:0:
64,215,155696,85,4,0:0:0:0:
92,352,155863,2,0,P|88:320|80:292,1,61.2499981307984,0|0,0:0|2:0,0:0:0:0:
64,215,156363,6,0,L|62:183,1,24.4999992523194,4|0,0:0|2:0,0:0:0:0:
194,157,156530,2,0,L|169:138,1,24.4999992523194,0|0,0:0|2:0,0:0:0:0:
84,83,156696,2,0,L|74:47,1,36.749998878479,8|0,2:3|2:0,0:0:0:0:
69,26,157030,85,4,0:0:0:0:
148,276,157196,1,4,0:0:0:0:
69,26,157363,5,4,0:0:0:0:
148,276,157530,2,0,P|176:280|196:288,1,48.9999985046387
12,265,158030,85,12,0:0:0:0:
148,276,158196,2,0,P|176:280|196:288,1,48.9999985046387
256,320,158613,1,0,0:0:0:0:
268,328,158696,5,12,0:0:0:0:
320,208,158863,2,0,P|316:180|308:160,1,48.9999985046387
268,328,159363,85,12,0:0:0:0:
320,208,159530,2,0,P|316:180|308:160,1,48.9999985046387
268,328,160030,5,12,0:0:0:0:
388,380,160196,1,0,0:0:0:0:
268,328,160363,85,12,0:0:0:0:
388,380,160530,2,0,P|416:376|436:368,1,48.9999985046387
496,336,160947,1,0,0:0:0:0:
508,328,161030,5,12,0:0:0:0:
356,192,161196,1,0,0:0:0:0:
353,168,161280,1,0,0:0:0:0:
360,145,161363,85,12,0:0:0:0:
431,175,161530,1,8,2:3:0:0:
296,236,161696,1,8,0:0:0:0:
442,172,161863,1,8,2:3:0:0:
252,103,162030,1,8,0:0:0:0:
454,168,162196,1,8,2:3:0:0:
204,280,162363,1,8,0:0:0:0:
466,164,162530,1,8,2:3:0:0:
151,75,162696,6,0,P|207:87|251:103,1,105,12|8,0:0|2:3,0:0:0:0:
308,176,163030,2,0,P|300:210|288:242,1,70,8|8,0:0|2:3,0:0:0:0:
204,280,163280,1,8,2:3:0:0:
188,284,163363,85,8,0:0:0:0:
88,192,163530,1,8,0:0:0:0:
272,316,163696,1,8,0:0:0:0:
372,228,163863,1,8,0:0:0:0:
200,372,164030,70,0,B|186:337|184:304|184:304|196:272|220:244,1,140,4|8,0:0|0:0,0:0:0:0:
228,236,164613,1,8,0:0:0:0:
208,240,164696,1,0,0:0:0:0:
140,176,164863,1,0,0:0:0:0:
168,88,165030,1,8,0:0:0:0:
168,88,165280,5,8,0:0:0:0:
188,84,165363,1,0,0:0:0:0:
247,156,165530,1,0,0:0:0:0:
219,244,165697,1,8,0:0:0:0:
219,244,165946,2,0,P|244:248|256:252,1,35,8|0,0:0|0:0,0:0:0:0:
324,200,166113,2,0,P|349:196|361:192,1,35,8|0,0:0|0:0,0:0:0:0:
132,276,166363,1,8,0:0:0:0:
160,188,166530,1,8,0:0:0:0:
164,180,166613,1,8,0:0:0:0:
168,172,166696,86,0,B|172:204|180:224|180:224|172:248|172:248|180:272|196:304,1,140,4|8,0:0|0:0,0:0:0:0:
204,312,167280,1,8,0:0:0:0:
224,304,167363,1,0,0:0:0:0:
328,304,167530,1,0,0:0:0:0:
412,364,167696,1,8,0:0:0:0:
412,364,167946,5,8,0:0:0:0:
420,344,168030,1,0,0:0:0:0:
408,240,168196,1,0,0:0:0:0:
332,168,168363,1,8,0:0:0:0:
220,232,168530,1,8,0:0:0:0:
240,240,168613,2,0,P|252:236|276:232,1,35,8|0,0:0|0:0,0:0:0:0:
308,316,168780,2,0,P|296:312|272:308,2,35,8|0|0,0:0|0:0|0:0,0:0:0:0:
404,364,169030,5,12,0:0:0:0:
156,140,169363,70,0,P|224:152|264:100,1,140,4|8,0:0|0:0,0:0:0:0:
262,90,169946,1,8,0:0:0:0:
254,74,170030,2,0,P|248:92|246:114,1,35,0|0,0:0|2:0,0:0:0:0:
296,188,170196,2,0,P|301:206|304:228,1,35,0|0,0:0|2:0,0:0:0:0:
240,308,170363,2,0,P|188:296|136:288,1,105,8|8,0:0|0:0,0:0:0:0:
120,288,170696,6,0,P|132:256|136:220,1,70
128,112,171030,1,8,0:0:0:0:
128,112,171280,2,0,P|148:108|164:100,1,35,8|0,0:0|0:0,0:0:0:0:
216,168,171446,2,0,P|236:172|252:180,1,35,8|0,0:0|0:0,0:0:0:0:
48,236,171696,1,8,0:0:0:0:
132,308,171863,1,8,0:0:0:0:
140,316,171946,1,8,0:0:0:0:
148,324,172030,86,0,B|152:288|164:256|164:256|156:224|136:192,1,140,4|8,0:0|0:0,0:0:0:0:
128,188,172613,1,8,0:0:0:0:
148,180,172696,1,0,0:0:0:0:
244,224,172863,1,0,0:0:0:0:
328,160,173030,1,8,0:0:0:0:
328,160,173280,5,8,0:0:0:0:
324,180,173363,1,0,0:0:0:0:
292,80,173530,1,0,0:0:0:0:
348,260,173696,1,12,0:0:0:0:
184,208,173863,1,8,0:0:0:0:
164,218,173946,2,0,P|148:212|128:208,1,35,8|0,0:0|0:0,0:0:0:0:
208,320,174113,2,0,P|224:314|244:310,2,35,8|0|0,0:0|0:0|0:0,0:0:0:0:
268,186,174363,5,12,0:0:0:0:
268,186,174696,6,0,L|264:220,3,35,4|0|0|0,0:0|0:0|0:0|0:0,0:0:0:0:
248,96,175030,1,10,0:0:0:0:
252,88,175196,2,0,L|286:92,3,35,0|0|2|0,0:0|0:0|0:0|0:0,0:0:0:0:
172,152,175530,1,8,0:0:0:0:
166,160,175696,2,0,L|132:156,3,35,2|0|0|0,0:0|0:0|0:0|0:0,0:0:0:0:
272,196,176030,85,10,0:0:0:0:
285,198,176113,1,0,0:0:0:0:
298,200,176196,1,0,0:0:0:0:
311,202,176280,1,0,0:0:0:0:
324,204,176363,1,2,0:0:0:0:
192,300,176530,1,8,0:0:0:0:
194,287,176613,1,0,0:0:0:0:
196,274,176696,1,2,0:0:0:0:
198,261,176780,1,0,0:0:0:0:
200,248,176863,1,0,0:0:0:0:
280,120,177030,1,12,0:0:0:0:
283,106,177113,1,0,0:0:0:0:
284,92,177196,1,0,0:0:0:0:
282,78,177280,1,0,0:0:0:0:
278,65,177363,6,0,L|316:60,3,35,4|0|0|0,0:0|0:0|0:0|0:0,0:0:0:0:
208,36,177696,1,10,0:0:0:0:
144,144,177863,2,0,L|106:139,3,35,0|0|2|0,0:0|0:0|0:0|0:0,0:0:0:0:
214,115,178196,1,8,0:0:0:0:
278,223,178363,2,0,L|316:218,3,35,2|0|0|0,0:0|0:0|0:0|0:0,0:0:0:0:
208,194,178696,85,12,0:0:0:0:
152,332,178863,1,0,0:0:0:0:
148,304,178946,1,0,0:0:0:0:
144,276,179030,1,12,0:0:0:0:
300,380,179196,1,0,0:0:0:0:
304,352,179279,1,0,0:0:0:0:
308,324,179363,6,0,P|306:306|300:288,1,35,8|8,0:0|2:3,0:0:0:0:
208,194,179530,2,0,P|209:176|216:158,1,35,8|8,2:3|2:3,0:0:0:0:
376,24,179696,1,8,0:0:0:0:
352,50,179779,1,8,0:0:0:0:
321,63,179862,1,0,0:0:0:0:
286,62,179946,1,0,0:0:0:0:
257,44,180029,53,12,0:0:0:0:
252,60,180113,1,0,0:0:0:0:
248,76,180196,1,0,0:0:0:0:
244,92,180280,1,0,0:0:0:0:
260,124,180363,1,10,0:0:0:0:
255,140,180447,1,0,0:0:0:0:
251,156,180530,1,0,0:0:0:0:
247,172,180614,1,0,0:0:0:0:
224,208,180696,5,10,0:0:0:0:
240,200,180780,1,0,0:0:0:0:
256,196,180863,1,0,0:0:0:0:
272,196,180946,1,0,0:0:0:0:
304,212,181030,1,10,0:0:0:0:
320,204,181114,1,0,0:0:0:0:
336,200,181197,1,0,0:0:0:0:
352,200,181280,1,0,0:0:0:0:
392,216,181363,85,12,0:0:0:0:
396,232,181446,1,0,0:0:0:0:
400,248,181530,1,0,0:0:0:0:
404,264,181613,1,0,0:0:0:0:
388,296,181696,1,10,0:0:0:0:
392,312,181779,1,0,0:0:0:0:
396,328,181863,1,0,0:0:0:0:
400,344,181946,1,0,0:0:0:0:
432,360,182030,6,0,L|476:348,3,43.75,10|0|0|0,0:0|0:0|0:0|0:0,0:0:0:0:
308,316,182363,2,0,L|264:328,3,43.75,12|0|0|0,0:0|0:0|0:0|0:0,0:0:0:0:
404,208,182696,6,0,P|400:180|408:156,1,52.5000020027161,12|8,0:0|2:3,0:0:0:0:
288,144,183030,2,0,P|300:180|294:223,1,80.5000015354157,8|8,2:3|2:3,0:0:0:0:
480,192,183363,5,8,2:3:0:0:
272,136,183530,1,8,2:3:0:0:
492,194,183696,1,8,2:3:0:0:
220,240,183863,1,8,2:3:0:0:
376,348,184030,5,8,0:0:0:0:
378,342,184085,1,8,0:0:0:0:
379,336,184141,1,8,0:0:0:0:
380,330,184196,1,0,0:0:0:0:
381,324,184252,1,0,0:0:0:0:
380,318,184307,1,0,0:0:0:0:
380,312,184363,69,8,2:3:0:0:
380,312,185363,38,0,B|384:276|404:244|404:244|392:208|368:180|368:180|388:152|392:104,1,224,4|0,0:0|0:0,0:0:0:0:
392,72,185780,1,0,0:0:0:0:
384,36,185863,1,10,0:0:0:0:
212,147,186030,1,0,0:0:0:0:
203,186,186113,1,0,0:0:0:0:
212,226,186196,2,0,P|190:217|163:213,1,45.4999979171754,10|0,0:0|0:0,0:0:0:0:
141,107,186363,2,0,P|159:92|177:71,1,45.4999979171754
279,105,186530,2,0,P|282:128|291:153,1,45.4999979171754,10|0,0:0|0:0,0:0:0:0:
264,312,186696,6,0,B|216:307|174:328|174:328|126:324|88:296,1,181.999991668702,4|0,0:0|0:0,0:0:0:0:
48,76,187196,1,10,0:0:0:0:
66,107,187279,1,0,0:0:0:0:
73,142,187362,1,0,0:0:0:0:
67,178,187446,1,0,0:0:0:0:
48,208,187530,2,0,P|68:200|92:196,1,45.4999979171754,10|0,0:0|0:0,0:0:0:0:
180,112,187696,2,0,P|200:120|224:124,1,45.4999979171754
276,240,187863,2,0,P|296:232|320:228,1,45.4999979171754,10|0,0:0|0:0,0:0:0:0:
400,140,188030,85,4,0:0:0:0:
420,148,188113,1,0,0:0:0:0:
442,151,188196,1,10,0:0:0:0:
290,314,188363,1,0,0:0:0:0:
320,298,188446,1,0,0:0:0:0:
354,294,188529,1,10,0:0:0:0:
180,112,188696,1,0,0:0:0:0:
224,124,188780,1,0,0:0:0:0:
268,116,188863,1,10,0:0:0:0:
32,276,189030,1,0,0:0:0:0:
68,250,189113,1,0,0:0:0:0:
113,249,189196,1,10,0:0:0:0:
150,273,189280,1,0,0:0:0:0:
168,314,189363,6,0,B|188:312|212:304|212:304|236:316|256:336|256:336|288:312|332:308,1,181.999991668702,4|0,0:0|0:0,0:0:0:0:
368,312,189780,1,0,0:0:0:0:
400,328,189863,1,10,0:0:0:0:
436,168,190030,1,0,0:0:0:0:
396,176,190113,1,0,0:0:0:0:
356,176,190196,2,0,P|364:154|369:127,1,45.4999979171754,10|0,0:0|0:0,0:0:0:0:
491,241,190363,2,0,P|466:244|441:253,1,45.4999979171754
480,93,190530,2,0,P|494:110|515:128,1,45.4999979171754,12|0,0:0|0:0,0:0:0:0:
356,276,190696,85,4,0:0:0:0:
232,156,190863,2,0,B|220:120|224:84|224:84|240:64,1,90.9999958343508,10|0,0:0|0:0,0:0:0:0:
264,48,191113,1,0,0:0:0:0:
300,40,191196,2,0,P|296:56|296:88,1,45.4999979171754,10|0,0:0|0:0,0:0:0:0:
356,276,191363,2,0,P|368:232|348:192,1,90.9999958343508,0|10,0:0|0:0,0:0:0:0:
280,332,191696,2,0,P|252:340|236:348,1,45.4999979171754
176,240,191863,2,0,P|148:232|132:224,1,45.4999979171754,10|0,0:0|0:0,0:0:0:0:
40,352,192030,5,0,0:0:0:0:
68,360,192113,1,0,0:0:0:0:
96,356,192196,1,10,0:0:0:0:
264,240,192363,1,0,0:0:0:0:
220,252,192446,1,0,0:0:0:0:
176,240,192530,1,10,0:0:0:0:
120,104,192696,2,0,P|140:96|164:92,1,45.4999979171754
136,80,192863,2,0,P|157:81|180:87,1,45.4999979171754,10|0,0:0|0:0,0:0:0:0:
264,240,193030,2,0,P|260:264|260:288,1,45.4999979171754
416,124,193196,86,0,B|396:132|372:132|372:132|348:144|336:164|336:164|304:132|252:136,1,181.999991668702,12|10,0:0|0:0,0:0:0:0:
192,188,193613,1,0,0:0:0:0:
156,184,193696,1,0,0:0:0:0:
120,180,193780,1,0,0:0:0:0:
84,176,193863,2,0,L|92:220,1,45.4999979171754,10|0,0:0|0:0,0:0:0:0:
188,293,194030,1,0,0:0:0:0:
224,289,194113,1,0,0:0:0:0:
260,285,194196,1,10,0:0:0:0:
124,360,194363,2,0,L|80:352,1,45.4999979171754
8,336,194530,1,10,0:0:0:0:
220,220,194696,5,4,0:0:0:0:
262,206,194779,1,0,0:0:0:0:
305,219,194862,1,10,0:0:0:0:
334,254,194946,1,0,0:0:0:0:
362,288,195029,1,0,0:0:0:0:
405,301,195112,1,0,0:0:0:0:
448,288,195196,1,10,0:0:0:0:
424,144,195363,22,0,P|416:164|412:188,1,45.4999979171754,4|0,0:0|0:0,0:0:0:0:
396,164,195530,2,0,P|399:185|407:208,1,45.4999979171754,8|8,2:3|2:3,0:0:0:0:
280,364,195696,2,0,P|288:342|291:320,1,45.4999979171754,8|8,0:0|2:3,0:0:0:0:
180,120,195863,2,0,P|171:141|168:163,1,45.4999979171754,8|8,0:0|2:3,0:0:0:0:
44,356,196030,54,0,L|92:352,1,45.4999979171754,4|0,0:0|0:0,0:0:0:0:
248,244,196196,2,0,L|200:248,1,45.4999979171754,10|0,0:0|0:0,0:0:0:0:
32,108,196363,1,0,0:0:0:0:
68,116,196446,1,0,0:0:0:0:
100,132,196530,1,10,0:0:0:0:
224,324,196696,2,0,B|256:328|280:348|280:348|304:328|316:300|316:300|344:300|372:316,1,181.999991668702,4|0,0:0|0:0,0:0:0:0:
444,188,197196,5,10,0:0:0:0:
425,159,197279,1,0,0:0:0:0:
418,126,197362,1,0,0:0:0:0:
425,92,197446,1,0,0:0:0:0:
443,64,197530,2,0,P|419:67|395:67,1,45.4999979171754,10|0,0:0|0:0,0:0:0:0:
248,20,197696,1,0,0:0:0:0:
252,24,197780,1,0,0:0:0:0:
256,28,197863,2,0,P|252:44|248:72,1,45.4999979171754,10|0,0:0|0:0,0:0:0:0:
284,264,198030,22,0,P|320:272|360:240,1,90.9999958343508,0|10,0:0|0:0,0:0:0:0:
220,216,198280,2,0,P|176:224|132:244,1,90.9999958343508
216,352,198530,2,0,P|220:332|224:304,1,45.4999979171754,10|0,0:0|0:0,0:0:0:0:
140,152,198696,53,4,0:0:0:0:
120,140,198780,1,0,0:0:0:0:
99,132,198863,1,10,0:0:0:0:
282,198,199030,1,0,0:0:0:0:
250,204,199113,1,0,0:0:0:0:
220,216,199196,1,10,0:0:0:0:
400,112,199363,1,0,0:0:0:0:
360,104,199446,1,0,0:0:0:0:
324,84,199530,1,10,0:0:0:0:
476,264,199696,1,0,0:0:0:0:
438,240,199779,1,0,0:0:0:0:
396,253,199862,1,10,0:0:0:0:
379,294,199946,1,0,0:0:0:0:
400,333,200030,6,0,P|380:324|356:320,1,45.4999979171754
200,312,200196,1,12,0:0:0:0:
165,313,200279,1,0,0:0:0:0:
132,321,200362,1,0,0:0:0:0:
101,333,200446,1,0,0:0:0:0:
72,351,200530,1,12,0:0:0:0:
0,168,200696,1,0,0:0:0:0:
18,178,200780,1,8,2:3:0:0:
32,192,200863,2,0,P|52:178|66:162,1,45.4999979171754,8|8,2:3|2:3,0:0:0:0:
176,16,201030,2,0,P|165:37|160:58,1,45.4999979171754,8|8,2:3|2:3,0:0:0:0:
264,260,201196,2,0,P|262:235|255:215,1,45.4999979171754,8|8,2:3|2:3,0:0:0:0:
40,80,201363,86,0,L|84:88,1,45.4999979171754,4|0,0:0|0:0,0:0:0:0:
220,148,201530,2,0,L|264:140,1,45.4999979171754,10|0,0:0|0:0,0:0:0:0:
400,20,201696,1,0,0:0:0:0:
388,54,201780,1,0,0:0:0:0:
384,90,201863,1,10,0:0:0:0:
404,340,202030,2,0,B|408:300|428:264|428:264|396:228|396:228|388:172,1,181.999991668702,4|0,0:0|0:0,0:0:0:0:
268,324,202530,5,10,0:0:0:0:
228,344,202613,1,0,0:0:0:0:
184,338,202696,1,0,0:0:0:0:
153,305,202780,1,0,0:0:0:0:
147,261,202863,2,0,P|152:232|160:216,1,45.4999979171754,10|0,0:0|0:0,0:0:0:0:
292,144,203030,2,0,P|264:154|246:155,1,45.4999979171754
118,76,203196,2,0,P|140:94|150:109,1,45.4999979171754,10|0,0:0|0:0,0:0:0:0:
248,248,203363,1,0,0:0:0:0:
284,256,203446,1,0,0:0:0:0:
320,244,203530,21,12,0:0:0:0:
364,68,203696,1,12,0:0:0:0:
495,195,203863,1,0,0:0:0:0:
481,198,203946,1,0,0:0:0:0:
467,202,204030,5,12,0:0:0:0:
252,8,204252,1,8,0:0:0:0:
192,292,204474,1,8,0:0:0:0:
437,17,204696,5,12,0:0:0:0:
365,358,204918,1,8,0:0:0:0:
107,125,205140,1,8,0:0:0:0:
499,208,205363,85,4,0:0:0:0:
304,168,205696,21,8,0:0:0:0:
294,165,205751,1,8,0:0:0:0:
284,164,205807,1,8,0:0:0:0:
274,163,205863,86,0,P|280:180|284:216,1,45.4999979171754,8|8,0:0|0:0,0:0:0:0:
240,316,206030,2,0,P|234:299|230:263,1,45.4999979171754
352,224,206196,5,8,0:0:0:0:
361,222,206251,1,8,0:0:0:0:
371,221,206307,1,8,0:0:0:0:
381,220,206363,70,0,P|375:236|371:272,1,45.4999979171754,8|8,0:0|0:0,0:0:0:0:
436,164,206530,2,0,P|441:147|445:111,1,45.4999979171754
344,32,206696,21,8,2:3:0:0:
342,37,206752,1,8,2:3:0:0:
340,42,206808,70,0,B|308:44|308:44|280:32,1,60.6666638895672,8|8,2:3|2:3,0:0:0:0:
212,80,207030,1,8,2:3:0:0:
264,148,207141,2,0,B|296:146|296:146|324:158,1,60.6666638895672,8|8,0:0|0:0,0:0:0:0:
381,220,207363,5,8,0:0:0:0:
175,296,207585,1,8,0:0:0:0:
212,80,207808,1,8,0:0:0:0:
300,317,208030,86,0,B|336:320|336:320|360:308|360:308|396:312,1,98,4|0,0:0|0:0,0:0:0:0:
364,232,209397,2,0,P|360:212|364:192,1,42
392,112,210063,2,0,P|371:118|348:120,1,42
288,176,210730,6,0,P|266:170|244:168,1,42,2|0,0:0|0:0,0:0:0:0:
204,96,211397,2,0,P|200:76|200:52,1,42
152,160,212063,2,0,P|124:164|108:168,1,42
216,216,212729,2,0,P|240:220|260:212,1,42
172,296,213363,86,0,P|148:288|84:320,1,98,4|0,0:3|0:0,0:0:0:0:
16,272,214696,2,0,L|12:256,3,14
80,228,215363,2,0,L|76:212,3,14
152,272,216029,6,0,P|180:268|196:260,1,42,2|0,0:0|0:0,0:0:0:0:
260,212,216696,2,0,P|288:216|304:224,1,42
364,276,217363,2,0,P|392:272|408:268,1,42
460,204,218029,2,0,P|456:176|452:160,1,42
392,108,218696,86,0,L|376:104,3,14,2|0|0|0,0:3|0:0|0:0|0:0,0:0:0:0:
348,168,219363,2,0,L|332:164,3,14
304,228,220029,2,0,L|288:224,3,14
260,288,220696,2,0,L|244:284,3,14
180,232,221363,6,0,L|176:216,3,14,2|0|0|0,0:0|0:0|0:0|0:0,0:0:0:0:
228,152,222029,2,0,L|232:136,3,14
156,60,222696,2,0,P|173:68|197:72,1,42,2|0,0:0|0:0,0:0:0:0:
272,48,223363,2,0,P|289:40|313:36,1,42,2|0,0:0|0:0,0:0:0:0:
300,116,224029,86,0,P|262:87|216:101,1,98,4|0,0:3|0:0,0:0:0:0:
176,176,225363,2,0,P|180:196|188:220,1,42
224,292,226029,2,0,P|220:312|212:336,1,42
264,220,226696,6,0,P|292:212|360:236,1,98,4|0,0:3|0:0,0:0:0:0:
316,168,228029,2,0,P|308:140|320:72,1,98,2|0,0:3|0:0,0:0:0:0:
236,48,229362,86,0,L|216:44,3,20.9999993591309,4|0|0|0,0:3|0:0|0:0|0:0,0:0:0:0:
192,120,230029,2,0,L|172:116,3,20.9999993591309,0|0|0|0,0:3|0:0|0:0|0:0,0:0:0:0:
148,192,230696,2,0,L|128:188,3,20.9999993591309,0|0|0|0,0:3|0:0|0:0|0:0,0:0:0:0:
104,264,231362,2,0,L|84:260,3,20.9999993591309,0|0|0|0,0:3|0:0|0:0|0:0,0:0:0:0:
176,312,232029,6,0,P|196:316|236:300,1,62.9999980773926,2|0,0:0|0:0,0:0:0:0:
276,228,232696,2,0,P|272:196|264:164,1,62.9999980773926
200,112,233362,2,0,P|168:108|136:100,1,62.9999980773926
288,32,234029,2,0,P|280:56|276:96,1,62.9999980773926
348,180,234696,86,0,L|376:184,3,28,4|0|0|0,0:3|0:0|0:0|0:0,0:0:0:0:
280,256,235362,2,0,L|252:252,3,28,2|0|0|0,0:0|0:0|0:0|0:0,0:0:0:0:
180,152,236029,2,0,L|208:156,3,28,2|0|0|0,0:0|0:0|0:0|0:0,0:0:0:0:
112,228,236696,2,0,L|84:224,3,28,2|0|0|0,0:0|0:0|0:0|0:0,0:0:0:0:
172,312,237362,6,0,L|176:340,3,28,2|0|0|0,0:0|0:0|0:0|0:0,0:0:0:0:
292,336,238029,2,0,L|296:364,3,28,2|0|0|0,0:0|0:0|0:0|0:0,0:0:0:0:
352,232,238696,2,0,L|348:204,3,28,2|0|0|0,0:0|0:0|0:0|0:0,0:0:0:0:
232,208,239363,2,0,L|228:180,3,28,2|0|0|0,0:0|0:0|0:0|0:0,0:0:0:0:
152,300,240029,86,0,P|132:304|116:304,1,35,2|0,0:0|0:0,0:0:0:0:
52,248,240362,2,0,P|48:224|48:212,1,35,2|0,0:0|0:0,0:0:0:0:
160,148,240696,2,0,P|124:140|92:136,1,70,2|2,0:0|0:0,0:0:0:0:
92,136,241362,6,0,P|96:120|100:96,1,35,2|0,0:0|0:0,0:0:0:0:
204,92,241696,2,0,P|200:75|194:52,1,35,2|0,0:0|0:0,0:0:0:0:
280,208,242029,2,0,P|276:224|272:256,1,41.9999987182618,2|0,0:0|0:0,0:0:0:0:
116,280,242363,2,0,P|119:296|132:328,1,48.9999985046387,2|0,0:0|0:0,0:0:0:0:
276,360,242696,85,8,0:0:0:0:
288,356,242862,1,8,0:0:0:0:
200,240,243029,1,8,0:0:0:0:
184,224,243195,1,8,0:0:0:0:
340,104,243362,1,8,0:0:0:0:
348,76,243529,1,8,0:0:0:0:
148,12,243696,5,8,0:0:0:0:
220,24,243862,1,8,0:0:0:0:
132,132,244029,1,8,0:0:0:0:
237,102,244195,1,8,0:0:0:0:
172,264,244362,1,8,0:0:0:0:
282,168,244528,1,8,0:0:0:0:
272,380,244696,1,8,0:0:0:0:
347,212,244862,1,8,0:0:0:0:
455,361,245029,6,0,L|480:356,2,23.3333333333333,8|8|8,0:0|0:0|0:0,0:0:0:0:
416,284,245196,2,0,L|440:256,1,35
360,352,245362,70,0,L|340:348,3,17.5,8|0|0|0,0:0|2:0|2:0|2:0,0:0:0:0:
271,282,245696,5,0,2:0:0:0:
250,274,245779,1,0,2:0:0:0:
228,274,245862,1,0,2:0:0:0:
208,282,245946,1,0,2:0:0:0:
191,296,246029,1,0,2:0:0:0:
159,310,246112,1,0,2:0:0:0:
126,299,246195,1,0,2:0:0:0:
109,268,246279,1,0,2:0:0:0:
116,234,246362,1,0,2:0:0:0:
134,185,246445,1,0,2:0:0:0:
130,133,246528,1,0,2:0:0:0:
105,87,246612,1,0,2:0:0:0:
63,55,246696,22,0,B|97:34|136:36|136:36|156:60|192:72|192:72|228:48|276:40|276:40|252:36|232:24,1,280,12|2,0:0|0:0,0:0:0:0:
226,19,247112,1,0,0:0:0:0:
222,11,247196,1,8,0:0:0:0:
292,188,247362,1,2,0:0:0:0:
337,184,247446,1,0,0:0:0:0:
381,180,247529,1,0,0:0:0:0:
425,175,247612,1,0,0:0:0:0:
470,170,247696,1,10,0:0:0:0:
304,324,247862,1,0,0:0:0:0:
292,332,247946,1,0,0:0:0:0:
280,340,248029,6,0,P|228:328|200:316,1,83.9999974365235,10|0,0:0|0:0,0:0:0:0:
116,220,248279,1,0,0:0:0:0:
106,192,248362,2,0,P|102:160|102:148,1,41.9999987182618,2|0,0:0|0:0,0:0:0:0:
128,48,248529,1,8,0:0:0:0:
296,163,248696,21,2,0:0:0:0:
292,207,248779,1,0,0:0:0:0:
288,251,248862,1,0,0:0:0:0:
284,296,248946,1,0,0:0:0:0:
280,340,249029,1,12,0:0:0:0:
492,104,249196,37,0,0:0:0:0:
420,84,249279,1,0,0:0:0:0:
348,104,249362,6,0,B|308:120|308:120|256:108|240:60|240:60|268:68,1,167.999994873047,12|2,0:0|0:0,0:0:0:0:
350,192,249779,1,0,0:0:0:0:
356,200,249862,2,0,B|316:216|316:216|276:216|240:184|240:184|248:204|244:228,1,167.999994873047,8|0,0:0|0:0,0:0:0:0:
243,233,250279,1,0,0:0:0:0:
240,242,250362,1,10,0:0:0:0:
104,340,250529,1,0,0:0:0:0:
101,331,250612,1,0,0:0:0:0:
100,321,250696,5,10,0:0:0:0:
136,116,250862,2,0,P|140:128|144:160,1,41.9999987182618
172,188,251029,2,0,P|174:167|180:147,1,41.9999987182618,2|0,0:0|0:0,0:0:0:0:
212,72,251196,1,8,0:0:0:0:
400,180,251362,21,2,0:0:0:0:
372,195,251445,1,0,0:0:0:0:
341,193,251528,1,0,0:0:0:0:
316,175,251612,1,0,0:0:0:0:
303,147,251696,2,0,P|308:164|312:192,1,41.9999987182618,8|8,0:0|0:0,0:0:0:0:
300,288,251862,1,0,0:0:0:0:
280,316,251946,1,0,0:0:0:0:
252,336,252029,54,0,P|220:324|200:320,1,52.5000020027161,12|0,0:0|0:0,0:0:0:0:
72,344,252196,2,0,B|80:296|100:260|100:260|88:224|64:200|64:200|92:200|120:208,1,210.000008010865,0|8,0:0|0:0,0:0:0:0:
252,228,252696,2,0,P|224:232|212:236,1,41.9999987182618,2|0,0:0|0:0,0:0:0:0:
160,140,252862,2,0,P|132:136|120:132,1,41.9999987182618
284,244,253029,2,0,P|257:254|247:261,1,41.9999987182618,10|0,0:0|2:0,0:0:0:0:
144,112,253195,2,0,P|120:96|111:87,1,41.9999987182618
319,251,253362,5,10,0:0:0:0:
300,68,253529,2,0,P|296:80|292:112,1,41.9999987182618
344,172,253696,1,2,0:0:0:0:
360,168,253779,1,0,0:0:0:0:
376,168,253862,22,0,B|380:212|360:248|360:248|404:236|444:248|444:248|428:276|428:324,1,245.000002336502,10|0,0:0|0:0,0:0:0:0:
431,335,254279,1,0,0:0:0:0:
436,346,254362,1,12,0:0:0:0:
268,192,254529,37,0,0:0:0:0:
196,176,254612,1,0,0:0:0:0:
124,192,254696,6,0,B|112:212|112:240|112:240|134:220|160:216|160:216|140:184|136:148|136:148|144:116|164:84,1,245.000002336502,12|2,0:0|0:0,0:0:0:0:
264,56,255112,1,0,0:0:0:0:
272,60,255196,2,0,P|260:56|228:52,1,41.9999987182618,8|0,0:0|0:0,0:0:0:0:
348,140,255362,2,0,P|336:144|304:148,1,41.9999987182618,2|0,0:0|0:0,0:0:0:0:
464,84,255529,2,0,P|452:80|420:76,1,41.9999987182618
332,184,255696,2,0,P|320:180|288:176,1,41.9999987182618,10|0,0:0|0:0,0:0:0:0:
256,28,255862,2,0,P|244:32|212:36,1,41.9999987182618
76,132,256029,5,10,0:0:0:0:
136,224,256196,1,0,0:0:0:0:
140,232,256279,1,0,0:0:0:0:
144,240,256362,2,0,P|152:212|160:200,1,41.9999987182618,2|0,0:0|0:0,0:0:0:0:
236,112,256529,1,8,0:0:0:0:
212,300,256696,21,2,0:0:0:0:
211,308,256779,1,0,0:0:0:0:
210,316,256862,1,0,0:0:0:0:
208,324,256945,1,0,0:0:0:0:
207,332,257029,2,0,B|232:308|232:308|268:300,1,70,8|8,0:0|0:0,0:0:0:0:
416,292,257195,1,0,0:0:0:0:
460,300,257279,1,0,0:0:0:0:
496,324,257362,53,12,0:0:0:0:
408,192,257529,1,0,0:0:0:0:
387,155,257612,1,0,0:0:0:0:
384,114,257695,1,2,0:0:0:0:
400,75,257779,1,0,0:0:0:0:
431,48,257862,1,8,0:0:0:0:
296,160,258029,1,2,0:0:0:0:
262,183,258112,1,0,0:0:0:0:
220,186,258195,1,0,0:0:0:0:
184,166,258279,1,0,0:0:0:0:
164,129,258362,2,0,B|164:84|188:56|188:56|216:48,1,105.000004005432,10|0,0:0|0:0,0:0:0:0:
304,120,258612,1,0,0:0:0:0:
296,160,258696,6,0,B|292:188|300:216|300:216|344:240|344:240|368:288|340:340,1,210.000008010865,10|2,0:0|0:0,0:0:0:0:
204,304,259112,1,0,0:0:0:0:
224,296,259196,2,0,P|244:292|268:296,1,41.9999987182618,8|0,0:0|0:0,0:0:0:0:
168,368,259362,21,2,0:0:0:0:
143,348,259445,1,0,0:0:0:0:
113,340,259528,1,0,0:0:0:0:
82,344,259612,1,0,0:0:0:0:
55,360,259696,2,0,B|59:327|75:303|75:303|71:271|55:243,1,122.500001168251,12|0,0:0|0:0,0:0:0:0:
0,120,259946,1,0,0:0:0:0:
16,128,260029,54,0,P|40:132|60:128,1,41.9999987182618,12|0,0:0|0:0,0:0:0:0:
192,24,260196,1,0,0:0:0:0:
188,40,260279,1,0,0:0:0:0:
184,56,260362,1,2,0:0:0:0:
180,72,260446,1,0,0:0:0:0:
176,88,260529,2,0,P|200:84|220:88,1,41.9999987182618,8|0,0:0|0:0,0:0:0:0:
352,192,260696,1,2,0:0:0:0:
348,176,260779,1,0,0:0:0:0:
344,160,260862,1,0,0:0:0:0:
340,144,260946,1,0,0:0:0:0:
336,128,261029,6,0,P|360:132|380:128,1,41.9999987182618,10|0,0:0|0:0,0:0:0:0:
512,96,261196,2,0,P|488:92|468:96,1,41.9999987182618
356,208,261362,2,0,P|332:212|312:208,1,41.9999987182618,10|0,0:0|0:0,0:0:0:0:
208,68,261529,2,0,P|232:64|252:68,1,41.9999987182618
380,276,261696,21,2,0:0:0:0:
160,216,261862,1,8,2:3:0:0:
322,56,262029,1,2,0:0:0:0:
331,51,262112,1,0,0:0:0:0:
341,47,262195,1,0,0:0:0:0:
351,45,262279,1,0,0:0:0:0:
361,44,262362,2,0,P|356:56|348:96,1,52.5000020027161,12|8,0:0|0:0,0:0:0:0:
392,340,262529,37,0,0:0:0:0:
416,272,262612,1,0,0:0:0:0:
400,200,262696,6,0,B|364:180|320:176|320:176|280:196|280:196|240:192|204:172,1,210.000008010865,12|10,0:0|0:0,0:0:0:0:
188,156,263112,1,0,0:0:0:0:
180,136,263196,1,0,0:0:0:0:
176,116,263279,1,0,0:0:0:0:
180,96,263362,2,0,P|156:104|136:104,1,41.9999987182618,10|0,0:0|0:0,0:0:0:0:
60,80,263529,1,0,0:0:0:0:
40,76,263612,1,0,0:0:0:0:
19,80,263696,6,0,P|16:108|24:136,1,56,10|0,0:0|0:0,0:0:0:0:
116,216,263862,1,0,0:0:0:0:
92,201,263945,1,0,0:0:0:0:
64,199,264029,1,10,0:0:0:0:
38,209,264111,1,0,0:0:0:0:
19,229,264195,1,0,0:0:0:0:
11,255,264278,1,0,0:0:0:0:
15,283,264362,22,0,P|44:276|84:280,1,70,10|0,0:0|0:0,0:0:0:0:
204,364,264529,1,0,0:0:0:0:
186,334,264612,1,0,0:0:0:0:
185,299,264695,1,10,0:0:0:0:
202,269,264778,1,0,0:0:0:0:
232,251,264862,1,0,0:0:0:0:
266,251,264945,1,0,0:0:0:0:
296,268,265028,37,10,0:0:0:0:
295,273,265085,1,0,2:0:0:0:
294,278,265140,1,0,2:0:0:0:
293,283,265196,6,0,L|345:279,1,52.5000020027161
452,188,265362,2,0,L|400:192,1,52.5000020027161,10|0,0:0|0:0,0:0:0:0:
296,115,265529,85,0,0:0:0:0:
295,110,265586,1,0,2:0:0:0:
294,105,265641,1,0,2:0:0:0:
293,100,265697,22,0,L|345:104,1,52.5000020027161,10|0,0:0|0:0,0:0:0:0:
192,192,265863,2,0,L|140:188,1,52.5000020027161
48,72,266029,69,10,0:0:0:0:
47,67,266086,1,0,2:0:0:0:
46,62,266141,1,0,2:0:0:0:
45,57,266197,54,0,L|40:112,1,52.5000020027161
128,312,266362,2,0,L|133:257,3,52.5000020027161,12|0|0|0,0:0|0:0|0:0|0:0,0:0:0:0:
221,117,266696,37,8,2:3:0:0:
223,112,266751,1,8,2:3:0:0:
226,107,266807,2,0,B|259:113|259:113|295:99,1,70.0000026702882,8|8,2:3|2:3,0:0:0:0:
376,40,267029,6,0,B|370:73|370:73|384:109,1,70.0000026702882,2|8,0:0|0:0,0:0:0:0:
416,184,267251,1,2,0:0:0:0:
360,264,267362,6,0,B|327:257|327:257|291:271,1,70.0000026702882,8|8,0:0|0:0,0:0:0:0:
216,303,267584,1,8,0:0:0:0:
124,236,267696,22,0,B|130:203|130:203|116:167,1,70.0000026702882,8|8,0:0|0:0,0:0:0:0:
85,91,267918,1,8,0:0:0:0:
132,23,268029,6,0,L|236:32,1,105,12|0,0:0|0:0,0:0:0:0:
216,68,268362,2,0,L|320:77,1,105,8|0,2:3|2:3,0:0:0:0:
300,113,268696,1,8,2:3:0:0:
404,122,268862,2,0,L|440:125,2,35,8|8|8,2:3|2:3|2:3,0:0:0:0:
256,180,269112,1,8,2:3:0:0:
252,184,269196,2,0,L|216:181,1,35,8|8,2:3|2:3,0:0:0:0:
300,316,269362,6,0,L|336:319,2,35,2|8|8,0:0|2:3|2:3,0:0:0:0:
140,204,269612,1,8,2:3:0:0:
136,200,269696,2,0,L|139:164,1,35,8|8,2:3|2:3,0:0:0:0:
300,113,269862,2,0,L|303:77,2,35,0|8|8,0:0|2:3|2:3,0:0:0:0:
216,256,270112,1,8,2:3:0:0:
212,260,270196,2,0,L|215:296,1,35,8|8,2:3|2:3,0:0:0:0:
92,104,270362,85,8,0:0:0:0:
87,87,270445,1,8,0:0:0:0:
88,69,270528,1,8,0:0:0:0:
93,52,270611,1,8,0:0:0:0:
102,37,270696,86,0,B|136:36|172:48|172:48|200:32|236:28|236:28|268:44|308:40,1,210.000008010865,4|8,0:0|0:0,0:0:0:0:
416,4,271196,22,0,L|412:40,1,35
396,164,271362,5,8,2:3:0:0:
395,170,271418,1,8,2:3:0:0:
394,176,271474,1,8,2:3:0:0:
328,228,271585,2,0,L|280:220,1,46.6666666666667,8|8,2:3|2:3,0:0:0:0:
30,177,271807,69,8,0:0:0:0:
73,142,271918,1,8,0:0:0:0:
128,141,272029,1,8,0:0:0:0:
174,171,272140,1,8,0:0:0:0:
192,223,272251,1,8,0:0:0:0:
210,275,272362,1,8,0:0:0:0:
255,305,272473,1,0,0:0:0:0:
310,304,272584,1,0,0:0:0:0:
354,269,272695,5,12,0:0:0:0:
354,269,272918,6,0,B|343:222|343:222|359:180,1,93.3333333333333,4|0,0:0|2:0,0:0:0:0:
152,284,273140,2,0,B|196:298|196:298|226:333,1,93.3333333333333,4|0,0:0|2:0,0:0:0:0:
240,101,273362,86,0,B|228:118|205:132|205:132|180:134|160:140,1,93.3333333333333,4|0,0:0|2:0,0:0:0:0:
100,192,273696,86,0,P|96:216|92:232,1,35,8|8,0:0|0:0,0:0:0:0:
172,60,273862,2,0,P|176:36|180:20,1,35,8|8,0:0|0:0,0:0:0:0:
251,189,274029,1,0,0:0:0:0:
256,196,274112,1,0,0:0:0:0:
260,204,274196,2,0,P|284:208|300:212,1,35,8|8,0:0|0:0,0:0:0:0:
424,160,274362,1,0,0:0:0:0:
431,155,274445,1,0,0:0:0:0:
439,151,274529,6,0,P|443:127|447:111,1,35,8|8,0:0|0:0,0:0:0:0:
344,272,274696,2,0,P|340:296|336:312,1,35,8|8,0:0|0:0,0:0:0:0:
287,130,274862,1,0,0:0:0:0:
282,122,274946,1,0,0:0:0:0:
277,114,275029,2,0,P|253:110|237:106,1,35,8|8,0:0|0:0,0:0:0:0:
104,216,275196,1,0,0:0:0:0:
109,224,275280,1,0,0:0:0:0:
114,232,275362,2,0,P|128:228|154:224,1,35,8|8,0:0|0:0,0:0:0:0:
240,332,275529,2,0,P|254:336|280:340,1,35,8|8,0:0|0:0,0:0:0:0:
376,240,275696,5,8,0:0:0:0:
383,236,275751,1,8,0:0:0:0:
390,234,275807,1,8,0:0:0:0:
396,232,275862,2,0,L|424:240,2,23.3333333333333
364,160,276029,70,0,B|352:124|352:124|324:104|324:104|324:72|344:40,1,140,12|8,0:0|2:3,0:0:0:0:
348,36,276529,1,8,2:3:0:0:
204,180,276696,1,8,2:3:0:0:
184,92,276862,1,8,2:3:0:0:
352,300,277029,1,8,2:3:0:0:
392,124,277195,1,8,2:3:0:0:
208,348,277362,6,0,P|188:352|168:352,2,40.2500007677078,8|8|0,0:0|0:0|0:0,0:0:0:0:
352,300,277612,2,0,P|372:300|392:304,2,40.2500007677078,8|8|0,0:0|0:0|0:0,0:0:0:0:
208,219,277862,2,0,P|204:195|204:179,1,40.2500007677078,8|8,0:0|0:0,0:0:0:0:
348,104,278029,85,8,0:0:0:0:
326,114,278112,1,8,0:0:0:0:
293,117,278196,1,0,0:0:0:0:
255,101,278279,1,0,0:0:0:0:
230,59,278362,6,0,L|236:16,1,40.2500007677078,8|8,0:0|0:0,0:0:0:0:
328,192,278529,2,0,L|322:235,1,40.2500007677078,8|8,0:0|0:0,0:0:0:0:
216,328,278696,53,6,3:2:0:0:
192,287,278779,1,2,2:0:0:0:
151,263,278862,1,10,0:0:0:0:
105,262,278946,1,2,2:0:0:0:
69,287,279029,1,2,3:2:0:0:
88,251,279112,1,2,3:2:0:0:
89,208,279196,1,10,0:0:0:0:
69,171,279278,1,2,2:0:0:0:
36,144,279362,5,2,3:2:0:0:
73,143,279445,1,2,2:0:0:0:
107,124,279528,1,10,0:0:0:0:
125,93,279611,1,2,2:0:0:0:
119,56,279696,1,2,3:2:0:0:
135,84,279779,1,2,3:2:0:0:
164,101,279862,1,10,0:0:0:0:
196,101,279945,1,2,2:0:0:0:
220,79,280029,5,2,3:2:0:0:
207,104,280112,1,2,2:0:0:0:
205,131,280195,1,10,0:0:0:0:
219,155,280278,1,2,2:0:0:0:
239,176,280362,5,2,3:2:0:0:
215,176,280446,1,2,3:2:0:0:
194,187,280528,1,10,0:0:0:0:
182,207,280612,1,0,2:0:0:0:
178,230,280696,2,0,P|151:217|133:212,3,45.4999979171754,2|2|10|2,3:2|2:0|0:0|0:0,0:0:0:0:
252,288,281029,6,0,L|284:283,2,30.3333319447836,2|2|2,3:2|3:2|3:2,0:0:0:0:
168,300,281196,1,10,0:0:0:0:
356,352,281362,37,2,3:2:0:0:
359,333,281446,1,2,2:0:0:0:
363,306,281529,1,10,0:0:0:0:
369,270,281612,1,2,2:0:0:0:
376,224,281696,1,2,3:2:0:0:
168,300,281862,5,10,0:0:0:0:
172,277,281946,1,2,2:0:0:0:
177,244,282029,1,2,3:2:0:0:
184,201,282112,1,2,2:0:0:0:
192,146,282196,1,10,0:0:0:0:
356,352,282362,85,2,3:2:0:0:
359,333,282446,1,2,3:2:0:0:
363,306,282529,1,10,0:0:0:0:
369,270,282612,1,2,2:0:0:0:
376,224,282696,1,2,3:2:0:0:
168,300,282862,5,10,0:0:0:0:
172,277,282946,1,2,2:0:0:0:
177,244,283029,1,2,3:2:0:0:
184,201,283112,1,2,3:2:0:0:
192,146,283196,1,10,0:0:0:0:
416,76,283362,85,2,3:2:0:0:
396,116,283446,1,2,2:0:0:0:
357,139,283528,1,10,0:0:0:0:
312,137,283611,1,2,2:0:0:0:
276,112,283696,54,0,L|279:79,2,30.3333319447836,2|2|2,3:2|3:2|3:2,0:0:0:0:
266,196,283862,1,14,0:0:0:0:
200,64,284029,53,6,0:0:0:0:
181,50,284112,1,2,2:0:0:0:
160,41,284195,1,10,0:0:0:0:
138,36,284278,1,2,2:0:0:0:
104,32,284362,85,2,3:2:0:0:
118,50,284445,1,2,3:2:0:0:
127,71,284529,1,10,0:0:0:0:
132,93,284612,1,2,2:0:0:0:
128,140,284696,5,2,3:2:0:0:
151,123,284779,1,2,2:0:0:0:
178,111,284862,1,10,0:0:0:0:
207,104,284945,1,2,2:0:0:0:
260,108,285029,85,2,3:2:0:0:
238,135,285112,1,2,3:2:0:0:
224,169,285195,1,10,0:0:0:0:
216,202,285278,1,2,2:0:0:0:
212,256,285362,22,0,P|184:248|152:244,2,60.6666638895672,6|2|2,3:2|2:0|2:0,0:0:0:0:
324,152,285696,2,0,P|352:160|384:164,2,60.6666638895672,2|2|2,0:0|2:0|2:0,0:0:0:0:
191,81,286029,2,0,P|163:89|131:93,2,60.6666638895672,2|2|2,0:0|2:0|2:0,0:0:0:0:
316,260,286362,6,0,P|324:272|336:284,1,30.3333319447836,2|2,0:0|2:0,0:0:0:0:
296,276,286474,2,0,P|298:290|303:306,1,30.3333319447836,2|2,2:0|2:0,0:0:0:0:
271,282,286585,2,0,P|266:295|265:312,1,30.3333319447836,2|2,2:0|2:0,0:0:0:0:
245,276,286696,53,4,0:0:0:0:
120,164,286862,1,10,0:0:0:0:
160,160,286946,1,2,2:0:0:0:
200,156,287029,1,2,2:0:0:0:
404,108,287196,5,10,0:0:0:0:
376,116,287279,1,2,2:0:0:0:
348,124,287362,1,2,3:2:0:0:
300,108,287446,1,2,2:0:0:0:
252,92,287529,1,10,0:0:0:0:
404,108,287696,85,2,3:2:0:0:
376,116,287779,1,2,3:2:0:0:
348,124,287862,1,10,0:0:0:0:
300,108,287946,1,2,2:0:0:0:
252,92,288029,1,6,3:2:0:0:
492,212,288196,5,10,0:0:0:0:
496,208,288279,1,2,2:0:0:0:
500,204,288362,2,0,L|492:160,1,45.4999979171754,2|2,2:0|3:2,0:0:0:0:
480,80,288529,1,10,0:0:0:0:
360,316,288696,5,4,0:0:0:0:
352,324,288779,1,8,2:3:0:0:
344,332,288862,1,10,2:2:0:0:
336,340,288946,1,8,2:3:0:0:
328,348,289029,5,10,2:2:0:0:
316,304,289112,1,8,2:3:0:0:
304,260,289196,1,8,2:3:0:0:
292,216,289279,1,8,2:3:0:0:
280,172,289362,86,0,L|288:128,3,45.4999979171754,6|2|10|2,3:2|2:0|0:0|2:0,0:0:0:0:
372,152,289696,2,0,L|380:108,3,45.4999979171754,2|2|10|2,3:2|3:2|0:0|2:0,0:0:0:0:
486,251,290029,5,2,3:2:0:0:
463,254,290112,1,2,2:0:0:0:
443,266,290196,1,10,0:0:0:0:
429,282,290278,1,2,2:0:0:0:
419,304,290362,85,2,3:2:0:0:
392,294,290445,1,2,3:2:0:0:
365,294,290528,1,10,0:0:0:0:
339,302,290612,1,2,2:0:0:0:
317,318,290696,69,2,3:2:0:0:
294,292,290779,1,2,2:0:0:0:
268,276,290862,1,10,0:0:0:0:
237,270,290945,1,2,2:0:0:0:
204,270,291029,5,2,3:2:0:0:
215,234,291112,1,2,3:2:0:0:
215,198,291196,1,10,0:0:0:0:
204,164,291279,1,2,2:0:0:0:
183,134,291362,85,2,3:2:0:0:
221,125,291446,1,2,2:0:0:0:
255,105,291528,1,10,0:0:0:0:
283,75,291611,1,2,2:0:0:0:
299,40,291696,54,0,L|296:10,2,30.3333319447836,2|2|2,3:2|3:2|3:2,0:0:0:0:
356,94,291862,1,10,0:0:0:0:
200,36,292029,38,0,P|180:32|152:28,1,45.4999979171754,2|2,3:2|2:0,0:0:0:0:
68,16,292196,1,10,0:0:0:0:
56,14,292279,1,2,2:0:0:0:
44,13,292362,6,0,P|48:33|52:61,1,45.4999979171754,2|2,3:2|3:2,0:0:0:0:
68,164,292529,1,10,0:0:0:0:
70,176,292612,1,2,2:0:0:0:
71,188,292696,86,0,P|91:184|119:180,1,45.4999979171754,2|2,3:2|2:0,0:0:0:0:
240,160,292863,1,10,0:0:0:0:
252,158,292946,1,2,2:0:0:0:
264,157,293029,6,0,P|268:177|272:205,1,45.4999979171754,2|2,3:2|3:2,0:0:0:0:
288,308,293196,1,10,0:0:0:0:
290,320,293279,1,2,2:0:0:0:
291,332,293362,86,0,P|311:336|339:340,1,45.4999979171754,2|2,3:2|2:0,0:0:0:0:
423,352,293529,1,10,0:0:0:0:
435,354,293612,1,2,2:0:0:0:
447,355,293696,6,0,P|451:335|455:307,1,45.4999979171754,2|2,3:2|3:2,0:0:0:0:
464,232,293863,1,10,0:0:0:0:
466,220,293946,1,2,2:0:0:0:
467,208,294029,86,0,P|447:204|419:200,1,45.4999979171754,2|2,3:2|2:0,0:0:0:0:
352,192,294196,1,10,0:0:0:0:
340,190,294279,1,2,2:0:0:0:
328,189,294362,54,0,P|332:216|332:220,2,30.3333319447836,2|2|0,3:2|3:2|3:2,0:0:0:0:
304,108,294529,1,12,0:0:0:0:
336,304,294696,69,6,3:2:0:0:
264,356,294862,2,0,P|216:348|164:344,1,97.9999970092774,10|8,0:0|0:0,0:0:0:0:
104,280,295362,2,0,P|100:256|100:228,1,48.9999985046387,2|8,3:2|0:0,0:0:0:0:
72,236,295612,2,0,P|78:212|90:187,1,48.9999985046387,2|0,0:0|0:0,0:0:0:0:
61,182,295862,2,0,L|76:163,1,24.4999992523194,10|0,0:0|2:0,0:0:0:0:
73,128,296029,5,6,3:2:0:0:
160,172,296196,2,0,P|204:176|248:148,1,97.9999970092774,10|8,0:0|0:0,0:0:0:0:
284,56,296696,1,6,3:2:0:0:
340,136,296862,2,0,P|379:162|427:159,1,97.9999970092774,10|8,3:2|0:0,0:0:0:0:
512,108,297362,85,6,3:2:0:0:
472,220,297529,2,0,P|464:244|448:328,1,97.9999970092774,10|8,0:0|0:0,0:0:0:0:
449,315,298196,22,0,L|441:327,1,12.2499996261597,10|2,0:0|2:0,0:0:0:0:
432,304,298279,2,0,L|427:317,1,12.2499996261597,2|2,2:0|2:0,0:0:0:0:
412,297,298362,2,0,L|410:310,1,12.2499996261597,2|2,3:2|2:0,0:0:0:0:
390,295,298446,2,0,L|392:308,1,12.2499996261597,2|2,3:2|2:0,0:0:0:0:
368,298,298529,2,0,L|360:286,1,12.2499996261597,10|2,0:0|2:0,0:0:0:0:
351,309,298612,2,0,L|346:296,1,12.2499996261597,2|2,2:0|2:0,0:0:0:0:
331,316,298696,2,0,L|329:302,1,12.2499996261597,2|2,3:2|2:0,0:0:0:0:
309,318,298779,2,0,L|311:304,1,12.2499996261597,2|2,2:0|2:0,0:0:0:0:
287,315,298862,86,0,P|256:304|212:296,1,73.4999977569581,10|0,0:0|3:2,0:0:0:0:
132,300,299196,6,0,L|116:304,4,12.2499996261597,10|2|2|2|2,0:0|2:0|2:0|2:0|3:2,0:0:0:0:
108,216,299529,37,8,2:3:0:0:
104,204,299612,1,8,2:3:0:0:
100,192,299696,1,8,2:3:0:0:
144,200,299779,1,8,2:3:0:0:
188,208,299862,1,8,2:3:0:0:
232,216,299946,1,8,2:3:0:0:
276,224,300029,6,0,P|300:216|324:212,1,48.9999985046387,4|0,0:0|0:0,0:0:0:0:
496,200,300196,2,0,P|472:208|448:212,1,48.9999985046387,10|0,0:0|0:0,0:0:0:0:
304,144,300362,2,0,P|326:155|346:169,1,48.9999985046387
476,282,300529,2,0,P|453:270|433:256,1,48.9999985046387,10|0,0:0|0:0,0:0:0:0:
376,96,300696,2,0,P|384:120|388:144,1,48.9999985046387
400,316,300863,2,0,P|392:292|388:268,1,48.9999985046387,10|0,0:0|0:0,0:0:0:0:
456,124,301029,54,0,P|444:146|430:166,1,48.9999985046387
318,296,301196,2,0,P|329:273|343:253,1,48.9999985046387,10|0,0:0|0:0,0:0:0:0:
496,200,301362,2,0,P|472:207|448:211,1,48.9999985046387
276,224,301529,2,0,P|299:216|323:212,1,48.9999985046387,10|0,0:0|0:0,0:0:0:0:
476,282,301696,2,0,P|453:270|433:256,1,48.9999985046387
304,144,301862,2,0,P|326:155|346:169,1,48.9999985046387,10|0,0:0|0:0,0:0:0:0:
400,316,302029,53,0,0:0:0:0:
372,339,302112,1,0,0:0:0:0:
336,343,302195,1,10,0:0:0:0:
303,328,302278,1,0,0:0:0:0:
284,297,302362,5,0,0:0:0:0:
262,254,302445,1,0,0:0:0:0:
219,231,302528,1,10,0:0:0:0:
172,236,302611,1,0,0:0:0:0:
135,268,302696,70,0,P|128:284|124:304,1,35,4|0,0:0|0:0,0:0:0:0:
184,164,302862,2,0,P|191:148|195:128,1,35,10|0,0:0|0:0,0:0:0:0:
180,272,303029,2,0,P|186:288|197:305,1,35
141,163,303195,2,0,P|134:146|123:129,1,35,10|0,0:0|0:0,0:0:0:0:
212,240,303362,2,0,P|228:247|248:251,1,35
108,191,303528,2,0,P|92:184|72:180,1,35,10|0,0:0|0:0,0:0:0:0:
216,195,303695,86,0,P|232:188|249:177,1,35
107,234,303862,2,0,P|90:240|73:251,1,35,10|0,0:0|0:0,0:0:0:0:
184,164,304029,2,0,P|191:148|195:128,1,35
135,268,304196,2,0,P|128:284|124:304,1,35,10|0,0:0|0:0,0:0:0:0:
141,163,304362,2,0,P|134:146|123:129,1,35
180,272,304529,2,0,P|186:288|197:305,1,35,10|0,0:0|0:0,0:0:0:0:
108,191,304696,21,0,0:0:0:0:
88,173,304779,1,0,0:0:0:0:
65,162,304862,1,10,0:0:0:0:
38,160,304945,1,0,0:0:0:0:
13,167,305029,5,0,0:0:0:0:
22,200,305112,1,0,0:0:0:0:
48,223,305196,1,10,0:0:0:0:
82,230,305278,1,0,0:0:0:0:
114,217,305362,70,0,P|138:209|162:205,1,48.9999985046387,4|0,0:0|0:0,0:0:0:0:
334,193,305529,2,0,P|310:201|286:205,1,48.9999985046387,10|0,0:0|0:0,0:0:0:0:
142,137,305695,2,0,P|164:148|184:162,1,48.9999985046387
314,275,305862,2,0,P|291:263|271:249,1,48.9999985046387,10|0,0:0|0:0,0:0:0:0:
214,89,306029,2,0,P|222:113|226:137,1,48.9999985046387
238,309,306196,2,0,P|230:285|226:261,1,48.9999985046387,10|0,0:0|0:0,0:0:0:0:
294,117,306362,54,0,P|282:139|268:159,1,48.9999985046387
156,289,306529,2,0,P|167:266|181:246,1,48.9999985046387,10|0,0:0|0:0,0:0:0:0:
333,193,306695,2,0,P|309:200|285:204,1,48.9999985046387
114,216,306862,2,0,P|137:208|161:204,1,48.9999985046387,10|0,0:0|0:0,0:0:0:0:
314,275,307029,2,0,P|291:263|271:249,1,48.9999985046387
142,137,307195,2,0,P|164:148|184:162,1,48.9999985046387,10|0,0:0|0:0,0:0:0:0:
238,309,307362,53,0,0:0:0:0:
258,339,307445,1,0,0:0:0:0:
289,357,307528,1,10,0:0:0:0:
326,359,307611,1,0,0:0:0:0:
360,346,307696,5,0,0:0:0:0:
392,310,307779,1,0,0:0:0:0:
399,262,307862,1,10,0:0:0:0:
378,218,307945,1,0,0:0:0:0:
338,192,308029,38,0,P|304:180|270:175,1,62.9999980773926,4|0,0:0|0:0,0:0:0:0:
30,158,308196,2,0,P|63:169|97:174,1,62.9999980773926,10|0,0:0|0:0,0:0:0:0:
298,80,308362,2,0,P|267:95|239:114,1,62.9999980773926
58,273,308529,2,0,P|90:256|118:236,1,62.9999980773926,10|0,0:0|0:0,0:0:0:0:
198,12,308696,2,0,P|186:45|181:79,1,62.9999980773926
164,320,308863,2,0,P|175:286|180:252,1,62.9999980773926,10|0,0:0|0:0,0:0:0:0:
86,52,309029,86,0,P|102:82|122:110,1,62.9999980773926,4|0,0:0|0:0,0:0:0:0:
279,292,309196,2,0,P|263:259|244:231,1,62.9999980773926,10|0,0:0|0:0,0:0:0:0:
31,158,309362,2,0,P|64:167|98:173,1,62.9999980773926
338,192,309529,2,0,P|305:180|272:175,1,62.9999980773926,10|0,0:0|0:0,0:0:0:0:
58,273,309696,2,0,P|90:256|118:236,1,62.9999980773926
298,80,309862,2,0,P|267:95|239:114,1,62.9999980773926,10|0,0:0|0:0,0:0:0:0:
164,320,310029,37,4,0:0:0:0:
201,348,310112,1,8,2:3:0:0:
247,350,310195,1,8,2:3:0:0:
287,327,310278,1,8,2:3:0:0:
307,285,310362,1,8,2:3:0:0:
327,243,310446,1,8,0:0:0:0:
367,219,310528,1,0,0:0:0:0:
413,221,310611,1,0,0:0:0:0:
450,250,310696,85,12,0:0:0:0:
441,238,310779,1,0,0:0:0:0:
433,225,310862,1,0,0:0:0:0:
428,210,310945,1,0,0:0:0:0:
424,196,311029,1,10,0:0:0:0:
423,181,311112,1,0,0:0:0:0:
424,166,311195,1,0,0:0:0:0:
427,151,311279,1,0,0:0:0:0:
432,136,311362,1,10,0:0:0:0:
439,123,311445,1,0,0:0:0:0:
449,111,311529,1,0,0:0:0:0:
459,100,311612,1,0,0:0:0:0:
472,91,311696,2,0,P|440:88|428:84,1,45.4999979171754,10|0,0:0|0:0,0:0:0:0:
336,152,311862,2,0,P|303:155|291:159,1,45.4999979171754
208,80,312029,5,12,0:0:0:0:
194,73,312112,1,0,0:0:0:0:
180,67,312195,1,0,0:0:0:0:
166,62,312278,1,0,0:0:0:0:
152,58,312362,1,10,0:0:0:0:
137,54,312445,1,0,0:0:0:0:
122,52,312528,1,0,0:0:0:0:
107,51,312612,1,0,0:0:0:0:
92,51,312696,2,0,L|100:104,3,45.4999979171754,10|0|0|0,0:0|0:0|0:0|0:0,0:0:0:0:
60,204,313029,85,12,0:0:0:0:
71,194,313112,1,0,0:0:0:0:
84,186,313195,1,0,0:0:0:0:
98,181,313278,1,0,0:0:0:0:
113,180,313362,1,10,0:0:0:0:
128,181,313445,1,0,0:0:0:0:
142,185,313528,1,0,0:0:0:0:
155,192,313612,1,0,0:0:0:0:
166,202,313695,1,10,0:0:0:0:
176,214,313778,1,0,0:0:0:0:
183,229,313862,1,0,0:0:0:0:
189,242,313945,1,0,0:0:0:0:
198,254,314028,1,10,0:0:0:0:
209,264,314111,1,0,0:0:0:0:
222,272,314195,1,0,0:0:0:0:
236,276,314278,1,0,0:0:0:0:
251,278,314361,1,10,0:0:0:0:
266,277,314445,1,0,0:0:0:0:
280,272,314528,1,0,0:0:0:0:
293,265,314611,1,0,0:0:0:0:
305,255,314696,6,0,P|296:212|292:204,1,45.4999979171754,12|0,0:0|0:0,0:0:0:0:
368,172,314862,2,0,P|341:136|334:130,1,45.4999979171754
389,69,315029,2,0,P|349:47|341:45,3,45.4999979171754,12|0|0|0,0:0|0:0|0:0|0:0,0:0:0:0:
224,20,315362,5,8,2:3:0:0:
228,36,315446,1,8,2:3:0:0:
232,52,315529,1,8,2:3:0:0:
236,68,315612,1,8,2:3:0:0:
260,96,315696,5,8,2:3:0:0:
252,132,315779,1,8,2:3:0:0:
244,168,315862,1,8,2:3:0:0:
236,204,315946,1,8,2:3:0:0:
268,240,316029,22,0,B|220:244|192:208|192:208|172:216|156:228|156:228|136:220|120:208|120:208|92:212|68:224,1,224,4|0,0:0|0:0,0:0:0:0:
136,344,316529,2,0,P|144:328|148:300,1,45.4999979171754,10|0,0:0|0:0,0:0:0:0:
56,100,316696,2,0,P|58:122|68:143,1,45.4999979171754
204,224,316862,1,10,0:0:0:0:
248,227,316945,1,0,0:0:0:0:
287,205,317028,1,0,0:0:0:0:
306,164,317111,1,0,0:0:0:0:
300,120,317196,53,10,0:0:0:0:
328,138,317279,1,0,0:0:0:0:
361,143,317362,1,4,0:0:0:0:
394,134,317445,1,0,0:0:0:0:
419,112,317529,85,10,0:0:0:0:
402,154,317612,1,0,0:0:0:0:
391,198,317695,1,0,0:0:0:0:
390,243,317778,1,0,0:0:0:0:
396,288,317862,2,0,P|368:276|352:272,1,45.4999979171754,10|0,0:0|0:0,0:0:0:0:
216,344,318029,2,0,P|187:356|171:360,1,45.4999979171754
36,288,318196,1,10,0:0:0:0:
14,248,318279,1,0,0:0:0:0:
18,204,318362,1,0,0:0:0:0:
46,169,318445,1,0,0:0:0:0:
89,156,318529,21,10,0:0:0:0:
103,173,318612,1,0,0:0:0:0:
114,193,318696,1,4,0:0:0:0:
119,215,318778,1,0,0:0:0:0:
120,238,318862,21,10,0:0:0:0:
158,215,318945,1,0,0:0:0:0:
203,215,319028,1,0,0:0:0:0:
242,238,319111,1,0,0:0:0:0:
263,277,319196,2,0,P|284:268|312:264,1,45.4999979171754,10|0,0:0|0:0,0:0:0:0:
364,160,319362,2,0,P|341:156|321:146,1,45.4999979171754
372,40,319529,37,12,0:0:0:0:
400,240,319696,1,12,0:0:0:0:
212,164,319862,2,0,L|252:156,1,40.2500007677078,4|0,0:0|0:0,0:0:0:0:
321,146,320029,37,8,2:3:0:0:
325,150,320085,1,8,2:3:0:0:
329,154,320140,70,0,L|320:214,1,60.6666638895672,8|8,2:3|2:3,0:0:0:0:
232,324,320362,2,0,L|223:264,2,60.6666638895672,8|8|0,0:0|0:0|0:0,0:0:0:0:
101,172,320696,21,8,0:0:0:0:
107,173,320751,1,8,0:0:0:0:
113,174,320807,1,0,0:0:0:0:
119,175,320862,1,0,0:0:0:0:
125,176,320918,1,8,0:0:0:0:
131,177,320974,1,8,0:0:0:0:
137,178,321029,2,0,L|168:168,5,30.3333319447836,0|0|8|8|0|0,0:0|0:0|0:0|0:0|0:0|0:0,0:0:0:0:
192,276,321362,6,0,L|188:316,1,40.2500007677078,12|0,0:0|0:0,0:0:0:0:
296,252,321529,1,0,0:0:0:0:
312,248,321612,1,0,0:0:0:0:
328,244,321696,1,0,0:0:0:0:
344,240,321779,1,0,0:0:0:0:
360,236,321862,38,0,L|356:196,1,40.2500007677078,12|0,0:0|0:0,0:0:0:0:
205,154,322029,1,0,0:0:0:0:
189,150,322112,1,0,0:0:0:0:
173,146,322196,1,0,0:0:0:0:
157,142,322279,1,0,0:0:0:0:
141,138,322362,54,0,L|137:178,1,40.2500007677078,12|0,0:0|0:0,0:0:0:0:
124,316,322529,1,0,0:0:0:0:
140,312,322612,1,0,0:0:0:0:
156,308,322696,1,0,0:0:0:0:
172,304,322779,1,0,0:0:0:0:
188,300,322862,38,0,L|192:340,1,40.2500007677078,12|0,0:0|0:0,0:0:0:0:
312,320,323029,1,0,0:0:0:0:
328,324,323112,1,0,0:0:0:0:
344,328,323196,1,0,0:0:0:0:
360,332,323279,1,0,0:0:0:0:
376,336,323362,54,0,L|380:296,1,40.2500007677078,12|0,0:0|0:0,0:0:0:0:
396,148,323529,1,0,0:0:0:0:
412,144,323612,1,0,0:0:0:0:
428,140,323695,38,0,L|432:180,1,40.2500007677078,12|0,0:0|0:0,0:0:0:0:
296,232,323862,1,0,0:0:0:0:
280,228,323945,1,0,0:0:0:0:
264,224,324029,6,0,L|228:232,3,35,12|8|8|0,0:0|2:3|2:3|2:3,0:0:0:0:
160,192,324362,1,8,0:0:0:0:
156,168,324446,1,8,2:3:0:0:
152,144,324529,1,8,2:3:0:0:
148,120,324612,1,8,2:3:0:0:
144,96,324696,6,0,L|180:104,1,35,8|8,0:0|2:3,0:0:0:0:
288,156,324862,2,0,L|324:148,1,35,8|8,2:3|2:3,0:0:0:0:
404,56,325029,5,8,0:0:0:0:
403,51,325085,1,8,0:0:0:0:
402,46,325140,1,8,0:0:0:0:
401,41,325196,2,0,L|424:36,2,23.3333333333333
320,56,325362,69,12,0:0:0:0:
384,280,325585,1,8,0:0:0:0:
158,223,325807,1,8,0:0:0:0:
416,149,326029,5,4,0:0:0:0:
254,316,326252,1,8,0:0:0:0:
190,92,326474,1,8,0:0:0:0:
384,280,326696,53,4,0:0:0:0:
158,223,328029,5,4,0:0:0:0:
320,56,329362,85,4,0:0:0:0:
254,316,330696,5,4,0:0:0:0:
222,204,330862,1,0,0:0:0:0:
335,233,331029,2,0,P|340:200|352:164,1,70,8|8,2:3|2:3,0:0:0:0:
392,68,331279,1,8,2:3:0:0:
388,44,331362,5,8,0:0:0:0:
276,156,331529,1,8,0:0:0:0:
324,308,331696,1,8,0:0:0:0:
436,196,331863,1,8,0:0:0:0:
260,148,332029,70,0,P|244:144|192:136,1,70,4|0,0:0|2:0,0:0:0:0:
280,248,332362,2,0,P|264:244|212:236,1,70,2|0,0:0|2:0,0:0:0:0:
436,196,332696,2,0,P|419:197|367:207,1,70,2|0,0:0|2:0,0:0:0:0:
488,283,333029,2,0,P|471:284|419:294,1,70,2|0,0:0|2:0,0:0:0:0:
236,344,333362,6,0,P|252:348|304:356,1,70,4|0,0:0|2:0,0:0:0:0:
216,244,333695,2,0,P|232:248|284:256,1,70,2|0,0:0|2:0,0:0:0:0:
60,296,334029,2,0,P|76:294|128:284,1,70,2|0,0:0|2:0,0:0:0:0:
8,209,334362,1,2,0:0:0:0:
36,132,334529,37,0,0:0:0:0:
38,127,334585,1,0,0:0:0:0:
40,122,334640,1,0,0:0:0:0:
42,117,334696,70,0,L|76:112,1,35,12|8,0:0|2:3,0:0:0:0:
164,160,335029,2,0,L|216:152,1,52.5000020027161,8|8,2:3|2:3,0:0:0:0:
48,36,335362,5,8,0:0:0:0:
212,240,335529,1,8,2:3:0:0:
20,216,335695,1,8,0:0:0:0:
240,60,335862,1,8,2:3:0:0:
356,352,336029,85,12,0:0:0:0:
212,240,336196,1,8,2:3:0:0:
200,216,336279,2,0,P|204:192|208:180,1,35,8|0,2:3|0:0,0:0:0:0:
317,230,336446,1,8,2:3:0:0:
305,254,336529,2,0,P|309:278|313:290,1,35,8|0,2:3|0:0,0:0:0:0:
134,158,336696,5,8,0:0:0:0:
159,123,336779,1,8,2:3:0:0:
199,107,336862,1,8,0:0:0:0:
242,115,336945,1,8,0:0:0:0:
273,145,337029,1,8,0:0:0:0:
304,174,337112,1,8,0:0:0:0:
346,182,337195,1,0,0:0:0:0:
386,167,337278,1,0,0:0:0:0:
412,132,337362,54,0,B|416:96|424:68|424:68|416:36|396:4,1,136.499993751526,12|0,0:0|0:0,0:0:0:0:
392,8,337696,1,10,0:0:0:0:
304,84,337862,2,0,P|264:72|216:64,1,90.9999958343508,0|10,0:0|0:0,0:0:0:0:
96,148,338196,1,0,0:0:0:0:
88,164,338279,1,0,0:0:0:0:
80,180,338362,2,0,P|96:176|124:172,1,45.4999979171754,10|0,0:0|0:0,0:0:0:0:
228,240,338529,2,0,P|250:237|272:231,1,45.4999979171754
352,136,338696,6,0,P|412:120|472:160,1,136.499993751526,10|0,0:0|0:0,0:0:0:0:
500,228,339029,2,0,P|504:260|504:276,2,45.4999979171754,10|0|0,0:0|2:0|0:0,0:0:0:0:
360,344,339362,2,0,P|368:300|384:256,1,90.9999958343508,10|0,0:0|0:0,0:0:0:0:
228,212,339612,1,0,0:0:0:0:
216,208,339696,2,0,P|231:250|239:295,1,90.9999958343508,10|0,0:0|0:0,0:0:0:0:
84,340,339946,1,0,0:0:0:0:
72,344,340029,86,0,B|80:296|80:296|64:260|64:260|72:212,1,136.499993751526,12|0,0:0|0:0,0:0:0:0:
76,216,340362,1,10,0:0:0:0:
156,128,340529,2,0,P|148:92|140:36,1,90.9999958343508,0|10,0:0|0:0,0:0:0:0:
268,168,340862,1,0,0:0:0:0:
260,195,340946,1,0,0:0:0:0:
248,219,341029,2,0,P|292:203|332:223,1,90.9999958343508,10|0,0:0|0:0,0:0:0:0:
368,288,341279,1,0,0:0:0:0:
372,308,341362,6,0,B|384:272|384:272|412:256|432:236|432:236|440:196,1,136.499993751526,10|0,0:0|0:0,0:0:0:0:
432,124,341696,2,0,B|428:80|428:80|456:40,1,90.9999958343508,10|0,0:0|0:0,0:0:0:0:
336,176,342029,2,0,P|296:180|264:144,1,90.9999958343508,10|0,0:0|0:0,0:0:0:0:
260,72,342279,1,0,0:0:0:0:
264,52,342362,1,10,0:0:0:0:
176,156,342529,1,0,0:0:0:0:
124,168,342612,1,0,0:0:0:0:
72,152,342696,86,0,B|84:192|84:192|72:224|72:224|76:252|96:280,1,136.499993751526,12|0,0:0|0:0,0:0:0:0:
100,284,343029,1,10,0:0:0:0:
220,240,343196,2,0,P|260:228|308:220,1,90.9999958343508,0|10,0:0|0:0,0:0:0:0:
436,208,343529,1,0,0:0:0:0:
456,208,343612,1,0,0:0:0:0:
476,212,343696,2,0,P|464:168|480:128,1,90.9999958343508,10|0,0:0|0:0,0:0:0:0:
424,64,343946,1,0,0:0:0:0:
408,52,344029,6,0,B|368:68|368:68|344:56|320:48|320:48|280:60,1,136.499993751526,10|0,0:0|0:0,0:0:0:0:
274,63,344362,1,10,0:0:0:0:
192,204,344529,2,0,B|176:160|176:160|196:120,1,90.9999958343508,0|10,0:0|0:0,0:0:0:0:
280,252,344862,1,0,0:0:0:0:
272,284,344946,1,0,0:0:0:0:
264,316,345029,1,10,0:0:0:0:
352,200,345196,2,0,L|396:192,1,45.4999979171754
472,180,345362,86,0,P|408:176|376:112,1,136.499993751526,12|0,0:0|0:0,0:0:0:0:
380,112,345696,2,0,P|336:120|292:136,1,90.9999958343508,10|0,0:0|0:0,0:0:0:0:
188,192,346029,1,10,0:0:0:0:
124,92,346196,1,0,0:0:0:0:
132,60,346279,1,0,0:0:0:0:
140,28,346362,1,12,0:0:0:0:
200,200,346529,2,0,L|208:244,1,45.4999979171754
60,332,346696,5,8,0:0:0:0:
76,302,346779,1,8,0:0:0:0:
106,286,346862,1,0,0:0:0:0:
140,288,346945,1,0,0:0:0:0:
167,307,347029,1,8,0:0:0:0:
194,326,347112,1,8,0:0:0:0:
228,327,347195,1,0,0:0:0:0:
257,312,347278,1,0,0:0:0:0:
274,282,347362,37,8,0:0:0:0:
271,276,347418,1,8,0:0:0:0:
268,270,347474,1,0,0:0:0:0:
265,264,347529,2,0,L|272:232,2,30.3333319447836,8|8|0,0:0|0:0|0:0,0:0:0:0:
244,164,347696,70,0,P|240:140|240:116,1,45.4999979171754,12|0,0:0|2:0,0:0:0:0:
356,112,347862,2,0,P|360:136|360:160,1,45.4999979171754,0|0,0:0|2:0,0:0:0:0:
256,24,348029,70,0,P|324:28|396:36,1,140,12|2,0:0|0:0,0:0:0:0:
472,108,348529,1,8,0:0:0:0:
420,200,348696,2,0,P|408:264|400:340,1,140,2|10,0:0|0:0,0:0:0:0:
384,308,349112,1,0,0:0:0:0:
353,291,349195,1,0,0:0:0:0:
319,287,349278,1,0,0:0:0:0:
286,298,349362,6,0,B|275:255|275:255|279:227|279:227|263:207|263:207|259:159,1,140,10|2,0:0|0:0,0:0:0:0:
296,68,349862,1,8,0:0:0:0:
212,4,350029,2,0,P|140:12|76:32,1,140,2|8,0:0|0:0,0:0:0:0:
73,38,350418,37,8,0:0:0:0:
71,44,350474,1,8,0:0:0:0:
69,50,350529,2,0,L|80:84,1,35
112,176,350696,38,0,P|172:152|240:176,1,140,12|2,0:0|0:0,0:0:0:0:
312,252,351196,1,8,0:0:0:0:
400,196,351362,2,0,P|392:124|376:56,1,140,2|10,0:0|0:0,0:0:0:0:
352,84,351779,1,0,0:0:0:0:
323,103,351862,1,0,0:0:0:0:
288,104,351945,1,0,0:0:0:0:
258,86,352029,6,0,B|224:100|224:100|196:92|160:88|160:88|124:96,1,140,12|0,0:0|0:0,0:0:0:0:
88,196,352529,1,8,0:0:0:0:
168,264,352696,37,8,0:0:0:0:
172,262,352751,1,8,0:0:0:0:
176,260,352807,1,8,0:0:0:0:
180,258,352862,2,0,L|216:268,1,35
296,288,353029,70,0,L|364:272,1,70,12|0,0:0|0:0,0:0:0:0:
440,188,353362,70,0,B|446:152|456:120|456:120|450:85|436:52,1,140,12|2,0:0|0:0,0:0:0:0:
352,116,353862,1,8,0:0:0:0:
260,64,354029,2,0,P|240:56|224:52,2,35,2|0|0,0:0|2:0|0:0,0:0:0:0:
261,170,354362,1,10,0:0:0:0:
241,187,354445,1,0,0:0:0:0:
217,197,354528,1,0,0:0:0:0:
191,197,354611,1,0,0:0:0:0:
166,188,354696,6,0,P|196:248|216:320,1,140,12|2,0:0|0:0,0:0:0:0:
312,360,355196,1,8,0:0:0:0:
392,292,355362,2,0,P|408:228|416:152,1,140,2|8,0:0|0:0,0:0:0:0:
413,150,355751,37,8,0:0:0:0:
411,145,355807,1,8,0:0:0:0:
409,140,355862,2,0,L|416:104,1,35
336,92,356029,38,0,B|300:88|300:88|272:68|272:68|236:72|204:88,1,140,12|2,0:0|0:0,0:0:0:0:
124,152,356529,1,8,0:0:0:0:
24,120,356696,1,2,0:0:0:0:
101,49,356862,1,0,0:0:0:0:
147,255,357029,1,10,0:0:0:0:
171,263,357112,1,0,0:0:0:0:
197,260,357195,1,0,0:0:0:0:
220,247,357278,1,0,0:0:0:0:
234,226,357362,6,0,L|224:156,1,70,12|8,0:0|2:3,0:0:0:0:
212,72,357612,1,8,2:3:0:0:
216,52,357696,2,0,L|288:60,1,70,8|8,2:3|2:3,0:0:0:0:
307,62,357946,1,8,2:3:0:0:
328,64,358029,5,8,0:0:0:0:
316,204,358196,1,8,0:0:0:0:
252,128,358362,1,8,0:0:0:0:
392,140,358529,1,8,0:0:0:0:
308,284,358696,70,0,P|240:292|168:308,1,140,12|0,0:0|0:0,0:0:0:0:
92,336,359196,1,0,0:0:0:0:
24,152,359362,2,0,P|92:167|161:175,1,140,12|0,0:0|0:0,0:0:0:0:
179,174,359779,1,0,0:0:0:0:
196,171,359862,1,0,0:0:0:0:
213,167,359946,1,0,0:0:0:0:
229,162,360029,6,0,P|200:224|228:288,1,140,12|0,0:0|0:0,0:0:0:0:
300,328,360529,1,0,0:0:0:0:
420,256,360696,1,12,0:0:0:0:
416,240,360779,1,0,0:0:0:0:
412,222,360862,1,0,0:0:0:0:
410,204,360946,1,0,0:0:0:0:
392,184,361029,1,12,0:0:0:0:
392,167,361112,1,0,0:0:0:0:
393,149,361195,1,0,0:0:0:0:
395,131,361279,1,0,0:0:0:0:
416,104,361362,86,0,P|352:120|320:64,1,140,12|0,0:0|0:0,0:0:0:0:
392,24,361862,1,0,0:0:0:0:
229,162,362029,2,0,B|193:174|169:198|169:198|157:166|129:138,1,140,12|0,0:0|0:0,0:0:0:0:
118,128,362446,1,0,0:0:0:0:
104,116,362529,1,0,0:0:0:0:
89,106,362612,1,0,0:0:0:0:
73,97,362696,6,0,P|108:84|140:76,1,70,12|0,0:0|0:0,0:0:0:0:
229,162,362946,1,0,0:0:0:0:
249,174,363029,2,0,P|284:187|316:195,1,70,12|0,0:0|0:0,0:0:0:0:
405,109,363279,1,0,0:0:0:0:
425,97,363362,6,0,L|420:132,1,35,8|8,2:3|2:3,0:0:0:0:
320,300,363529,2,0,L|315:265,1,35,8|8,2:3|2:3,0:0:0:0:
256,92,363696,21,8,0:0:0:0:
254,87,363751,1,8,0:0:0:0:
252,82,363807,1,8,0:0:0:0:
250,77,363862,2,0,L|256:40,1,35
168,152,364029,37,12,0:0:0:0:
135,164,364112,1,0,0:0:0:0:
101,158,364195,1,0,0:0:0:0:
75,136,364278,1,0,0:0:0:0:
63,103,364362,2,0,L|68:68,3,35,10|0|0|0,0:0|0:0|0:0|0:0,0:0:0:0:
0,192,364696,5,10,0:0:0:0:
4,228,364779,1,0,0:0:0:0:
8,264,364862,1,0,0:0:0:0:
12,300,364946,1,0,0:0:0:0:
16,336,365029,2,0,L|52:340,3,35,10|0|0|0,0:0|0:0|0:0|0:0,0:0:0:0:
164,256,365362,85,12,0:0:0:0:
193,238,365445,1,0,0:0:0:0:
228,236,365528,1,0,0:0:0:0:
259,251,365611,1,0,0:0:0:0:
279,279,365696,2,0,L|275:319,3,35,10|0|0|0,0:0|0:0|0:0|0:0,0:0:0:0:
368,188,366029,5,10,0:0:0:0:
378,154,366112,1,0,0:0:0:0:
377,120,366195,1,0,0:0:0:0:
365,87,366278,1,0,0:0:0:0:
342,61,366362,2,0,B|300:72|300:72|260:56,1,83.9999974365235,12|0,0:0|0:0,0:0:0:0:
160,12,366612,1,0,0:0:0:0:
140,4,366696,85,12,0:0:0:0:
116,156,366862,1,8,0:0:0:0:
124,144,366946,1,8,0:0:0:0:
132,132,367029,2,0,L|136:168,1,35
152,292,367196,5,12,0:0:0:0:
304,268,367362,1,8,0:0:0:0:
292,276,367446,1,8,0:0:0:0:
280,284,367529,2,0,L|316:288,1,35
440,304,367696,85,12,0:0:0:0:
396,120,367862,2,0,L|392:160,1,35
384,232,368029,85,8,0:0:0:0:
408,16,368196,1,8,0:0:0:0:
209,104,368362,1,8,0:0:0:0:
384,232,369362,54,0,P|356:244|312:276,1,84,2|0,0:0|0:0,0:0:0:0:
232,352,370029,2,0,P|190:334|125:286,1,125.999996154785,2|0,0:0|0:0,0:0:0:0:
220,204,370696,2,0,P|236:152|160:80,1,168,2|0,0:0|0:0,0:0:0:0:
72,246,371363,86,0,B|124:274|172:246|172:246|220:218|272:246,1,210.000008010865,4|0,0:0|0:0,0:0:0:0:
352,332,372196,1,2,0:0:0:0:
384,260,372363,1,0,0:0:0:0:
448,216,372529,1,0,0:0:0:0:
356,148,372696,6,0,L|360:96,1,52.5000020027161,2|0,0:0|0:0,0:0:0:0:
420,52,373029,2,0,P|368:60|332:28,1,105.000004005432
212,92,373529,1,2,0:0:0:0:
244,164,373696,1,0,0:0:0:0:
308,208,373862,1,0,0:0:0:0:
216,276,374029,86,0,L|220:328,1,52.5000020027161,2|0,0:0|0:0,0:0:0:0:
116,208,374363,2,0,L|120:256,2,35.0000013351441,2|0|0,0:0|0:0|0:0,0:0:0:0:
240,112,374696,2,0,L|244:164,1,52.5000020027161,2|0,0:0|0:0,0:0:0:0:
64,60,375029,2,0,P|100:44|140:32,1,78.7500030040742,2|0,0:0|0:0,0:0:0:0:
160,28,375363,5,2,0:0:0:0:
164,112,375529,2,0,P|244:124|316:148,1,157.500006008148
392,256,376196,1,2,0:0:0:0:
328,300,376363,1,0,0:0:0:0:
296,372,376529,1,0,0:0:0:0:
200,284,376696,86,0,P|204:240|216:180,1,105.000004005432,2|0,0:0|0:0,0:0:0:0:
292,108,377196,1,2,0:0:0:0:
228,24,377363,2,0,P|192:16|148:12,1,78.7500030040742,2|0,0:0|0:0,0:0:0:0:
132,12,377696,1,2,0:0:0:0:
212,104,377863,1,2,0:0:0:0:
312,36,378029,6,0,P|340:28|392:20,1,78.7500030040742,2|0,0:0|0:0,0:0:0:0:
468,16,378363,2,0,P|460:44|452:96,1,78.7500030040742,2|0,0:0|0:0,0:0:0:0:
448,172,378696,1,2,0:0:0:0:
328,192,378863,1,2,0:0:0:0:
344,120,379029,1,0,0:0:0:0:
368,304,379196,1,2,0:0:0:0:
292,352,379363,86,0,P|256:340|216:332,1,78.7500030040742,2|0,0:0|0:0,0:0:0:0:
144,324,379696,2,0,L|140:288,2,35.0000013351441,2|0|0,0:0|0:0|0:0,0:0:0:0:
176,220,380029,1,0,0:0:0:0:
144,152,380363,1,0,0:0:0:0:
80,112,380696,6,0,P|132:116|172:84,1,105.000004005432,2|0,0:0|0:0,0:0:0:0:
112,48,381196,2,0,L|60:40,1,52.5000020027161
36,224,381529,1,2,0:0:0:0:
136,192,381696,1,0,0:0:0:0:
240,212,381863,1,0,0:0:0:0:
324,352,382029,86,0,P|332:320|340:300,1,52.5000020027161,2|2,0:0|0:0,0:0:0:0:
400,184,382363,1,2,0:0:0:0:
400,184,382696,2,0,P|348:196|312:164,1,105.000004005432,2|0,0:0|0:0,0:0:0:0:
284,96,383196,6,0,P|296:144|304:200,1,105.000004005432,2|2,0:0|0:0,0:0:0:0:
220,300,383696,2,0,P|200:292|168:284,1,52.5000020027161,2|0,0:0|0:0,0:0:0:0:
76,192,384029,2,0,B|64:156|64:156|68:116,2,78.7500030040742,2|2|2,0:0|0:0|0:0,0:0:0:0:
192,208,384696,86,0,L|220:200,1,28,2|0,0:0|0:0,0:0:0:0:
148,320,385029,2,0,L|184:309,1,38.5000011749268,2|0,0:0|0:0,0:0:0:0:
21,129,385363,2,0,L|67:115,1,48.9999985046387,2|0,0:0|0:0,0:0:0:0:
0,348,385696,2,0,P|44:356|88:368,1,89.2500017023087,2|0,0:0|0:0,0:0:0:0:
148,320,386029,6,0,B|160:288|184:264|184:264|160:240|144:204|144:204|160:176|172:140|172:140|160:108|156:72,1,280,2|0,0:0|0:0,0:0:0:0:
240,200,386863,1,2,0:0:0:0:
308,164,387029,1,0,0:0:0:0:
412,176,387196,1,0,0:0:0:0:
484,288,387363,86,0,P|476:311|472:335,2,48.9999985046387,2|0|0,0:0|0:0|0:0,0:0:0:0:
484,288,388029,2,0,P|448:300|396:276,1,97.9999970092774,2|0,0:0|0:0,0:0:0:0:
352,188,388529,6,0,P|360:140|372:92,1,97.9999970092774,2|2,0:0|0:0,0:0:0:0:
276,132,389029,1,2,0:0:0:0:
188,76,389196,2,0,P|152:64|92:52,1,99.4350021241608,2|2,0:0|0:3,0:0:0:0:
92,52,390029,86,0,L|100:122,1,70,12|8,0:0|2:3,0:0:0:0:
224,256,390363,2,0,L|216:186,1,70,8|8,0:0|2:3,0:0:0:0:
312,32,390696,1,8,0:0:0:0:
328,144,390863,1,8,2:3:0:0:
496,20,391029,1,8,0:0:0:0:
472,188,391196,1,8,2:3:0:0:
312,32,391363,6,0,B|248:24|248:24|212:44,1,105,12|8,0:0|2:3,0:0:0:0:
240,164,391696,2,0,B|176:172|176:172|140:152,1,105,8|8,2:3|2:3,0:0:0:0:
104,36,392029,1,8,2:3:0:0:
192,240,392196,2,0,B|256:248|256:248|292:228,1,105,8|8,2:3|2:3,0:0:0:0:
328,112,392529,1,8,2:3:0:0:
240,316,392696,85,12,0:0:0:0:
108,268,392863,1,8,2:3:0:0:
100,264,392946,1,8,2:3:0:0:
92,260,393029,6,0,P|96:244|104:228,1,35,8|8,0:0|2:3,0:0:0:0:
44,184,393196,2,0,P|54:171|68:160,1,35,8|8,2:3|2:3,0:0:0:0:
279,121,393363,86,0,P|266:136|250:150,1,41.9999987182618,8|8,0:0|2:3,0:0:0:0:
292,228,393530,2,0,P|274:236|253:241,1,41.9999987182618,8|8,2:3|2:3,0:0:0:0:
65,80,393696,6,0,P|88:84|112:92,1,48.9999985046387,8|8,0:0|2:3,0:0:0:0:
169,0,393863,2,0,P|188:13|205:32,1,48.9999985046387,8|8,2:3|2:3,0:0:0:0:
208,300,394029,22,0,B|164:300|124:320|124:320|88:284|84:240|84:240|48:212|0:212,1,265.999992897034,4|0,0:0|0:0,0:0:0:0:
98,42,394529,1,10,0:0:0:0:
131,24,394612,1,0,0:0:0:0:
169,21,394695,1,0,0:0:0:0:
205,32,394778,1,0,0:0:0:0:
234,57,394863,2,0,P|224:76|216:104,1,50.7500015487671,10|0,0:0|0:0,0:0:0:0:
260,260,395029,2,0,P|270:241|278:213,1,50.7500015487671
145,171,395196,2,0,P|164:181|192:189,1,50.7500015487671,10|0,0:0|0:0,0:0:0:0:
336,141,395363,6,0,B|292:112|292:112|244:104|196:104|196:104|148:76,1,203.000006195069,4|0,0:0|0:0,0:0:0:0:
95,279,395863,1,10,0:0:0:0:
127,297,395946,1,0,0:0:0:0:
165,299,396029,1,0,0:0:0:0:
199,282,396112,1,0,0:0:0:0:
221,252,396196,2,0,P|216:219|212:203,1,50.7500015487671,10|0,0:0|0:0,0:0:0:0:
104,143,396363,2,0,P|135:155|150:159,1,50.7500015487671
256,96,396529,2,0,P|229:116|218:128,1,50.7500015487671,10|0,0:0|0:0,0:0:0:0:
68,208,396696,85,4,0:0:0:0:
44,216,396779,1,0,0:0:0:0:
20,216,396863,1,10,0:0:0:0:
184,56,397029,1,0,0:0:0:0:
145,43,397112,1,0,0:0:0:0:
107,43,397196,1,10,0:0:0:0:
276,256,397363,1,0,0:0:0:0:
228,272,397446,1,0,0:0:0:0:
180,272,397530,1,10,0:0:0:0:
412,68,397696,1,0,0:0:0:0:
373,36,397779,1,0,0:0:0:0:
323,34,397862,1,10,0:0:0:0:
282,63,397945,1,0,0:0:0:0:
268,111,398029,6,0,B|276:140|284:160|284:160|276:184|264:208|264:208|276:256|320:288,1,203.000006195069,4|0,0:0|0:0,0:0:0:0:
352,300,398446,1,0,0:0:0:0:
388,296,398529,1,10,0:0:0:0:
220,360,398696,1,0,0:0:0:0:
188,344,398779,1,0,0:0:0:0:
152,340,398863,2,0,P|160:320|164:288,1,50.7500015487671,10|0,0:0|0:0,0:0:0:0:
132,92,399029,2,0,P|124:112|120:144,1,50.7500015487671
266,206,399196,2,0,P|246:198|214:194,1,50.7500015487671,12|0,0:0|0:0,0:0:0:0:
18,226,399363,85,4,0:0:0:0:
120,336,399529,2,0,B|160:344|192:328|192:328|208:304,1,101.500003097534,10|0,0:0|0:0,0:0:0:0:
220,272,399779,1,0,0:0:0:0:
216,236,399863,2,0,P|192:224|168:216,1,50.7500015487671,10|0,0:0|0:0,0:0:0:0:
64,108,400029,2,0,P|112:88|160:76,1,101.500003097534,0|10,0:0|0:0,0:0:0:0:
300,156,400362,2,0,P|308:176|316:204,1,50.7500015487671
424,88,400529,2,0,P|432:68|440:40,1,50.7500015487671,10|0,0:0|0:0,0:0:0:0:
276,0,400696,5,0,0:0:0:0:
264,28,400779,1,0,0:0:0:0:
260,56,400862,1,10,0:0:0:0:
176,268,401029,1,0,0:0:0:0:
158,226,401112,1,0,0:0:0:0:
152,184,401195,1,10,0:0:0:0:
32,44,401362,2,0,P|32:68|36:96,1,50.7500015487671
12,76,401529,2,0,P|22:97|37:121,1,50.7500015487671,10|0,0:0|0:0,0:0:0:0:
240,136,401696,2,0,P|219:124|192:113,1,50.7500015487671
56,260,401862,86,0,B|84:264|104:288|104:288|132:264|168:256|168:256|196:276|244:276,1,203.000006195069,12|10,0:0|0:0,0:0:0:0:
276,272,402279,1,0,0:0:0:0:
312,261,402362,1,0,0:0:0:0:
345,241,402446,1,0,0:0:0:0:
378,222,402529,1,10,0:0:0:0:
416,222,402612,1,0,0:0:0:0:
449,241,402695,1,0,0:0:0:0:
468,274,402779,1,0,0:0:0:0:
467,312,402862,1,10,0:0:0:0:
447,345,402945,1,0,0:0:0:0:
413,362,403029,1,0,0:0:0:0:
375,361,403112,1,0,0:0:0:0:
343,340,403195,1,10,0:0:0:0:
268,64,403362,6,0,B|272:96|286:126|286:126|274:158|258:186|258:186|274:214|282:258,1,203.000006195069,4|0,0:0|0:0,0:0:0:0:
280,296,403779,1,0,0:0:0:0:
268,336,403862,1,10,0:0:0:0:
76,308,404029,22,0,P|67:285|62:259,1,50.7500015487671,4|0,0:0|0:0,0:0:0:0:
45,285,404196,2,0,P|48:261|57:236,1,50.7500015487671,8|8,2:3|2:3,0:0:0:0:
192,76,404362,2,0,P|200:100|204:124,1,50.7500015487671,8|8,0:0|2:3,0:0:0:0:
364,316,404529,2,0,P|354:292|350:268,1,50.7500015487671,8|8,0:0|2:3,0:0:0:0:
468,100,404696,54,0,P|444:112|420:116,1,50.7500015487671,4|0,0:0|0:0,0:0:0:0:
276,224,404862,2,0,P|252:212|228:208,1,50.7500015487671,10|0,0:0|0:0,0:0:0:0:
124,120,405029,1,0,0:0:0:0:
92,136,405112,1,0,0:0:0:0:
56,140,405196,1,10,0:0:0:0:
252,44,405362,2,0,B|272:72|280:112|280:112|260:132|248:160|248:160|252:192|276:224,1,203.000006195069,4|0,0:0|0:0,0:0:0:0:
88,308,405862,5,10,0:0:0:0:
120,289,405945,1,0,0:0:0:0:
158,289,406028,1,0,0:0:0:0:
190,309,406111,1,0,0:0:0:0:
207,342,406196,2,0,P|228:332|256:324,1,50.7500015487671,10|0,0:0|0:0,0:0:0:0:
408,308,406362,1,0,0:0:0:0:
427,310,406445,1,0,0:0:0:0:
445,320,406530,2,0,P|432:302|429:272,1,50.7500015487671,10|0,0:0|0:0,0:0:0:0:
476,104,406696,22,0,P|492:152|472:196,1,101.500003097534,0|10,0:0|0:0,0:0:0:0:
328,148,406946,2,0,B|360:128|396:128|396:128|420:148,1,101.500003097534
340,248,407196,2,0,P|300:244|288:240,1,50.7500015487671,10|0,0:0|0:0,0:0:0:0:
176,140,407362,53,4,0:0:0:0:
168,116,407446,1,0,0:0:0:0:
164,92,407529,1,10,0:0:0:0:
220,276,407696,1,0,0:0:0:0:
213,311,407779,1,0,0:0:0:0:
200,344,407862,1,10,0:0:0:0:
28,168,408029,1,0,0:0:0:0:
40,124,408112,1,0,0:0:0:0:
64,84,408196,1,10,0:0:0:0:
287,179,408362,1,0,0:0:0:0:
317,217,408445,1,0,0:0:0:0:
309,265,408528,1,10,0:0:0:0:
267,291,408611,1,0,0:0:0:0:
220,276,408696,6,0,P|216:252|204:224,1,50.7500015487671
140,72,408862,1,12,0:0:0:0:
176,83,408945,1,0,0:0:0:0:
213,80,409028,1,0,0:0:0:0:
247,63,409111,1,0,0:0:0:0:
272,35,409195,1,12,0:0:0:0:
424,148,409362,21,4,0:0:0:0:
420,160,409446,1,8,2:3:0:0:
416,172,409529,2,0,P|388:168|364:160,1,50.7500015487671,8|8,2:3|2:3,0:0:0:0:
196,272,409696,2,0,P|224:276|248:284,1,50.7500015487671,8|8,2:3|2:3,0:0:0:0:
140,72,409862,2,0,P|112:68|88:60,1,50.7500015487671,8|8,2:3|2:3,0:0:0:0:
16,268,410029,54,0,P|28:240|32:220,1,50.7500015487671,4|0,0:0|0:0,0:0:0:0:
212,64,410196,2,0,P|217:88|227:111,1,50.7500015487671,10|0,0:0|0:0,0:0:0:0:
368,264,410362,1,0,0:0:0:0:
412,276,410446,1,0,0:0:0:0:
456,272,410529,1,10,0:0:0:0:
280,188,410696,2,0,B|248:192|216:208|216:208|184:192|160:168|160:168|128:164|88:172,1,203.000006195069,4|0,0:0|0:0,0:0:0:0:
355,334,411196,6,0,B|419:298|495:314|495:314|471:298|455:270,1,203.000006195069,12|10,0:0|0:0,0:0:0:0:
444,228,411612,1,0,0:0:0:0:
448,184,411696,2,0,P|456:160|468:136,1,50.7500015487671
264,288,411862,2,0,B|182:308|134:264|134:264|162:244|198:244,1,203.000006195069,10|10,0:0|0:0,0:0:0:0:
384,280,412362,1,0,0:0:0:0:
400,312,412446,1,0,0:0:0:0:
408,348,412529,1,10,0:0:0:0:
264,212,412696,86,0,B|276:160|307:122|307:122|292:72|256:32,1,203.000006195069,4|0,0:0|0:0,0:0:0:0:
228,15,413112,1,0,0:0:0:0:
194,3,413196,1,10,0:0:0:0:
144,248,413362,38,0,B|168:252|192:264|192:264|216:252|232:232|232:232|280:236|328:264,1,203.000006195069,4|0,0:0|0:0,0:0:0:0:
360,288,413779,1,0,0:0:0:0:
384,320,413862,1,10,0:0:0:0:
480,108,414029,69,4,0:0:0:0:
440,77,414112,1,0,0:0:0:0:
390,75,414195,1,10,0:0:0:0:
348,101,414278,1,0,0:0:0:0:
328,147,414362,1,0,0:0:0:0:
308,192,414445,1,0,0:0:0:0:
265,219,414528,1,10,0:0:0:0:
216,217,414611,1,0,0:0:0:0:
176,186,414696,38,0,P|168:160|164:136,1,50.7500015487671,8|8,0:0|2:3,0:0:0:0:
244,136,414862,2,0,P|247:109|254:85,1,50.7500015487671,8|8,2:3|2:3,0:3:0:0:
324,268,415029,6,0,P|332:294|336:318,1,50.7500015487671,8|8,2:3|2:3,0:0:0:0:
192,312,415195,2,0,P|188:338|181:362,1,50.7500015487671,8|8,2:3|2:3,0:3:0:0:
4,232,415362,54,0,B|48:236|76:268|76:268|100:236|136:216|136:216|160:232|192:240,1,224,4|0,0:0|0:0,0:0:0:0:
480,124,415862,2,0,B|461:135|432:140|432:140|412:156|400:180|400:180|356:144|304:156,1,203.000006195069,10|10,0:0|0:0,0:0:0:0:
287,164,416279,1,0,2:0:0:0:
270,175,416362,1,0,0:0:0:0:
256,190,416446,1,0,0:0:0:0:
245,207,416529,5,10,0:0:0:0:
232,171,416612,1,0,2:0:0:0:
213,138,416695,1,0,0:0:0:0:
189,108,416778,1,0,2:0:0:0:
160,84,416862,2,0,L|88:76,1,70,10|0,0:0|0:0,0:0:0:0:
51,242,417029,1,0,0:0:0:0:
86,270,417112,1,0,0:0:0:0:
132,269,417195,1,10,0:0:0:0:
166,239,417279,1,0,2:0:0:0:
200,208,417362,1,0,0:0:0:0:
245,207,417446,1,0,2:0:0:0:
281,236,417529,2,0,L|286:305,1,70,10|0,0:0|2:0,0:0:0:0:
400,168,417696,38,0,L|398:133,2,33.8333343658448
444,324,417862,5,10,0:0:0:0:
440,332,417946,1,0,2:0:0:0:
436,340,418029,2,0,P|408:328|368:320,1,70,0|0,0:0|2:0,0:0:0:0:
180,348,418196,1,10,0:0:0:0:
130,362,418279,1,0,2:0:0:0:
85,338,418362,1,0,0:0:0:0:
69,289,418445,1,0,0:0:0:0:
92,243,418529,2,0,L|164:232,1,70,10|0,0:0|2:0,0:0:0:0:
352,244,418696,1,0,0:0:0:0:
402,258,418779,1,0,2:0:0:0:
447,234,418862,1,10,0:0:0:0:
463,185,418945,1,0,2:0:0:0:
440,139,419029,2,0,L|368:128,1,70,0|0,0:0|2:0,0:0:0:0:
196,160,419196,86,0,P|164:164|128:148,1,70,10|0,0:0|2:0,0:0:0:0:
80,24,419362,1,0,0:0:0:0:
78,17,419418,1,0,2:0:0:0:
76,10,419474,1,0,2:0:0:0:
74,3,419529,54,0,L|146:11,1,70,10|0,0:0|2:0,0:0:0:0:
260,80,419696,1,0,0:0:0:0:
300,72,419779,1,0,0:0:0:0:
340,64,419862,1,10,0:0:0:0:
380,56,419946,2,0,L|444:44,2,62.9999980773926,0|0|0,2:0|2:0|2:0,0:0:0:0:
276,172,420196,2,0,L|220:164,1,56,10|0,0:0|2:0,0:0:0:0:
328,252,420362,38,0,L|364:244,2,37.3333333333333
276,324,420529,1,12,0:0:0:0:
104,236,420696,6,0,P|100:212|104:184,1,50.7500015487671,4|0,0:0|2:0,0:0:0:0:
1,166,420862,2,0,P|7:142|22:118,1,50.7500015487671,10|0,0:0|2:0,0:0:0:0:
173,102,421029,2,0,P|177:126|173:154,1,50.7500015487671
276,172,421195,2,0,P|269:195|254:219,1,50.7500015487671,10|0,0:0|2:0,0:0:0:0:
172,276,421362,1,0,0:0:0:0:
240,32,421529,38,0,P|332:4|384:84,1,203.000006195069,10|10,0:0|0:0,0:0:0:0:
252,252,422029,2,0,B|232:256|208:256|208:256|172:276|172:276|144:244|144:244|108:228|68:224,1,203.000006195069,4|0,0:0|0:0,0:0:0:0:
184,84,422529,6,0,B|204:144|204:144|188:180,1,101.500003097534,10|0,0:0|0:0,0:0:0:0:
236,128,422779,1,0,2:0:0:0:
252,124,422862,2,0,L|304:112,1,50.7500015487671,10|0,0:0|2:0,0:0:0:0:
376,184,423029,6,0,L|452:192,2,76.1250023231507,0|0|0,0:0|2:0|2:0,0:0:0:0:
272,260,423362,53,4,0:0:0:0:
248,272,423446,2,0,P|220:272|196:260,2,50.7500015487671,0|10|0,2:0|0:0|2:0,0:0:0:0:
136,216,423696,2,0,P|124:236|120:264,1,50.7500015487671,0|0,2:0|0:0,0:0:0:0:
208,188,423862,2,0,P|204:162|191:141,1,50.7500015487671,10|0,0:0|2:0,0:0:0:0:
140,84,424029,1,0,0:0:0:0:
284,184,424196,6,0,P|328:164|380:176,1,101.500003097534,10|0,0:0|0:0,0:0:0:0:
444,232,424446,1,0,0:0:0:0:
452,228,424529,2,0,L|460:176,1,50.7500015487671,10|0,0:0|2:0,0:0:0:0:
472,68,424696,85,4,0:0:0:0:
344,108,424862,1,10,0:0:0:0:
307,117,424946,1,0,2:0:0:0:
274,101,425028,1,0,2:0:0:0:
258,68,425111,1,0,0:0:0:0:
267,32,425196,2,0,P|239:39|215:39,1,50.7500015487671,10|0,0:0|2:0,0:0:0:0:
64,32,425362,21,4,0:0:0:0:
68,48,425446,1,8,2:3:0:0:
72,64,425529,1,8,2:3:0:0:
76,80,425612,1,8,2:3:0:0:
108,120,425696,5,8,2:3:0:0:
96,168,425779,1,8,2:3:0:0:
84,216,425862,1,8,2:3:0:0:
72,264,425946,1,8,2:3:0:0:
36,300,426029,21,4,0:0:0:0:
84,292,426112,1,0,2:0:0:0:
132,308,426196,1,10,0:0:0:0:
164,348,426279,1,0,2:0:0:0:
204,320,426362,1,0,0:0:0:0:
254,314,426446,1,0,0:0:0:0:
299,336,426529,1,10,0:0:0:0:
324,294,426612,1,0,2:0:0:0:
367,267,426696,1,0,0:0:0:0:
418,268,426779,1,0,2:0:0:0:
422,219,426862,1,10,0:0:0:0:
450,177,426946,1,0,0:0:0:0:
496,156,427029,2,0,L|492:220,2,61.2500005841255,0|0|10,0:0|0:0|0:0,0:0:0:0:
504,348,427362,5,4,0:0:0:0:
452,360,427446,1,0,2:0:0:0:
404,340,427529,1,10,0:0:0:0:
376,296,427612,1,0,2:0:0:0:
339,287,427696,1,0,0:0:0:0:
306,301,427779,1,0,0:0:0:0:
276,344,427862,1,10,0:0:0:0:
224,356,427946,1,0,2:0:0:0:
176,336,428029,1,0,0:0:0:0:
148,292,428112,1,0,2:0:0:0:
90,277,428196,1,10,0:0:0:0:
39,299,428279,1,0,2:0:0:0:
8,344,428362,70,0,L|4:384,2,40.8333337227503
16,232,428529,1,10,0:0:0:0:
232,212,428696,6,0,P|236:244|228:272,1,61.2500005841255,4|0,0:0|2:0,0:0:0:0:
312,220,428862,1,10,0:0:0:0:
312,200,428946,2,0,P|302:169|283:147,1,61.2500005841255,0|0,2:0|0:0,0:0:0:0:
106,184,429112,1,0,0:0:0:0:
113,200,429196,2,0,P|134:223|161:235,1,61.2500005841255,10|0,0:0|2:0,0:0:0:0:
344,100,429362,1,0,0:0:0:0:
327,87,429446,2,0,P|297:74|268:75,1,61.2500005841255,0|10,2:0|0:0,0:0:0:0:
176,160,429612,1,0,2:0:0:0:
168,144,429696,2,0,L|176:80,2,61.2500005841255,0|0|10,0:0|0:0|0:0,0:0:0:0:
260,284,430029,6,0,P|292:272|328:272,1,70,4|0,0:0|2:0,0:0:0:0:
172,336,430196,1,10,0:0:0:0:
144,360,430279,2,0,P|138:325|120:295,1,70,0|0,2:0|0:0,0:0:0:0:
280,136,430446,1,0,0:0:0:0:
314,148,430529,2,0,P|286:170|269:201,1,70,10|0,0:0|2:0,0:0:0:0:
52,142,430696,1,0,0:0:0:0:
45,106,430779,2,0,P|78:118|113:117,1,70,0|10,2:0|0:0,0:0:0:0:
240,312,430946,1,0,2:0:0:0:
256,336,431029,70,0,L|304:324,2,46.6666666666667
408,304,431196,1,12,0:0:0:0:
270,200,431362,6,0,P|262:184|261:142,1,61.2500005841255,4|0,0:0|2:0,0:0:0:0:
368,32,431529,2,0,B|336:48|316:72|316:72|292:48|260:36|260:36|228:72|168:76|168:76|176:52|196:36,2,280,10|10|10,0:0|0:0|0:0,0:0:0:0:
440,204,432362,37,0,0:0:0:0:
408,228,432446,1,0,0:0:0:0:
368,236,432529,2,0,P|348:228|316:224,1,50.7500015487671,12|0,0:0|2:0,0:0:0:0:
224,224,432696,1,0,0:0:0:0:
148,52,432862,86,0,B|160:92|160:92|136:148,1,101.500003097534,10|0,0:0|2:0,0:0:0:0:
16,72,433112,1,0,0:0:0:0:
32,76,433195,2,0,L|84:88,1,50.7500015487671,10|0,0:0|2:0,0:0:0:0:
216,148,433362,2,0,B|270:124|270:124|310:136,1,101.500003097534,0|10,0:0|0:0,0:0:0:0:
424,232,433612,2,0,L|428:284,2,50.7500015487671,0|0|0,2:0|0:0|0:0,0:0:0:0:
464,68,433862,6,0,B|448:116|448:116|404:140,1,101.500003097534,12|0,0:0|0:0,0:0:0:0:
240,228,434112,1,0,2:0:0:0:
224,224,434195,2,0,L|172:212,1,50.7500015487671,10|0,0:0|2:0,0:0:0:0:
82,87,434362,2,0,L|86:35,2,50.7500015487671,0|0|10,2:0|0:0|0:0,0:0:0:0:
216,148,434612,86,0,L|316:136,1,101.500003097534,0|0,0:0|2:0,0:0:0:0:
396,212,434862,2,0,L|384:312,1,101.500003097534,10|0,0:0|0:0,0:0:0:0:
288,368,435112,1,0,0:0:0:0:
264,360,435196,1,10,0:0:0:0:
88,340,435362,21,4,0:0:0:0:
83,323,435446,1,8,2:3:0:0:
80,307,435529,1,8,2:3:0:0:
75,291,435612,1,8,2:3:0:0:
72,275,435696,6,0,P|88:257|110:243,1,50.7500015487671,8|8,0:0|2:3,0:0:0:0:
68,151,435863,2,0,P|90:141|115:138,1,50.7500015487671,8|8,2:3|2:3,0:0:0:0:
396,212,436030,86,0,P|368:221|338:227,1,57.7500005507469,8|8,0:0|2:3,0:0:0:0:
339,348,436197,2,0,P|310:344|280:335,1,57.7500005507469,8|8,2:3|2:3,0:0:0:0:
162,42,436363,6,0,P|188:63|212:91,1,64.7499997529984,8|8,0:0|2:3,0:0:0:0:
319,19,436530,2,0,P|333:49|341:85,1,64.7499997529984,8|8,2:3|2:3,0:0:0:0:
108,362,436696,22,0,B|96:310|68:278|68:278|84:242|116:216|116:216|100:174|68:150|68:150|56:174|56:202,1,308.000009399414,4|0,0:0|0:0,0:0:0:0:
244,340,437196,1,10,0:0:0:0:
297,353,437279,1,0,0:0:0:0:
349,335,437362,1,0,0:0:0:0:
383,292,437445,1,0,0:0:0:0:
388,237,437529,2,0,P|356:228|332:224,1,56,10|0,0:0|0:0,0:0:0:0:
156,276,437696,2,0,P|183:271|210:263,1,56
340,128,437862,2,0,P|312:132|285:140,1,56,10|0,0:0|0:0,0:0:0:0:
89,242,438029,6,0,P|9:226|81:154,1,224,4|0,0:0|0:0,0:0:0:0:
216,336,438529,1,10,0:0:0:0:
272,332,438612,1,0,0:0:0:0:
328,328,438696,1,0,0:0:0:0:
384,324,438779,1,0,0:0:0:0:
440,320,438862,2,0,P|448:292|452:264,1,56,10|0,0:0|0:0,0:0:0:0:
328,108,439029,2,0,P|320:136|316:164,1,56
216,336,439196,2,0,P|208:308|204:280,1,56,10|0,0:0|0:0,0:0:0:0:
73,124,439362,85,4,0:0:0:0:
77,152,439446,1,0,0:0:0:0:
85,180,439529,1,10,0:0:0:0:
284,364,439696,1,0,0:0:0:0:
290,322,439780,1,0,0:0:0:0:
302,280,439863,1,10,0:0:0:0:
500,84,440029,1,0,0:0:0:0:
492,140,440113,1,0,0:0:0:0:
476,196,440196,1,10,0:0:0:0:
228,280,440362,1,0,0:0:0:0:
174,292,440445,1,0,0:0:0:0:
123,270,440528,1,10,0:0:0:0:
96,223,440611,1,0,0:0:0:0:
103,168,440696,6,0,B|136:148|176:140|176:140|204:164|240:176|240:176|272:156|308:148,1,224,4|0,0:0|0:0,0:0:0:0:
468,312,441196,1,10,0:0:0:0:
428,350,441279,1,0,0:0:0:0:
373,355,441362,1,0,0:0:0:0:
328,324,441445,1,0,0:0:0:0:
311,272,441529,2,0,P|316:244|328:220,1,56,12|0,0:0|0:0,0:0:0:0:
184,68,441696,2,0,P|196:92|201:120,1,56
96,336,441862,2,0,P|108:311|113:283,1,56,12|0,0:0|0:0,0:0:0:0:
16,92,442029,85,4,0:0:0:0:
148,216,442196,2,0,B|188:236|228:228|228:228|252:212,1,112,10|0,0:0|0:0,0:0:0:0:
276,172,442446,1,0,0:0:0:0:
276,128,442529,2,0,P|264:96|248:80,1,56,10|0,0:0|0:0,0:0:0:0:
92,260,442696,2,0,P|76:208|104:160,1,112,0|10,0:0|0:0,0:0:0:0:
192,324,443029,2,0,P|216:316|248:312,1,56
400,208,443196,2,0,P|372:204|345:196,1,56,10|0,0:0|0:0,0:0:0:0:
200,48,443362,5,0,0:0:0:0:
240,28,443446,1,0,0:0:0:0:
284,24,443529,1,10,0:0:0:0:
408,280,443696,1,0,0:0:0:0:
350,274,443779,1,0,0:0:0:0:
298,248,443863,1,10,0:0:0:0:
448,48,444029,2,0,P|456:64|464:104,1,56
476,68,444196,2,0,P|476:85|466:125,1,56,10|0,0:0|0:0,0:0:0:0:
272,172,444362,2,0,L|216:160,1,56
312,368,444529,86,0,B|348:348|392:356|392:356|416:328|416:328|436:340|460:344|460:344|484:328|512:320,1,224,12|10,0:0|0:0,0:0:0:0:
476,276,444946,1,0,0:0:0:0:
455,224,445029,1,0,0:0:0:0:
464,170,445112,1,0,0:0:0:0:
500,127,445196,2,0,L|440:120,1,56,10|0,0:0|0:0,0:0:0:0:
328,136,445362,1,0,0:0:0:0:
272,128,445446,1,0,0:0:0:0:
216,120,445529,1,10,0:0:0:0:
323,252,445696,2,0,L|379:240,1,56
455,224,445862,1,10,0:0:0:0:
244,344,446029,6,0,B|188:340|144:368|144:368|108:344|96:308|96:308|44:296|0:320,1,280,4|0,0:0|0:0,0:0:0:0:
24,360,446446,1,0,0:0:0:0:
68,376,446529,1,10,0:0:0:0:
152,180,446696,21,4,0:0:0:0:
156,138,446779,1,8,2:3:0:0:
148,96,446862,2,0,P|176:108|204:112,1,56,8|8,2:3|2:3,0:0:0:0:
80,228,447029,2,0,P|76:197|65:171,1,56,8|8,2:3|2:3,0:0:0:0:
228,220,447196,2,0,P|203:238|186:260,1,56,8|8,2:3|2:3,0:0:0:0:
104,32,447362,54,0,P|128:24|160:20,1,56,4|0,0:0|0:0,0:0:0:0:
264,152,447529,2,0,P|288:160|320:164,1,56,10|0,0:0|0:0,0:0:0:0:
472,80,447696,1,0,0:0:0:0:
472,39,447779,1,0,0:0:0:0:
444,9,447862,1,10,0:0:0:0:
403,7,447945,1,0,0:0:0:0:
373,34,448029,6,0,B|344:48|328:68|328:68|295:54|276:32|276:32|236:40|212:64|212:64|244:68,1,224,4|0,0:0|0:0,0:0:0:0:
420,216,448529,2,0,B|420:252|436:284|436:284|412:304|402:348|402:348|376:320|380:276,1,224,10|10,0:0|0:0,0:0:0:0:
468,104,449029,1,0,0:0:0:0:
433,127,449112,1,0,0:0:0:0:
392,132,449195,1,10,0:0:0:0:
353,117,449278,1,0,0:0:0:0:
325,86,449362,22,0,B|280:64|232:72|232:72|256:96,1,112,0|12,0:0|0:0,0:0:0:0:
300,236,449612,1,0,0:0:0:0:
308,256,449696,2,0,L|316:200,1,56,12|0,0:0|0:0,0:0:0:0:
228,316,449862,1,0,0:0:0:0:
208,324,449946,1,0,0:0:0:0:
188,332,450029,54,0,P|160:332|132:324,1,56,12|0,0:0|0:0,0:0:0:0:
120,136,450196,1,0,0:0:0:0:
148,116,450280,1,0,0:0:0:0:
180,108,450363,2,0,P|208:108|236:116,1,56,12|0,0:0|0:0,0:0:0:0:
320,280,450529,1,0,0:0:0:0:
368,296,450612,1,0,0:0:0:0:
420,300,450696,2,0,P|428:272|440:248,1,56,12|0,0:0|0:0,0:0:0:0:
512,96,450862,1,0,0:0:0:0:
460,116,450946,1,0,0:0:0:0:
404,112,451029,6,0,B|376:68|392:24|392:24|404:44,1,112,12|0,0:0|0:0,0:0:0:0:
320,280,451362,2,0,P|292:288|268:300,1,56,8|0,0:0|0:0,0:0:0:0:
140,360,451529,2,0,P|112:352|88:340,2,56,8|0|0,0:0|0:0|0:0,0:0:0:0:
52,228,451779,1,8,0:0:0:0:
40,200,451862,2,0,P|32:228|20:252,1,56,8|0,0:0|0:0,0:0:0:0:
112,124,452029,2,0,P|104:96|92:72,1,56,12|0,0:0|0:0,0:0:0:0:
176,244,452196,21,8,0:0:0:0:
208,264,452279,1,8,2:3:0:0:
240,284,452362,1,8,0:0:0:0:
292,276,452446,1,8,2:3:0:0:
344,268,452529,1,8,0:0:0:0:
396,276,452613,1,8,2:3:0:0:
448,284,452696,54,0,B|456:256|456:256|472:232,1,56,4|0,0:0|0:0,0:0:0:0:
336,92,452862,2,0,B|350:114|350:114|358:142,1,56,10|0,0:0|0:0,0:0:0:0:
252,332,453029,1,0,0:0:0:0:
240,284,453112,1,0,0:0:0:0:
244,232,453196,1,10,0:0:0:0:
456,96,453362,2,0,B|416:112|392:136|392:136|352:128|324:104|324:104|284:108|252:128,1,224,4|0,0:0|0:0,0:0:0:0:
136,344,453862,6,0,B|172:296|168:236|168:236|152:212|128:200,1,168,12|0,0:0|0:0,0:0:0:0:
64,148,454196,2,0,P|92:136|120:128,1,56,12|0,0:0|0:0,0:0:0:0:
248,208,454362,2,0,P|276:220|304:228,1,56
424,124,454529,22,0,P|432:72|400:24,1,112,12|0,0:0|0:0,0:0:0:0:
371,10,454779,1,8,2:3:0:0:
339,6,454862,1,8,2:3:0:0:
307,14,454946,1,8,2:3:0:0:
284,37,455029,37,8,0:0:0:0:
282,44,455085,1,8,0:0:0:0:
280,51,455140,1,8,0:0:0:0:
278,58,455196,2,0,L|239:49,2,37.3333333333333
232,124,455362,6,0,B|192:136|192:136|164:168|164:168|128:156|100:128|100:128|56:132|32:148,1,224,12|12,0:0|0:0,0:0:0:0:
80,204,455779,1,0,0:0:0:0:
97,236,455862,1,0,0:0:0:0:
98,273,455945,1,0,0:0:0:0:
81,306,456029,6,0,B|120:312|152:336|152:336|184:316|196:284|196:284|232:268|272:276,1,224,12|12,0:0|0:0,0:0:0:0:
336,312,456446,1,0,0:0:0:0:
370,326,456529,1,0,0:0:0:0:
407,328,456612,1,0,0:0:0:0:
442,316,456696,70,0,L|448:280,2,37.3333333333333,8|8|8,2:3|2:3|2:3,0:0:0:0:
508,160,456918,69,8,2:3:0:0:
449,204,457029,1,8,2:3:0:0:
376,200,457140,1,8,0:0:0:0:
322,151,457251,1,8,0:0:0:0:
311,79,457362,6,0,P|320:44|336:8,1,74.6666666666667,8|0,0:0|2:0,0:0:0:0:
216,200,457585,2,0,P|205:164|201:125,1,74.6666666666667,8|0,0:0|2:0,0:0:0:0:
193,351,457807,2,0,P|166:325|143:293,1,74.6666666666667,8|0,0:0|2:0,0:0:0:0:
60,88,458029,85,4,0:0:0:0:
280,140,459196,1,4,0:0:0:0:
500,192,460196,21,8,0:0:0:0:
498,199,460251,1,0,0:0:0:0:
496,206,460307,1,0,0:0:0:0:
494,213,460362,85,8,0:0:0:0:
436,272,460696,86,0,P|396:280|360:260,1,83.9999974365235,4|0,0:0|2:0,0:0:0:0:
328,116,461140,6,0,P|268:104|220:144,1,125.999996154785,4|0,0:0|2:0,0:0:0:0:
208,312,461585,86,0,P|127:328|76:264,1,167.999994873047,4|0,0:0|2:0,0:0:0:0:
148,56,462029,6,0,L|143:113,1,55.9999982910157,8|8,0:0|0:0,0:0:0:0:
184,212,462267,5,8,0:0:0:0:
188,220,462331,1,8,0:0:0:0:
192,228,462394,1,8,0:0:0:0:
196,236,462460,70,0,L|232:232,1,35
364,320,462684,6,0,L|336:316,1,17.5,8|8,2:3|2:3,0:0:0:0:
280,348,463178,6,0,L|276:372,2,23.3333333333333
296,264,463362,69,4,0:0:0:0:
256,192,463445,12,0,467862,0:0:0:0:
240,220,468028,22,0,B|224:188|224:188|196:168,1,70,8|0,0:0|0:0,0:0:0:0:
108,176,468195,86,0,L|176:164,1,70
164,248,468695,86,0,P|155:277|152:307,1,61.2499981307984,4|0,0:0|2:0,0:0:0:0:
84,288,469195,2,0,P|54:279|24:276,1,61.2499981307984,12|0,0:0|2:0,0:0:0:0:
44,208,469695,2,0,P|52:178|55:148,1,61.2499981307984,4|0,0:0|2:0,0:0:0:0:
124,168,470195,2,0,P|153:176|183:179,1,61.2499981307984,12|0,0:0|2:0,0:0:0:0:
244,128,470695,6,0,P|235:98|232:68,1,61.2499981307984,4|0,0:0|2:0,0:0:0:0:
164,88,471195,2,0,P|134:96|104:99,1,61.2499981307984,12|0,0:0|2:0,0:0:0:0:
124,168,471695,2,0,P|132:197|135:227,1,61.2499981307984,4|0,0:0|2:0,0:0:0:0:
204,208,472195,2,0,P|233:199|263:196,1,61.2499981307984,12|0,0:0|2:0,0:0:0:0:
336,196,472695,86,0,P|331:226|321:255,1,61.2499981307984,4|0,0:0|2:0,0:0:0:0:
391,266,473195,6,0,P|421:270|448:280,1,48.9999985046387,12|0,0:0|2:0,0:0:0:0:
449,281,473612,1,0,0:0:0:0:
458,287,473695,6,0,L|452:252,1,35,8|0,0:0|2:0,0:0:0:0:
392,152,473862,2,0,L|386:187,1,35,8|0,0:0|2:0,0:0:0:0:
321,255,474028,70,0,P|329:284|332:314,1,61.2499981307984,4|0,0:0|2:0,0:0:0:0:
288,372,474528,2,0,P|258:380|228:383,1,61.2499981307984,12|0,0:0|2:0,0:0:0:0:
171,339,475028,2,0,P|162:309|159:279,1,61.2499981307984,4|0,0:0|2:0,0:0:0:0:
204,222,475528,2,0,P|233:213|263:210,1,61.2499981307984,12|0,0:0|2:0,0:0:0:0:
321,165,476028,6,0,P|329:135|332:105,1,61.2499981307984,4|0,0:0|2:0,0:0:0:0:
288,48,476528,2,0,P|258:39|228:36,1,61.2499981307984,12|0,0:0|2:0,0:0:0:0:
171,81,477028,2,0,P|162:110|159:140,1,61.2499981307984,4|0,0:0|2:0,0:0:0:0:
204,198,477528,2,0,P|233:206|263:209,1,61.2499981307984,12|0,0:0|2:0,0:0:0:0:
320,256,478028,86,0,P|328:285|331:315,1,61.2499981307984,4|0,0:0|2:0,0:0:0:0:
287,373,478528,6,0,P|257:381|232:384,1,48.9999985046387,12|0,0:0|2:0,0:0:0:0:
228,384,478945,1,0,0:0:0:0:
217,382,479028,6,0,B|184:340|184:340|136:320,1,105,8|0,0:0|2:0,0:0:0:0:
48,292,479362,69,8,2:3:0:0:
48,292,479445,2,0,L|40:228,1,62.9999980773926,8|0,2:3|0:0,0:0:0:0:
136,128,479862,1,8,2:3:0:0:
136,128,479945,2,0,L|144:192,1,62.9999980773926,8|0,2:3|0:0,0:0:0:0:
244,288,480362,1,8,2:3:0:0:
244,288,480445,2,0,L|236:224,1,62.9999980773926,8|0,2:3|0:0,0:0:0:0:
332,124,480862,1,8,2:3:0:0:
332,124,480945,2,0,L|340:188,1,62.9999980773926,8|0,2:3|0:0,0:0:0:0:
440,284,481362,5,8,2:3:0:0:
440,284,481445,1,8,2:3:0:0:
264,160,481695,1,8,2:3:0:0:
264,160,481778,1,8,2:3:0:0:
460,70,482028,85,8,2:3:0:0:
460,70,482112,2,0,L|468:134,1,62.9999980773926,8|0,2:3|0:0,0:0:0:0:
372,234,482528,1,8,2:3:0:0:
372,234,482612,2,0,L|364:170,1,62.9999980773926,8|0,2:3|0:0,0:0:0:0:
264,74,483028,1,8,2:3:0:0:
264,74,483112,2,0,L|272:138,1,62.9999980773926,8|0,2:3|0:0,0:0:0:0:
176,238,483528,1,8,2:3:0:0:
176,238,483611,2,0,L|168:174,1,62.9999980773926,8|0,2:3|0:0,0:0:0:0:
68,78,484028,5,8,2:3:0:0:
68,78,484111,1,8,2:3:0:0:
244,202,484361,1,8,2:3:0:0:
244,202,484444,1,8,2:3:0:0:
48,292,484695,85,8,2:3:0:0:
48,292,484778,2,0,L|112:300,1,62.9999980773926,8|0,2:3|0:0,0:0:0:0:
136,124,485195,1,8,2:3:0:0:
136,124,485278,2,0,L|200:132,1,62.9999980773926,8|0,2:3|0:0,0:0:0:0:
224,308,485695,1,8,2:3:0:0:
224,308,485778,2,0,L|288:316,1,62.9999980773926,8|0,2:3|0:0,0:0:0:0:
312,140,486195,1,8,2:3:0:0:
312,140,486278,2,0,L|376:148,1,62.9999980773926,8|0,2:3|0:0,0:0:0:0:
400,324,486695,5,8,2:3:0:0:
400,324,486778,1,8,2:3:0:0:
252,184,487028,1,8,2:3:0:0:
252,184,487111,1,8,2:3:0:0:
448,126,487362,85,8,2:3:0:0:
448,126,487445,2,0,L|384:118,1,62.9999980773926,8|0,2:3|0:0,0:0:0:0:
360,294,487862,1,8,2:3:0:0:
360,294,487945,2,0,L|296:286,1,62.9999980773926,8|0,2:3|0:0,0:0:0:0:
272,110,488362,1,8,2:3:0:0:
272,110,488445,2,0,L|228:104,1,41.9999987182618,8|0,2:3|2:0,0:0:0:0:
156,92,488695,6,0,L|132:89,3,20.9999993591309,8|8|8|8,0:0|2:3|2:3|2:3,0:0:0:0:
184,164,489028,85,8,2:3:0:0:
188,180,489112,1,8,2:3:0:0:
192,196,489195,1,8,2:3:0:0:
196,212,489278,1,8,2:3:0:0:
200,228,489362,1,8,2:3:0:0:
188,260,489445,1,8,2:3:0:0:
176,292,489528,1,8,2:3:0:0:
164,324,489612,1,8,2:3:0:0:
152,356,489695,6,0,L|108:360,1,41.9999987182618,8|8,0:0|2:3,0:0:0:0:
276,220,489862,2,0,L|320:216,1,41.9999987182618,8|8,2:3|2:3,0:0:0:0:
452,336,490028,86,0,L|416:340,2,35,4|0|0,0:0|0:0|0:0,0:0:0:0:
452,336,490362,1,10,0:0:0:0:
392,224,490528,2,0,L|388:188,2,35,0|0|2,0:0|0:0|0:0,0:0:0:0:
392,224,490862,1,0,0:0:0:0:
280,284,491028,2,0,L|244:288,2,35,10|0|0,0:0|0:0|0:0,0:0:0:0:
280,284,491362,1,2,0:0:0:0:
220,172,491528,2,0,L|216:136,2,35,0|0|10,0:0|0:0|0:0,0:0:0:0:
220,172,491862,1,0,0:0:0:0:
108,232,492028,6,0,L|72:236,2,35,2|0|0,0:0|0:0|0:0,0:0:0:0:
48,120,492361,1,10,0:0:0:0:
46,100,492445,1,0,0:0:0:0:
44,80,492528,1,0,0:0:0:0:
144,4,492695,86,0,L|180:0,2,35,4|0|0,0:0|0:0|0:0,0:0:0:0:
144,4,493028,1,10,0:0:0:0:
204,116,493195,1,0,0:0:0:0:
208,136,493278,1,0,0:0:0:0:
212,156,493361,1,2,0:0:0:0:
228,232,493528,1,0,0:0:0:0:
172,344,493695,2,0,L|136:340,2,35,10|0|0,0:0|0:0|0:0,0:0:0:0:
172,344,494028,1,2,0:0:0:0:
296,336,494195,1,0,0:0:0:0:
316,332,494278,1,0,0:0:0:0:
336,328,494361,1,10,0:0:0:0:
420,232,494528,1,0,0:0:0:0:
416,212,494611,1,0,0:0:0:0:
412,192,494695,5,12,0:0:0:0:
392,164,494778,1,0,0:0:0:0:
372,136,494861,1,0,0:0:0:0:
392,108,494945,1,0,0:0:0:0:
412,80,495028,1,12,0:0:0:0:
288,148,495195,1,0,0:0:0:0:
252,152,495278,1,0,0:0:0:0:
216,156,495361,86,0,L|180:160,2,35,12|0|0,0:0|0:0|0:0,0:0:0:0:
104,168,495695,1,10,0:0:0:0:
170,258,495861,1,0,0:0:0:0:
164,292,495945,1,0,0:0:0:0:
158,326,496028,6,0,P|188:320|228:316,1,70,10|0,0:0|0:0,0:0:0:0:
340,320,496361,1,10,0:0:0:0:
376,324,496445,1,0,0:0:0:0:
412,328,496528,1,0,0:0:0:0:
480,240,496695,86,0,P|472:208|464:172,1,70,12|0,0:0|0:0,0:0:0:0:
458,137,496945,1,0,0:0:0:0:
454,102,497028,1,10,0:0:0:0:
364,168,497195,1,0,0:0:0:0:
308,72,497361,5,10,0:0:0:0:
273,64,497445,1,0,0:0:0:0:
238,57,497528,1,0,0:0:0:0:
164,176,497695,1,10,0:0:0:0:
199,168,497779,1,0,0:0:0:0:
234,161,497862,1,0,0:0:0:0:
308,280,498028,86,0,L|304:316,2,35,4|0|0,0:0|0:0|0:0,0:0:0:0:
208,364,498361,1,10,0:0:0:0:
108,308,498528,1,0,0:0:0:0:
104,273,498611,1,0,0:0:0:0:
100,238,498695,6,0,P|124:244|172:248,1,70,10|0,0:0|0:0,0:0:0:0:
276,216,499028,1,10,0:0:0:0:
292,184,499111,1,0,0:0:0:0:
296,148,499195,1,0,0:0:0:0:
248,48,499361,86,0,P|272:42|320:38,1,70,10|0,0:0|0:0,0:0:0:0:
352,40,499611,1,0,0:0:0:0:
388,48,499695,1,10,0:0:0:0:
456,136,499861,2,0,L|452:172,1,35
394,218,500028,21,8,0:0:0:0:
388,216,500083,1,8,0:0:0:0:
382,215,500139,1,8,0:0:0:0:
376,214,500194,1,8,0:0:0:0:
370,213,500250,1,0,0:0:0:0:
364,214,500305,1,0,0:0:0:0:
358,214,500361,85,12,2:3:0:0:
196,316,500690,85,4,0:0:0:0:
112,144,501371,5,4,0:0:0:0:
304,100,502060,85,4,0:0:0:0:
328,296,502748,5,4,0:0:0:0:
140,228,503436,85,4,0:0:0:0:
328,160,503981,5,4,0:0:0:0:
224,332,504417,85,4,0:0:0:0:
168,140,504827,5,4,0:0:0:0:
340,240,505202,86,0,B|364:216|364:216|400:204,1,70,4|4,0:0|0:0,0:0:0:0:
192,296,505737,6,0,B|159:287|159:287|130:262,1,70,4|4,0:0|0:0,0:0:0:0:
268,120,506201,86,0,B|300:132|300:132|312:168,1,70,4|4,0:0|0:0,0:0:0:0:
188,208,506538,6,0,B|159:229|159:229|126:220,1,70,4|4,0:0|0:0,0:0:0:0:
196,80,506859,86,0,B|220:36|220:36|276:24,1,105.000004005432,4|4,0:0|0:0,0:0:0:0:
300,240,507155,6,0,B|345:255|345:255|381:299,1,105.000004005432,4|4,0:0|0:0,0:0:0:0:
140,296,507452,86,0,B|80:260|80:260|88:188,1,140,4|4,0:0|0:0,0:0:0:0:
320,80,507731,6,0,B|380:116|380:116|372:188,1,140,4|4,0:0|0:0,0:0:0:0:
373,185,508190,5,12,0:0:0:0:
367,181,508259,1,0,0:0:0:0:
360,179,508328,1,4,0:0:0:0:
353,178,508397,1,0,0:0:0:0:
347,177,508466,1,4,0:0:0:0:
340,178,508535,1,0,0:0:0:0:
334,180,508604,1,4,0:0:0:0:
328,183,508673,1,0,0:0:0:0:
323,187,508742,1,4,0:0:0:0:
319,192,508812,1,0,0:0:0:0:
315,197,508881,1,4,0:0:0:0:
312,203,508950,1,0,0:0:0:0:
310,209,509019,1,4,0:0:0:0:
310,216,509088,1,0,0:0:0:0:
311,223,509157,1,4,0:0:0:0:
313,229,509226,1,0,0:0:0:0:
316,235,509295,2,0,L|312:288,7,52.5000020027161,4|0|4|0|4|0|4|0,0:0|0:0|0:0|0:0|0:0|0:0|0:0|0:0,0:0:0:0:
372,185,509853,70,0,B|380:116|380:116|320:80,1,140,4|4,0:0|0:0,0:0:0:0:
87,190,510132,6,0,B|80:260|80:260|140:296,1,140,4|4,0:0|0:0,0:0:0:0:
381,299,510411,86,0,B|345:255|345:255|300:240,1,105.000004005432,4|4,0:0|0:0,0:0:0:0:
273,24,510703,6,0,B|220:36|220:36|196:80,1,105.000004005432,4|4,0:0|0:0,0:0:0:0:
126,220,510996,86,0,B|159:229|159:229|188:208,1,70,4|4,0:0|0:0,0:0:0:0:
311,165,511329,6,0,B|300:132|300:132|268:120,1,70,4|4,0:0|0:0,0:0:0:0:
132,263,511662,86,0,B|159:287|159:287|192:296,1,70,4|4,0:0|0:0,0:0:0:0:
398,204,512134,6,0,B|364:216|364:216|340:240,1,70,4|4,0:0|0:0,0:0:0:0:
168,140,512672,85,4,0:0:0:0:
224,332,513035,5,4,0:0:0:0:
328,160,513448,85,4,0:0:0:0:
140,228,513879,5,4,0:0:0:0:
328,296,514437,85,4,0:0:0:0:
304,100,515122,5,4,0:0:0:0:
112,144,515803,85,4,0:0:0:0:
196,316,516477,5,4,0:0:0:0:
256,192,517174,85,4,0:0:0:0:
256,192,517257,12,0,535840,2:0:0:0:
