osu file format v14

[General]
AudioFilename: audio.mp3
AudioLeadIn: 0
PreviewTime: 77981
Countdown: 0
SampleSet: Normal
StackLeniency: 0.7
Mode: 1
LetterboxInBreaks: 0
WidescreenStoryboard: 0

[Editor]
Bookmarks: 4648,7315,22815,29981,40648,51648,56648,77981,78648,86814,99981,105314,120147,121314,129314,129814,131981,142147,147981,152647,153314,160814,164147,174647,184314,185314,207981,209349,242648,245314,246648,267981,278648,299981,320203,325314,326648,331981,337314,358814,369314,371314,388647,389980,393980,415313,436647,452647,456647,457980,459313,462092,462412,462634,463130,463314,500313,500640,501321,502010,503386,503931,504367,504777,505152,505437,505937,506152,506826,507404,507823,508142,509247,510363,510948,511614,511837,512086,512337,512624,512985,513400,513831,514389,515074,515755,516429,517126
DistanceSpacing: 0.3
BeatDivisor: 1
GridSize: 32
TimelineZoom: 3.579999

[Metadata]
Title:Koyoi wa Hyouitsu na Egoist ~ Ego, Schizoid, Beat.
TitleUnicode:今宵は飄逸なエゴイスト ~ Ego, Schizoid, Beat.
Artist:Demetori
ArtistUnicode:Demetori
Creator:Capu
Version:Perfect Possession
Source:東方憑依華 ~ Antinomy of Common Flowers.
Tags:Jo'on Yorigami Shion c94 comiket 94 ZUN 東方 Project Touhou Joon Spirit Possession Tonight Stars an Easygoing Egoistic Flowers 瑰狂鬱嵂 metal instrumental marathon stream
BeatmapID:1944684
BeatmapSetID:931316

[Difficulty]
HPDrainRate:4
CircleSize:2
OverallDifficulty:7.2
ApproachRate:10
SliderMultiplier:1.4
SliderTickRate:1

[Events]
//Background and Video events
0,0,"ego.jpg",0,105
//Break Periods
//Storyboard Layer 0 (Background)
//Storyboard Layer 1 (Fail)
//Storyboard Layer 2 (Pass)
//Storyboard Layer 3 (Foreground)
//Storyboard Layer 4 (Overlay)
//Storyboard Sound Samples

[TimingPoints]
1982,333.333333333333,4,1,0,15,1,0
5148,-100,4,1,0,24,0,0
5815,-100,4,1,0,32,0,0
6481,-100,4,1,0,41,0,0
7148,-100,4,1,0,50,0,0
22731,-100,4,1,0,45,0,0
22898,-100,4,1,0,40,0,0
23065,-102.040816326531,4,1,0,35,0,0
23231,-104.166666666667,4,1,0,35,0,0
23481,-106.382978723404,4,1,0,35,0,0
23648,-108.695652173913,4,1,0,35,0,0
23981,-111.111111111111,4,1,0,35,0,0
27648,-100,4,1,0,45,0,0
27981,-100,4,1,0,50,0,0
28315,-100,4,1,0,55,0,0
28648,-100,4,1,0,60,0,0
28981,-100,4,1,0,65,0,0
29315,-100,4,1,0,70,0,0
29648,-100,4,1,0,75,0,0
29815,-100,4,1,0,80,0,0
77981,333.333333333333,4,1,0,80,1,8
78147,-102.564102564103,4,1,0,80,0,0
78314,-105.263157894737,4,1,0,80,0,0
78481,-108.108108108108,4,1,0,80,0,0
78648,333.333333333333,4,1,0,80,1,0
78648,-100,4,1,0,80,0,0
142647,-125,4,1,0,80,0,0
147981,-111.111111111111,4,1,0,80,0,0
152814,-114.285714285714,4,1,0,80,0,0
152981,-117.647058823529,4,1,0,80,0,0
153147,-121.212121212121,4,1,0,80,0,0
153314,-125,4,1,0,80,0,0
158481,-111.111111111111,4,1,0,80,0,0
161147,-100,4,1,0,80,0,0
184647,-111.111111111111,4,1,0,80,0,0
184981,-125,4,1,0,80,0,0
185314,-90.9090909090909,4,1,0,80,0,1
203897,-91.743119266055,4,1,0,80,0,1
203981,-92.5925925925926,4,1,0,80,0,1
204203,-94.3396226415094,4,1,0,80,0,1
204425,-96.1538461538461,4,1,0,80,0,1
204647,-98.0392156862745,4,1,0,80,0,1
204870,-100,4,1,0,80,0,1
205092,-102.040816326531,4,1,0,80,0,1
205314,-104.166666666667,4,1,0,80,0,1
205647,-83.3333333333333,4,1,0,80,0,1
207203,-84.7457627118644,4,1,0,80,0,1
207314,-86.2068965517241,4,1,0,80,0,1
207536,-89.2857142857143,4,1,0,80,0,1
207759,-92.5925925925926,4,1,0,80,0,1
207981,341.880341880342,4,1,0,80,1,0
207981,-97.5609756097561,4,1,0,80,0,0
208151,-97.5609756097561,4,1,0,25,0,0
209348,333.333333333333,4,1,0,25,1,0
209348,-125,4,1,0,25,0,0
212680,317.460317460317,4,1,0,25,1,8
212680,-131.233595800525,4,1,0,25,0,0
213314,333.333333333333,4,1,0,25,1,0
213314,-125,4,1,0,25,0,0
242563,-125,4,1,0,25,0,0
242730,-123.076923076923,4,1,0,28,0,0
242897,-121.212121212121,4,1,0,30,0,0
243063,-119.402985074627,4,1,0,33,0,0
243230,-117.647058823529,4,1,0,36,0,0
243397,-115.942028985507,4,1,0,38,0,0
243563,-114.285714285714,4,1,0,41,0,0
243730,-112.676056338028,4,1,0,44,0,0
243897,-111.111111111111,4,1,0,46,0,0
244063,-109.58904109589,4,1,0,49,0,0
244230,-108.108108108108,4,1,0,51,0,0
244397,-106.666666666667,4,1,0,54,0,0
244563,-105.263157894737,4,1,0,57,0,0
244730,-103.896103896104,4,1,0,59,0,0
244897,-102.564102564103,4,1,0,62,0,0
245063,-101.26582278481,4,1,0,65,0,0
245188,-100.62893081761,4,1,0,67,0,0
245272,-100,4,1,0,70,0,0
245397,-99.3820424599838,4,1,0,70,0,0
245480,-98.7717730027113,4,1,0,70,0,0
245563,-98.1688563230069,4,1,0,70,0,0
245647,-97.5733507664387,4,1,0,70,0,0
245730,-96.9849324208991,4,1,0,70,0,0
245813,-96.4035684744906,4,1,0,70,0,0
245897,-95.8292246553262,4,1,0,70,0,0
245980,-95.261593097726,4,1,0,70,0,0
246063,-94.7006465213138,4,1,0,70,0,0
246147,-94.1463561594312,4,1,0,70,0,0
246230,-93.5984290439669,4,1,0,70,0,0
246313,-93.0569294377221,4,1,0,70,0,0
246397,-92.5215737179517,4,1,0,70,0,0
246480,-91.9923425574055,4,1,0,70,0,0
246563,-91.4692151209589,4,1,0,70,0,0
246647,-90.9519209955233,4,1,0,70,0,1
267925,-90.9519209955233,4,1,0,80,0,1
267980,-90.9090909090909,4,1,0,80,0,0
268230,-100,4,1,0,80,0,0
299980,-100,4,1,0,80,0,1
326647,-100,4,1,0,80,0,0
347980,-100,4,1,0,80,0,1
368313,-100,4,1,0,80,0,0
369147,-100,4,1,0,30,0,0
369813,-100,4,1,0,45,0,0
370480,-100,4,1,0,60,0,0
370647,333.333333333333,4,1,0,60,1,8
371146,-100,4,1,0,65,0,0
371313,333.333333333333,4,1,0,65,1,0
389813,-100,4,1,0,80,0,0
393979,-100,4,1,0,80,0,1
414979,-98.0392156862745,4,1,0,80,0,1
415062,-96.1538461538461,4,1,0,80,0,1
415146,-94.3396226415094,4,1,0,80,0,1
415229,-92.5925925925926,4,1,0,80,0,1
415312,-90.9090909090909,4,1,0,80,0,1
420646,-90.9090909090909,4,1,0,80,0,0
425979,-90.9090909090909,4,1,0,80,0,1
431312,-90.9090909090909,4,1,0,80,0,0
435479,-90.9090909090909,4,1,0,80,0,0
435562,-90.3259955505415,4,1,0,80,0,0
435646,-89.7504130762762,4,1,0,80,0,0
435729,-89.1820401640236,4,1,0,80,0,0
435812,-88.6208992894376,4,1,0,80,0,0
435896,-88.0666981945446,4,1,0,80,0,0
435979,-87.519385543898,4,1,0,80,0,0
436062,-86.9789093540598,4,1,0,80,0,0
436146,-86.4449928898993,4,1,0,80,0,0
436229,-85.9176651015332,4,1,0,80,0,0
436312,-85.3966589411156,4,1,0,80,0,0
436396,-84.8819334746335,4,1,0,80,0,0
436479,-84.3734470012411,4,1,0,80,0,0
436562,-83.8709460978204,4,1,0,80,0,0
436646,-83.3744647359364,4,1,0,80,0,1
457979,-90.9090909090909,4,1,0,80,0,0
458146,-93.8086303939962,4,1,0,80,0,0
458312,-96.8054211035818,4,1,0,80,0,0
458646,-100,4,1,0,80,0,0
462091,375,4,1,0,80,1,8
462091,-88.8888888888889,4,1,0,80,0,0
462411,444.444444444444,4,1,0,80,1,8
462411,-75.0187546886722,4,1,0,80,0,0
462635,329.67032967033,4,1,0,80,1,8
462635,-101.112234580384,4,1,0,80,0,0
463119,400,4,1,0,80,1,8
463119,-83.0564784053156,4,1,0,80,0,0
463313,333.333333333333,4,1,0,80,1,0
463313,-100,4,1,0,80,0,0
489979,-100,4,1,0,80,0,1
500639,340.909090909091,4,1,0,80,1,0
500639,-97.7777777777777,4,1,0,80,0,0
501313,344.827586206897,4,1,0,80,1,8
501313,-96.6666666666665,4,1,0,80,0,0
502002,344.036697247706,4,1,0,80,1,8
502002,-96.888888888889,4,1,0,80,0,0
502679,344.036697247706,4,1,0,80,1,0
502679,-96.888888888889,4,1,0,80,0,0
503371,545.454545454546,4,1,0,80,1,8
503371,-61.1111111111111,4,1,0,80,0,0
503930,436.363636363636,4,1,0,80,1,8
503930,-76.388888888889,4,1,0,80,0,0
504366,410.958904109589,4,1,0,80,1,0
504366,-81.1111111111111,4,1,0,80,0,0
504776,375,4,1,0,80,1,8
504776,-88.8888888888889,4,1,0,80,0,0
505139,285.714285714286,4,1,0,80,1,8
505139,-116.666666666667,4,1,0,80,0,0
505436,250,4,1,0,80,1,0
505436,-133.333333333333,4,1,0,80,0,0
505936,215.827338129496,4,1,0,80,1,8
505936,-154.444444444445,4,1,0,80,0,0
506151,337.078651685393,4,1,0,80,1,0
506151,-98.8888888888889,4,1,0,80,0,0
506488,315.789473684211,4,1,0,80,1,8
506488,-105.555555555555,4,1,0,80,0,0
506803,296.296296296296,4,1,0,80,1,8
506803,-112.5,4,1,0,80,0,0
507099,296.296296296296,4,1,0,80,1,0
507099,-112.5,4,1,0,80,0,0
507403,279.72027972028,4,1,0,80,1,8
507403,-119.166666666667,4,1,0,80,0,0
507813,318.302387267905,4,1,0,80,1,8
507813,-104.722222222222,4,1,0,80,0,0
508131,276.497695852535,3,1,0,80,1,0
508131,-120.555555555555,3,1,0,80,0,0
509236,279.06976744186,4,1,0,80,1,8
509236,-119.444444444445,4,1,0,80,0,8
509794,279.06976744186,4,1,0,80,1,0
509794,-119.444444444445,4,1,0,80,0,0
510352,292.682926829268,1,1,0,80,1,8
510352,-113.888888888889,4,1,0,80,0,8
510937,333.333333333333,4,1,0,80,1,8
510937,-100,4,1,0,80,0,8
511608,223.048327137546,4,1,0,80,1,0
511608,-149.444444444445,4,1,0,80,0,0
511816,249.480249480249,4,1,0,80,1,8
511816,-133.611111111111,4,1,0,80,0,8
512065,251.046025104603,4,1,0,80,1,8
512065,-132.777777777778,4,1,0,80,0,8
512324,287.081339712919,4,1,0,80,1,0
512324,-116.111111111111,4,1,0,80,0,0
512603,361.44578313253,4,1,0,80,1,8
512603,-92.2222222222223,4,1,0,80,0,8
512971,413.793103448276,4,1,0,80,1,8
512971,-80.5555555555555,4,1,0,80,0,8
513384,431.654676258993,4,1,0,80,1,0
513384,-77.2222222222222,4,1,0,80,0,0
513820,558.139534883721,4,1,0,80,1,8
513820,-59.7222222222222,4,1,0,80,0,8
514378,685.714285714286,4,1,0,80,1,8
514378,-48.6111111111111,4,1,0,80,0,8
515063,681.818181818182,4,1,0,80,1,0
515063,-48.8888888888889,4,1,0,80,0,0
515744,674.157303370787,4,1,0,80,1,8
515744,-49.4444444444444,4,1,0,80,0,8
516418,697.674418604651,4,1,0,80,1,8
516418,-47.7777777777778,4,1,0,80,0,8
517115,666.666666666667,4,1,0,80,1,0
517115,-50,4,1,0,80,0,0

[HitObjects]
256,192,4648,5,8,0:0:0:0:
256,192,5315,1,0,0:0:0:0:
256,192,5981,1,8,0:0:0:0:
256,192,6648,1,8,0:0:0:0:
256,192,7315,1,4,0:0:0:0:
256,192,7481,1,0,0:0:0:0:
256,192,7648,1,8,0:0:0:0:
256,192,7815,1,8,0:0:0:0:
256,192,8148,1,0,0:0:0:0:
256,192,8315,1,8,0:0:0:0:
256,192,8481,1,8,0:0:0:0:
256,192,8648,1,0,0:0:0:0:
256,192,9481,1,8,0:0:0:0:
256,192,9648,1,8,0:0:0:0:
256,192,9815,1,0,0:0:0:0:
256,192,9981,1,0,0:0:0:0:
256,192,10315,1,0,0:0:0:0:
256,192,10648,1,8,0:0:0:0:
256,192,10981,1,8,0:0:0:0:
256,192,11315,1,0,0:0:0:0:
256,192,12148,1,8,0:0:0:0:
256,192,12315,1,0,0:0:0:0:
256,192,12481,1,8,0:0:0:0:
256,192,12648,1,0,0:0:0:0:
256,192,13148,1,8,0:0:0:0:
256,192,13648,1,8,0:0:0:0:
256,192,13815,1,0,0:0:0:0:
256,192,13981,1,8,0:0:0:0:
256,192,14315,1,8,0:0:0:0:
256,192,14648,1,0,0:0:0:0:
256,192,14981,1,8,0:0:0:0:
256,192,15148,1,0,0:0:0:0:
256,192,16648,1,8,0:0:0:0:
256,192,17315,1,8,0:0:0:0:
256,192,17481,1,8,0:0:0:0:
256,192,17648,1,0,0:0:0:0:
256,192,17815,1,0,0:0:0:0:
256,192,17981,1,8,0:0:0:0:
256,192,18148,1,8,0:0:0:0:
256,192,18315,1,0,0:0:0:0:
256,192,18648,1,8,0:0:0:0:
256,192,19148,1,0,0:0:0:0:
256,192,19481,1,8,0:0:0:0:
256,192,19648,1,0,0:0:0:0:
256,192,19981,1,8,0:0:0:0:
256,192,20231,1,8,0:0:0:0:
256,192,20481,1,8,0:0:0:0:
256,192,20648,1,0,0:0:0:0:
256,192,20981,1,0,0:0:0:0:
256,192,21315,1,0,0:0:0:0:
256,192,21648,1,8,0:0:0:0:
256,192,21981,1,8,0:0:0:0:
256,192,22815,1,0,0:0:0:0:
256,192,22981,1,8,0:0:0:0:
256,192,23148,1,0,0:0:0:0:
256,192,23315,1,8,0:0:0:0:
256,192,23481,1,8,0:0:0:0:
256,192,23648,1,0,0:0:0:0:
256,192,23981,1,8,0:0:0:0:
256,192,24481,1,8,0:0:0:0:
256,192,24815,1,0,0:0:0:0:
256,192,24981,1,8,0:0:0:0:
256,192,25148,1,0,0:0:0:0:
256,192,25648,1,0,0:0:0:0:
256,192,25981,1,8,0:0:0:0:
256,192,26648,1,0,0:0:0:0:
256,192,27315,1,8,0:0:0:0:
256,192,27481,12,0,29648,0:0:0:0:
256,192,29981,5,4,0:0:0:0:
256,192,30481,1,4,0:0:0:0:
256,192,30981,1,4,0:0:0:0:
256,192,31481,1,4,0:0:0:0:
256,192,31981,1,12,0:0:0:0:
256,192,32315,1,12,0:0:0:0:
256,192,32648,1,4,0:0:0:0:
256,192,33148,1,4,0:0:0:0:
256,192,33648,1,4,0:0:0:0:
256,192,34148,1,4,0:0:0:0:
256,192,34481,1,0,0:0:0:0:
256,192,34565,1,0,0:0:0:0:
256,192,34648,1,12,0:0:0:0:
256,192,34981,1,12,0:0:0:0:
256,192,35315,1,4,0:0:0:0:
256,192,35815,1,4,0:0:0:0:
256,192,36315,1,4,0:0:0:0:
256,192,36815,1,4,0:0:0:0:
256,192,37315,1,12,0:0:0:0:
256,192,37648,1,12,0:0:0:0:
256,192,37981,1,4,0:0:0:0:
256,192,38481,1,4,0:0:0:0:
256,192,38981,1,4,0:0:0:0:
256,192,39481,1,4,0:0:0:0:
256,192,39815,1,0,0:0:0:0:
256,192,39898,1,0,0:0:0:0:
256,192,39981,1,8,0:0:0:0:
256,192,40148,1,0,0:0:0:0:
256,192,40231,1,0,0:0:0:0:
256,192,40315,1,8,0:0:0:0:
256,192,40481,1,8,0:0:0:0:
256,192,40565,1,0,0:0:0:0:
256,192,40648,1,8,0:0:0:0:
256,192,40981,1,0,0:0:0:0:
256,192,41148,1,8,0:0:0:0:
256,192,41315,1,0,0:0:0:0:
256,192,41648,1,8,0:0:0:0:
256,192,41981,1,0,0:0:0:0:
256,192,42148,1,8,0:0:0:0:
256,192,42315,1,0,0:0:0:0:
256,192,42648,1,8,0:0:0:0:
256,192,42981,1,8,0:0:0:0:
256,192,43315,1,8,0:0:0:0:
256,192,43648,1,0,0:0:0:0:
256,192,43815,1,8,0:0:0:0:
256,192,43981,1,0,0:0:0:0:
256,192,44315,1,8,0:0:0:0:
256,192,44648,1,0,0:0:0:0:
256,192,44815,1,8,0:0:0:0:
256,192,44981,1,0,0:0:0:0:
256,192,45315,1,8,0:0:0:0:
256,192,45481,1,0,0:0:0:0:
256,192,45648,1,8,0:0:0:0:
256,192,45981,1,8,0:0:0:0:
256,192,46065,1,8,0:0:0:0:
256,192,46315,1,0,0:0:0:0:
256,192,46481,1,8,0:0:0:0:
256,192,46565,1,8,0:0:0:0:
256,192,46648,1,0,0:0:0:0:
256,192,46815,1,0,0:0:0:0:
256,192,46981,1,8,0:0:0:0:
256,192,47065,1,8,0:0:0:0:
256,192,47148,1,0,0:0:0:0:
256,192,47315,1,0,0:0:0:0:
256,192,47481,1,8,0:0:0:0:
256,192,47565,1,8,0:0:0:0:
256,192,47648,1,0,0:0:0:0:
256,192,47815,1,0,0:0:0:0:
256,192,47981,1,8,0:0:0:0:
256,192,48065,1,8,0:0:0:0:
256,192,48148,1,0,0:0:0:0:
256,192,48315,1,8,0:0:0:0:
256,192,48398,1,0,0:0:0:0:
256,192,48565,1,0,0:0:0:0:
256,192,48648,1,8,0:0:0:0:
256,192,48815,1,8,0:0:0:0:
256,192,48898,1,0,0:0:0:0:
256,192,48981,1,8,0:0:0:0:
256,192,49065,1,8,0:0:0:0:
256,192,49148,1,0,0:0:0:0:
256,192,49231,1,0,0:0:0:0:
256,192,49315,1,8,0:0:0:0:
256,192,49398,1,0,0:0:0:0:
256,192,49481,1,8,0:0:0:0:
256,192,49565,1,8,0:0:0:0:
256,192,49648,1,0,0:0:0:0:
256,192,49731,1,0,0:0:0:0:
256,192,49815,1,8,0:0:0:0:
256,192,49898,1,0,0:0:0:0:
256,192,49981,1,8,0:0:0:0:
256,192,50065,1,8,0:0:0:0:
256,192,50148,1,0,0:0:0:0:
256,192,50231,1,0,0:0:0:0:
256,192,50315,1,8,0:0:0:0:
256,192,50398,1,0,0:0:0:0:
256,192,50481,1,8,0:0:0:0:
256,192,50565,1,0,0:0:0:0:
256,192,50648,1,8,0:0:0:0:
256,192,50731,1,8,0:0:0:0:
256,192,50815,1,0,0:0:0:0:
256,192,50898,1,0,0:0:0:0:
256,192,50981,1,8,0:0:0:0:
256,192,51065,1,8,0:0:0:0:
256,192,51148,1,0,0:0:0:0:
256,192,51204,1,0,0:0:0:0:
256,192,51259,1,0,0:0:0:0:
256,192,51315,1,0,0:0:0:0:
256,192,51398,1,0,0:0:0:0:
256,192,51481,1,0,0:0:0:0:
256,192,51565,1,0,0:0:0:0:
256,192,51648,1,12,0:0:0:0:
256,192,51981,1,0,0:0:0:0:
256,192,52148,1,8,0:0:0:0:
256,192,52190,1,8,0:0:0:0:
256,192,52481,1,0,0:0:0:0:
256,192,52565,1,0,0:0:0:0:
256,192,52648,1,8,0:0:0:0:
256,192,52759,1,0,0:0:0:0:
256,192,52815,1,0,0:0:0:0:
256,192,52870,1,0,0:0:0:0:
256,192,52981,1,8,0:0:0:0:
256,192,53093,1,0,0:0:0:0:
256,192,53204,1,0,0:0:0:0:
256,192,53315,1,8,0:0:0:0:
256,192,53426,1,0,0:0:0:0:
256,192,53481,1,0,0:0:0:0:
256,192,53537,1,0,0:0:0:0:
256,192,53648,1,8,0:0:0:0:
256,192,53759,1,0,0:0:0:0:
256,192,53870,1,0,0:0:0:0:
260,186,53981,1,12,0:0:0:0:
256,192,54315,1,8,0:0:0:0:
256,192,54370,1,8,0:0:0:0:
256,192,54426,1,8,0:0:0:0:
256,192,54481,1,0,0:0:0:0:
256,192,54565,1,0,0:0:0:0:
256,192,54648,1,8,0:0:0:0:
256,192,54731,1,0,0:0:0:0:
256,192,54815,1,8,0:0:0:0:
260,186,54870,1,0,0:0:0:0:
256,192,54926,1,0,0:0:0:0:
260,186,54981,1,0,0:0:0:0:
256,192,55065,1,0,0:0:0:0:
256,192,55148,1,0,0:0:0:0:
256,192,55231,1,0,0:0:0:0:
256,192,55315,1,8,0:0:0:0:
256,192,55481,1,0,0:0:0:0:
256,192,55565,1,8,0:0:0:0:
256,192,55648,1,0,0:0:0:0:
256,192,55731,1,8,0:0:0:0:
256,192,55815,1,8,0:0:0:0:
260,186,55898,1,0,0:0:0:0:
260,186,55981,1,8,0:0:0:0:
256,192,56065,1,8,0:0:0:0:
256,192,56148,1,8,0:0:0:0:
256,192,56231,1,0,0:0:0:0:
256,192,56315,1,8,0:0:0:0:
256,192,56398,1,8,0:0:0:0:
256,192,56481,1,8,0:0:0:0:
256,192,56565,1,8,0:0:0:0:
256,192,56648,1,0,0:0:0:0:
256,192,56731,1,0,0:0:0:0:
256,192,56815,1,0,0:0:0:0:
260,186,56898,1,0,0:0:0:0:
260,186,56981,1,8,0:0:0:0:
256,192,57148,1,0,0:0:0:0:
256,192,57231,1,0,0:0:0:0:
256,192,57315,1,0,0:0:0:0:
256,192,57398,1,0,0:0:0:0:
256,192,57481,1,8,0:0:0:0:
256,192,57648,1,0,0:0:0:0:
256,192,57731,1,0,0:0:0:0:
256,192,57815,1,0,0:0:0:0:
260,186,57898,1,0,0:0:0:0:
260,186,57981,1,8,0:0:0:0:
256,192,58065,1,8,0:0:0:0:
256,192,58148,1,0,0:0:0:0:
256,192,58231,1,0,0:0:0:0:
256,192,58315,1,0,0:0:0:0:
256,192,58481,1,8,0:0:0:0:
256,192,58565,1,8,0:0:0:0:
256,192,58648,1,0,0:0:0:0:
256,192,58731,1,0,0:0:0:0:
256,192,58815,1,0,0:0:0:0:
256,192,58981,1,8,0:0:0:0:
256,192,59065,1,8,0:0:0:0:
256,192,59148,1,0,0:0:0:0:
256,192,59231,1,0,0:0:0:0:
256,192,59315,1,8,0:0:0:0:
256,192,59398,1,0,0:0:0:0:
256,192,59481,1,0,0:0:0:0:
256,192,59565,1,0,0:0:0:0:
256,192,59648,1,8,0:0:0:0:
256,192,59815,1,8,0:0:0:0:
256,192,59898,1,0,0:0:0:0:
256,192,59981,1,0,0:0:0:0:
256,192,60065,1,0,0:0:0:0:
256,192,60148,1,8,0:0:0:0:
256,192,60315,1,8,0:0:0:0:
256,192,60398,1,0,0:0:0:0:
256,192,60481,1,0,0:0:0:0:
256,192,60565,1,0,0:0:0:0:
256,192,60648,1,8,0:0:0:0:
256,192,60815,1,8,0:0:0:0:
256,192,60898,1,0,0:0:0:0:
256,192,60981,1,0,0:0:0:0:
256,192,61065,1,0,0:0:0:0:
256,192,61148,1,8,0:0:0:0:
256,192,61315,1,8,0:0:0:0:
256,192,61398,1,8,0:0:0:0:
256,192,61481,1,0,0:0:0:0:
256,192,61565,1,0,0:0:0:0:
256,192,61648,1,8,0:0:0:0:
256,192,61731,1,8,0:0:0:0:
256,192,61815,1,8,0:0:0:0:
256,192,61898,1,8,0:0:0:0:
256,192,61981,1,0,0:0:0:0:
256,192,62065,1,0,0:0:0:0:
256,192,62148,1,8,0:0:0:0:
256,192,62231,1,0,0:0:0:0:
256,192,62315,1,8,0:0:0:0:
256,192,62481,1,0,0:0:0:0:
256,192,62565,1,0,0:0:0:0:
256,192,62648,1,8,0:0:0:0:
256,192,62731,1,0,0:0:0:0:
256,192,62815,1,8,0:0:0:0:
256,192,62981,1,0,0:0:0:0:
256,192,63065,1,0,0:0:0:0:
256,192,63148,1,8,0:0:0:0:
256,192,63231,1,0,0:0:0:0:
256,192,63315,1,8,0:0:0:0:
256,192,63398,1,8,0:0:0:0:
256,192,63481,1,0,0:0:0:0:
256,192,63565,1,0,0:0:0:0:
256,192,63648,1,0,0:0:0:0:
256,192,63815,1,8,0:0:0:0:
256,192,63898,1,8,0:0:0:0:
256,192,63981,1,0,0:0:0:0:
256,192,64065,1,0,0:0:0:0:
256,192,64148,1,0,0:0:0:0:
256,192,64315,1,8,0:0:0:0:
256,192,64398,1,8,0:0:0:0:
256,192,64481,1,0,0:0:0:0:
256,192,64565,1,0,0:0:0:0:
256,192,64648,1,8,0:0:0:0:
256,192,64731,1,0,0:0:0:0:
256,192,64815,1,0,0:0:0:0:
256,192,64898,1,0,0:0:0:0:
256,192,64981,1,8,0:0:0:0:
256,192,65148,1,8,0:0:0:0:
256,192,65231,1,0,0:0:0:0:
256,192,65315,1,0,0:0:0:0:
256,192,65398,1,0,0:0:0:0:
256,192,65481,1,8,0:0:0:0:
256,192,65648,1,8,0:0:0:0:
256,192,65731,1,0,0:0:0:0:
256,192,65815,1,0,0:0:0:0:
256,192,65898,1,0,0:0:0:0:
256,192,65981,1,8,0:0:0:0:
256,192,66148,1,0,0:0:0:0:
256,192,66231,1,8,0:0:0:0:
256,192,66398,1,0,0:0:0:0:
256,192,66481,1,8,0:0:0:0:
256,192,66648,1,8,0:0:0:0:
256,192,66731,1,0,0:0:0:0:
256,192,66815,1,0,0:0:0:0:
256,192,66898,1,8,0:0:0:0:
256,192,66981,1,8,0:0:0:0:
256,192,67065,1,0,0:0:0:0:
256,192,67148,1,8,0:0:0:0:
256,192,67231,1,0,0:0:0:0:
256,192,67315,1,8,0:0:0:0:
256,192,67398,1,8,0:0:0:0:
256,192,67481,1,0,0:0:0:0:
256,192,67565,1,0,0:0:0:0:
256,192,67648,1,8,0:0:0:0:
256,192,67815,1,8,0:0:0:0:
256,192,67898,1,8,0:0:0:0:
256,192,67981,1,0,0:0:0:0:
256,192,68065,1,0,0:0:0:0:
256,192,68148,1,8,0:0:0:0:
256,192,68315,1,8,0:0:0:0:
256,192,68398,1,8,0:0:0:0:
256,192,68481,1,0,0:0:0:0:
256,192,68565,1,0,0:0:0:0:
256,192,68648,1,8,0:0:0:0:
256,192,68731,1,0,0:0:0:0:
256,192,68815,1,0,0:0:0:0:
256,192,68898,1,8,0:0:0:0:
256,192,68981,1,0,0:0:0:0:
256,192,69148,1,8,0:0:0:0:
256,192,69231,1,0,0:0:0:0:
256,192,69315,1,0,0:0:0:0:
256,192,69398,1,8,0:0:0:0:
256,192,69481,1,0,0:0:0:0:
256,192,69648,1,8,0:0:0:0:
256,192,69731,1,0,0:0:0:0:
256,192,69815,1,8,0:0:0:0:
256,192,69898,1,0,0:0:0:0:
256,192,69981,1,8,0:0:0:0:
256,192,70065,1,0,0:0:0:0:
256,192,70148,1,0,0:0:0:0:
256,192,70231,1,0,0:0:0:0:
256,192,70315,1,8,0:0:0:0:
256,192,70481,1,8,0:0:0:0:
256,192,70565,1,0,0:0:0:0:
256,192,70648,1,0,0:0:0:0:
256,192,70731,1,0,0:0:0:0:
256,192,70815,1,8,0:0:0:0:
256,192,70981,1,8,0:0:0:0:
256,192,71065,1,0,0:0:0:0:
256,192,71148,1,0,0:0:0:0:
256,192,71231,1,0,0:0:0:0:
256,192,71315,1,8,0:0:0:0:
256,192,71481,1,8,0:0:0:0:
256,192,71565,1,0,0:0:0:0:
256,192,71648,1,0,0:0:0:0:
256,192,71731,1,0,0:0:0:0:
256,192,71815,1,8,0:0:0:0:
256,192,71981,1,8,0:0:0:0:
256,192,72065,1,8,0:0:0:0:
256,192,72148,1,0,0:0:0:0:
256,192,72231,1,0,0:0:0:0:
256,192,72315,1,8,0:0:0:0:
256,192,72398,1,8,0:0:0:0:
256,192,72481,1,8,0:0:0:0:
256,192,72565,1,8,0:0:0:0:
256,192,72648,1,0,0:0:0:0:
256,192,72731,1,0,0:0:0:0:
256,192,72815,1,0,0:0:0:0:
256,192,72898,1,0,0:0:0:0:
256,192,72981,1,8,0:0:0:0:
256,192,73148,1,0,0:0:0:0:
256,192,73231,1,0,0:0:0:0:
256,192,73315,1,0,0:0:0:0:
256,192,73398,1,0,0:0:0:0:
256,192,73481,1,8,0:0:0:0:
256,192,73648,1,0,0:0:0:0:
256,192,73731,1,0,0:0:0:0:
256,192,73815,1,0,0:0:0:0:
256,192,73898,1,0,0:0:0:0:
256,192,73981,1,8,0:0:0:0:
256,192,74065,1,0,0:0:0:0:
256,192,74148,1,0,0:0:0:0:
256,192,74231,1,8,0:0:0:0:
256,192,74315,1,0,0:0:0:0:
256,192,74481,1,8,0:0:0:0:
256,192,74565,1,0,0:0:0:0:
256,192,74648,1,0,0:0:0:0:
256,192,74731,1,8,0:0:0:0:
256,192,74815,1,0,0:0:0:0:
256,192,74981,1,8,0:0:0:0:
256,192,75065,1,0,0:0:0:0:
256,192,75148,1,0,0:0:0:0:
256,192,75231,1,8,0:0:0:0:
256,192,75315,1,8,0:0:0:0:
256,192,75398,1,0,0:0:0:0:
256,192,75481,1,0,0:0:0:0:
256,192,75565,1,0,0:0:0:0:
256,192,75648,1,8,0:0:0:0:
256,192,75815,1,8,0:0:0:0:
256,192,75898,1,0,0:0:0:0:
256,192,75981,1,0,0:0:0:0:
256,192,76065,1,0,0:0:0:0:
256,192,76148,1,8,0:0:0:0:
256,192,76315,1,8,0:0:0:0:
256,192,76398,1,0,0:0:0:0:
256,192,76481,1,0,0:0:0:0:
256,192,76565,1,0,0:0:0:0:
256,192,76648,1,8,0:0:0:0:
256,192,76704,1,0,0:0:0:0:
256,192,76759,1,0,0:0:0:0:
256,192,76815,1,8,0:0:0:0:
256,192,76898,1,0,0:0:0:0:
256,192,76981,1,8,0:0:0:0:
256,192,77037,1,8,0:0:0:0:
256,192,77093,1,8,0:0:0:0:
256,192,77148,1,0,0:0:0:0:
256,192,77231,1,0,0:0:0:0:
256,192,77315,1,8,0:0:0:0:
256,192,77398,1,0,0:0:0:0:
256,192,77481,1,8,0:0:0:0:
256,192,77565,1,0,0:0:0:0:
256,192,77648,1,8,0:0:0:0:
256,192,77731,1,8,0:0:0:0:
256,192,77815,1,8,0:0:0:0:
256,192,77898,1,8,0:0:0:0:
256,192,77981,1,0,0:0:0:0:
256,192,78147,1,0,0:0:0:0:
256,192,78314,1,0,0:0:0:0:
256,192,78481,1,0,0:0:0:0:
256,192,78648,1,8,0:0:0:0:
256,192,78731,1,0,0:0:0:0:
256,192,78814,1,0,0:0:0:0:
256,192,78898,1,0,0:0:0:0:
256,192,78981,1,8,0:0:0:0:
256,192,79148,1,0,0:0:0:0:
256,192,79314,1,8,0:0:0:0:
256,192,79481,1,0,0:0:0:0:
256,192,79648,1,8,0:0:0:0:
256,192,79814,1,0,0:0:0:0:
256,192,79898,1,0,0:0:0:0:
256,192,79981,1,8,0:0:0:0:
256,192,80064,1,8,0:0:0:0:
256,192,80148,1,0,0:0:0:0:
256,192,80231,1,0,0:0:0:0:
256,192,80314,1,8,0:0:0:0:
256,192,80481,1,0,0:0:0:0:
256,192,80648,1,8,0:0:0:0:
256,192,80814,1,0,0:0:0:0:
256,192,80898,1,0,0:0:0:0:
256,192,80981,1,8,0:0:0:0:
256,192,81148,1,0,0:0:0:0:
256,192,81314,1,8,0:0:0:0:
256,192,81398,1,8,0:0:0:0:
256,192,81481,1,0,0:0:0:0:
256,192,81564,1,0,0:0:0:0:
256,192,81648,1,8,0:0:0:0:
256,192,81814,1,0,0:0:0:0:
256,192,81898,1,0,0:0:0:0:
256,192,81981,1,8,0:0:0:0:
256,192,82064,1,8,0:0:0:0:
256,192,82148,1,0,0:0:0:0:
256,192,82314,1,8,0:0:0:0:
256,192,82398,1,8,0:0:0:0:
256,192,82481,1,0,0:0:0:0:
256,192,82564,1,0,0:0:0:0:
256,192,82648,1,8,0:0:0:0:
256,192,82814,1,0,0:0:0:0:
256,192,82898,1,0,0:0:0:0:
256,192,82981,1,8,0:0:0:0:
256,192,83064,1,0,0:0:0:0:
256,192,83148,1,0,0:0:0:0:
256,192,83314,1,8,0:0:0:0:
256,192,83398,1,0,0:0:0:0:
256,192,83481,1,8,0:0:0:0:
256,192,83564,1,0,0:0:0:0:
256,192,83648,1,8,0:0:0:0:
256,192,83731,1,8,0:0:0:0:
256,192,83814,1,0,0:0:0:0:
256,192,83898,1,0,0:0:0:0:
256,192,83981,1,8,0:0:0:0:
256,192,84064,1,0,0:0:0:0:
256,192,84148,1,0,0:0:0:0:
256,192,84231,1,0,0:0:0:0:
256,192,84314,1,8,0:0:0:0:
256,192,84481,1,0,0:0:0:0:
256,192,84648,1,8,0:0:0:0:
256,192,84814,1,0,0:0:0:0:
256,192,84981,1,8,0:0:0:0:
256,192,85148,1,8,0:0:0:0:
256,192,85231,1,0,0:0:0:0:
256,192,85314,1,8,0:0:0:0:
256,192,85398,1,8,0:0:0:0:
256,192,85481,1,0,0:0:0:0:
256,192,85564,1,0,0:0:0:0:
256,192,85648,1,8,0:0:0:0:
256,192,85814,1,8,0:0:0:0:
256,192,85870,1,0,0:0:0:0:
256,192,85925,1,0,0:0:0:0:
256,192,85981,1,8,0:0:0:0:
256,192,86064,1,0,0:0:0:0:
256,192,86147,1,8,0:0:0:0:
256,192,86231,1,8,0:0:0:0:
256,192,86314,1,0,0:0:0:0:
256,192,86397,1,0,0:0:0:0:
256,192,86481,1,8,0:0:0:0:
256,192,86814,1,8,0:0:0:0:
256,192,86897,1,8,0:0:0:0:
256,192,86981,1,8,0:0:0:0:
256,192,87064,1,8,0:0:0:0:
256,192,87147,1,0,0:0:0:0:
256,192,87231,1,0,0:0:0:0:
256,192,87314,1,8,0:0:0:0:
256,192,87397,1,8,0:0:0:0:
256,192,87481,1,8,0:0:0:0:
256,192,87564,1,8,0:0:0:0:
256,192,87647,1,0,0:0:0:0:
256,192,87731,1,0,0:0:0:0:
256,192,87814,1,8,0:0:0:0:
256,192,87897,1,0,0:0:0:0:
256,192,87981,1,8,0:0:0:0:
256,192,88064,1,8,0:0:0:0:
256,192,88147,1,0,0:0:0:0:
256,192,88231,1,0,0:0:0:0:
256,192,88314,1,8,0:0:0:0:
256,192,88397,1,0,0:0:0:0:
256,192,88481,1,8,0:0:0:0:
256,192,88564,1,8,0:0:0:0:
256,192,88647,1,0,0:0:0:0:
256,192,88731,1,0,0:0:0:0:
256,192,88814,1,8,0:0:0:0:
256,192,89147,1,0,0:0:0:0:
256,192,89231,1,8,0:0:0:0:
256,192,89314,1,0,0:0:0:0:
256,192,89481,1,0,0:0:0:0:
256,192,89647,1,8,0:0:0:0:
256,192,89814,1,0,0:0:0:0:
256,192,89981,1,0,0:0:0:0:
256,192,90147,1,8,0:0:0:0:
256,192,90314,1,8,0:0:0:0:
256,192,90397,1,8,0:0:0:0:
256,192,90481,1,0,0:0:0:0:
256,192,90564,1,0,0:0:0:0:
256,192,90647,1,8,0:0:0:0:
256,192,90814,1,0,0:0:0:0:
256,192,90981,1,8,0:0:0:0:
256,192,91147,1,0,0:0:0:0:
256,192,91314,1,0,0:0:0:0:
256,192,91481,1,8,0:0:0:0:
256,192,91647,1,8,0:0:0:0:
256,192,91731,1,0,0:0:0:0:
256,192,91814,1,8,0:0:0:0:
256,192,91897,1,8,0:0:0:0:
256,192,91981,1,0,0:0:0:0:
256,192,92147,1,0,0:0:0:0:
256,192,92314,1,8,0:0:0:0:
256,192,92481,1,0,0:0:0:0:
256,192,92647,1,0,0:0:0:0:
256,192,92814,1,8,0:0:0:0:
256,192,92981,1,8,0:0:0:0:
256,192,93064,1,0,0:0:0:0:
256,192,93147,1,0,0:0:0:0:
256,192,93314,1,0,0:0:0:0:
256,192,93397,1,0,0:0:0:0:
256,192,93481,1,0,0:0:0:0:
256,192,93564,1,0,0:0:0:0:
256,192,93647,1,8,0:0:0:0:
256,192,93981,1,0,0:0:0:0:
256,192,94064,1,0,0:0:0:0:
256,192,94147,1,0,0:0:0:0:
256,192,94231,1,0,0:0:0:0:
256,192,94314,1,8,0:0:0:0:
256,192,94647,1,0,0:0:0:0:
256,192,94814,1,0,0:0:0:0:
256,192,94981,1,8,0:0:0:0:
256,192,95147,1,0,0:0:0:0:
256,192,95314,1,0,0:0:0:0:
256,192,95481,1,8,0:0:0:0:
256,192,95647,1,8,0:0:0:0:
256,192,95731,1,0,0:0:0:0:
256,192,95814,1,8,0:0:0:0:
256,192,95897,1,8,0:0:0:0:
256,192,95981,1,0,0:0:0:0:
256,192,96147,1,0,0:0:0:0:
256,192,96314,1,8,0:0:0:0:
256,192,96481,1,0,0:0:0:0:
256,192,96647,1,0,0:0:0:0:
256,192,96814,1,8,0:0:0:0:
256,192,96897,1,0,0:0:0:0:
256,192,96981,1,8,0:0:0:0:
256,192,97147,1,0,0:0:0:0:
256,192,97314,1,8,0:0:0:0:
256,192,97397,1,8,0:0:0:0:
256,192,97481,1,0,0:0:0:0:
256,192,97564,1,0,0:0:0:0:
256,192,97647,1,8,0:0:0:0:
256,192,97814,1,0,0:0:0:0:
256,192,97981,1,8,0:0:0:0:
256,192,98147,1,8,0:0:0:0:
256,192,98314,1,0,0:0:0:0:
256,192,98481,1,8,0:0:0:0:
256,192,98814,1,0,0:0:0:0:
256,192,98897,1,0,0:0:0:0:
256,192,98981,1,8,0:0:0:0:
256,192,99147,1,8,0:0:0:0:
256,192,99231,1,0,0:0:0:0:
256,192,99314,1,8,0:0:0:0:
256,192,99481,1,8,0:0:0:0:
256,192,99647,1,0,0:0:0:0:
256,192,99814,1,0,0:0:0:0:
256,192,99897,1,0,0:0:0:0:
256,192,99981,1,8,0:0:0:0:
256,192,100147,1,0,0:0:0:0:
256,192,100231,1,0,0:0:0:0:
256,192,100314,1,0,0:0:0:0:
256,192,100481,1,0,0:0:0:0:
256,192,100647,1,8,0:0:0:0:
256,192,100731,1,8,0:0:0:0:
256,192,100814,1,0,0:0:0:0:
256,192,100897,1,0,0:0:0:0:
256,192,100981,1,8,0:0:0:0:
256,192,101064,1,8,0:0:0:0:
256,192,101147,1,8,0:0:0:0:
256,192,101314,1,8,0:0:0:0:
256,192,101397,1,0,0:0:0:0:
256,192,101481,1,8,0:0:0:0:
256,192,101564,1,0,0:0:0:0:
256,192,101647,1,8,0:0:0:0:
256,192,101731,1,0,0:0:0:0:
256,192,101814,1,8,0:0:0:0:
256,192,101897,1,8,0:0:0:0:
256,192,101981,1,0,0:0:0:0:
256,192,102231,1,0,0:0:0:0:
256,192,102314,1,0,0:0:0:0:
256,192,102481,1,0,0:0:0:0:
256,192,102564,1,0,0:0:0:0:
256,192,102647,1,8,0:0:0:0:
256,192,102897,1,0,0:0:0:0:
256,192,102981,1,8,0:0:0:0:
256,192,103147,1,0,0:0:0:0:
256,192,103314,1,8,0:0:0:0:
256,192,103397,1,0,0:0:0:0:
256,192,103481,1,0,0:0:0:0:
256,192,103564,1,0,0:0:0:0:
256,192,103647,1,8,0:0:0:0:
256,192,103814,1,0,0:0:0:0:
256,192,103897,1,0,0:0:0:0:
256,192,103981,1,8,0:0:0:0:
256,192,104231,1,0,0:0:0:0:
256,192,104314,1,8,0:0:0:0:
256,192,104481,1,0,0:0:0:0:
256,192,104564,1,0,0:0:0:0:
256,192,104647,1,8,0:0:0:0:
256,192,104731,1,8,0:0:0:0:
256,192,104814,1,0,0:0:0:0:
256,192,104897,1,0,0:0:0:0:
256,192,104981,1,8,0:0:0:0:
256,192,105147,1,8,0:0:0:0:
256,192,105231,1,0,0:0:0:0:
256,192,105314,1,8,0:0:0:0:
248,191,105481,1,0,0:0:0:0:
248,191,105536,1,0,0:0:0:0:
256,192,105592,1,0,0:0:0:0:
256,192,105647,1,8,0:0:0:0:
256,192,105814,1,0,0:0:0:0:
256,192,105981,1,8,0:0:0:0:
256,192,106064,1,8,0:0:0:0:
256,192,106147,1,0,0:0:0:0:
256,192,106231,1,0,0:0:0:0:
256,192,106314,1,8,0:0:0:0:
256,192,106397,1,8,0:0:0:0:
256,192,106481,1,8,0:0:0:0:
256,192,106647,1,8,0:0:0:0:
256,192,106731,1,0,0:0:0:0:
256,192,106814,1,8,0:0:0:0:
256,192,106897,1,0,0:0:0:0:
256,192,106981,1,8,0:0:0:0:
256,192,107064,1,8,0:0:0:0:
256,192,107147,1,0,0:0:0:0:
256,192,107231,1,0,0:0:0:0:
256,192,107314,1,8,0:0:0:0:
256,192,107564,1,0,0:0:0:0:
256,192,107647,1,8,0:0:0:0:
256,192,107814,1,0,0:0:0:0:
256,192,107897,1,0,0:0:0:0:
256,192,107981,1,8,0:0:0:0:
256,192,108231,1,0,0:0:0:0:
256,192,108314,1,8,0:0:0:0:
256,192,108481,1,0,0:0:0:0:
256,192,108647,1,8,0:0:0:0:
256,192,108731,1,0,0:0:0:0:
256,192,108814,1,0,0:0:0:0:
256,192,108897,1,0,0:0:0:0:
256,192,108981,1,8,0:0:0:0:
256,192,109147,1,0,0:0:0:0:
256,192,109231,1,0,0:0:0:0:
256,192,109314,1,8,0:0:0:0:
256,192,109397,1,0,0:0:0:0:
256,192,109564,1,0,0:0:0:0:
256,192,109647,1,8,0:0:0:0:
256,192,109814,1,0,0:0:0:0:
256,192,109897,1,0,0:0:0:0:
256,192,109981,1,8,0:0:0:0:
256,192,110064,1,8,0:0:0:0:
256,192,110147,1,8,0:0:0:0:
256,192,110231,1,0,0:0:0:0:
256,192,110314,1,8,0:0:0:0:
256,192,110370,1,8,0:0:0:0:
256,192,110425,1,8,0:0:0:0:
256,192,110481,1,0,0:0:0:0:
256,192,110564,1,0,0:0:0:0:
256,192,110647,1,8,0:0:0:0:
256,192,110814,1,0,0:0:0:0:
256,192,110897,1,0,0:0:0:0:
256,192,110981,1,8,0:0:0:0:
256,192,111147,1,0,0:0:0:0:
256,192,111314,1,8,0:0:0:0:
256,192,111397,1,8,0:0:0:0:
256,192,111481,1,0,0:0:0:0:
256,192,111564,1,0,0:0:0:0:
256,192,111647,1,8,0:0:0:0:
256,192,111731,1,8,0:0:0:0:
256,192,111814,1,8,0:0:0:0:
256,192,111981,1,8,0:0:0:0:
256,192,112064,1,0,0:0:0:0:
256,192,112147,1,8,0:0:0:0:
256,192,112231,1,0,0:0:0:0:
256,192,112314,1,8,0:0:0:0:
256,192,112397,1,0,0:0:0:0:
256,192,112481,1,8,0:0:0:0:
256,192,112564,1,8,0:0:0:0:
256,192,112647,1,0,0:0:0:0:
256,192,112897,1,0,0:0:0:0:
256,192,112981,1,0,0:0:0:0:
256,192,113147,1,0,0:0:0:0:
256,192,113231,1,0,0:0:0:0:
256,192,113314,1,8,0:0:0:0:
256,192,113564,1,0,0:0:0:0:
256,192,113647,1,8,0:0:0:0:
256,192,113814,1,0,0:0:0:0:
256,192,113981,1,8,0:0:0:0:
256,192,114064,1,0,0:0:0:0:
256,192,114147,1,0,0:0:0:0:
256,192,114231,1,0,0:0:0:0:
256,192,114314,1,8,0:0:0:0:
256,192,114481,1,0,0:0:0:0:
256,192,114564,1,0,0:0:0:0:
256,192,114647,1,8,0:0:0:0:
256,192,114897,1,0,0:0:0:0:
256,192,114981,1,8,0:0:0:0:
256,192,115147,1,0,0:0:0:0:
256,192,115231,1,0,0:0:0:0:
256,192,115314,1,8,0:0:0:0:
256,192,115397,1,0,0:0:0:0:
256,192,115481,1,0,0:0:0:0:
256,192,115564,1,0,0:0:0:0:
256,192,115647,1,8,0:0:0:0:
256,192,115814,1,8,0:0:0:0:
256,192,115897,1,0,0:0:0:0:
256,192,115981,1,8,0:0:0:0:
256,192,116147,1,0,0:0:0:0:
256,192,116203,1,0,0:0:0:0:
256,192,116259,1,0,0:0:0:0:
256,192,116314,1,8,0:0:0:0:
256,192,116481,1,0,0:0:0:0:
256,192,116647,1,8,0:0:0:0:
256,192,116731,1,0,0:0:0:0:
256,192,116814,1,0,0:0:0:0:
256,192,116897,1,0,0:0:0:0:
256,192,116981,1,8,0:0:0:0:
256,192,117064,1,8,0:0:0:0:
256,192,117147,1,8,0:0:0:0:
256,192,117314,1,8,0:0:0:0:
256,192,117397,1,0,0:0:0:0:
256,192,117481,1,8,0:0:0:0:
256,192,117564,1,0,0:0:0:0:
256,192,117647,1,8,0:0:0:0:
256,192,117731,1,8,0:0:0:0:
256,192,117814,1,0,0:0:0:0:
256,192,117897,1,0,0:0:0:0:
256,192,117981,1,8,0:0:0:0:
256,192,118231,1,0,0:0:0:0:
256,192,118314,1,8,0:0:0:0:
256,192,118481,1,0,0:0:0:0:
256,192,118564,1,0,0:0:0:0:
256,192,118647,1,8,0:0:0:0:
256,192,118814,1,0,0:0:0:0:
256,192,118897,1,0,0:0:0:0:
256,192,118981,1,0,0:0:0:0:
256,192,119147,1,8,0:0:0:0:
256,192,119231,1,0,0:0:0:0:
256,192,119314,1,8,0:0:0:0:
256,192,119370,1,8,0:0:0:0:
256,192,119425,1,0,0:0:0:0:
256,192,119481,1,0,0:0:0:0:
256,192,119564,1,0,0:0:0:0:
256,192,119647,1,8,0:0:0:0:
256,192,119814,1,8,0:0:0:0:
256,192,120147,1,8,0:0:0:0:
256,192,120481,1,8,0:0:0:0:
256,192,120647,1,8,0:0:0:0:
256,192,120814,1,8,0:0:0:0:
256,192,120981,1,8,0:0:0:0:
256,192,121064,1,8,0:0:0:0:
256,192,121147,1,8,0:0:0:0:
256,192,121231,1,8,0:0:0:0:
256,192,121314,1,0,0:0:0:0:
256,192,121481,1,0,0:0:0:0:
256,192,121647,1,0,0:0:0:0:
256,192,121814,1,0,0:0:0:0:
256,192,121981,1,8,0:0:0:0:
256,192,122147,1,0,0:0:0:0:
256,192,122314,1,8,0:0:0:0:
256,192,122481,1,8,0:0:0:0:
256,192,122647,1,0,0:0:0:0:
256,192,122814,1,0,0:0:0:0:
256,192,122981,1,8,0:0:0:0:
256,192,123147,1,8,0:0:0:0:
256,192,123314,1,0,0:0:0:0:
256,192,123481,1,8,0:0:0:0:
256,192,123647,1,0,0:0:0:0:
256,192,123814,1,8,0:0:0:0:
256,192,123897,1,8,0:0:0:0:
256,192,123981,1,0,0:0:0:0:
256,192,124147,1,0,0:0:0:0:
256,192,124314,1,0,0:0:0:0:
256,192,124481,1,0,0:0:0:0:
256,192,124647,1,8,0:0:0:0:
256,192,124814,1,0,0:0:0:0:
256,192,124981,1,0,0:0:0:0:
256,192,125147,1,8,0:0:0:0:
256,192,125314,1,8,0:0:0:0:
256,192,125481,1,0,0:0:0:0:
256,192,125647,1,8,0:0:0:0:
256,192,125814,1,0,0:0:0:0:
256,192,125981,1,8,0:0:0:0:
256,192,126064,1,8,0:0:0:0:
256,192,126147,1,0,0:0:0:0:
256,192,126231,1,0,0:0:0:0:
256,192,126314,1,8,0:0:0:0:
256,192,126397,1,8,0:0:0:0:
256,192,126481,1,0,0:0:0:0:
256,192,126564,1,0,0:0:0:0:
256,192,126647,1,8,0:0:0:0:
256,192,126814,1,0,0:0:0:0:
256,192,126981,1,8,0:0:0:0:
256,192,127147,1,0,0:0:0:0:
256,192,127314,1,8,0:0:0:0:
256,192,127397,1,8,0:0:0:0:
256,192,127481,1,0,0:0:0:0:
256,192,127647,1,8,0:0:0:0:
256,192,127814,1,8,0:0:0:0:
256,192,127897,1,0,0:0:0:0:
256,192,127981,1,8,0:0:0:0:
256,192,128147,1,0,0:0:0:0:
256,192,128314,1,8,0:0:0:0:
256,192,128481,1,0,0:0:0:0:
256,192,128564,1,0,0:0:0:0:
256,192,128647,1,8,0:0:0:0:
256,192,128731,1,8,0:0:0:0:
256,192,128814,1,0,0:0:0:0:
256,192,128981,1,8,0:0:0:0:
256,192,129147,1,0,0:0:0:0:
256,192,129314,1,8,0:0:0:0:
256,192,129397,1,8,0:0:0:0:
256,192,129481,1,0,0:0:0:0:
256,192,129564,1,0,0:0:0:0:
256,192,129647,1,8,0:0:0:0:
256,192,129814,1,0,0:0:0:0:
256,192,129897,1,8,0:0:0:0:
256,192,129981,1,0,0:0:0:0:
256,192,130064,1,0,0:0:0:0:
256,192,130147,1,8,0:0:0:0:
256,192,130231,1,8,0:0:0:0:
256,192,130314,1,0,0:0:0:0:
256,192,130397,1,0,0:0:0:0:
256,192,130481,1,0,0:0:0:0:
256,192,130564,1,0,0:0:0:0:
256,192,130647,1,8,0:0:0:0:
256,192,130731,1,0,0:0:0:0:
256,192,130814,1,8,0:0:0:0:
256,192,130897,1,8,0:0:0:0:
256,192,130981,1,0,0:0:0:0:
256,192,131064,1,8,0:0:0:0:
256,192,131147,1,8,0:0:0:0:
256,192,131231,1,0,0:0:0:0:
256,192,131314,1,8,0:0:0:0:
256,192,131397,1,8,0:0:0:0:
256,192,131481,1,0,0:0:0:0:
256,192,131564,1,0,0:0:0:0:
256,192,131647,1,8,0:0:0:0:
256,192,131731,1,8,0:0:0:0:
256,192,131814,1,8,0:0:0:0:
256,192,131897,1,0,0:0:0:0:
256,192,131981,1,8,0:0:0:0:
256,192,132147,1,0,0:0:0:0:
256,192,132314,1,8,0:0:0:0:
256,192,132481,1,0,0:0:0:0:
256,192,132564,1,0,0:0:0:0:
256,192,132647,1,0,0:0:0:0:
256,192,132814,1,8,0:0:0:0:
256,192,132981,1,8,0:0:0:0:
256,192,133147,1,0,0:0:0:0:
256,192,133231,1,0,0:0:0:0:
256,192,133314,1,8,0:0:0:0:
256,192,133481,1,0,0:0:0:0:
256,192,133647,1,8,0:0:0:0:
256,192,133814,1,0,0:0:0:0:
256,192,133897,1,0,0:0:0:0:
256,192,133981,1,8,0:0:0:0:
256,192,134147,1,0,0:0:0:0:
256,192,134314,1,8,0:0:0:0:
256,192,134481,1,8,0:0:0:0:
256,192,134647,1,0,0:0:0:0:
256,192,134814,1,0,0:0:0:0:
256,192,134981,1,8,0:0:0:0:
256,192,135147,1,0,0:0:0:0:
256,192,135231,1,0,0:0:0:0:
256,192,135314,1,0,0:0:0:0:
256,192,135481,1,8,0:0:0:0:
256,192,135647,1,8,0:0:0:0:
256,192,135731,1,8,0:0:0:0:
256,192,135814,1,0,0:0:0:0:
256,192,135981,1,8,0:0:0:0:
256,192,136147,1,8,0:0:0:0:
256,192,136231,1,0,0:0:0:0:
256,192,136314,1,8,0:0:0:0:
256,192,136481,1,0,0:0:0:0:
256,192,136647,1,8,0:0:0:0:
256,192,136814,1,8,0:0:0:0:
256,192,136897,1,0,0:0:0:0:
256,192,136981,1,8,0:0:0:0:
256,192,137147,1,0,0:0:0:0:
256,192,137231,1,8,0:0:0:0:
256,192,137314,1,0,0:0:0:0:
256,192,137481,1,0,0:0:0:0:
256,192,137647,1,8,0:0:0:0:
256,192,137814,1,0,0:0:0:0:
256,192,137981,1,0,0:0:0:0:
256,192,138147,1,8,0:0:0:0:
256,192,138231,1,0,0:0:0:0:
256,192,138314,1,8,0:0:0:0:
256,192,138481,1,8,0:0:0:0:
256,192,138647,1,0,0:0:0:0:
256,192,138814,1,0,0:0:0:0:
256,192,138981,1,8,0:0:0:0:
256,192,139064,1,8,0:0:0:0:
256,192,139147,1,0,0:0:0:0:
256,192,139314,1,0,0:0:0:0:
256,192,139481,1,8,0:0:0:0:
256,192,139564,1,0,0:0:0:0:
256,192,139647,1,0,0:0:0:0:
256,192,139814,1,8,0:0:0:0:
256,192,139981,1,0,0:0:0:0:
256,192,140064,1,0,0:0:0:0:
256,192,140147,1,0,0:0:0:0:
256,192,140231,1,0,0:0:0:0:
256,192,140314,1,8,0:0:0:0:
256,192,140481,1,0,0:0:0:0:
256,192,140647,1,0,0:0:0:0:
256,192,140814,1,8,0:0:0:0:
256,192,140981,1,0,0:0:0:0:
256,192,141147,1,0,0:0:0:0:
256,192,141314,1,8,0:0:0:0:
256,192,141481,1,0,0:0:0:0:
256,192,141647,1,8,0:0:0:0:
256,192,141814,1,0,0:0:0:0:
256,192,141870,1,0,0:0:0:0:
256,192,141925,1,0,0:0:0:0:
256,192,141981,1,8,0:0:0:0:
256,192,142147,1,8,0:0:0:0:
256,192,142647,1,4,0:0:0:0:
256,192,142814,1,0,0:0:0:0:
256,192,143314,1,4,0:0:0:0:
256,192,143481,1,0,0:0:0:0:
256,192,143981,1,4,0:0:0:0:
256,192,144147,1,0,0:0:0:0:
256,192,144314,1,4,0:0:0:0:
256,192,144481,1,0,0:0:0:0:
256,192,144981,1,4,0:0:0:0:
256,192,145147,1,0,0:0:0:0:
256,192,145647,1,4,0:0:0:0:
256,192,145814,1,0,0:0:0:0:
256,192,146314,1,4,0:0:0:0:
256,192,146481,1,0,0:0:0:0:
256,192,146647,1,4,0:0:0:0:
256,192,146814,1,0,0:0:0:0:
256,192,147314,1,4,0:0:0:0:
256,192,147481,1,0,0:0:0:0:
256,192,147814,1,0,0:0:0:0:
256,192,147981,1,12,0:0:0:0:
256,192,148147,1,8,0:0:0:0:
256,192,148647,1,12,0:0:0:0:
256,192,148814,1,8,0:0:0:0:
256,192,149314,1,12,0:0:0:0:
256,192,149481,1,8,0:0:0:0:
256,192,149647,1,12,0:0:0:0:
256,192,149814,1,8,0:0:0:0:
256,192,150314,1,12,0:0:0:0:
256,192,150481,1,8,0:0:0:0:
256,192,150981,1,12,0:0:0:0:
256,192,151147,1,8,0:0:0:0:
256,192,151647,1,12,0:0:0:0:
256,192,151814,1,8,0:0:0:0:
256,192,151981,1,12,0:0:0:0:
256,192,152147,1,8,0:0:0:0:
256,192,152481,1,0,0:0:0:0:
256,192,152536,1,0,0:0:0:0:
256,192,152592,1,0,0:0:0:0:
256,192,152647,1,8,0:0:0:0:
256,192,152814,1,8,0:0:0:0:
256,192,152981,1,0,0:0:0:0:
256,192,153147,1,0,0:0:0:0:
256,192,153314,1,4,0:0:0:0:
256,192,153481,1,0,0:0:0:0:
256,192,153814,1,0,0:0:0:0:
256,192,153981,1,4,0:0:0:0:
256,192,154147,1,0,0:0:0:0:
256,192,154481,1,0,0:0:0:0:
256,192,154647,1,4,0:0:0:0:
256,192,154814,1,0,0:0:0:0:
256,192,154981,1,4,0:0:0:0:
256,192,155147,1,0,0:0:0:0:
256,192,155314,1,8,0:0:0:0:
256,192,155481,1,0,0:0:0:0:
256,192,155647,1,4,0:0:0:0:
256,192,155814,1,0,0:0:0:0:
256,192,156314,1,4,0:0:0:0:
256,192,156481,1,0,0:0:0:0:
256,192,156647,1,8,0:0:0:0:
256,192,156814,1,0,0:0:0:0:
256,192,156981,1,4,0:0:0:0:
256,192,157147,1,0,0:0:0:0:
256,192,157314,1,4,0:0:0:0:
256,192,157481,1,0,0:0:0:0:
256,192,157814,1,0,0:0:0:0:
256,192,157981,1,8,0:0:0:0:
256,192,158147,1,0,0:0:0:0:
256,192,158481,1,0,0:0:0:0:
256,192,158564,1,0,0:0:0:0:
256,192,158647,1,12,0:0:0:0:
256,192,158814,1,8,0:0:0:0:
256,192,159147,1,0,0:0:0:0:
256,192,159314,1,12,0:0:0:0:
256,192,159481,1,8,0:0:0:0:
256,192,159814,1,0,0:0:0:0:
256,192,159981,1,12,0:0:0:0:
256,192,160147,1,0,0:0:0:0:
256,192,160314,1,12,0:0:0:0:
256,192,160481,1,0,0:0:0:0:
256,192,160814,1,0,0:0:0:0:
256,192,160897,1,0,0:0:0:0:
256,192,160981,1,12,0:0:0:0:
256,192,161147,1,0,0:0:0:0:
256,192,161231,1,0,0:0:0:0:
256,192,161314,1,8,0:0:0:0:
256,192,161397,1,8,0:0:0:0:
256,192,161481,1,8,0:0:0:0:
256,192,161564,1,0,0:0:0:0:
256,192,161647,1,0,0:0:0:0:
256,192,161731,1,0,0:0:0:0:
256,192,161814,1,8,0:0:0:0:
256,192,161897,1,0,0:0:0:0:
256,192,161981,1,8,0:0:0:0:
256,192,162064,1,8,0:0:0:0:
256,192,162147,1,0,0:0:0:0:
256,192,162231,1,0,0:0:0:0:
256,192,162314,1,8,0:0:0:0:
256,192,162397,1,8,0:0:0:0:
256,192,162481,1,8,0:0:0:0:
256,192,162564,1,0,0:0:0:0:
256,192,162647,1,8,0:0:0:0:
256,192,162731,1,0,0:0:0:0:
256,192,162814,1,0,0:0:0:0:
256,192,162897,1,8,0:0:0:0:
256,192,162981,1,8,0:0:0:0:
256,192,163064,1,0,0:0:0:0:
256,192,163147,1,8,0:0:0:0:
256,192,163231,1,0,0:0:0:0:
256,192,163314,1,8,0:0:0:0:
256,192,163397,1,8,0:0:0:0:
256,192,163481,1,8,0:0:0:0:
256,192,163564,1,0,0:0:0:0:
256,192,163647,1,0,0:0:0:0:
256,192,163731,1,0,0:0:0:0:
256,192,163814,1,8,0:0:0:0:
256,192,163897,1,0,0:0:0:0:
256,192,163981,1,8,0:0:0:0:
256,192,164147,1,0,0:0:0:0:
256,192,164314,1,8,0:0:0:0:
256,192,164564,1,0,0:0:0:0:
256,192,164647,1,8,0:0:0:0:
256,192,164814,1,0,0:0:0:0:
256,192,164981,1,8,0:0:0:0:
256,192,165231,1,0,0:0:0:0:
256,192,165314,1,8,0:0:0:0:
256,192,165481,1,8,0:0:0:0:
256,192,165647,1,0,0:0:0:0:
256,192,165897,1,0,0:0:0:0:
256,192,165981,1,8,0:0:0:0:
256,192,166064,1,0,0:0:0:0:
256,192,166147,1,0,0:0:0:0:
256,192,166314,1,8,0:0:0:0:
256,192,166481,1,0,0:0:0:0:
256,192,166564,1,0,0:0:0:0:
256,192,166647,1,8,0:0:0:0:
256,192,166814,1,0,0:0:0:0:
256,192,166981,1,8,0:0:0:0:
256,192,167231,1,0,0:0:0:0:
256,192,167314,1,8,0:0:0:0:
256,192,167481,1,0,0:0:0:0:
256,192,167647,1,8,0:0:0:0:
256,192,167897,1,0,0:0:0:0:
256,192,167981,1,8,0:0:0:0:
256,192,168147,1,0,0:0:0:0:
256,192,168314,1,8,0:0:0:0:
256,192,168481,1,0,0:0:0:0:
256,192,168564,1,0,0:0:0:0:
256,192,168647,1,8,0:0:0:0:
256,192,168731,1,8,0:0:0:0:
256,192,168814,1,0,0:0:0:0:
256,192,168897,1,0,0:0:0:0:
256,192,168981,1,8,0:0:0:0:
256,192,169147,1,0,0:0:0:0:
256,192,169314,1,8,0:0:0:0:
256,192,169481,1,0,0:0:0:0:
256,192,169647,1,8,0:0:0:0:
256,192,169897,1,0,0:0:0:0:
256,192,169981,1,8,0:0:0:0:
256,192,170147,1,8,0:0:0:0:
256,192,170314,1,0,0:0:0:0:
256,192,170564,1,0,0:0:0:0:
256,192,170647,1,8,0:0:0:0:
256,192,170814,1,0,0:0:0:0:
256,192,170981,1,8,0:0:0:0:
256,192,171231,1,8,0:0:0:0:
256,192,171314,1,0,0:0:0:0:
256,192,171397,1,0,0:0:0:0:
256,192,171481,1,0,0:0:0:0:
256,192,171647,1,8,0:0:0:0:
256,192,171814,1,0,0:0:0:0:
256,192,171897,1,0,0:0:0:0:
256,192,171981,1,8,0:0:0:0:
256,192,172147,1,0,0:0:0:0:
256,192,172314,1,8,0:0:0:0:
256,192,172564,1,8,0:0:0:0:
256,192,172647,1,0,0:0:0:0:
256,192,172814,1,0,0:0:0:0:
256,192,172981,1,8,0:0:0:0:
256,192,173231,1,0,0:0:0:0:
256,192,173314,1,8,0:0:0:0:
256,192,173481,1,0,0:0:0:0:
256,192,173647,1,8,0:0:0:0:
256,192,173814,1,0,0:0:0:0:
256,192,173897,1,0,0:0:0:0:
256,192,173981,1,8,0:0:0:0:
256,192,174064,1,8,0:0:0:0:
256,192,174147,1,0,0:0:0:0:
256,192,174231,1,0,0:0:0:0:
256,192,174314,1,8,0:0:0:0:
256,192,174647,1,8,0:0:0:0:
256,192,174731,1,0,0:0:0:0:
256,192,174814,1,0,0:0:0:0:
256,192,174897,1,0,0:0:0:0:
256,192,174981,1,8,0:0:0:0:
256,192,175147,1,8,0:0:0:0:
256,192,175231,1,0,0:0:0:0:
256,192,175314,1,0,0:0:0:0:
256,192,175397,1,0,0:0:0:0:
256,192,175481,1,8,0:0:0:0:
256,192,175647,1,8,0:0:0:0:
256,192,175731,1,0,0:0:0:0:
256,192,175814,1,0,0:0:0:0:
256,192,175897,1,0,0:0:0:0:
256,192,175981,1,8,0:0:0:0:
256,192,176064,1,8,0:0:0:0:
256,192,176147,1,8,0:0:0:0:
256,192,176231,1,8,0:0:0:0:
256,192,176314,1,0,0:0:0:0:
256,192,176481,1,8,0:0:0:0:
256,192,176564,1,8,0:0:0:0:
256,192,176647,1,8,0:0:0:0:
256,192,176731,1,8,0:0:0:0:
256,192,176814,1,0,0:0:0:0:
256,192,176981,1,8,0:0:0:0:
256,192,177064,1,8,0:0:0:0:
256,192,177147,1,8,0:0:0:0:
256,192,177231,1,8,0:0:0:0:
256,192,177314,1,0,0:0:0:0:
256,192,177397,1,0,0:0:0:0:
256,192,177481,1,0,0:0:0:0:
256,192,177564,1,0,0:0:0:0:
256,192,177647,1,8,0:0:0:0:
256,192,177814,1,0,0:0:0:0:
256,192,177897,1,0,0:0:0:0:
256,192,177981,1,0,0:0:0:0:
256,192,178064,1,0,0:0:0:0:
256,192,178147,1,8,0:0:0:0:
256,192,178314,1,0,0:0:0:0:
256,192,178397,1,0,0:0:0:0:
256,192,178481,1,0,0:0:0:0:
256,192,178564,1,0,0:0:0:0:
256,192,178647,1,8,0:0:0:0:
256,192,178814,1,0,0:0:0:0:
256,192,178897,1,0,0:0:0:0:
256,192,178981,1,8,0:0:0:0:
256,192,179147,1,8,0:0:0:0:
256,192,179231,1,0,0:0:0:0:
256,192,179314,1,8,0:0:0:0:
256,192,179397,1,8,0:0:0:0:
256,192,179481,1,8,0:0:0:0:
256,192,179564,1,8,0:0:0:0:
256,192,179647,1,8,0:0:0:0:
256,192,179731,1,8,0:0:0:0:
256,192,179814,1,0,0:0:0:0:
256,192,179897,1,0,0:0:0:0:
256,192,179981,1,8,0:0:0:0:
256,192,180064,1,8,0:0:0:0:
256,192,180147,1,8,0:0:0:0:
256,192,180231,1,8,0:0:0:0:
256,192,180314,1,8,0:0:0:0:
256,192,180397,1,8,0:0:0:0:
256,192,180481,1,8,0:0:0:0:
256,192,180564,1,8,0:0:0:0:
256,192,180647,1,0,0:0:0:0:
256,192,180731,1,0,0:0:0:0:
256,192,180814,1,0,0:0:0:0:
256,192,180897,1,0,0:0:0:0:
256,192,180981,1,0,0:0:0:0:
256,192,181064,1,0,0:0:0:0:
256,192,181147,1,0,0:0:0:0:
256,192,181231,1,0,0:0:0:0:
256,192,181314,1,8,0:0:0:0:
256,192,181397,1,8,0:0:0:0:
256,192,181481,1,8,0:0:0:0:
256,192,181564,1,8,0:0:0:0:
256,192,181647,1,8,0:0:0:0:
256,192,181731,1,8,0:0:0:0:
256,192,181814,1,0,0:0:0:0:
256,192,181897,1,0,0:0:0:0:
256,192,181981,1,8,0:0:0:0:
256,192,182064,1,8,0:0:0:0:
256,192,182147,1,8,0:0:0:0:
256,192,182231,1,8,0:0:0:0:
256,192,182314,1,8,0:0:0:0:
256,192,182397,1,8,0:0:0:0:
256,192,182481,1,8,0:0:0:0:
256,192,182564,1,8,0:0:0:0:
256,192,182647,1,0,0:0:0:0:
256,192,182981,1,0,0:0:0:0:
256,192,183147,1,0,0:0:0:0:
256,192,183314,1,8,0:0:0:0:
256,192,183481,1,8,0:0:0:0:
256,192,183647,1,8,0:0:0:0:
256,192,183814,1,8,0:0:0:0:
256,192,183981,1,8,0:0:0:0:
256,192,184036,1,0,0:0:0:0:
256,192,184092,1,0,0:0:0:0:
256,192,184147,1,8,0:0:0:0:
256,192,184203,1,0,0:0:0:0:
256,192,184259,1,0,0:0:0:0:
256,192,184314,1,8,0:0:0:0:
256,192,184647,1,8,0:0:0:0:
256,192,184981,1,0,0:0:0:0:
256,192,185314,1,8,0:0:0:0:
256,192,185397,1,0,0:0:0:0:
256,192,185481,1,8,0:0:0:0:
256,192,185564,1,8,0:0:0:0:
256,192,185647,1,0,0:0:0:0:
256,192,185731,1,0,0:0:0:0:
256,192,185814,1,8,0:0:0:0:
256,192,185897,1,8,0:0:0:0:
256,192,185981,1,0,0:0:0:0:
256,192,186064,1,0,0:0:0:0:
256,192,186147,1,8,0:0:0:0:
256,192,186231,1,0,0:0:0:0:
256,192,186314,1,8,0:0:0:0:
256,192,186397,1,0,0:0:0:0:
256,192,186481,1,8,0:0:0:0:
256,192,186564,1,0,0:0:0:0:
256,192,186647,1,8,0:0:0:0:
256,192,186731,1,0,0:0:0:0:
256,192,186814,1,8,0:0:0:0:
256,192,186897,1,8,0:0:0:0:
256,192,186981,1,0,0:0:0:0:
256,192,187064,1,0,0:0:0:0:
256,192,187147,1,8,0:0:0:0:
256,192,187231,1,8,0:0:0:0:
256,192,187314,1,0,0:0:0:0:
256,192,187397,1,8,0:0:0:0:
256,192,187481,1,8,0:0:0:0:
256,192,187564,1,0,0:0:0:0:
256,192,187647,1,8,0:0:0:0:
256,192,187731,1,0,0:0:0:0:
256,192,187814,1,8,0:0:0:0:
256,192,187897,1,0,0:0:0:0:
256,192,187981,1,8,0:0:0:0:
256,192,188064,1,0,0:0:0:0:
256,192,188147,1,0,0:0:0:0:
256,192,188231,1,0,0:0:0:0:
256,192,188314,1,8,0:0:0:0:
256,192,188397,1,8,0:0:0:0:
256,192,188481,1,0,0:0:0:0:
256,192,188564,1,0,0:0:0:0:
256,192,188647,1,8,0:0:0:0:
256,192,188731,1,8,0:0:0:0:
256,192,188814,1,8,0:0:0:0:
256,192,188897,1,0,0:0:0:0:
256,192,188981,1,8,0:0:0:0:
256,192,189064,1,8,0:0:0:0:
256,192,189147,1,8,0:0:0:0:
256,192,189231,1,0,0:0:0:0:
256,192,189314,1,8,0:0:0:0:
256,192,189397,1,8,0:0:0:0:
256,192,189481,1,8,0:0:0:0:
256,192,189564,1,8,0:0:0:0:
256,192,189647,1,8,0:0:0:0:
256,192,189731,1,8,0:0:0:0:
256,192,189814,1,8,0:0:0:0:
256,192,189897,1,8,0:0:0:0:
256,192,189981,1,0,0:0:0:0:
256,192,190064,1,0,0:0:0:0:
256,192,190147,1,8,0:0:0:0:
256,192,190231,1,0,0:0:0:0:
256,192,190314,1,8,0:0:0:0:
256,192,190397,1,0,0:0:0:0:
256,192,190481,1,8,0:0:0:0:
256,192,190564,1,0,0:0:0:0:
256,192,190647,1,8,0:0:0:0:
256,192,190731,1,8,0:0:0:0:
256,192,190814,1,8,0:0:0:0:
256,192,190897,1,0,0:0:0:0:
256,192,190981,1,0,0:0:0:0:
256,192,191064,1,0,0:0:0:0:
256,192,191147,1,8,0:0:0:0:
256,192,191231,1,0,0:0:0:0:
256,192,191314,1,8,0:0:0:0:
256,192,191397,1,8,0:0:0:0:
256,192,191481,1,8,0:0:0:0:
256,192,191564,1,0,0:0:0:0:
256,192,191647,1,8,0:0:0:0:
256,192,191731,1,0,0:0:0:0:
256,192,191814,1,8,0:0:0:0:
256,192,191897,1,0,0:0:0:0:
256,192,191981,1,8,0:0:0:0:
256,192,192064,1,8,0:0:0:0:
256,192,192147,1,0,0:0:0:0:
256,192,192231,1,0,0:0:0:0:
256,192,192314,1,8,0:0:0:0:
256,192,192397,1,8,0:0:0:0:
256,192,192481,1,8,0:0:0:0:
256,192,192564,1,0,0:0:0:0:
256,192,192647,1,8,0:0:0:0:
256,192,192731,1,8,0:0:0:0:
256,192,192814,1,0,0:0:0:0:
256,192,192897,1,0,0:0:0:0:
256,192,192981,1,8,0:0:0:0:
256,192,193064,1,0,0:0:0:0:
256,192,193147,1,8,0:0:0:0:
256,192,193231,1,0,0:0:0:0:
256,192,193314,1,8,0:0:0:0:
256,192,193397,1,0,0:0:0:0:
256,192,193481,1,8,0:0:0:0:
256,192,193564,1,8,0:0:0:0:
256,192,193647,1,0,0:0:0:0:
256,192,193731,1,0,0:0:0:0:
256,192,193814,1,8,0:0:0:0:
256,192,193897,1,8,0:0:0:0:
256,192,193981,1,0,0:0:0:0:
256,192,194064,1,0,0:0:0:0:
256,192,194147,1,8,0:0:0:0:
256,192,194231,1,8,0:0:0:0:
256,192,194314,1,0,0:0:0:0:
256,192,194397,1,0,0:0:0:0:
256,192,194481,1,8,0:0:0:0:
256,192,194564,1,0,0:0:0:0:
256,192,194647,1,8,0:0:0:0:
256,192,194731,1,8,0:0:0:0:
256,192,194814,1,8,0:0:0:0:
256,192,194897,1,8,0:0:0:0:
256,192,194981,1,8,0:0:0:0:
256,192,195064,1,8,0:0:0:0:
256,192,195147,1,0,0:0:0:0:
256,192,195231,1,0,0:0:0:0:
256,192,195314,1,8,0:0:0:0:
256,192,195397,1,8,0:0:0:0:
256,192,195481,1,0,0:0:0:0:
256,192,195564,1,0,0:0:0:0:
256,192,195647,1,8,0:0:0:0:
256,192,195731,1,8,0:0:0:0:
256,192,195814,1,0,0:0:0:0:
256,192,195897,1,0,0:0:0:0:
256,192,195981,1,8,0:0:0:0:
256,192,196064,1,0,0:0:0:0:
256,192,196147,1,8,0:0:0:0:
256,192,196231,1,0,0:0:0:0:
256,192,196314,1,8,0:0:0:0:
256,192,196397,1,8,0:0:0:0:
256,192,196481,1,0,0:0:0:0:
256,192,196564,1,0,0:0:0:0:
256,192,196647,1,8,0:0:0:0:
256,192,196731,1,8,0:0:0:0:
256,192,196814,1,8,0:0:0:0:
256,192,196897,1,8,0:0:0:0:
256,192,196981,1,0,0:0:0:0:
256,192,197064,1,0,0:0:0:0:
256,192,197147,1,8,0:0:0:0:
256,192,197231,1,0,0:0:0:0:
256,192,197314,1,0,0:0:0:0:
256,192,197397,1,0,0:0:0:0:
256,192,197481,1,8,0:0:0:0:
256,192,197564,1,0,0:0:0:0:
256,192,197647,1,8,0:0:0:0:
256,192,197731,1,8,0:0:0:0:
256,192,197814,1,0,0:0:0:0:
256,192,197897,1,8,0:0:0:0:
256,192,197981,1,8,0:0:0:0:
256,192,198064,1,0,0:0:0:0:
256,192,198147,1,0,0:0:0:0:
256,192,198231,1,8,0:0:0:0:
256,192,198314,1,0,0:0:0:0:
256,192,198397,1,0,0:0:0:0:
256,192,198481,1,8,0:0:0:0:
256,192,198564,1,0,0:0:0:0:
256,192,198647,1,8,0:0:0:0:
256,192,198731,1,0,0:0:0:0:
256,192,198814,1,0,0:0:0:0:
256,192,198897,1,0,0:0:0:0:
256,192,198981,1,8,0:0:0:0:
256,192,199064,1,8,0:0:0:0:
256,192,199147,1,0,0:0:0:0:
256,192,199231,1,0,0:0:0:0:
256,192,199314,1,8,0:0:0:0:
256,192,199397,1,8,0:0:0:0:
256,192,199481,1,8,0:0:0:0:
256,192,199564,1,0,0:0:0:0:
256,192,199647,1,8,0:0:0:0:
256,192,199731,1,8,0:0:0:0:
256,192,199814,1,8,0:0:0:0:
256,192,199897,1,0,0:0:0:0:
256,192,199981,1,8,0:0:0:0:
256,192,200064,1,8,0:0:0:0:
256,192,200147,1,8,0:0:0:0:
256,192,200231,1,8,0:0:0:0:
256,192,200314,1,8,0:0:0:0:
256,192,200397,1,8,0:0:0:0:
256,192,200481,1,8,0:0:0:0:
256,192,200564,1,8,0:0:0:0:
256,192,200647,1,0,0:0:0:0:
256,192,200731,1,0,0:0:0:0:
256,192,200814,1,8,0:0:0:0:
256,192,200897,1,0,0:0:0:0:
256,192,200981,1,8,0:0:0:0:
256,192,201064,1,0,0:0:0:0:
256,192,201147,1,8,0:0:0:0:
256,192,201231,1,0,0:0:0:0:
256,192,201314,1,8,0:0:0:0:
256,192,201397,1,8,0:0:0:0:
256,192,201481,1,0,0:0:0:0:
256,192,201564,1,0,0:0:0:0:
256,192,201647,1,8,0:0:0:0:
256,192,201731,1,0,0:0:0:0:
256,192,201814,1,0,0:0:0:0:
256,192,201897,1,0,0:0:0:0:
256,192,201981,1,8,0:0:0:0:
256,192,202064,1,8,0:0:0:0:
256,192,202147,1,0,0:0:0:0:
256,192,202231,1,0,0:0:0:0:
256,192,202314,1,8,0:0:0:0:
256,192,202397,1,0,0:0:0:0:
256,192,202481,1,8,0:0:0:0:
256,192,202564,1,8,0:0:0:0:
256,192,202647,1,8,0:0:0:0:
256,192,202731,1,0,0:0:0:0:
256,192,202814,1,8,0:0:0:0:
256,192,202897,1,0,0:0:0:0:
256,192,202981,1,8,0:0:0:0:
256,192,203064,1,0,0:0:0:0:
256,192,203147,1,8,0:0:0:0:
256,192,203231,1,8,0:0:0:0:
256,192,203314,1,8,0:0:0:0:
256,192,203397,1,0,0:0:0:0:
256,192,203481,1,0,0:0:0:0:
256,192,203564,1,0,0:0:0:0:
256,192,203647,1,8,0:0:0:0:
256,192,203814,1,0,0:0:0:0:
256,192,203897,1,0,0:0:0:0:
256,192,203981,1,8,0:0:0:0:
256,192,204203,1,0,0:0:0:0:
256,192,204425,1,0,0:0:0:0:
256,192,204647,1,8,0:0:0:0:
256,192,204870,1,0,0:0:0:0:
256,192,205092,1,0,0:0:0:0:
256,192,205314,1,12,0:0:0:0:
256,192,205647,1,8,0:0:0:0:
256,192,205703,1,0,0:0:0:0:
256,192,205759,1,0,0:0:0:0:
256,192,205814,1,8,0:0:0:0:
256,192,205897,1,0,0:0:0:0:
256,192,205981,1,8,0:0:0:0:
256,192,206064,1,8,0:0:0:0:
256,192,206147,1,0,0:0:0:0:
256,192,206203,1,0,0:0:0:0:
256,192,206259,1,0,0:0:0:0:
256,192,206314,1,8,0:0:0:0:
256,192,206397,1,0,0:0:0:0:
256,192,206481,1,8,0:0:0:0:
256,192,206564,1,0,0:0:0:0:
256,192,206647,1,8,0:0:0:0:
256,192,206703,1,8,0:0:0:0:
256,192,206759,1,8,0:0:0:0:
256,192,206870,1,8,0:0:0:0:
256,192,206981,1,8,0:0:0:0:
256,192,207092,1,0,0:0:0:0:
256,192,207203,1,0,0:0:0:0:
256,192,207314,1,0,0:0:0:0:
256,192,207536,1,0,0:0:0:0:
256,192,207759,1,0,0:0:0:0:
256,192,207981,1,12,0:0:0:0:
256,192,209348,1,8,0:0:0:0:
256,192,210014,1,0,0:0:0:0:
256,192,210681,1,8,0:0:0:0:
256,192,211348,1,0,0:0:0:0:
256,192,212014,1,8,0:0:0:0:
256,192,212680,1,0,0:0:0:0:
256,192,213314,1,8,0:0:0:0:
256,192,213980,1,0,0:0:0:0:
256,192,214647,1,8,0:0:0:0:
256,192,215314,1,0,0:0:0:0:
256,192,215980,1,8,0:0:0:0:
256,192,216647,1,0,0:0:0:0:
256,192,217314,1,8,0:0:0:0:
256,192,217980,1,8,0:0:0:0:
256,192,218647,1,8,0:0:0:0:
256,192,218814,1,8,0:0:0:0:
256,192,218980,1,0,0:0:0:0:
256,192,219147,1,0,0:0:0:0:
256,192,219314,1,8,0:0:0:0:
256,192,219647,1,0,0:0:0:0:
256,192,219980,1,8,0:0:0:0:
256,192,220147,1,8,0:0:0:0:
256,192,220314,1,0,0:0:0:0:
256,192,220647,1,8,0:0:0:0:
256,192,220980,1,0,0:0:0:0:
256,192,221314,1,8,0:0:0:0:
256,192,221480,1,8,0:0:0:0:
256,192,221647,1,0,0:0:0:0:
256,192,221814,1,0,0:0:0:0:
256,192,221980,1,8,0:0:0:0:
256,192,222314,1,0,0:0:0:0:
256,192,222647,1,8,0:0:0:0:
256,192,222980,1,0,0:0:0:0:
256,192,223147,1,0,0:0:0:0:
256,192,223314,1,8,0:0:0:0:
256,192,223647,1,0,0:0:0:0:
256,192,223980,1,8,0:0:0:0:
256,192,224147,1,0,0:0:0:0:
256,192,224314,1,0,0:0:0:0:
256,192,224480,1,0,0:0:0:0:
256,192,224647,1,8,0:0:0:0:
256,192,224980,1,0,0:0:0:0:
256,192,225314,1,8,0:0:0:0:
256,192,225480,1,0,0:0:0:0:
256,192,225647,1,0,0:0:0:0:
256,192,225980,1,8,0:0:0:0:
256,192,226314,1,0,0:0:0:0:
256,192,226647,1,8,0:0:0:0:
256,192,226814,1,0,0:0:0:0:
256,192,226980,1,0,0:0:0:0:
256,192,227147,1,0,0:0:0:0:
256,192,227314,1,8,0:0:0:0:
256,192,227647,1,0,0:0:0:0:
256,192,227980,1,8,0:0:0:0:
256,192,228313,1,0,0:0:0:0:
256,192,228480,1,0,0:0:0:0:
256,192,228647,1,8,0:0:0:0:
256,192,228980,1,0,0:0:0:0:
256,192,229313,1,8,0:0:0:0:
256,192,229480,1,0,0:0:0:0:
256,192,229647,1,8,0:0:0:0:
256,192,229813,1,0,0:0:0:0:
256,192,229980,1,8,0:0:0:0:
256,192,230313,1,0,0:0:0:0:
256,192,230647,1,8,0:0:0:0:
256,192,230813,1,0,0:0:0:0:
256,192,230980,1,8,0:0:0:0:
256,192,231313,1,8,0:0:0:0:
256,192,231647,1,0,0:0:0:0:
256,192,231980,1,8,0:0:0:0:
256,192,232147,1,0,0:0:0:0:
256,192,232313,1,8,0:0:0:0:
256,192,232480,1,0,0:0:0:0:
256,192,232647,1,8,0:0:0:0:
256,192,232980,1,0,0:0:0:0:
256,192,233313,1,8,0:0:0:0:
256,192,233647,1,8,0:0:0:0:
256,192,233813,1,0,0:0:0:0:
256,192,233980,1,8,0:0:0:0:
256,192,234313,1,0,0:0:0:0:
256,192,234647,1,8,0:0:0:0:
256,192,234813,1,0,0:0:0:0:
256,192,235147,1,0,0:0:0:0:
256,192,235313,1,8,0:0:0:0:
256,192,235480,1,0,0:0:0:0:
256,192,235813,1,0,0:0:0:0:
256,192,235980,1,8,0:0:0:0:
256,192,236147,1,0,0:0:0:0:
256,192,236480,1,0,0:0:0:0:
256,192,236647,1,8,0:0:0:0:
256,192,236813,1,0,0:0:0:0:
256,192,237147,1,0,0:0:0:0:
256,192,237313,1,8,0:0:0:0:
256,192,237480,1,0,0:0:0:0:
256,192,237813,1,0,0:0:0:0:
256,192,237980,1,8,0:0:0:0:
256,192,238147,1,0,0:0:0:0:
256,192,238480,1,0,0:0:0:0:
256,192,238647,1,8,0:0:0:0:
256,192,238813,1,0,0:0:0:0:
256,192,239147,1,0,0:0:0:0:
256,192,239313,1,8,0:0:0:0:
256,192,239480,1,0,0:0:0:0:
256,192,239813,1,0,0:0:0:0:
256,192,239980,1,8,0:0:0:0:
256,192,240147,1,0,0:0:0:0:
256,192,240313,1,8,0:0:0:0:
256,192,240480,1,0,0:0:0:0:
256,192,240647,1,8,0:0:0:0:
256,192,240980,1,0,0:0:0:0:
256,192,241480,1,0,0:0:0:0:
256,192,241647,1,8,0:0:0:0:
256,192,241980,1,8,0:0:0:0:
256,192,242313,1,0,0:0:0:0:
256,192,242647,5,0,0:0:0:0:
256,192,242813,1,0,0:0:0:0:
256,192,242980,1,0,0:0:0:0:
256,192,243147,1,0,0:0:0:0:
256,192,243313,1,0,0:0:0:0:
256,192,243480,1,0,0:0:0:0:
256,192,243647,1,0,0:0:0:0:
256,192,243813,1,0,0:0:0:0:
256,192,243980,1,0,0:0:0:0:
256,192,244147,1,0,0:0:0:0:
256,192,244313,1,0,0:0:0:0:
256,192,244480,1,0,0:0:0:0:
256,192,244647,1,0,0:0:0:0:
256,192,244813,1,0,0:0:0:0:
256,192,244980,1,0,0:0:0:0:
256,192,245147,1,0,0:0:0:0:
256,192,245230,1,0,0:0:0:0:
256,192,245313,5,8,0:0:0:0:
256,192,245397,1,0,0:0:0:0:
256,192,245480,1,8,0:0:0:0:
256,192,245563,1,8,0:0:0:0:
256,192,245647,1,0,0:0:0:0:
256,192,245730,1,0,0:0:0:0:
256,192,245813,1,8,0:0:0:0:
256,192,245897,1,8,0:0:0:0:
256,192,245980,1,0,0:0:0:0:
256,192,246063,1,0,0:0:0:0:
256,192,246147,1,8,0:0:0:0:
256,192,246230,1,8,0:0:0:0:
256,192,246313,1,0,0:0:0:0:
256,192,246397,1,8,0:0:0:0:
256,192,246480,1,0,0:0:0:0:
256,192,246563,1,0,0:0:0:0:
256,192,246647,1,12,0:0:0:0:
256,192,246813,1,8,0:0:0:0:
256,192,246897,1,0,0:0:0:0:
256,192,246980,1,8,0:0:0:0:
256,192,247063,1,0,0:0:0:0:
256,192,247147,1,8,0:0:0:0:
256,192,247230,1,8,0:0:0:0:
256,192,247313,1,8,0:0:0:0:
256,192,247397,1,0,0:0:0:0:
256,192,247480,1,8,0:0:0:0:
256,192,247563,1,0,0:0:0:0:
256,192,247647,1,8,0:0:0:0:
256,192,247730,1,8,0:0:0:0:
256,192,247813,1,8,0:0:0:0:
256,192,247897,1,0,0:0:0:0:
256,192,247980,1,8,0:0:0:0:
256,192,248147,1,0,0:0:0:0:
256,192,248230,1,0,0:0:0:0:
256,192,248313,1,8,0:0:0:0:
256,192,248397,1,0,0:0:0:0:
256,192,248480,1,8,0:0:0:0:
256,192,248563,1,8,0:0:0:0:
256,192,248647,1,8,0:0:0:0:
256,192,248730,1,0,0:0:0:0:
256,192,248813,1,0,0:0:0:0:
256,192,248897,1,8,0:0:0:0:
256,192,248980,1,8,0:0:0:0:
256,192,249063,1,0,0:0:0:0:
256,192,249147,1,0,0:0:0:0:
256,192,249230,1,0,0:0:0:0:
256,192,249313,1,8,0:0:0:0:
256,192,249480,1,0,0:0:0:0:
256,192,249563,1,0,0:0:0:0:
256,192,249647,1,8,0:0:0:0:
256,192,249730,1,0,0:0:0:0:
256,192,249813,1,8,0:0:0:0:
256,192,249897,1,8,0:0:0:0:
256,192,249980,1,8,0:0:0:0:
256,192,250063,1,0,0:0:0:0:
256,192,250147,1,8,0:0:0:0:
256,192,250230,1,0,0:0:0:0:
256,192,250313,1,8,0:0:0:0:
256,192,250397,1,8,0:0:0:0:
256,192,250480,1,0,0:0:0:0:
256,192,250563,1,0,0:0:0:0:
256,192,250647,1,8,0:0:0:0:
256,192,250813,1,0,0:0:0:0:
256,192,250897,1,0,0:0:0:0:
256,192,250980,1,8,0:0:0:0:
256,192,251063,1,8,0:0:0:0:
256,192,251147,1,0,0:0:0:0:
256,192,251230,1,0,0:0:0:0:
256,192,251313,1,8,0:0:0:0:
256,192,251397,1,8,0:0:0:0:
256,192,251480,1,8,0:0:0:0:
256,192,251563,1,0,0:0:0:0:
256,192,251647,1,8,0:0:0:0:
256,192,251730,1,8,0:0:0:0:
256,192,251813,1,0,0:0:0:0:
256,192,251897,1,0,0:0:0:0:
256,192,251980,1,8,0:0:0:0:
256,192,252063,1,8,0:0:0:0:
256,192,252147,1,8,0:0:0:0:
256,192,252230,1,0,0:0:0:0:
256,192,252313,1,8,0:0:0:0:
256,192,252397,1,0,0:0:0:0:
256,192,252480,1,8,0:0:0:0:
256,192,252563,1,8,0:0:0:0:
256,192,252647,1,8,0:0:0:0:
256,192,252730,1,0,0:0:0:0:
256,192,252813,1,8,0:0:0:0:
256,192,252897,1,0,0:0:0:0:
256,192,252980,1,8,0:0:0:0:
256,192,253063,1,8,0:0:0:0:
256,192,253147,1,0,0:0:0:0:
256,192,253230,1,0,0:0:0:0:
256,192,253313,1,8,0:0:0:0:
256,192,253397,1,8,0:0:0:0:
256,192,253480,1,8,0:0:0:0:
256,192,253563,1,0,0:0:0:0:
256,192,253647,1,8,0:0:0:0:
256,192,253730,1,0,0:0:0:0:
256,192,253813,1,8,0:0:0:0:
256,192,253897,1,8,0:0:0:0:
256,192,253980,1,8,0:0:0:0:
256,192,254063,1,0,0:0:0:0:
256,192,254147,1,8,0:0:0:0:
256,192,254230,1,0,0:0:0:0:
256,192,254313,1,8,0:0:0:0:
256,192,254480,1,8,0:0:0:0:
256,192,254563,1,0,0:0:0:0:
256,192,254647,1,8,0:0:0:0:
256,192,254730,1,8,0:0:0:0:
256,192,254813,1,8,0:0:0:0:
256,192,254897,1,0,0:0:0:0:
256,192,254980,1,8,0:0:0:0:
256,192,255063,1,0,0:0:0:0:
256,192,255147,1,8,0:0:0:0:
256,192,255230,1,8,0:0:0:0:
256,192,255313,1,8,0:0:0:0:
256,192,255397,1,0,0:0:0:0:
256,192,255480,1,8,0:0:0:0:
256,192,255563,1,0,0:0:0:0:
256,192,255647,1,8,0:0:0:0:
256,192,255730,1,0,0:0:0:0:
256,192,255813,1,8,0:0:0:0:
256,192,255897,1,0,0:0:0:0:
256,192,255980,1,8,0:0:0:0:
256,192,256063,1,8,0:0:0:0:
256,192,256147,1,8,0:0:0:0:
256,192,256230,1,0,0:0:0:0:
256,192,256313,1,8,0:0:0:0:
256,192,256397,1,0,0:0:0:0:
256,192,256480,1,8,0:0:0:0:
256,192,256563,1,8,0:0:0:0:
256,192,256647,1,0,0:0:0:0:
256,192,256730,1,0,0:0:0:0:
256,192,256813,1,8,0:0:0:0:
256,192,256897,1,0,0:0:0:0:
256,192,256980,1,8,0:0:0:0:
256,192,257063,1,8,0:0:0:0:
256,192,257147,1,8,0:0:0:0:
256,192,257230,1,0,0:0:0:0:
256,192,257313,1,8,0:0:0:0:
256,192,257397,1,8,0:0:0:0:
256,192,257480,1,8,0:0:0:0:
256,192,257563,1,0,0:0:0:0:
256,192,257647,1,0,0:0:0:0:
256,192,257730,1,0,0:0:0:0:
256,192,257813,1,8,0:0:0:0:
256,192,257897,1,8,0:0:0:0:
256,192,257980,1,0,0:0:0:0:
256,192,258063,1,0,0:0:0:0:
256,192,258147,1,8,0:0:0:0:
256,192,258230,1,0,0:0:0:0:
256,192,258313,1,8,0:0:0:0:
256,192,258397,1,8,0:0:0:0:
256,192,258480,1,0,0:0:0:0:
256,192,258563,1,0,0:0:0:0:
256,192,258647,1,8,0:0:0:0:
256,192,258730,1,8,0:0:0:0:
256,192,258813,1,8,0:0:0:0:
256,192,258897,1,0,0:0:0:0:
256,192,258980,1,0,0:0:0:0:
256,192,259063,1,0,0:0:0:0:
256,192,259147,1,8,0:0:0:0:
256,192,259230,1,8,0:0:0:0:
256,192,259313,1,0,0:0:0:0:
256,192,259397,1,0,0:0:0:0:
256,192,259480,1,8,0:0:0:0:
256,192,259563,1,0,0:0:0:0:
256,192,259647,1,8,0:0:0:0:
256,192,259730,1,8,0:0:0:0:
256,192,259813,1,0,0:0:0:0:
256,192,259897,1,0,0:0:0:0:
256,192,259980,1,8,0:0:0:0:
256,192,260063,1,8,0:0:0:0:
256,192,260147,1,8,0:0:0:0:
256,192,260230,1,0,0:0:0:0:
256,192,260313,1,0,0:0:0:0:
256,192,260397,1,0,0:0:0:0:
256,192,260480,1,8,0:0:0:0:
256,192,260563,1,8,0:0:0:0:
256,192,260647,1,8,0:0:0:0:
256,192,260730,1,0,0:0:0:0:
256,192,260813,1,0,0:0:0:0:
256,192,260897,1,0,0:0:0:0:
256,192,260980,1,8,0:0:0:0:
256,192,261147,1,8,0:0:0:0:
256,192,261230,1,0,0:0:0:0:
256,192,261313,1,8,0:0:0:0:
256,192,261397,1,8,0:0:0:0:
256,192,261480,1,8,0:0:0:0:
256,192,261563,1,0,0:0:0:0:
256,192,261647,1,0,0:0:0:0:
256,192,261730,1,0,0:0:0:0:
256,192,261813,1,8,0:0:0:0:
256,192,261897,1,0,0:0:0:0:
256,192,261980,1,8,0:0:0:0:
256,192,262063,1,8,0:0:0:0:
256,192,262147,1,8,0:0:0:0:
256,192,262230,1,0,0:0:0:0:
256,192,262313,1,8,0:0:0:0:
256,192,262397,1,8,0:0:0:0:
256,192,262480,1,0,0:0:0:0:
256,192,262563,1,0,0:0:0:0:
256,192,262647,1,8,0:0:0:0:
256,192,262813,1,0,0:0:0:0:
256,192,262980,1,8,0:0:0:0:
256,192,263147,1,0,0:0:0:0:
256,192,263230,1,0,0:0:0:0:
256,192,263313,1,8,0:0:0:0:
256,192,263480,1,8,0:0:0:0:
256,192,263563,1,0,0:0:0:0:
256,192,263647,1,8,0:0:0:0:
256,192,263702,1,0,0:0:0:0:
256,192,263758,1,0,0:0:0:0:
256,192,263813,1,8,0:0:0:0:
256,192,263897,1,0,0:0:0:0:
256,192,263980,1,8,0:0:0:0:
256,192,264063,1,0,0:0:0:0:
256,192,264147,1,8,0:0:0:0:
256,192,264202,1,8,0:0:0:0:
256,192,264258,1,0,0:0:0:0:
256,192,264313,1,8,0:0:0:0:
256,192,264397,1,8,0:0:0:0:
256,192,264480,1,0,0:0:0:0:
256,192,264563,1,0,0:0:0:0:
256,192,264647,1,8,0:0:0:0:
256,192,264730,1,0,0:0:0:0:
256,192,264813,1,8,0:0:0:0:
256,192,264869,1,8,0:0:0:0:
256,192,264925,1,0,0:0:0:0:
256,192,264980,1,8,0:0:0:0:
256,192,265036,1,0,0:0:0:0:
256,192,265091,1,0,0:0:0:0:
256,192,265147,1,0,0:0:0:0:
256,192,265230,1,0,0:0:0:0:
256,192,265313,1,8,0:0:0:0:
256,192,265397,1,0,0:0:0:0:
256,192,265480,1,8,0:0:0:0:
256,192,265536,1,8,0:0:0:0:
256,192,265591,1,8,0:0:0:0:
256,192,265647,1,0,0:0:0:0:
256,192,265702,1,0,0:0:0:0:
256,192,265758,1,8,0:0:0:0:
256,192,265813,1,0,0:0:0:0:
256,192,265897,1,0,0:0:0:0:
256,192,265980,1,8,0:0:0:0:
256,192,266036,1,8,0:0:0:0:
256,192,266091,1,0,0:0:0:0:
256,192,266147,1,8,0:0:0:0:
256,192,266230,1,0,0:0:0:0:
256,192,266313,1,8,0:0:0:0:
256,192,266480,1,0,0:0:0:0:
256,192,266563,1,0,0:0:0:0:
256,192,266647,1,8,0:0:0:0:
256,192,266702,1,8,0:0:0:0:
256,192,266758,1,8,0:0:0:0:
256,192,266869,1,0,0:0:0:0:
256,192,266980,1,8,0:0:0:0:
256,192,267091,1,8,0:0:0:0:
256,192,267202,1,0,0:0:0:0:
256,192,267258,1,0,0:0:0:0:
256,192,267313,1,8,0:0:0:0:
256,192,267425,1,8,0:0:0:0:
256,192,267536,1,0,0:0:0:0:
256,192,267591,1,0,0:0:0:0:
256,192,267647,1,8,0:0:0:0:
256,192,267758,1,8,0:0:0:0:
256,192,267869,1,0,0:0:0:0:
256,192,267980,1,12,0:0:0:0:
256,192,268230,1,0,0:0:0:0:
256,192,268313,1,8,0:0:0:0:
256,192,268480,1,0,0:0:0:0:
256,192,268563,1,0,0:0:0:0:
256,192,268647,1,8,0:0:0:0:
256,192,268813,1,8,0:0:0:0:
256,192,269063,1,8,0:0:0:0:
256,192,269147,1,8,0:0:0:0:
256,192,269313,1,0,0:0:0:0:
256,192,269563,1,8,0:0:0:0:
256,192,269647,1,8,0:0:0:0:
256,192,269813,1,0,0:0:0:0:
256,192,270063,1,8,0:0:0:0:
256,192,270147,1,8,0:0:0:0:
256,192,270313,1,0,0:0:0:0:
256,192,270397,1,0,0:0:0:0:
256,192,270480,1,0,0:0:0:0:
256,192,270563,1,0,0:0:0:0:
256,192,270647,1,8,0:0:0:0:
256,192,270730,1,8,0:0:0:0:
256,192,270813,1,0,0:0:0:0:
256,192,270897,1,0,0:0:0:0:
256,192,270980,1,8,0:0:0:0:
256,192,271063,1,8,0:0:0:0:
256,192,271147,1,0,0:0:0:0:
256,192,271230,1,0,0:0:0:0:
256,192,271313,1,8,0:0:0:0:
256,192,271369,1,8,0:0:0:0:
256,192,271425,1,8,0:0:0:0:
256,192,271536,1,8,0:0:0:0:
256,192,271647,1,8,0:0:0:0:
256,192,271758,1,0,0:0:0:0:
256,192,271869,1,0,0:0:0:0:
256,192,271980,1,8,0:0:0:0:
256,192,272091,1,0,0:0:0:0:
256,192,272202,1,0,0:0:0:0:
256,192,272313,1,0,0:0:0:0:
256,192,272425,1,8,0:0:0:0:
256,192,272536,1,0,0:0:0:0:
256,192,272647,1,8,0:0:0:0:
256,192,272869,1,12,0:0:0:0:
256,192,273091,1,12,0:0:0:0:
256,192,273313,1,4,0:0:0:0:
256,192,273647,1,8,0:0:0:0:
256,192,273730,1,0,0:0:0:0:
256,192,273813,1,8,0:0:0:0:
256,192,273897,1,8,0:0:0:0:
256,192,273980,1,0,0:0:0:0:
256,192,274063,1,0,0:0:0:0:
256,192,274147,1,8,0:0:0:0:
256,192,274230,1,0,0:0:0:0:
256,192,274313,1,0,0:0:0:0:
256,192,274397,1,0,0:0:0:0:
256,192,274480,1,8,0:0:0:0:
256,192,274563,1,0,0:0:0:0:
256,192,274647,1,8,0:0:0:0:
256,192,274730,1,8,0:0:0:0:
256,192,274813,1,0,0:0:0:0:
256,192,274897,1,0,0:0:0:0:
256,192,274980,1,8,0:0:0:0:
256,192,275063,1,0,0:0:0:0:
256,192,275147,1,0,0:0:0:0:
256,192,275230,1,0,0:0:0:0:
256,192,275313,1,8,0:0:0:0:
256,192,275397,1,0,0:0:0:0:
256,192,275480,1,8,0:0:0:0:
256,192,275563,1,0,0:0:0:0:
256,192,275647,1,8,0:0:0:0:
256,192,275702,1,8,0:0:0:0:
256,192,275758,1,8,0:0:0:0:
256,192,275813,1,0,0:0:0:0:
256,192,275869,1,0,0:0:0:0:
256,192,275925,1,0,0:0:0:0:
256,192,275980,1,8,0:0:0:0:
256,192,276147,1,0,0:0:0:0:
256,192,276313,1,0,0:0:0:0:
256,192,276480,1,0,0:0:0:0:
256,192,276647,1,8,0:0:0:0:
256,192,276813,1,8,0:0:0:0:
256,192,276980,1,8,0:0:0:0:
256,192,277147,1,8,0:0:0:0:
256,192,277313,1,8,0:0:0:0:
256,192,277397,1,0,0:0:0:0:
256,192,277480,1,0,0:0:0:0:
256,192,277563,1,8,0:0:0:0:
256,192,277647,1,8,0:0:0:0:
256,192,277730,1,0,0:0:0:0:
256,192,277813,1,8,0:0:0:0:
256,192,277897,1,8,0:0:0:0:
256,192,277980,1,0,0:0:0:0:
256,192,278063,1,0,0:0:0:0:
256,192,278147,1,0,0:0:0:0:
256,192,278230,1,0,0:0:0:0:
256,192,278313,1,8,0:0:0:0:
256,192,278397,1,8,0:0:0:0:
256,192,278480,1,8,0:0:0:0:
256,192,278563,1,0,0:0:0:0:
256,192,278647,1,8,0:0:0:0:
256,192,278730,1,0,0:0:0:0:
256,192,278813,1,8,0:0:0:0:
256,192,278897,1,8,0:0:0:0:
256,192,278980,1,0,0:0:0:0:
256,192,279063,1,8,0:0:0:0:
256,192,279147,1,0,0:0:0:0:
256,192,279230,1,8,0:0:0:0:
256,192,279313,1,8,0:0:0:0:
256,192,279397,1,0,0:0:0:0:
256,192,279480,1,8,0:0:0:0:
256,192,279563,1,0,0:0:0:0:
256,192,279647,1,8,0:0:0:0:
256,192,279730,1,0,0:0:0:0:
256,192,279813,1,8,0:0:0:0:
256,192,279897,1,8,0:0:0:0:
256,192,279980,1,0,0:0:0:0:
256,192,280063,1,0,0:0:0:0:
256,192,280147,1,8,0:0:0:0:
256,192,280230,1,0,0:0:0:0:
256,192,280313,1,8,0:0:0:0:
256,192,280397,1,8,0:0:0:0:
256,192,280480,1,0,0:0:0:0:
256,192,280563,1,8,0:0:0:0:
256,192,280647,1,8,0:0:0:0:
256,192,280730,1,0,0:0:0:0:
256,192,280813,1,8,0:0:0:0:
256,192,280897,1,0,0:0:0:0:
256,192,280980,1,8,0:0:0:0:
256,192,281036,1,0,0:0:0:0:
256,192,281091,1,0,0:0:0:0:
256,192,281147,1,8,0:0:0:0:
256,192,281313,1,8,0:0:0:0:
256,192,281397,1,0,0:0:0:0:
256,192,281480,1,0,0:0:0:0:
256,192,281563,1,0,0:0:0:0:
256,192,281647,1,8,0:0:0:0:
256,192,281813,1,8,0:0:0:0:
256,192,281897,1,0,0:0:0:0:
256,192,281980,1,0,0:0:0:0:
256,192,282063,1,8,0:0:0:0:
256,192,282147,1,8,0:0:0:0:
256,192,282313,1,8,0:0:0:0:
256,192,282397,1,0,0:0:0:0:
256,192,282480,1,0,0:0:0:0:
256,192,282563,1,0,0:0:0:0:
256,192,282647,1,8,0:0:0:0:
256,192,282813,1,8,0:0:0:0:
256,192,282897,1,0,0:0:0:0:
256,192,282980,1,0,0:0:0:0:
256,192,283063,1,8,0:0:0:0:
256,192,283147,1,8,0:0:0:0:
256,192,283313,1,8,0:0:0:0:
256,192,283397,1,8,0:0:0:0:
256,192,283480,1,0,0:0:0:0:
256,192,283563,1,0,0:0:0:0:
256,192,283647,1,8,0:0:0:0:
256,192,283702,1,0,0:0:0:0:
256,192,283758,1,0,0:0:0:0:
256,192,283813,1,8,0:0:0:0:
256,192,283897,1,8,0:0:0:0:
256,192,283980,1,0,0:0:0:0:
256,192,284147,1,8,0:0:0:0:
256,192,284230,1,0,0:0:0:0:
256,192,284313,1,0,0:0:0:0:
256,192,284397,1,0,0:0:0:0:
256,192,284480,1,8,0:0:0:0:
256,192,284563,1,0,0:0:0:0:
256,192,284647,1,8,0:0:0:0:
256,192,284730,1,0,0:0:0:0:
256,192,284813,1,8,0:0:0:0:
256,192,284897,1,8,0:0:0:0:
256,192,284980,1,0,0:0:0:0:
256,192,285063,1,0,0:0:0:0:
256,192,285147,1,8,0:0:0:0:
256,192,285230,1,0,0:0:0:0:
256,192,285313,1,8,0:0:0:0:
256,192,285480,1,8,0:0:0:0:
256,192,285563,1,0,0:0:0:0:
256,192,285647,1,8,0:0:0:0:
256,192,285730,1,8,0:0:0:0:
256,192,285813,1,0,0:0:0:0:
256,192,285897,1,0,0:0:0:0:
256,192,285980,1,8,0:0:0:0:
256,192,286063,1,8,0:0:0:0:
256,192,286147,1,0,0:0:0:0:
256,192,286230,1,0,0:0:0:0:
256,192,286313,1,8,0:0:0:0:
256,192,286397,1,8,0:0:0:0:
256,192,286480,1,0,0:0:0:0:
256,192,286536,1,0,0:0:0:0:
256,192,286591,1,0,0:0:0:0:
256,192,286647,1,8,0:0:0:0:
256,192,286813,1,8,0:0:0:0:
256,192,286897,1,0,0:0:0:0:
256,192,286980,1,8,0:0:0:0:
256,192,287063,1,0,0:0:0:0:
256,192,287147,1,8,0:0:0:0:
256,192,287230,1,8,0:0:0:0:
256,192,287313,1,0,0:0:0:0:
256,192,287397,1,0,0:0:0:0:
256,192,287480,1,8,0:0:0:0:
256,192,287647,1,8,0:0:0:0:
256,192,287730,1,8,0:0:0:0:
256,192,287813,1,0,0:0:0:0:
256,192,287897,1,0,0:0:0:0:
256,192,287980,1,8,0:0:0:0:
256,192,288147,1,0,0:0:0:0:
256,192,288230,1,8,0:0:0:0:
256,192,288313,1,8,0:0:0:0:
256,192,288397,1,0,0:0:0:0:
256,192,288480,1,8,0:0:0:0:
256,192,288647,1,0,0:0:0:0:
256,192,288813,1,8,0:0:0:0:
256,192,288897,1,0,0:0:0:0:
256,192,288980,1,8,0:0:0:0:
256,192,289063,1,8,0:0:0:0:
256,192,289147,1,0,0:0:0:0:
256,192,289202,1,8,0:0:0:0:
256,192,289258,1,8,0:0:0:0:
256,192,289313,1,0,0:0:0:0:
256,192,289480,1,0,0:0:0:0:
256,192,289563,1,0,0:0:0:0:
256,192,289647,1,8,0:0:0:0:
256,192,289730,1,8,0:0:0:0:
256,192,289813,1,0,0:0:0:0:
256,192,289897,1,0,0:0:0:0:
256,192,289980,1,8,0:0:0:0:
256,192,290063,1,8,0:0:0:0:
256,192,290147,1,0,0:0:0:0:
256,192,290230,1,0,0:0:0:0:
256,192,290313,1,8,0:0:0:0:
256,192,290397,1,8,0:0:0:0:
256,192,290480,1,0,0:0:0:0:
256,192,290563,1,0,0:0:0:0:
256,192,290647,1,8,0:0:0:0:
256,192,290730,1,8,0:0:0:0:
256,192,290813,1,0,0:0:0:0:
256,192,290897,1,0,0:0:0:0:
256,192,290980,1,8,0:0:0:0:
256,192,291063,1,8,0:0:0:0:
256,192,291147,1,0,0:0:0:0:
256,192,291230,1,0,0:0:0:0:
256,192,291313,1,8,0:0:0:0:
256,192,291397,1,8,0:0:0:0:
256,192,291480,1,0,0:0:0:0:
256,192,291563,1,0,0:0:0:0:
256,192,291647,1,8,0:0:0:0:
256,192,291702,1,8,0:0:0:0:
256,192,291758,1,8,0:0:0:0:
256,192,291813,1,0,0:0:0:0:
256,192,291897,1,0,0:0:0:0:
256,192,291980,1,8,0:0:0:0:
256,192,292063,1,8,0:0:0:0:
256,192,292147,1,8,0:0:0:0:
256,192,292230,1,0,0:0:0:0:
256,192,292313,1,8,0:0:0:0:
256,192,292397,1,8,0:0:0:0:
256,192,292480,1,0,0:0:0:0:
256,192,292563,1,0,0:0:0:0:
256,192,292647,1,8,0:0:0:0:
256,192,292730,1,8,0:0:0:0:
256,192,292813,1,8,0:0:0:0:
256,192,292897,1,0,0:0:0:0:
256,192,292980,1,8,0:0:0:0:
256,192,293063,1,8,0:0:0:0:
256,192,293147,1,0,0:0:0:0:
256,192,293230,1,8,0:0:0:0:
256,192,293313,1,8,0:0:0:0:
256,192,293397,1,8,0:0:0:0:
256,192,293480,1,0,0:0:0:0:
256,192,293563,1,0,0:0:0:0:
256,192,293647,1,8,0:0:0:0:
256,192,293730,1,8,0:0:0:0:
256,192,293813,1,0,0:0:0:0:
256,192,293897,1,0,0:0:0:0:
256,192,293980,1,8,0:0:0:0:
256,192,294063,1,0,0:0:0:0:
256,192,294147,1,0,0:0:0:0:
256,192,294230,1,0,0:0:0:0:
256,192,294313,1,8,0:0:0:0:
256,192,294369,1,8,0:0:0:0:
256,192,294425,1,8,0:0:0:0:
256,192,294480,1,0,0:0:0:0:
256,192,294563,1,0,0:0:0:0:
256,192,294647,1,8,0:0:0:0:
256,192,294813,1,8,0:0:0:0:
256,192,294897,1,0,0:0:0:0:
256,192,294980,1,8,0:0:0:0:
256,192,295063,1,8,0:0:0:0:
256,192,295147,1,0,0:0:0:0:
256,192,295313,1,8,0:0:0:0:
256,192,295480,1,0,0:0:0:0:
256,192,295563,1,8,0:0:0:0:
256,192,295730,1,0,0:0:0:0:
256,192,295813,1,8,0:0:0:0:
256,192,295980,1,8,0:0:0:0:
256,192,296063,1,8,0:0:0:0:
256,192,296147,1,0,0:0:0:0:
256,192,296230,1,0,0:0:0:0:
256,192,296313,1,8,0:0:0:0:
256,192,296480,1,0,0:0:0:0:
256,192,296647,1,8,0:0:0:0:
256,192,296813,1,0,0:0:0:0:
256,192,296897,1,8,0:0:0:0:
256,192,297063,1,0,0:0:0:0:
256,192,297147,1,0,0:0:0:0:
256,192,297313,1,8,0:0:0:0:
256,192,297480,1,0,0:0:0:0:
256,192,297563,1,0,0:0:0:0:
256,192,297647,1,0,0:0:0:0:
256,192,297730,1,0,0:0:0:0:
256,192,297813,1,8,0:0:0:0:
256,192,297980,1,0,0:0:0:0:
256,192,298147,1,8,0:0:0:0:
256,192,298230,1,8,0:0:0:0:
256,192,298313,1,8,0:0:0:0:
256,192,298397,1,8,0:0:0:0:
256,192,298480,1,8,0:0:0:0:
256,192,298563,1,8,0:0:0:0:
256,192,298647,1,8,0:0:0:0:
256,192,298730,1,8,0:0:0:0:
256,192,298813,1,8,0:0:0:0:
256,192,298897,1,8,0:0:0:0:
256,192,298980,1,0,0:0:0:0:
256,192,299063,1,0,0:0:0:0:
256,192,299147,1,8,0:0:0:0:
256,192,299202,1,8,0:0:0:0:
256,192,299258,1,0,0:0:0:0:
256,192,299313,1,8,0:0:0:0:
256,192,299397,1,0,0:0:0:0:
256,192,299480,1,0,0:0:0:0:
256,192,299563,1,0,0:0:0:0:
256,192,299647,1,8,0:0:0:0:
256,192,299730,1,0,0:0:0:0:
256,192,299813,1,0,0:0:0:0:
256,192,299897,1,0,0:0:0:0:
256,192,299980,1,8,0:0:0:0:
256,192,300063,1,0,0:0:0:0:
256,192,300147,1,8,0:0:0:0:
256,192,300230,1,8,0:0:0:0:
256,192,300313,1,0,0:0:0:0:
256,192,300397,1,0,0:0:0:0:
256,192,300480,1,8,0:0:0:0:
256,192,300563,1,8,0:0:0:0:
256,192,300647,1,0,0:0:0:0:
256,192,300730,1,0,0:0:0:0:
256,192,300813,1,8,0:0:0:0:
256,192,300897,1,8,0:0:0:0:
256,192,300980,1,0,0:0:0:0:
256,192,301063,1,0,0:0:0:0:
256,192,301147,1,8,0:0:0:0:
256,192,301230,1,0,0:0:0:0:
256,192,301313,1,8,0:0:0:0:
256,192,301397,1,8,0:0:0:0:
256,192,301480,1,0,0:0:0:0:
256,192,301563,1,0,0:0:0:0:
256,192,301647,1,8,0:0:0:0:
256,192,301730,1,8,0:0:0:0:
256,192,301813,1,0,0:0:0:0:
256,192,301897,1,0,0:0:0:0:
256,192,301980,1,8,0:0:0:0:
256,192,302063,1,8,0:0:0:0:
256,192,302147,1,8,0:0:0:0:
256,192,302230,1,0,0:0:0:0:
256,192,302313,1,8,0:0:0:0:
256,192,302397,1,8,0:0:0:0:
256,192,302480,1,8,0:0:0:0:
256,192,302563,1,0,0:0:0:0:
256,192,302647,1,8,0:0:0:0:
256,192,302730,1,0,0:0:0:0:
256,192,302813,1,8,0:0:0:0:
256,192,302897,1,8,0:0:0:0:
256,192,302980,1,0,0:0:0:0:
256,192,303063,1,0,0:0:0:0:
256,192,303147,1,8,0:0:0:0:
256,192,303230,1,8,0:0:0:0:
256,192,303313,1,0,0:0:0:0:
256,192,303397,1,0,0:0:0:0:
256,192,303480,1,8,0:0:0:0:
256,192,303563,1,0,0:0:0:0:
256,192,303647,1,8,0:0:0:0:
256,192,303730,1,0,0:0:0:0:
256,192,303813,1,8,0:0:0:0:
256,192,303897,1,0,0:0:0:0:
256,192,303980,1,8,0:0:0:0:
256,192,304063,1,8,0:0:0:0:
256,192,304147,1,0,0:0:0:0:
256,192,304230,1,0,0:0:0:0:
256,192,304313,1,8,0:0:0:0:
256,192,304397,1,8,0:0:0:0:
256,192,304480,1,0,0:0:0:0:
256,192,304563,1,0,0:0:0:0:
256,192,304647,1,8,0:0:0:0:
256,192,304730,1,8,0:0:0:0:
256,192,304813,1,8,0:0:0:0:
256,192,304897,1,0,0:0:0:0:
256,192,304980,1,8,0:0:0:0:
256,192,305063,1,8,0:0:0:0:
256,192,305147,1,8,0:0:0:0:
256,192,305230,1,0,0:0:0:0:
256,192,305313,1,8,0:0:0:0:
256,192,305397,1,0,0:0:0:0:
256,192,305480,1,8,0:0:0:0:
256,192,305563,1,8,0:0:0:0:
256,192,305647,1,0,0:0:0:0:
256,192,305730,1,0,0:0:0:0:
256,192,305813,1,8,0:0:0:0:
256,192,305897,1,8,0:0:0:0:
256,192,305980,1,0,0:0:0:0:
256,192,306063,1,0,0:0:0:0:
256,192,306147,1,8,0:0:0:0:
256,192,306230,1,8,0:0:0:0:
256,192,306313,1,0,0:0:0:0:
256,192,306397,1,0,0:0:0:0:
256,192,306480,1,8,0:0:0:0:
256,192,306563,1,0,0:0:0:0:
256,192,306647,1,8,0:0:0:0:
256,192,306730,1,8,0:0:0:0:
256,192,306813,1,0,0:0:0:0:
256,192,306897,1,0,0:0:0:0:
256,192,306980,1,8,0:0:0:0:
256,192,307063,1,8,0:0:0:0:
256,192,307147,1,0,0:0:0:0:
256,192,307230,1,0,0:0:0:0:
256,192,307313,1,8,0:0:0:0:
256,192,307397,1,8,0:0:0:0:
256,192,307480,1,8,0:0:0:0:
256,192,307563,1,0,0:0:0:0:
256,192,307647,1,8,0:0:0:0:
256,192,307730,1,8,0:0:0:0:
256,192,307813,1,8,0:0:0:0:
256,192,307897,1,0,0:0:0:0:
256,192,307980,1,8,0:0:0:0:
256,192,308063,1,0,0:0:0:0:
256,192,308147,1,8,0:0:0:0:
256,192,308230,1,8,0:0:0:0:
256,192,308313,1,0,0:0:0:0:
256,192,308397,1,0,0:0:0:0:
256,192,308480,1,8,0:0:0:0:
256,192,308563,1,8,0:0:0:0:
256,192,308647,1,0,0:0:0:0:
256,192,308730,1,0,0:0:0:0:
256,192,308813,1,8,0:0:0:0:
256,192,308897,1,0,0:0:0:0:
256,192,308980,1,8,0:0:0:0:
256,192,309063,1,0,0:0:0:0:
256,192,309147,1,8,0:0:0:0:
256,192,309230,1,0,0:0:0:0:
256,192,309313,1,8,0:0:0:0:
256,192,309397,1,8,0:0:0:0:
256,192,309480,1,0,0:0:0:0:
256,192,309563,1,0,0:0:0:0:
256,192,309647,1,8,0:0:0:0:
256,192,309730,1,8,0:0:0:0:
256,192,309813,1,0,0:0:0:0:
256,192,309897,1,0,0:0:0:0:
256,192,309980,1,8,0:0:0:0:
256,192,310063,1,0,0:0:0:0:
256,192,310147,1,8,0:0:0:0:
256,192,310230,1,8,0:0:0:0:
256,192,310313,1,0,0:0:0:0:
256,192,310397,1,8,0:0:0:0:
256,192,310480,1,8,0:0:0:0:
256,192,310563,1,0,0:0:0:0:
256,192,310647,1,8,0:0:0:0:
256,192,310730,1,0,0:0:0:0:
256,192,310813,1,0,0:0:0:0:
256,192,310897,1,0,0:0:0:0:
256,192,310980,1,8,0:0:0:0:
256,192,311063,1,0,0:0:0:0:
256,192,311147,1,0,0:0:0:0:
256,192,311230,1,0,0:0:0:0:
256,192,311313,1,8,0:0:0:0:
256,192,311397,1,0,0:0:0:0:
256,192,311480,1,0,0:0:0:0:
256,192,311563,1,0,0:0:0:0:
256,192,311647,1,8,0:0:0:0:
256,192,311730,1,0,0:0:0:0:
256,192,311813,1,8,0:0:0:0:
256,192,311897,1,0,0:0:0:0:
256,192,311980,1,8,0:0:0:0:
256,192,312063,1,8,0:0:0:0:
256,192,312147,1,0,0:0:0:0:
256,192,312230,1,0,0:0:0:0:
256,192,312313,1,8,0:0:0:0:
256,192,312397,1,8,0:0:0:0:
256,192,312480,1,0,0:0:0:0:
256,192,312563,1,0,0:0:0:0:
256,192,312647,1,8,0:0:0:0:
256,192,312730,1,8,0:0:0:0:
256,192,312813,1,0,0:0:0:0:
256,192,312897,1,8,0:0:0:0:
256,192,312980,1,8,0:0:0:0:
256,192,313063,1,0,0:0:0:0:
256,192,313147,1,0,0:0:0:0:
256,192,313230,1,0,0:0:0:0:
256,192,313313,1,8,0:0:0:0:
256,192,313397,1,0,0:0:0:0:
256,192,313480,1,0,0:0:0:0:
256,192,313563,1,0,0:0:0:0:
256,192,313647,1,8,0:0:0:0:
256,192,313730,1,0,0:0:0:0:
256,192,313813,1,0,0:0:0:0:
256,192,313897,1,0,0:0:0:0:
256,192,313980,1,8,0:0:0:0:
256,192,314063,1,0,0:0:0:0:
256,192,314147,1,0,0:0:0:0:
256,192,314230,1,0,0:0:0:0:
256,192,314313,1,8,0:0:0:0:
256,192,314397,1,0,0:0:0:0:
256,192,314480,1,0,0:0:0:0:
256,192,314563,1,0,0:0:0:0:
256,192,314647,1,8,0:0:0:0:
256,192,314730,1,8,0:0:0:0:
256,192,314813,1,0,0:0:0:0:
256,192,314897,1,8,0:0:0:0:
256,192,314980,1,8,0:0:0:0:
256,192,315063,1,0,0:0:0:0:
256,192,315147,1,0,0:0:0:0:
256,192,315230,1,0,0:0:0:0:
256,192,315313,1,8,0:0:0:0:
256,192,315397,1,0,0:0:0:0:
256,192,315480,1,8,0:0:0:0:
256,192,315563,1,8,0:0:0:0:
256,192,315647,1,0,0:0:0:0:
256,192,315730,1,0,0:0:0:0:
256,192,315813,1,8,0:0:0:0:
256,192,315897,1,0,0:0:0:0:
256,192,315980,1,8,0:0:0:0:
256,192,316063,1,0,0:0:0:0:
256,192,316147,1,0,0:0:0:0:
256,192,316230,1,0,0:0:0:0:
256,192,316313,1,0,0:0:0:0:
256,192,316397,1,0,0:0:0:0:
256,192,316480,1,8,0:0:0:0:
256,192,316563,1,0,0:0:0:0:
256,192,316647,1,8,0:0:0:0:
256,192,316730,1,8,0:0:0:0:
256,192,316813,1,0,0:0:0:0:
256,192,316897,1,0,0:0:0:0:
256,192,316980,1,8,0:0:0:0:
256,192,317063,1,8,0:0:0:0:
256,192,317147,1,0,0:0:0:0:
256,192,317230,1,0,0:0:0:0:
256,192,317313,1,8,0:0:0:0:
256,192,317397,1,0,0:0:0:0:
256,192,317480,1,0,0:0:0:0:
256,192,317563,1,8,0:0:0:0:
256,192,317647,1,0,0:0:0:0:
256,192,317730,1,0,0:0:0:0:
256,192,317813,1,8,0:0:0:0:
256,192,317897,1,0,0:0:0:0:
256,192,317980,1,8,0:0:0:0:
256,192,318063,1,8,0:0:0:0:
256,192,318147,1,0,0:0:0:0:
256,192,318230,1,0,0:0:0:0:
256,192,318313,1,8,0:0:0:0:
256,192,318397,1,8,0:0:0:0:
256,192,318480,1,0,0:0:0:0:
256,192,318563,1,0,0:0:0:0:
256,192,318647,1,8,0:0:0:0:
256,192,318730,1,0,0:0:0:0:
256,192,318813,1,8,0:0:0:0:
256,192,318897,1,8,0:0:0:0:
256,192,318980,1,0,0:0:0:0:
256,192,319063,1,8,0:0:0:0:
256,192,319147,1,0,0:0:0:0:
256,192,319230,1,8,0:0:0:0:
256,192,319313,1,8,0:0:0:0:
256,192,319397,1,0,0:0:0:0:
256,192,319480,1,8,0:0:0:0:
256,192,319563,1,0,0:0:0:0:
256,192,319647,1,8,0:0:0:0:
256,192,319730,1,8,0:0:0:0:
256,192,319813,1,0,0:0:0:0:
256,192,319897,1,0,0:0:0:0:
256,192,319980,1,8,0:0:0:0:
256,192,320036,1,0,0:0:0:0:
256,192,320091,1,0,0:0:0:0:
256,192,320202,1,8,0:0:0:0:
256,192,320313,1,8,0:0:0:0:
256,192,320425,1,8,0:0:0:0:
256,192,320536,1,0,0:0:0:0:
256,192,320647,1,8,0:0:0:0:
256,192,320702,1,0,0:0:0:0:
256,192,320758,1,8,0:0:0:0:
256,192,320813,1,8,0:0:0:0:
256,192,320869,1,0,0:0:0:0:
256,192,320925,1,0,0:0:0:0:
256,192,320980,1,8,0:0:0:0:
256,192,321036,1,0,0:0:0:0:
256,192,321091,1,8,0:0:0:0:
256,192,321147,1,8,0:0:0:0:
256,192,321202,1,0,0:0:0:0:
256,192,321258,1,0,0:0:0:0:
256,192,321313,1,8,0:0:0:0:
256,192,321397,1,0,0:0:0:0:
256,192,321480,1,0,0:0:0:0:
256,192,321563,1,0,0:0:0:0:
256,192,321647,1,0,0:0:0:0:
256,192,321730,1,0,0:0:0:0:
256,192,321813,1,8,0:0:0:0:
256,192,321897,1,0,0:0:0:0:
256,192,321980,1,0,0:0:0:0:
256,192,322063,1,0,0:0:0:0:
256,192,322147,1,0,0:0:0:0:
256,192,322230,1,0,0:0:0:0:
256,192,322313,1,8,0:0:0:0:
256,192,322397,1,8,0:0:0:0:
256,192,322480,1,0,0:0:0:0:
256,192,322563,1,0,0:0:0:0:
256,192,322647,1,0,0:0:0:0:
256,192,322730,1,0,0:0:0:0:
256,192,322813,1,8,0:0:0:0:
256,192,322897,1,8,0:0:0:0:
256,192,322980,1,0,0:0:0:0:
256,192,323063,1,0,0:0:0:0:
256,192,323147,1,0,0:0:0:0:
256,192,323230,1,0,0:0:0:0:
256,192,323313,1,8,0:0:0:0:
256,192,323397,1,0,0:0:0:0:
256,192,323480,1,8,0:0:0:0:
256,192,323563,1,0,0:0:0:0:
256,192,323647,1,8,0:0:0:0:
256,192,323730,1,8,0:0:0:0:
256,192,323813,1,0,0:0:0:0:
256,192,323897,1,0,0:0:0:0:
256,192,323980,1,8,0:0:0:0:
256,192,324063,1,0,0:0:0:0:
256,192,324147,1,0,0:0:0:0:
256,192,324230,1,0,0:0:0:0:
256,192,324313,1,8,0:0:0:0:
256,192,324397,1,0,0:0:0:0:
256,192,324480,1,8,0:0:0:0:
256,192,324563,1,0,0:0:0:0:
256,192,324647,1,8,0:0:0:0:
256,192,324730,1,8,0:0:0:0:
256,192,324813,1,0,0:0:0:0:
256,192,324897,1,0,0:0:0:0:
256,192,324980,1,8,0:0:0:0:
256,192,325036,1,8,0:0:0:0:
256,192,325091,1,8,0:0:0:0:
256,192,325147,1,0,0:0:0:0:
256,192,325202,1,0,0:0:0:0:
256,192,325258,1,0,0:0:0:0:
256,192,325313,1,8,0:0:0:0:
256,192,325536,1,0,0:0:0:0:
256,192,325758,1,0,0:0:0:0:
256,192,325980,1,8,0:0:0:0:
256,192,326202,1,0,0:0:0:0:
256,192,326425,1,0,0:0:0:0:
256,192,326647,1,12,0:0:0:0:
256,192,327480,1,8,0:0:0:0:
256,192,327647,1,0,0:0:0:0:
256,192,327813,1,0,0:0:0:0:
256,192,327980,1,12,0:0:0:0:
256,192,328313,1,0,0:0:0:0:
256,192,328480,1,8,0:0:0:0:
256,192,328813,1,8,0:0:0:0:
256,192,329147,1,0,0:0:0:0:
256,192,329313,1,12,0:0:0:0:
256,192,330647,1,12,0:0:0:0:
256,192,330813,1,0,0:0:0:0:
256,192,330980,1,8,0:0:0:0:
256,192,331147,1,0,0:0:0:0:
256,192,331230,1,0,0:0:0:0:
256,192,331313,1,8,0:0:0:0:
256,192,331480,1,8,0:0:0:0:
256,192,331647,1,0,0:0:0:0:
256,192,331813,1,0,0:0:0:0:
256,192,331980,1,8,0:0:0:0:
256,192,332147,1,0,0:0:0:0:
256,192,332313,1,8,0:0:0:0:
256,192,332480,1,0,0:0:0:0:
256,192,332647,1,8,0:0:0:0:
256,192,332813,1,8,0:0:0:0:
256,192,332980,1,0,0:0:0:0:
256,192,333147,1,8,0:0:0:0:
256,192,333313,1,0,0:0:0:0:
256,192,333480,1,0,0:0:0:0:
256,192,333647,1,8,0:0:0:0:
256,192,333813,1,8,0:0:0:0:
256,192,333980,1,0,0:0:0:0:
256,192,334147,1,0,0:0:0:0:
256,192,334313,1,8,0:0:0:0:
256,192,334480,1,8,0:0:0:0:
256,192,334536,1,0,0:0:0:0:
256,192,334591,1,0,0:0:0:0:
256,192,334647,1,8,0:0:0:0:
256,192,334813,1,0,0:0:0:0:
256,192,334980,1,0,0:0:0:0:
256,192,335147,1,0,0:0:0:0:
256,192,335313,1,8,0:0:0:0:
256,192,335480,1,8,0:0:0:0:
256,192,335647,1,8,0:0:0:0:
256,192,335813,1,8,0:0:0:0:
256,192,335980,1,8,0:0:0:0:
256,192,336147,1,8,0:0:0:0:
256,192,336230,1,8,0:0:0:0:
256,192,336313,1,0,0:0:0:0:
256,192,336397,1,8,0:0:0:0:
256,192,336480,1,8,0:0:0:0:
256,192,336563,1,0,0:0:0:0:
256,192,336647,1,8,0:0:0:0:
256,192,336730,1,8,0:0:0:0:
256,192,336813,1,8,0:0:0:0:
256,192,336897,1,8,0:0:0:0:
256,192,336980,1,0,0:0:0:0:
256,192,337063,1,0,0:0:0:0:
256,192,337147,1,0,0:0:0:0:
256,192,337230,1,0,0:0:0:0:
256,192,337313,1,12,0:0:0:0:
256,192,337563,1,0,0:0:0:0:
256,192,337647,1,8,0:0:0:0:
256,192,337813,1,0,0:0:0:0:
256,192,337980,1,8,0:0:0:0:
256,192,338063,1,0,0:0:0:0:
256,192,338147,1,0,0:0:0:0:
256,192,338230,1,0,0:0:0:0:
256,192,338313,1,8,0:0:0:0:
256,192,338480,1,8,0:0:0:0:
256,192,338563,1,0,0:0:0:0:
256,192,338647,1,8,0:0:0:0:
256,192,338897,1,0,0:0:0:0:
256,192,338980,1,8,0:0:0:0:
256,192,339147,1,0,0:0:0:0:
256,192,339313,1,8,0:0:0:0:
256,192,339397,1,0,0:0:0:0:
256,192,339480,1,0,0:0:0:0:
256,192,339563,1,0,0:0:0:0:
256,192,339647,1,8,0:0:0:0:
256,192,339813,1,0,0:0:0:0:
256,192,339897,1,0,0:0:0:0:
256,192,339980,1,8,0:0:0:0:
256,192,340230,1,0,0:0:0:0:
256,192,340313,1,8,0:0:0:0:
256,192,340480,1,0,0:0:0:0:
256,192,340647,1,8,0:0:0:0:
256,192,340730,1,0,0:0:0:0:
256,192,340813,1,0,0:0:0:0:
256,192,340897,1,0,0:0:0:0:
256,192,340980,1,8,0:0:0:0:
256,192,341063,1,8,0:0:0:0:
256,192,341147,1,0,0:0:0:0:
256,192,341230,1,0,0:0:0:0:
256,192,341313,1,8,0:0:0:0:
256,192,341563,1,0,0:0:0:0:
256,192,341647,1,8,0:0:0:0:
256,192,341813,1,8,0:0:0:0:
256,192,341980,1,0,0:0:0:0:
256,192,342063,1,0,0:0:0:0:
256,192,342147,1,0,0:0:0:0:
256,192,342230,1,0,0:0:0:0:
256,192,342313,1,8,0:0:0:0:
256,192,342480,1,8,0:0:0:0:
256,192,342563,1,0,0:0:0:0:
256,192,342647,1,8,0:0:0:0:
256,192,342897,1,0,0:0:0:0:
256,192,342980,1,8,0:0:0:0:
256,192,343147,1,0,0:0:0:0:
256,192,343313,1,8,0:0:0:0:
256,192,343397,1,0,0:0:0:0:
256,192,343480,1,0,0:0:0:0:
256,192,343563,1,0,0:0:0:0:
256,192,343647,1,8,0:0:0:0:
256,192,343730,1,8,0:0:0:0:
256,192,343813,1,0,0:0:0:0:
256,192,343897,1,0,0:0:0:0:
256,192,343980,1,8,0:0:0:0:
256,192,344230,1,0,0:0:0:0:
256,192,344313,1,8,0:0:0:0:
256,192,344480,1,8,0:0:0:0:
256,192,344647,1,8,0:0:0:0:
256,192,344730,1,0,0:0:0:0:
256,192,344813,1,0,0:0:0:0:
256,192,344897,1,0,0:0:0:0:
256,192,344980,1,8,0:0:0:0:
256,192,345147,1,0,0:0:0:0:
256,192,345230,1,0,0:0:0:0:
256,192,345313,1,8,0:0:0:0:
256,192,345563,1,0,0:0:0:0:
256,192,345647,1,8,0:0:0:0:
256,192,345813,1,0,0:0:0:0:
256,192,345980,1,8,0:0:0:0:
256,192,346147,1,0,0:0:0:0:
256,192,346230,1,0,0:0:0:0:
256,192,346313,1,8,0:0:0:0:
256,192,346480,1,8,0:0:0:0:
256,192,346563,1,0,0:0:0:0:
256,192,346647,1,8,0:0:0:0:
256,192,346730,1,8,0:0:0:0:
256,192,346813,1,0,0:0:0:0:
256,192,346897,1,0,0:0:0:0:
256,192,346980,1,0,0:0:0:0:
256,192,347063,1,0,0:0:0:0:
256,192,347147,1,0,0:0:0:0:
256,192,347230,1,0,0:0:0:0:
256,192,347313,1,8,0:0:0:0:
256,192,347369,1,0,0:0:0:0:
256,192,347425,1,0,0:0:0:0:
256,192,347480,1,8,0:0:0:0:
256,192,347536,1,0,0:0:0:0:
256,192,347591,1,0,0:0:0:0:
256,192,347647,1,8,0:0:0:0:
256,192,347813,1,0,0:0:0:0:
256,192,347980,1,12,0:0:0:0:
256,192,348147,1,0,0:0:0:0:
256,192,348313,1,0,0:0:0:0:
256,192,348480,1,8,0:0:0:0:
256,192,348647,1,0,0:0:0:0:
256,192,348813,1,0,0:0:0:0:
256,192,348980,1,8,0:0:0:0:
256,192,349063,1,0,0:0:0:0:
256,192,349147,1,0,0:0:0:0:
256,192,349230,1,0,0:0:0:0:
256,192,349313,1,12,0:0:0:0:
256,192,349480,1,0,0:0:0:0:
256,192,349647,1,0,0:0:0:0:
256,192,349813,1,8,0:0:0:0:
256,192,349980,1,0,0:0:0:0:
256,192,350147,1,0,0:0:0:0:
256,192,350313,1,8,0:0:0:0:
256,192,350369,1,8,0:0:0:0:
256,192,350425,1,0,0:0:0:0:
256,192,350480,1,0,0:0:0:0:
256,192,350563,1,0,0:0:0:0:
256,192,350647,1,12,0:0:0:0:
256,192,350813,1,0,0:0:0:0:
256,192,350980,1,0,0:0:0:0:
256,192,351147,1,8,0:0:0:0:
256,192,351313,1,0,0:0:0:0:
256,192,351480,1,0,0:0:0:0:
256,192,351647,1,8,0:0:0:0:
256,192,351730,1,0,0:0:0:0:
256,192,351813,1,8,0:0:0:0:
256,192,351897,1,0,0:0:0:0:
256,192,351980,1,12,0:0:0:0:
256,192,352147,1,0,0:0:0:0:
256,192,352313,1,0,0:0:0:0:
256,192,352480,1,8,0:0:0:0:
256,192,352647,1,8,0:0:0:0:
256,192,352702,1,8,0:0:0:0:
256,192,352758,1,0,0:0:0:0:
256,192,352813,1,0,0:0:0:0:
256,192,352897,1,0,0:0:0:0:
256,192,352980,1,8,0:0:0:0:
256,192,353147,1,0,0:0:0:0:
256,192,353313,1,12,0:0:0:0:
256,192,353480,1,0,0:0:0:0:
256,192,353647,1,0,0:0:0:0:
256,192,353813,1,8,0:0:0:0:
256,192,353980,1,0,0:0:0:0:
256,192,354063,1,8,0:0:0:0:
256,192,354147,1,0,0:0:0:0:
256,192,354313,1,8,0:0:0:0:
256,192,354397,1,0,0:0:0:0:
256,192,354480,1,0,0:0:0:0:
256,192,354563,1,0,0:0:0:0:
256,192,354647,1,12,0:0:0:0:
256,192,354813,1,0,0:0:0:0:
256,192,354980,1,0,0:0:0:0:
256,192,355147,1,8,0:0:0:0:
256,192,355313,1,0,0:0:0:0:
256,192,355480,1,0,0:0:0:0:
256,192,355647,1,8,0:0:0:0:
256,192,355702,1,8,0:0:0:0:
256,192,355758,1,0,0:0:0:0:
256,192,355813,1,0,0:0:0:0:
256,192,355897,1,0,0:0:0:0:
256,192,355980,1,12,0:0:0:0:
256,192,356147,1,0,0:0:0:0:
256,192,356313,1,0,0:0:0:0:
256,192,356480,1,8,0:0:0:0:
256,192,356647,1,0,0:0:0:0:
256,192,356813,1,0,0:0:0:0:
256,192,356980,1,8,0:0:0:0:
256,192,357063,1,0,0:0:0:0:
256,192,357147,1,8,0:0:0:0:
256,192,357230,1,0,0:0:0:0:
256,192,357313,1,12,0:0:0:0:
256,192,357563,1,8,0:0:0:0:
256,192,357647,1,0,0:0:0:0:
256,192,357813,1,0,0:0:0:0:
256,192,357897,1,8,0:0:0:0:
256,192,357980,1,0,0:0:0:0:
256,192,358147,1,0,0:0:0:0:
256,192,358313,1,0,0:0:0:0:
256,192,358480,1,0,0:0:0:0:
256,192,358647,1,12,0:0:0:0:
256,192,358813,1,0,0:0:0:0:
256,192,358980,1,0,0:0:0:0:
256,192,359147,1,0,0:0:0:0:
256,192,359313,1,8,0:0:0:0:
256,192,359480,1,0,0:0:0:0:
256,192,359647,1,0,0:0:0:0:
256,192,359730,1,0,0:0:0:0:
256,192,359813,1,0,0:0:0:0:
256,192,359897,1,0,0:0:0:0:
256,192,359980,1,12,0:0:0:0:
256,192,360147,1,0,0:0:0:0:
256,192,360313,1,0,0:0:0:0:
256,192,360480,1,0,0:0:0:0:
256,192,360647,1,8,0:0:0:0:
256,192,360730,1,0,0:0:0:0:
256,192,360813,1,0,0:0:0:0:
256,192,360897,1,0,0:0:0:0:
256,192,360980,1,8,0:0:0:0:
256,192,361063,1,8,0:0:0:0:
256,192,361147,1,0,0:0:0:0:
256,192,361230,1,0,0:0:0:0:
256,192,361313,1,12,0:0:0:0:
256,192,361480,1,0,0:0:0:0:
256,192,361647,1,0,0:0:0:0:
256,192,361813,1,0,0:0:0:0:
256,192,361980,1,8,0:0:0:0:
256,192,362147,1,0,0:0:0:0:
256,192,362313,1,0,0:0:0:0:
256,192,362397,1,0,0:0:0:0:
256,192,362480,1,0,0:0:0:0:
256,192,362563,1,0,0:0:0:0:
256,192,362647,1,12,0:0:0:0:
256,192,362813,1,0,0:0:0:0:
256,192,362897,1,0,0:0:0:0:
256,192,362980,1,0,0:0:0:0:
256,192,363147,1,0,0:0:0:0:
256,192,363230,1,0,0:0:0:0:
256,192,363313,1,8,0:0:0:0:
256,192,363397,1,8,0:0:0:0:
256,192,363480,1,8,0:0:0:0:
256,192,363563,1,8,0:0:0:0:
256,192,363647,1,0,0:0:0:0:
256,192,363702,1,0,0:0:0:0:
256,192,363758,1,0,0:0:0:0:
256,192,363813,1,0,0:0:0:0:
256,192,363897,1,0,0:0:0:0:
256,192,363980,1,12,0:0:0:0:
256,192,364147,1,0,0:0:0:0:
256,192,364230,1,0,0:0:0:0:
256,192,364313,1,8,0:0:0:0:
256,192,364480,1,0,0:0:0:0:
256,192,364647,1,8,0:0:0:0:
256,192,364730,1,8,0:0:0:0:
256,192,364813,1,0,0:0:0:0:
256,192,364897,1,0,0:0:0:0:
256,192,364980,1,8,0:0:0:0:
256,192,365063,1,8,0:0:0:0:
256,192,365147,1,0,0:0:0:0:
256,192,365230,1,0,0:0:0:0:
256,192,365313,1,8,0:0:0:0:
256,192,365480,1,0,0:0:0:0:
256,192,365563,1,0,0:0:0:0:
256,192,365647,1,8,0:0:0:0:
256,192,365813,1,0,0:0:0:0:
256,192,365980,1,8,0:0:0:0:
256,192,366063,1,0,0:0:0:0:
256,192,366147,1,8,0:0:0:0:
256,192,366230,1,0,0:0:0:0:
256,192,366313,1,8,0:0:0:0:
256,192,366480,1,0,0:0:0:0:
256,192,366563,1,0,0:0:0:0:
256,192,366647,1,8,0:0:0:0:
256,192,366813,1,0,0:0:0:0:
256,192,366897,1,0,0:0:0:0:
256,192,366980,1,8,0:0:0:0:
256,192,367063,1,0,0:0:0:0:
256,192,367147,1,8,0:0:0:0:
256,192,367230,1,0,0:0:0:0:
256,192,367313,1,8,0:0:0:0:
256,192,367397,1,8,0:0:0:0:
256,192,367480,1,0,0:0:0:0:
256,192,367563,1,0,0:0:0:0:
256,192,367647,1,8,0:0:0:0:
256,192,367730,1,0,0:0:0:0:
256,192,367813,1,8,0:0:0:0:
256,192,367897,1,8,0:0:0:0:
256,192,367980,1,4,0:0:0:0:
256,192,368147,1,4,0:0:0:0:
256,192,368313,1,4,0:0:0:0:
256,192,369313,1,0,0:0:0:0:
256,192,369980,1,0,0:0:0:0:
256,192,370647,1,8,0:0:0:0:
256,192,371313,1,8,0:0:0:0:
256,192,372146,1,8,0:0:0:0:
256,192,372313,1,8,0:0:0:0:
256,192,372479,1,8,0:0:0:0:
256,192,372646,1,0,0:0:0:0:
256,192,373479,1,8,0:0:0:0:
256,192,373646,1,8,0:0:0:0:
256,192,373813,1,0,0:0:0:0:
256,192,373979,1,0,0:0:0:0:
256,192,374313,1,0,0:0:0:0:
256,192,374646,1,8,0:0:0:0:
256,192,374979,1,8,0:0:0:0:
256,192,375313,1,8,0:0:0:0:
256,192,376146,1,8,0:0:0:0:
256,192,376313,1,0,0:0:0:0:
256,192,376479,1,8,0:0:0:0:
256,192,376646,1,0,0:0:0:0:
256,192,377146,1,8,0:0:0:0:
256,192,377313,1,8,0:0:0:0:
256,192,377646,1,8,0:0:0:0:
256,192,377813,1,0,0:0:0:0:
256,192,377979,1,8,0:0:0:0:
256,192,378313,1,0,0:0:0:0:
256,192,378646,1,8,0:0:0:0:
256,192,378979,1,0,0:0:0:0:
256,192,379146,1,8,0:0:0:0:
256,192,380646,1,8,0:0:0:0:
256,192,381313,1,8,0:0:0:0:
256,192,381479,1,0,0:0:0:0:
256,192,381646,1,0,0:0:0:0:
256,192,381813,1,0,0:0:0:0:
256,192,381979,1,8,0:0:0:0:
256,192,382146,1,8,0:0:0:0:
256,192,382313,1,0,0:0:0:0:
256,192,382646,1,8,0:0:0:0:
256,192,383146,1,0,0:0:0:0:
256,192,383479,1,8,0:0:0:0:
256,192,383646,1,0,0:0:0:0:
256,192,383979,1,8,0:0:0:0:
256,192,384229,1,8,0:0:0:0:
256,192,384479,1,8,0:0:0:0:
256,192,384646,1,0,0:0:0:0:
256,192,384979,1,8,0:0:0:0:
256,192,385313,1,0,0:0:0:0:
256,192,385646,1,8,0:0:0:0:
256,192,385979,1,8,0:0:0:0:
256,192,386813,1,0,0:0:0:0:
256,192,386979,1,8,0:0:0:0:
256,192,387146,1,0,0:0:0:0:
256,192,387313,1,8,0:0:0:0:
256,192,387479,1,8,0:0:0:0:
256,192,387646,1,8,0:0:0:0:
256,192,387979,1,0,0:0:0:0:
256,192,388479,1,8,0:0:0:0:
256,192,388813,1,8,0:0:0:0:
256,192,388979,1,8,0:0:0:0:
256,192,389146,1,8,0:0:0:0:
256,192,389646,1,0,0:0:0:0:
256,192,389979,1,12,0:0:0:0:
256,192,390146,1,0,0:0:0:0:
256,192,390313,1,0,0:0:0:0:
256,192,390479,1,0,0:0:0:0:
256,192,390646,1,12,0:0:0:0:
256,192,390813,1,0,0:0:0:0:
256,192,390979,1,0,0:0:0:0:
256,192,391146,1,0,0:0:0:0:
256,192,391313,1,12,0:0:0:0:
256,192,391563,1,0,0:0:0:0:
256,192,391646,1,8,0:0:0:0:
256,192,391813,1,0,0:0:0:0:
256,192,391896,1,0,0:0:0:0:
256,192,391979,1,8,0:0:0:0:
256,192,392146,1,0,0:0:0:0:
256,192,392396,1,8,0:0:0:0:
256,192,392479,1,0,0:0:0:0:
256,192,392646,1,12,0:0:0:0:
256,192,392813,1,0,0:0:0:0:
256,192,392896,1,0,0:0:0:0:
256,192,392979,1,8,0:0:0:0:
256,192,393063,1,0,0:0:0:0:
256,192,393146,1,0,0:0:0:0:
256,192,393229,1,0,0:0:0:0:
256,192,393313,1,8,0:0:0:0:
256,192,393396,1,0,0:0:0:0:
256,192,393479,1,0,0:0:0:0:
256,192,393563,1,0,0:0:0:0:
256,192,393646,1,8,0:0:0:0:
256,192,393729,1,8,0:0:0:0:
256,192,393813,1,0,0:0:0:0:
256,192,393896,1,0,0:0:0:0:
256,192,393979,1,8,0:0:0:0:
256,192,394063,1,0,0:0:0:0:
256,192,394146,1,8,0:0:0:0:
256,192,394229,1,8,0:0:0:0:
256,192,394313,1,0,0:0:0:0:
256,192,394396,1,0,0:0:0:0:
256,192,394479,1,8,0:0:0:0:
256,192,394563,1,8,0:0:0:0:
256,192,394646,1,0,0:0:0:0:
256,192,394729,1,0,0:0:0:0:
256,192,394813,1,8,0:0:0:0:
256,192,394896,1,0,0:0:0:0:
256,192,394979,1,8,0:0:0:0:
256,192,395063,1,8,0:0:0:0:
256,192,395146,1,0,0:0:0:0:
256,192,395229,1,0,0:0:0:0:
256,192,395313,1,8,0:0:0:0:
256,192,395396,1,0,0:0:0:0:
256,192,395479,1,8,0:0:0:0:
256,192,395563,1,8,0:0:0:0:
256,192,395646,1,0,0:0:0:0:
256,192,395729,1,0,0:0:0:0:
256,192,395813,1,8,0:0:0:0:
256,192,395896,1,0,0:0:0:0:
256,192,395979,1,0,0:0:0:0:
256,192,396063,1,0,0:0:0:0:
256,192,396146,1,8,0:0:0:0:
256,192,396229,1,0,0:0:0:0:
256,192,396313,1,8,0:0:0:0:
256,192,396396,1,8,0:0:0:0:
256,192,396479,1,0,0:0:0:0:
256,192,396563,1,0,0:0:0:0:
256,192,396646,1,8,0:0:0:0:
256,192,396729,1,8,0:0:0:0:
256,192,396813,1,8,0:0:0:0:
256,192,396896,1,8,0:0:0:0:
256,192,396979,1,0,0:0:0:0:
256,192,397063,1,0,0:0:0:0:
256,192,397146,1,0,0:0:0:0:
256,192,397229,1,0,0:0:0:0:
256,192,397313,1,8,0:0:0:0:
256,192,397396,1,8,0:0:0:0:
256,192,397479,1,8,0:0:0:0:
256,192,397563,1,8,0:0:0:0:
256,192,397646,1,0,0:0:0:0:
256,192,397729,1,0,0:0:0:0:
256,192,397813,1,0,0:0:0:0:
256,192,397896,1,0,0:0:0:0:
256,192,397979,1,8,0:0:0:0:
256,192,398063,1,8,0:0:0:0:
256,192,398146,1,8,0:0:0:0:
256,192,398229,1,8,0:0:0:0:
256,192,398313,1,8,0:0:0:0:
256,192,398396,1,8,0:0:0:0:
256,192,398479,1,8,0:0:0:0:
256,192,398563,1,8,0:0:0:0:
256,192,398646,1,0,0:0:0:0:
256,192,398729,1,0,0:0:0:0:
256,192,398813,1,8,0:0:0:0:
256,192,398896,1,0,0:0:0:0:
256,192,398979,1,8,0:0:0:0:
256,192,399063,1,8,0:0:0:0:
256,192,399146,1,0,0:0:0:0:
256,192,399229,1,0,0:0:0:0:
256,192,399313,1,8,0:0:0:0:
256,192,399396,1,0,0:0:0:0:
256,192,399479,1,0,0:0:0:0:
256,192,399563,1,0,0:0:0:0:
256,192,399646,1,0,0:0:0:0:
256,192,399729,1,0,0:0:0:0:
256,192,399813,1,8,0:0:0:0:
256,192,399896,1,0,0:0:0:0:
256,192,399979,1,8,0:0:0:0:
256,192,400062,1,8,0:0:0:0:
256,192,400146,1,8,0:0:0:0:
256,192,400229,1,8,0:0:0:0:
256,192,400312,1,0,0:0:0:0:
256,192,400396,1,0,0:0:0:0:
256,192,400479,1,8,0:0:0:0:
256,192,400562,1,0,0:0:0:0:
256,192,400646,1,8,0:0:0:0:
256,192,400729,1,8,0:0:0:0:
256,192,400812,1,8,0:0:0:0:
256,192,400896,1,0,0:0:0:0:
256,192,400979,1,8,0:0:0:0:
256,192,401062,1,8,0:0:0:0:
256,192,401146,1,8,0:0:0:0:
256,192,401229,1,0,0:0:0:0:
256,192,401312,1,8,0:0:0:0:
256,192,401396,1,8,0:0:0:0:
256,192,401479,1,0,0:0:0:0:
256,192,401562,1,0,0:0:0:0:
256,192,401646,1,8,0:0:0:0:
256,192,401729,1,0,0:0:0:0:
256,192,401812,1,8,0:0:0:0:
256,192,401896,1,0,0:0:0:0:
256,192,401979,1,8,0:0:0:0:
256,192,402062,1,8,0:0:0:0:
256,192,402146,1,0,0:0:0:0:
256,192,402229,1,0,0:0:0:0:
256,192,402312,1,8,0:0:0:0:
256,192,402396,1,0,0:0:0:0:
256,192,402479,1,8,0:0:0:0:
256,192,402562,1,8,0:0:0:0:
256,192,402646,1,0,0:0:0:0:
256,192,402729,1,0,0:0:0:0:
256,192,402812,1,8,0:0:0:0:
256,192,402896,1,0,0:0:0:0:
256,192,402979,1,8,0:0:0:0:
256,192,403062,1,8,0:0:0:0:
256,192,403146,1,0,0:0:0:0:
256,192,403229,1,0,0:0:0:0:
256,192,403312,1,8,0:0:0:0:
256,192,403396,1,8,0:0:0:0:
256,192,403479,1,8,0:0:0:0:
256,192,403562,1,8,0:0:0:0:
256,192,403646,1,8,0:0:0:0:
256,192,403729,1,8,0:0:0:0:
256,192,403812,1,8,0:0:0:0:
256,192,403896,1,8,0:0:0:0:
256,192,403979,1,0,0:0:0:0:
256,192,404062,1,0,0:0:0:0:
256,192,404146,1,8,0:0:0:0:
256,192,404229,1,8,0:0:0:0:
256,192,404312,1,0,0:0:0:0:
256,192,404396,1,0,0:0:0:0:
256,192,404479,1,8,0:0:0:0:
256,192,404562,1,0,0:0:0:0:
256,192,404646,1,8,0:0:0:0:
256,192,404729,1,0,0:0:0:0:
256,192,404812,1,8,0:0:0:0:
256,192,404896,1,0,0:0:0:0:
256,192,404979,1,8,0:0:0:0:
256,192,405062,1,8,0:0:0:0:
256,192,405146,1,0,0:0:0:0:
256,192,405229,1,0,0:0:0:0:
256,192,405312,1,8,0:0:0:0:
256,192,405396,1,8,0:0:0:0:
256,192,405479,1,8,0:0:0:0:
256,192,405562,1,8,0:0:0:0:
256,192,405646,1,0,0:0:0:0:
256,192,405729,1,0,0:0:0:0:
256,192,405812,1,8,0:0:0:0:
256,192,405896,1,0,0:0:0:0:
256,192,405979,1,0,0:0:0:0:
256,192,406062,1,0,0:0:0:0:
256,192,406146,1,8,0:0:0:0:
256,192,406229,1,0,0:0:0:0:
256,192,406312,1,8,0:0:0:0:
256,192,406396,1,8,0:0:0:0:
256,192,406479,1,0,0:0:0:0:
256,192,406562,1,0,0:0:0:0:
256,192,406646,1,8,0:0:0:0:
256,192,406729,1,8,0:0:0:0:
256,192,406812,1,0,0:0:0:0:
256,192,406896,1,8,0:0:0:0:
256,192,406979,1,8,0:0:0:0:
256,192,407062,1,0,0:0:0:0:
256,192,407146,1,8,0:0:0:0:
256,192,407229,1,0,0:0:0:0:
256,192,407312,1,8,0:0:0:0:
256,192,407396,1,8,0:0:0:0:
256,192,407479,1,8,0:0:0:0:
256,192,407562,1,8,0:0:0:0:
256,192,407646,1,0,0:0:0:0:
256,192,407729,1,0,0:0:0:0:
256,192,407812,1,0,0:0:0:0:
256,192,407896,1,0,0:0:0:0:
256,192,407979,1,8,0:0:0:0:
256,192,408062,1,8,0:0:0:0:
256,192,408146,1,8,0:0:0:0:
256,192,408229,1,0,0:0:0:0:
256,192,408312,1,8,0:0:0:0:
256,192,408396,1,8,0:0:0:0:
256,192,408479,1,8,0:0:0:0:
256,192,408562,1,0,0:0:0:0:
256,192,408646,1,8,0:0:0:0:
256,192,408729,1,8,0:0:0:0:
256,192,408812,1,8,0:0:0:0:
256,192,408896,1,8,0:0:0:0:
256,192,408979,1,8,0:0:0:0:
256,192,409062,1,8,0:0:0:0:
256,192,409146,1,8,0:0:0:0:
256,192,409229,1,8,0:0:0:0:
256,192,409312,1,0,0:0:0:0:
256,192,409396,1,0,0:0:0:0:
256,192,409479,1,8,0:0:0:0:
256,192,409562,1,0,0:0:0:0:
256,192,409646,1,8,0:0:0:0:
256,192,409729,1,0,0:0:0:0:
256,192,409812,1,8,0:0:0:0:
256,192,409896,1,0,0:0:0:0:
256,192,409979,1,8,0:0:0:0:
256,192,410062,1,8,0:0:0:0:
256,192,410146,1,0,0:0:0:0:
256,192,410229,1,0,0:0:0:0:
256,192,410312,1,8,0:0:0:0:
256,192,410396,1,8,0:0:0:0:
256,192,410479,1,0,0:0:0:0:
256,192,410562,1,0,0:0:0:0:
256,192,410646,1,8,0:0:0:0:
256,192,410729,1,8,0:0:0:0:
256,192,410812,1,8,0:0:0:0:
256,192,410896,1,8,0:0:0:0:
256,192,410979,1,0,0:0:0:0:
256,192,411062,1,0,0:0:0:0:
256,192,411146,1,8,0:0:0:0:
256,192,411229,1,8,0:0:0:0:
256,192,411312,1,8,0:0:0:0:
256,192,411396,1,0,0:0:0:0:
256,192,411479,1,8,0:0:0:0:
256,192,411562,1,0,0:0:0:0:
256,192,411646,1,8,0:0:0:0:
256,192,411729,1,0,0:0:0:0:
256,192,411812,1,8,0:0:0:0:
256,192,411896,1,8,0:0:0:0:
256,192,411979,1,8,0:0:0:0:
256,192,412062,1,8,0:0:0:0:
256,192,412146,1,0,0:0:0:0:
256,192,412229,1,0,0:0:0:0:
256,192,412312,1,8,0:0:0:0:
256,192,412396,1,8,0:0:0:0:
256,192,412479,1,0,0:0:0:0:
256,192,412562,1,0,0:0:0:0:
256,192,412646,1,8,0:0:0:0:
256,192,412729,1,8,0:0:0:0:
256,192,412812,1,8,0:0:0:0:
256,192,412896,1,8,0:0:0:0:
256,192,412979,1,8,0:0:0:0:
256,192,413062,1,8,0:0:0:0:
256,192,413146,1,8,0:0:0:0:
256,192,413229,1,8,0:0:0:0:
256,192,413312,1,0,0:0:0:0:
256,192,413396,1,0,0:0:0:0:
256,192,413479,1,0,0:0:0:0:
256,192,413562,1,0,0:0:0:0:
256,192,413646,1,0,0:0:0:0:
256,192,413729,1,0,0:0:0:0:
256,192,413812,1,0,0:0:0:0:
256,192,413896,1,0,0:0:0:0:
256,192,413979,1,8,0:0:0:0:
256,192,414062,1,8,0:0:0:0:
256,192,414146,1,8,0:0:0:0:
256,192,414229,1,8,0:0:0:0:
256,192,414312,1,8,0:0:0:0:
256,192,414396,1,8,0:0:0:0:
256,192,414479,1,8,0:0:0:0:
256,192,414562,1,8,0:0:0:0:
256,192,414646,1,0,0:0:0:0:
256,192,414729,1,0,0:0:0:0:
256,192,414812,1,0,0:0:0:0:
256,192,414896,1,8,0:0:0:0:
256,192,414979,1,8,0:0:0:0:
256,192,415062,1,0,0:0:0:0:
256,192,415146,1,8,0:0:0:0:
256,192,415229,1,0,0:0:0:0:
256,192,415312,1,12,0:0:0:0:
256,192,415479,1,0,0:0:0:0:
256,192,415646,1,0,0:0:0:0:
256,192,415729,1,0,0:0:0:0:
256,192,415812,1,8,0:0:0:0:
256,192,415979,1,0,0:0:0:0:
256,192,416146,1,8,0:0:0:0:
256,192,416312,1,8,0:0:0:0:
256,192,416396,1,0,0:0:0:0:
256,192,416479,1,8,0:0:0:0:
256,192,416562,1,8,0:0:0:0:
256,192,416646,1,0,0:0:0:0:
256,192,416729,1,8,0:0:0:0:
256,192,416812,1,8,0:0:0:0:
256,192,416896,1,0,0:0:0:0:
256,192,416979,1,8,0:0:0:0:
256,192,417062,1,0,0:0:0:0:
256,192,417146,1,8,0:0:0:0:
256,192,417229,1,8,0:0:0:0:
256,192,417312,1,0,0:0:0:0:
256,192,417396,1,8,0:0:0:0:
256,192,417479,1,8,0:0:0:0:
256,192,417562,1,0,0:0:0:0:
256,192,417646,1,8,0:0:0:0:
256,192,417701,1,0,0:0:0:0:
256,192,417757,1,0,0:0:0:0:
256,192,417812,1,8,0:0:0:0:
256,192,417896,1,0,0:0:0:0:
256,192,417979,1,8,0:0:0:0:
256,192,418062,1,0,0:0:0:0:
256,192,418146,1,8,0:0:0:0:
256,192,418229,1,8,0:0:0:0:
256,192,418312,1,0,0:0:0:0:
256,192,418396,1,8,0:0:0:0:
256,192,418479,1,8,0:0:0:0:
256,192,418562,1,0,0:0:0:0:
256,192,418646,1,8,0:0:0:0:
256,192,418729,1,0,0:0:0:0:
256,192,418812,1,8,0:0:0:0:
256,192,418896,1,8,0:0:0:0:
256,192,418979,1,0,0:0:0:0:
256,192,419062,1,8,0:0:0:0:
256,192,419146,1,0,0:0:0:0:
256,192,419229,1,8,0:0:0:0:
256,192,419312,1,8,0:0:0:0:
256,192,419368,1,0,0:0:0:0:
256,192,419424,1,8,0:0:0:0:
256,192,419479,1,8,0:0:0:0:
256,192,419562,1,0,0:0:0:0:
256,192,419646,1,8,0:0:0:0:
256,192,419729,1,8,0:0:0:0:
256,192,419812,1,0,0:0:0:0:
256,192,419896,1,8,0:0:0:0:
256,192,419979,1,8,0:0:0:0:
256,192,420062,1,0,0:0:0:0:
256,192,420146,1,8,0:0:0:0:
256,192,420229,1,0,0:0:0:0:
256,192,420312,1,8,0:0:0:0:
256,192,420368,1,0,0:0:0:0:
256,192,420424,1,0,0:0:0:0:
256,192,420479,1,8,0:0:0:0:
256,192,420562,1,0,0:0:0:0:
256,192,420646,1,12,0:0:0:0:
256,192,420812,1,0,0:0:0:0:
256,192,420896,1,0,0:0:0:0:
256,192,420979,1,8,0:0:0:0:
256,192,421062,1,0,0:0:0:0:
256,192,421146,1,8,0:0:0:0:
256,192,421312,1,0,0:0:0:0:
256,192,421479,1,8,0:0:0:0:
256,192,421562,1,0,0:0:0:0:
256,192,421646,1,8,0:0:0:0:
256,192,421729,1,0,0:0:0:0:
256,192,421812,1,0,0:0:0:0:
256,192,421896,1,0,0:0:0:0:
256,192,421979,1,8,0:0:0:0:
256,192,422146,1,0,0:0:0:0:
256,192,422312,1,8,0:0:0:0:
256,192,422396,1,8,0:0:0:0:
256,192,422479,1,0,0:0:0:0:
256,192,422646,1,8,0:0:0:0:
256,192,422812,1,0,0:0:0:0:
256,192,422979,1,8,0:0:0:0:
256,192,423062,1,0,0:0:0:0:
256,192,423146,1,8,0:0:0:0:
256,192,423312,1,0,0:0:0:0:
256,192,423396,1,0,0:0:0:0:
256,192,423479,1,0,0:0:0:0:
256,192,423562,1,0,0:0:0:0:
256,192,423646,1,8,0:0:0:0:
256,192,423812,1,0,0:0:0:0:
256,192,423896,1,8,0:0:0:0:
256,192,423979,1,0,0:0:0:0:
256,192,424062,1,0,0:0:0:0:
256,192,424146,1,8,0:0:0:0:
256,192,424312,1,8,0:0:0:0:
256,192,424396,1,0,0:0:0:0:
256,192,424479,1,0,0:0:0:0:
256,192,424562,1,0,0:0:0:0:
256,192,424646,1,8,0:0:0:0:
256,192,424812,1,8,0:0:0:0:
256,192,424896,1,8,0:0:0:0:
256,192,424979,1,0,0:0:0:0:
256,192,425062,1,0,0:0:0:0:
256,192,425146,1,8,0:0:0:0:
256,192,425312,1,8,0:0:0:0:
256,192,425396,1,8,0:0:0:0:
256,192,425479,1,0,0:0:0:0:
256,192,425562,1,0,0:0:0:0:
256,192,425646,1,8,0:0:0:0:
256,192,425729,1,8,0:0:0:0:
256,192,425812,1,0,0:0:0:0:
256,192,425896,1,0,0:0:0:0:
256,192,425979,1,8,0:0:0:0:
256,192,426062,1,8,0:0:0:0:
256,192,426146,1,0,0:0:0:0:
256,192,426229,1,8,0:0:0:0:
256,192,426312,1,8,0:0:0:0:
256,192,426396,1,0,0:0:0:0:
256,192,426479,1,8,0:0:0:0:
256,192,426562,1,8,0:0:0:0:
256,192,426646,1,0,0:0:0:0:
256,192,426729,1,8,0:0:0:0:
256,192,426812,1,0,0:0:0:0:
256,192,426896,1,0,0:0:0:0:
256,192,426979,1,8,0:0:0:0:
256,192,427062,1,8,0:0:0:0:
256,192,427146,1,0,0:0:0:0:
256,192,427229,1,0,0:0:0:0:
256,192,427312,1,8,0:0:0:0:
256,192,427396,1,8,0:0:0:0:
256,192,427479,1,0,0:0:0:0:
256,192,427562,1,8,0:0:0:0:
256,192,427646,1,8,0:0:0:0:
256,192,427729,1,0,0:0:0:0:
256,192,427812,1,8,0:0:0:0:
256,192,427896,1,8,0:0:0:0:
256,192,427979,1,0,0:0:0:0:
256,192,428062,1,0,0:0:0:0:
256,192,428146,1,8,0:0:0:0:
256,192,428229,1,0,0:0:0:0:
256,192,428312,1,8,0:0:0:0:
256,192,428368,1,0,0:0:0:0:
256,192,428424,1,0,0:0:0:0:
256,192,428479,1,8,0:0:0:0:
256,192,428646,1,8,0:0:0:0:
256,192,428729,1,8,0:0:0:0:
256,192,428812,1,0,0:0:0:0:
256,192,428896,1,8,0:0:0:0:
256,192,428979,1,8,0:0:0:0:
256,192,429062,1,0,0:0:0:0:
256,192,429146,1,8,0:0:0:0:
256,192,429229,1,8,0:0:0:0:
256,192,429312,1,0,0:0:0:0:
256,192,429396,1,8,0:0:0:0:
256,192,429479,1,8,0:0:0:0:
256,192,429562,1,0,0:0:0:0:
256,192,429646,1,8,0:0:0:0:
256,192,429729,1,8,0:0:0:0:
256,192,429812,1,0,0:0:0:0:
256,192,429896,1,0,0:0:0:0:
256,192,429979,1,8,0:0:0:0:
256,192,430062,1,8,0:0:0:0:
256,192,430146,1,0,0:0:0:0:
256,192,430229,1,8,0:0:0:0:
256,192,430312,1,8,0:0:0:0:
256,192,430396,1,0,0:0:0:0:
256,192,430479,1,8,0:0:0:0:
256,192,430562,1,8,0:0:0:0:
256,192,430646,1,0,0:0:0:0:
256,192,430729,1,8,0:0:0:0:
256,192,430812,1,8,0:0:0:0:
256,192,430896,1,0,0:0:0:0:
256,192,430979,1,8,0:0:0:0:
256,192,431035,1,0,0:0:0:0:
256,192,431090,1,0,0:0:0:0:
256,192,431146,1,8,0:0:0:0:
256,192,431312,1,0,0:0:0:0:
256,192,431479,1,8,0:0:0:0:
256,192,431646,1,0,0:0:0:0:
256,192,431729,1,0,0:0:0:0:
256,192,431812,1,8,0:0:0:0:
256,192,431979,1,0,0:0:0:0:
256,192,432062,1,0,0:0:0:0:
256,192,432146,1,8,0:0:0:0:
256,192,432229,1,8,0:0:0:0:
256,192,432312,1,0,0:0:0:0:
256,192,432396,1,0,0:0:0:0:
256,192,432479,1,8,0:0:0:0:
256,192,432646,1,0,0:0:0:0:
256,192,432812,1,8,0:0:0:0:
256,192,432979,1,0,0:0:0:0:
256,192,433062,1,8,0:0:0:0:
256,192,433146,1,0,0:0:0:0:
256,192,433312,1,8,0:0:0:0:
256,192,433396,1,0,0:0:0:0:
256,192,433479,1,0,0:0:0:0:
256,192,433562,1,8,0:0:0:0:
256,192,433646,1,8,0:0:0:0:
256,192,433729,1,8,0:0:0:0:
256,192,433812,1,0,0:0:0:0:
256,192,433896,1,0,0:0:0:0:
256,192,433979,1,8,0:0:0:0:
256,192,434146,1,0,0:0:0:0:
256,192,434312,1,8,0:0:0:0:
256,192,434396,1,8,0:0:0:0:
256,192,434479,1,0,0:0:0:0:
256,192,434646,1,8,0:0:0:0:
256,192,434729,1,8,0:0:0:0:
256,192,434812,1,8,0:0:0:0:
256,192,434896,1,0,0:0:0:0:
256,192,434979,1,8,0:0:0:0:
256,192,435062,1,8,0:0:0:0:
256,192,435146,1,8,0:0:0:0:
256,192,435229,1,0,0:0:0:0:
256,192,435312,1,8,0:0:0:0:
256,192,435479,5,0,0:0:0:0:
256,192,435562,1,0,0:0:0:0:
256,192,435646,1,8,0:0:0:0:
256,192,435729,1,0,0:0:0:0:
256,192,435812,1,0,0:0:0:0:
256,192,435896,1,0,0:0:0:0:
256,192,435979,1,8,0:0:0:0:
256,192,436062,1,0,0:0:0:0:
256,192,436146,1,0,0:0:0:0:
256,192,436229,1,0,0:0:0:0:
256,192,436312,1,8,0:0:0:0:
256,192,436396,1,8,0:0:0:0:
256,192,436479,1,0,0:0:0:0:
256,192,436562,1,0,0:0:0:0:
256,192,436646,1,8,0:0:0:0:
256,192,436729,1,0,0:0:0:0:
256,192,436812,1,8,0:0:0:0:
256,192,436896,1,0,0:0:0:0:
256,192,436979,1,0,0:0:0:0:
256,192,437062,1,0,0:0:0:0:
256,192,437146,1,8,0:0:0:0:
256,192,437229,1,0,0:0:0:0:
256,192,437312,1,0,0:0:0:0:
256,192,437396,1,0,0:0:0:0:
256,192,437479,1,8,0:0:0:0:
256,192,437562,1,0,0:0:0:0:
256,192,437646,1,8,0:0:0:0:
256,192,437729,1,8,0:0:0:0:
256,192,437812,1,0,0:0:0:0:
256,192,437896,1,0,0:0:0:0:
256,192,437979,1,8,0:0:0:0:
256,192,438062,1,0,0:0:0:0:
256,192,438146,1,8,0:0:0:0:
256,192,438229,1,0,0:0:0:0:
256,192,438312,1,0,0:0:0:0:
256,192,438396,1,0,0:0:0:0:
256,192,438479,1,8,0:0:0:0:
256,192,438562,1,0,0:0:0:0:
256,192,438646,1,0,0:0:0:0:
256,192,438729,1,0,0:0:0:0:
256,192,438812,1,8,0:0:0:0:
256,192,438896,1,0,0:0:0:0:
256,192,438979,1,8,0:0:0:0:
256,192,439062,1,0,0:0:0:0:
256,192,439146,1,8,0:0:0:0:
256,192,439229,1,0,0:0:0:0:
256,192,439312,1,8,0:0:0:0:
256,192,439396,1,8,0:0:0:0:
256,192,439479,1,0,0:0:0:0:
256,192,439562,1,0,0:0:0:0:
256,192,439646,1,8,0:0:0:0:
256,192,439729,1,8,0:0:0:0:
256,192,439812,1,8,0:0:0:0:
256,192,439896,1,0,0:0:0:0:
256,192,439979,1,8,0:0:0:0:
256,192,440062,1,8,0:0:0:0:
256,192,440146,1,8,0:0:0:0:
256,192,440229,1,0,0:0:0:0:
256,192,440312,1,8,0:0:0:0:
256,192,440396,1,8,0:0:0:0:
256,192,440479,1,8,0:0:0:0:
256,192,440562,1,0,0:0:0:0:
256,192,440646,1,8,0:0:0:0:
256,192,440729,1,8,0:0:0:0:
256,192,440812,1,8,0:0:0:0:
256,192,440896,1,8,0:0:0:0:
256,192,440979,1,8,0:0:0:0:
256,192,441062,1,8,0:0:0:0:
256,192,441146,1,8,0:0:0:0:
256,192,441229,1,8,0:0:0:0:
256,192,441312,1,0,0:0:0:0:
256,192,441396,1,0,0:0:0:0:
256,192,441479,1,8,0:0:0:0:
256,192,441562,1,8,0:0:0:0:
256,192,441646,1,0,0:0:0:0:
256,192,441729,1,0,0:0:0:0:
256,192,441812,1,8,0:0:0:0:
256,192,441896,1,0,0:0:0:0:
256,192,441979,1,8,0:0:0:0:
256,192,442062,1,8,0:0:0:0:
256,192,442146,1,8,0:0:0:0:
256,192,442229,1,8,0:0:0:0:
256,192,442312,1,0,0:0:0:0:
256,192,442396,1,0,0:0:0:0:
256,192,442479,1,8,0:0:0:0:
256,192,442562,1,8,0:0:0:0:
256,192,442646,1,8,0:0:0:0:
256,192,442729,1,8,0:0:0:0:
256,192,442812,1,8,0:0:0:0:
256,192,442896,1,0,0:0:0:0:
256,192,442979,1,8,0:0:0:0:
256,192,443062,1,0,0:0:0:0:
256,192,443146,1,8,0:0:0:0:
256,192,443229,1,0,0:0:0:0:
256,192,443312,1,8,0:0:0:0:
256,192,443396,1,8,0:0:0:0:
256,192,443479,1,8,0:0:0:0:
256,192,443562,1,0,0:0:0:0:
256,192,443646,1,8,0:0:0:0:
256,192,443729,1,8,0:0:0:0:
256,192,443812,1,8,0:0:0:0:
256,192,443896,1,0,0:0:0:0:
256,192,443979,1,8,0:0:0:0:
256,192,444062,1,8,0:0:0:0:
256,192,444146,1,8,0:0:0:0:
256,192,444229,1,0,0:0:0:0:
256,192,444312,1,8,0:0:0:0:
256,192,444396,1,0,0:0:0:0:
256,192,444479,1,8,0:0:0:0:
256,192,444562,1,8,0:0:0:0:
256,192,444646,1,0,0:0:0:0:
256,192,444729,1,0,0:0:0:0:
256,192,444812,1,8,0:0:0:0:
256,192,444896,1,0,0:0:0:0:
256,192,444979,1,0,0:0:0:0:
256,192,445062,1,0,0:0:0:0:
256,192,445146,1,8,0:0:0:0:
256,192,445229,1,0,0:0:0:0:
256,192,445312,1,0,0:0:0:0:
256,192,445396,1,0,0:0:0:0:
256,192,445479,1,8,0:0:0:0:
256,192,445562,1,0,0:0:0:0:
256,192,445646,1,0,0:0:0:0:
256,192,445729,1,0,0:0:0:0:
256,192,445812,1,8,0:0:0:0:
256,192,445896,1,0,0:0:0:0:
256,192,445979,1,8,0:0:0:0:
256,192,446062,1,8,0:0:0:0:
256,192,446146,1,8,0:0:0:0:
256,192,446229,1,8,0:0:0:0:
256,192,446312,1,8,0:0:0:0:
256,192,446396,1,8,0:0:0:0:
256,192,446479,1,0,0:0:0:0:
256,192,446562,1,0,0:0:0:0:
256,192,446646,1,8,0:0:0:0:
256,192,446729,1,0,0:0:0:0:
256,192,446812,1,8,0:0:0:0:
256,192,446896,1,8,0:0:0:0:
256,192,446979,1,0,0:0:0:0:
256,192,447062,1,0,0:0:0:0:
256,192,447146,1,8,0:0:0:0:
256,192,447229,1,0,0:0:0:0:
256,192,447312,1,8,0:0:0:0:
256,192,447396,1,0,0:0:0:0:
256,192,447479,1,8,0:0:0:0:
256,192,447562,1,0,0:0:0:0:
256,192,447646,1,8,0:0:0:0:
256,192,447729,1,8,0:0:0:0:
256,192,447812,1,0,0:0:0:0:
256,192,447896,1,0,0:0:0:0:
256,192,447979,1,8,0:0:0:0:
256,192,448062,1,8,0:0:0:0:
256,192,448146,1,0,0:0:0:0:
256,192,448229,1,0,0:0:0:0:
256,192,448312,1,8,0:0:0:0:
256,192,448396,1,0,0:0:0:0:
256,192,448479,1,8,0:0:0:0:
256,192,448562,1,8,0:0:0:0:
256,192,448646,1,0,0:0:0:0:
256,192,448729,1,0,0:0:0:0:
256,192,448812,1,8,0:0:0:0:
256,192,448896,1,0,0:0:0:0:
256,192,448979,1,8,0:0:0:0:
256,192,449062,1,0,0:0:0:0:
256,192,449146,1,0,0:0:0:0:
256,192,449229,1,0,0:0:0:0:
256,192,449312,1,8,0:0:0:0:
256,192,449396,1,0,0:0:0:0:
256,192,449479,1,0,0:0:0:0:
256,192,449562,1,8,0:0:0:0:
256,192,449646,1,0,0:0:0:0:
256,192,449729,1,0,0:0:0:0:
256,192,449812,1,8,0:0:0:0:
256,192,449896,1,0,0:0:0:0:
256,192,449979,1,8,0:0:0:0:
256,192,450062,1,0,0:0:0:0:
256,192,450146,1,0,0:0:0:0:
256,192,450229,1,0,0:0:0:0:
256,192,450312,1,8,0:0:0:0:
256,192,450396,1,0,0:0:0:0:
256,192,450479,1,0,0:0:0:0:
256,192,450562,1,0,0:0:0:0:
256,192,450646,1,8,0:0:0:0:
256,192,450729,1,8,0:0:0:0:
256,192,450812,1,0,0:0:0:0:
256,192,450896,1,0,0:0:0:0:
256,192,450979,1,8,0:0:0:0:
256,192,451062,1,8,0:0:0:0:
256,192,451146,1,8,0:0:0:0:
256,192,451229,1,0,0:0:0:0:
256,192,451312,1,8,0:0:0:0:
256,192,451396,1,0,0:0:0:0:
256,192,451479,1,8,0:0:0:0:
256,192,451562,1,0,0:0:0:0:
256,192,451646,1,0,0:0:0:0:
256,192,451729,1,8,0:0:0:0:
256,192,451812,1,8,0:0:0:0:
256,192,451896,1,0,0:0:0:0:
256,192,451979,1,8,0:0:0:0:
256,192,452062,1,8,0:0:0:0:
256,192,452146,1,0,0:0:0:0:
256,192,452229,1,0,0:0:0:0:
256,192,452312,1,8,0:0:0:0:
256,192,452396,1,8,0:0:0:0:
256,192,452479,1,0,0:0:0:0:
256,192,452562,1,0,0:0:0:0:
256,192,452646,1,8,0:0:0:0:
256,192,452729,1,0,0:0:0:0:
256,192,452812,1,8,0:0:0:0:
256,192,452896,1,0,0:0:0:0:
256,192,452979,1,8,0:0:0:0:
256,192,453062,1,8,0:0:0:0:
256,192,453146,1,0,0:0:0:0:
256,192,453229,1,0,0:0:0:0:
256,192,453312,1,8,0:0:0:0:
256,192,453396,1,8,0:0:0:0:
256,192,453479,1,8,0:0:0:0:
256,192,453562,1,8,0:0:0:0:
256,192,453646,1,0,0:0:0:0:
256,192,453729,1,0,0:0:0:0:
256,192,453812,1,8,0:0:0:0:
256,192,453896,1,8,0:0:0:0:
256,192,453979,1,8,0:0:0:0:
256,192,454062,1,0,0:0:0:0:
256,192,454146,1,8,0:0:0:0:
256,192,454229,1,0,0:0:0:0:
256,192,454312,1,8,0:0:0:0:
256,192,454396,1,0,0:0:0:0:
256,192,454479,1,8,0:0:0:0:
256,192,454562,1,8,0:0:0:0:
256,192,454646,1,8,0:0:0:0:
256,192,454729,1,0,0:0:0:0:
256,192,454812,1,0,0:0:0:0:
256,192,454896,1,0,0:0:0:0:
256,192,454979,1,8,0:0:0:0:
256,192,455035,1,0,0:0:0:0:
256,192,455090,1,0,0:0:0:0:
256,192,455146,1,8,0:0:0:0:
256,192,455201,1,0,0:0:0:0:
256,192,455257,1,0,0:0:0:0:
256,192,455312,1,8,0:0:0:0:
256,192,455396,1,8,0:0:0:0:
256,192,455479,1,0,0:0:0:0:
256,192,455562,1,0,0:0:0:0:
256,192,455646,1,8,0:0:0:0:
256,192,455729,1,8,0:0:0:0:
256,192,455812,1,0,0:0:0:0:
256,192,455896,1,0,0:0:0:0:
256,192,455979,1,8,0:0:0:0:
256,192,456062,1,0,0:0:0:0:
256,192,456146,1,0,0:0:0:0:
256,192,456229,1,0,0:0:0:0:
256,192,456312,1,8,0:0:0:0:
256,192,456396,1,0,0:0:0:0:
256,192,456479,1,0,0:0:0:0:
256,192,456562,1,0,0:0:0:0:
256,192,456646,1,8,0:0:0:0:
256,192,456701,1,0,0:0:0:0:
256,192,456757,1,0,0:0:0:0:
256,192,456868,1,8,0:0:0:0:
256,192,456979,1,8,0:0:0:0:
256,192,457090,1,0,0:0:0:0:
256,192,457201,1,0,0:0:0:0:
256,192,457312,1,0,0:0:0:0:
256,192,457535,1,0,0:0:0:0:
256,192,457757,1,0,0:0:0:0:
256,192,457979,1,12,0:0:0:0:
256,192,458146,1,0,0:0:0:0:
256,192,458312,1,8,0:0:0:0:
256,192,458646,1,8,0:0:0:0:
256,192,459146,1,12,0:0:0:0:
256,192,459479,1,0,0:0:0:0:
256,192,459646,1,8,0:0:0:0:
256,192,459812,1,8,0:0:0:0:
256,192,460146,1,0,0:0:0:0:
256,192,460201,1,0,0:0:0:0:
256,192,460257,1,0,0:0:0:0:
256,192,460312,1,8,0:0:0:0:
256,192,460646,1,12,0:0:0:0:
256,192,461090,1,12,0:0:0:0:
256,192,461535,1,12,0:0:0:0:
256,192,461812,1,0,0:0:0:0:
256,192,461868,1,0,0:0:0:0:
256,192,461924,1,0,0:0:0:0:
256,192,461979,1,8,0:0:0:0:
256,192,462091,1,8,0:0:0:0:
256,192,462216,1,0,0:0:0:0:
256,192,462278,1,0,0:0:0:0:
256,192,462341,1,8,0:0:0:0:
256,192,462403,1,0,0:0:0:0:
256,192,462522,1,0,0:0:0:0:
256,192,462635,1,8,0:0:0:0:
256,192,462689,1,8,0:0:0:0:
256,192,463119,1,0,0:0:0:0:
256,192,463185,1,0,0:0:0:0:
256,192,463252,1,0,0:0:0:0:
256,192,463313,1,12,0:0:0:0:
256,192,463479,12,0,467813,0:0:0:0:
256,192,467979,5,12,0:0:0:0:
256,192,468146,1,0,0:0:0:0:
256,192,468479,1,0,0:0:0:0:
256,192,468646,1,12,0:0:0:0:
256,192,469146,1,4,0:0:0:0:
256,192,469646,1,4,0:0:0:0:
256,192,470146,1,4,0:0:0:0:
256,192,470646,1,4,0:0:0:0:
256,192,471146,1,4,0:0:0:0:
256,192,471646,1,4,0:0:0:0:
256,192,472146,1,4,0:0:0:0:
256,192,472646,1,4,0:0:0:0:
256,192,473146,1,4,0:0:0:0:
256,192,473479,1,0,0:0:0:0:
256,192,473563,1,0,0:0:0:0:
256,192,473646,1,12,0:0:0:0:
256,192,473813,1,8,0:0:0:0:
256,192,473979,1,4,0:0:0:0:
256,192,474479,1,12,0:0:0:0:
256,192,474979,1,12,0:0:0:0:
256,192,475479,1,12,0:0:0:0:
256,192,475979,1,12,0:0:0:0:
256,192,476479,1,12,0:0:0:0:
256,192,476979,1,12,0:0:0:0:
256,192,477479,1,12,0:0:0:0:
256,192,477979,1,12,0:0:0:0:
256,192,478479,1,12,0:0:0:0:
256,192,478813,1,0,0:0:0:0:
256,192,478896,1,0,0:0:0:0:
256,192,478979,1,12,0:0:0:0:
256,192,479313,1,8,0:0:0:0:
256,192,479396,1,8,0:0:0:0:
256,192,479646,1,0,0:0:0:0:
256,192,479813,1,8,0:0:0:0:
256,192,479896,1,0,0:0:0:0:
256,192,479979,1,0,0:0:0:0:
256,192,480146,1,0,0:0:0:0:
256,192,480313,1,8,0:0:0:0:
256,192,480396,1,0,0:0:0:0:
256,192,480479,1,0,0:0:0:0:
256,192,480646,1,0,0:0:0:0:
256,192,480813,1,8,0:0:0:0:
256,192,480896,1,0,0:0:0:0:
256,192,480979,1,0,0:0:0:0:
256,192,481146,1,0,0:0:0:0:
256,192,481313,1,8,0:0:0:0:
256,192,481396,1,8,0:0:0:0:
256,192,481479,1,0,0:0:0:0:
256,192,481646,1,8,0:0:0:0:
256,192,481729,1,0,0:0:0:0:
256,192,481813,1,0,0:0:0:0:
256,192,481979,1,8,0:0:0:0:
256,192,482063,1,8,0:0:0:0:
256,192,482146,1,0,0:0:0:0:
256,192,482313,1,0,0:0:0:0:
256,192,482479,1,8,0:0:0:0:
256,192,482563,1,0,0:0:0:0:
256,192,482646,1,0,0:0:0:0:
256,192,482813,1,0,0:0:0:0:
256,192,482979,1,8,0:0:0:0:
256,192,483063,1,0,0:0:0:0:
256,192,483146,1,0,0:0:0:0:
256,192,483313,1,0,0:0:0:0:
256,192,483479,1,8,0:0:0:0:
256,192,483563,1,0,0:0:0:0:
256,192,483646,1,0,0:0:0:0:
256,192,483813,1,0,0:0:0:0:
256,192,483979,1,8,0:0:0:0:
256,192,484063,1,8,0:0:0:0:
256,192,484146,1,0,0:0:0:0:
256,192,484313,1,8,0:0:0:0:
256,192,484396,1,8,0:0:0:0:
256,192,484479,1,8,0:0:0:0:
256,192,484646,1,8,0:0:0:0:
256,192,484729,1,0,0:0:0:0:
256,192,484813,1,0,0:0:0:0:
256,192,484979,1,0,0:0:0:0:
256,192,485146,1,8,0:0:0:0:
256,192,485229,1,0,0:0:0:0:
256,192,485313,1,0,0:0:0:0:
256,192,485479,1,0,0:0:0:0:
256,192,485646,1,8,0:0:0:0:
256,192,485729,1,0,0:0:0:0:
256,192,485813,1,0,0:0:0:0:
256,192,485979,1,0,0:0:0:0:
256,192,486146,1,8,0:0:0:0:
256,192,486229,1,0,0:0:0:0:
256,192,486313,1,0,0:0:0:0:
256,192,486479,1,0,0:0:0:0:
256,192,486646,1,8,0:0:0:0:
256,192,486729,1,8,0:0:0:0:
256,192,486813,1,0,0:0:0:0:
256,192,486979,1,8,0:0:0:0:
256,192,487063,1,0,0:0:0:0:
256,192,487146,1,0,0:0:0:0:
256,192,487313,1,8,0:0:0:0:
256,192,487396,1,8,0:0:0:0:
256,192,487479,1,0,0:0:0:0:
256,192,487646,1,0,0:0:0:0:
256,192,487813,1,8,0:0:0:0:
256,192,487896,1,0,0:0:0:0:
256,192,487979,1,0,0:0:0:0:
256,192,488146,1,0,0:0:0:0:
256,192,488313,1,8,0:0:0:0:
256,192,488396,1,0,0:0:0:0:
256,192,488479,1,0,0:0:0:0:
256,192,488646,1,8,0:0:0:0:
256,192,488813,1,0,0:0:0:0:
256,192,488896,1,8,0:0:0:0:
256,192,488979,1,0,0:0:0:0:
256,192,489063,1,0,0:0:0:0:
256,192,489146,1,8,0:0:0:0:
256,192,489229,1,8,0:0:0:0:
256,192,489313,1,0,0:0:0:0:
256,192,489396,1,0,0:0:0:0:
256,192,489479,1,0,0:0:0:0:
256,192,489563,1,0,0:0:0:0:
256,192,489646,1,8,0:0:0:0:
256,192,489729,1,8,0:0:0:0:
256,192,489813,1,8,0:0:0:0:
256,192,489896,1,8,0:0:0:0:
256,192,489979,1,0,0:0:0:0:
256,192,490063,1,0,0:0:0:0:
256,192,490146,1,0,0:0:0:0:
256,192,490313,1,8,0:0:0:0:
256,192,490479,1,0,0:0:0:0:
256,192,490563,1,0,0:0:0:0:
256,192,490646,1,0,0:0:0:0:
256,192,490813,1,0,0:0:0:0:
256,192,490979,1,8,0:0:0:0:
256,192,491063,1,0,0:0:0:0:
256,192,491146,1,0,0:0:0:0:
256,192,491313,1,0,0:0:0:0:
256,192,491479,1,0,0:0:0:0:
256,192,491563,1,0,0:0:0:0:
256,192,491646,1,8,0:0:0:0:
256,192,491813,1,0,0:0:0:0:
256,192,491979,1,0,0:0:0:0:
256,192,492062,1,0,0:0:0:0:
256,192,492146,1,0,0:0:0:0:
256,192,492312,1,8,0:0:0:0:
256,192,492396,1,0,0:0:0:0:
256,192,492479,1,0,0:0:0:0:
256,192,492646,1,0,0:0:0:0:
256,192,492729,1,0,0:0:0:0:
256,192,492812,1,0,0:0:0:0:
256,192,492979,1,8,0:0:0:0:
256,192,493146,1,0,0:0:0:0:
256,192,493229,1,0,0:0:0:0:
256,192,493312,1,0,0:0:0:0:
256,192,493479,1,0,0:0:0:0:
256,192,493646,1,8,0:0:0:0:
256,192,493729,1,0,0:0:0:0:
256,192,493812,1,0,0:0:0:0:
256,192,493979,1,0,0:0:0:0:
256,192,494146,1,0,0:0:0:0:
256,192,494229,1,0,0:0:0:0:
256,192,494312,1,8,0:0:0:0:
256,192,494479,1,0,0:0:0:0:
256,192,494562,1,0,0:0:0:0:
256,192,494646,1,8,0:0:0:0:
256,192,494729,1,0,0:0:0:0:
256,192,494812,1,0,0:0:0:0:
256,192,494896,1,0,0:0:0:0:
256,192,494979,1,8,0:0:0:0:
256,192,495062,1,8,0:0:0:0:
256,192,495146,1,0,0:0:0:0:
256,192,495229,1,0,0:0:0:0:
256,192,495312,1,8,0:0:0:0:
256,192,495396,1,0,0:0:0:0:
256,192,495479,1,0,0:0:0:0:
256,192,495562,1,0,0:0:0:0:
256,192,495646,1,8,0:0:0:0:
256,192,495812,1,0,0:0:0:0:
256,192,495896,1,0,0:0:0:0:
256,192,495979,1,8,0:0:0:0:
256,192,496146,1,0,0:0:0:0:
256,192,496312,1,8,0:0:0:0:
256,192,496396,1,0,0:0:0:0:
256,192,496479,1,0,0:0:0:0:
256,192,496646,1,8,0:0:0:0:
256,192,496812,1,0,0:0:0:0:
256,192,496896,1,0,0:0:0:0:
256,192,496979,1,8,0:0:0:0:
256,192,497146,1,0,0:0:0:0:
256,192,497312,1,8,0:0:0:0:
256,192,497396,1,0,0:0:0:0:
256,192,497479,1,0,0:0:0:0:
256,192,497646,1,8,0:0:0:0:
256,192,497729,1,0,0:0:0:0:
256,192,497812,1,0,0:0:0:0:
256,192,497979,1,8,0:0:0:0:
256,192,498062,1,0,0:0:0:0:
256,192,498146,1,0,0:0:0:0:
256,192,498229,1,0,0:0:0:0:
256,192,498312,1,8,0:0:0:0:
256,192,498479,1,0,0:0:0:0:
256,192,498562,1,0,0:0:0:0:
256,192,498646,1,8,0:0:0:0:
256,192,498812,1,0,0:0:0:0:
256,192,498979,1,8,0:0:0:0:
256,192,499062,1,0,0:0:0:0:
256,192,499146,1,0,0:0:0:0:
256,192,499312,1,8,0:0:0:0:
256,192,499479,1,0,0:0:0:0:
256,192,499562,1,0,0:0:0:0:
256,192,499646,1,8,0:0:0:0:
256,192,499812,1,0,0:0:0:0:
256,192,499896,1,0,0:0:0:0:
256,192,499979,1,8,0:0:0:0:
256,192,500035,1,8,0:0:0:0:
256,192,500090,1,8,0:0:0:0:
256,192,500146,1,0,0:0:0:0:
256,192,500201,1,0,0:0:0:0:
256,192,500257,1,0,0:0:0:0:
256,192,500312,1,8,0:0:0:0:
256,192,500639,1,0,0:0:0:0:
256,192,501313,1,8,0:0:0:0:
256,192,502002,1,8,0:0:0:0:
256,192,502679,1,0,0:0:0:0:
256,192,503371,1,8,0:0:0:0:
256,192,503930,1,8,0:0:0:0:
256,192,504366,1,0,0:0:0:0:
256,192,504776,1,8,0:0:0:0:
256,192,505139,1,8,0:0:0:0:
256,192,505436,1,0,0:0:0:0:
256,192,505686,1,8,0:0:0:0:
256,192,505936,1,8,0:0:0:0:
256,192,506151,1,0,0:0:0:0:
256,192,506319,1,0,0:0:0:0:
256,192,506488,1,8,0:0:0:0:
256,192,506645,1,0,0:0:0:0:
256,192,506803,1,0,0:0:0:0:
256,192,506951,1,8,0:0:0:0:
256,192,507099,1,0,0:0:0:0:
256,192,507247,1,0,0:0:0:0:
256,192,507403,1,8,0:0:0:0:
256,192,507542,1,0,0:0:0:0:
256,192,507682,1,0,0:0:0:0:
256,192,507813,1,8,0:0:0:0:
256,192,507972,1,0,0:0:0:0:
256,192,508131,1,8,0:0:0:0:
256,192,508200,1,0,0:0:0:0:
256,192,508269,1,8,0:0:0:0:
256,192,508338,1,8,0:0:0:0:
256,192,508407,1,8,0:0:0:0:
256,192,508476,1,0,0:0:0:0:
256,192,508545,1,8,0:0:0:0:
256,192,508614,1,0,0:0:0:0:
256,192,508683,1,8,0:0:0:0:
256,192,508753,1,8,0:0:0:0:
256,192,508822,1,0,0:0:0:0:
256,192,508891,1,0,0:0:0:0:
256,192,508960,1,8,0:0:0:0:
256,192,509029,1,8,0:0:0:0:
256,192,509098,1,8,0:0:0:0:
256,192,509167,1,0,0:0:0:0:
256,192,509236,1,8,0:0:0:0:
256,192,509305,1,8,0:0:0:0:
256,192,509375,1,0,0:0:0:0:
256,192,509445,1,0,0:0:0:0:
256,192,509515,1,8,0:0:0:0:
256,192,509584,1,0,0:0:0:0:
256,192,509654,1,0,0:0:0:0:
256,192,509724,1,0,0:0:0:0:
256,192,509794,1,8,0:0:0:0:
256,192,509933,1,0,0:0:0:0:
256,192,510073,1,0,0:0:0:0:
256,192,510212,1,8,0:0:0:0:
256,192,510352,1,0,0:0:0:0:
256,192,510498,1,0,0:0:0:0:
256,192,510644,1,8,0:0:0:0:
256,192,510791,1,0,0:0:0:0:
256,192,510937,1,0,0:0:0:0:
256,192,511103,1,8,0:0:0:0:
256,192,511270,1,0,0:0:0:0:
256,192,511437,1,0,0:0:0:0:
256,192,511608,1,8,0:0:0:0:
256,192,511816,1,0,0:0:0:0:
256,192,512065,1,0,0:0:0:0:
256,192,512324,1,8,0:0:0:0:
256,192,512603,1,0,0:0:0:0:
256,192,512971,1,0,0:0:0:0:
256,192,513384,1,8,0:0:0:0:
256,192,513820,1,0,0:0:0:0:
256,192,514378,1,0,0:0:0:0:
256,192,515063,1,8,0:0:0:0:
256,192,515744,1,0,0:0:0:0:
256,192,516418,1,0,0:0:0:0:
256,192,517115,1,4,0:0:0:0:
