osu file format v14

[General]
AudioFilename: audio.mp3
AudioLeadIn: 0
PreviewTime: 435696
Countdown: 0
SampleSet: None
StackLeniency: 0.4
Mode: 0
LetterboxInBreaks: 0
WidescreenStoryboard: 0

[Editor]
Bookmarks: 30030,78697,121363,164030,208030,242696,278696,326696,368362,394029,436696,500690,517174,535840
DistanceSpacing: 0.15
BeatDivisor: 3
GridSize: 32
TimelineZoom: 2.699999

[Metadata]
Title:Koyoi wa Hyouitsu na Egoist ~ Ego, Schizoid, Beat.
TitleUnicode:今宵は飄逸なエゴイスト ~ Ego, Schizoid, Beat.
Artist:Demetori
ArtistUnicode:Demetori
Creator:AtHeoN
Version:Embezzlement
Source:東方憑依華 ~ Antinomy of Common Flowers.
Tags:lmt athy Jo'on Yorigami Shion c94 comiket 94 ZUN 東方 Project Touhou Joon Spirit Possession Bloom Tonight Stars an Easygoing Egoistic Flowers 瑰狂鬱嵂 metal
BeatmapID:1787835
BeatmapSetID:855669

[Difficulty]
HPDrainRate:5
CircleSize:4.5
OverallDifficulty:9
ApproachRate:9.4
SliderMultiplier:2
SliderTickRate:1

[Events]
//Background and Video events
0,0,"bg.jpg",0,0
//Break Periods
//Storyboard Layer 0 (Background)
//Storyboard Layer 1 (Fail)
//Storyboard Layer 2 (Pass)
//Storyboard Layer 3 (Foreground)
//Storyboard Sound Samples

[TimingPoints]
697,333.333333333333,4,2,1,25,1,0
2030,-333.333333333333,4,2,1,20,0,0
4696,-133.333333333333,4,2,1,30,0,0
5280,-133.333333333333,4,2,1,5,0,0
5363,-133.333333333333,4,2,1,40,0,0
5946,-133.333333333333,4,2,1,5,0,0
6030,-100,4,2,1,50,0,0
6613,-100,4,2,1,5,0,0
6696,-100,4,2,1,60,0,0
7280,-100,4,2,1,5,0,0
7363,-133.333333333333,4,2,1,40,0,0
26613,-133.333333333333,4,2,1,5,0,0
26696,-133.333333333333,4,2,1,40,0,0
29030,-133.333333333333,4,2,1,5,0,0
29196,-133.333333333333,4,2,1,40,0,0
29446,-133.333333333333,4,2,1,5,0,0
29530,-133.333333333333,4,2,1,50,0,0
30030,-100,4,3,1,60,0,0
32030,-79.9999999999999,4,3,1,60,0,0
32280,-79.9999999999999,4,3,1,5,0,0
32363,-133.333333333333,4,3,1,60,0,0
32613,-133.333333333333,4,3,1,5,0,0
32696,-100,4,3,1,60,0,0
34696,-133.333333333333,4,3,1,60,0,0
34946,-133.333333333333,4,3,1,5,0,0
35030,-79.9999999999999,4,3,1,60,0,0
35280,-79.9999999999999,4,3,1,5,0,0
35363,-100,4,3,1,60,0,0
35530,-100,4,3,1,5,0,0
35696,-100,4,3,1,60,0,0
36030,-100,4,3,1,5,0,0
36196,-100,4,3,1,60,0,0
36530,-100,4,3,1,5,0,0
36696,-100,4,3,1,60,0,0
37030,-100,4,3,1,5,0,0
37196,-100,4,3,1,60,0,0
37363,-79.9999999999999,4,3,1,60,0,0
37613,-79.9999999999999,4,3,1,5,0,0
37696,-133.333333333333,4,3,1,60,0,0
37946,-133.333333333333,4,3,1,5,0,0
38030,-100,4,3,1,60,0,0
40030,-100,4,3,1,60,0,0
40363,-66.6666666666667,4,3,1,60,0,0
40696,-133.333333333333,4,3,1,50,0,0
48696,-133.333333333333,4,3,1,30,0,0
49363,-133.333333333333,4,3,1,40,0,0
50030,-133.333333333333,4,3,1,50,0,0
50696,-133.333333333333,4,3,1,60,0,0
51696,-100,4,3,1,60,0,0
52196,-133.333333333333,4,3,1,50,0,0
54030,-100,4,3,1,60,0,0
54363,-133.333333333333,4,3,1,50,0,0
55363,-133.333333333333,4,3,1,60,0,0
56196,-133.333333333333,4,3,2,60,0,0
56363,-133.333333333333,4,3,3,60,0,0
56530,-133.333333333333,4,3,4,60,0,0
56696,-100,4,3,1,60,0,0
66030,-66.6666666666667,4,3,1,60,0,0
66696,-100,4,3,1,60,0,0
67030,-100,4,3,2,60,0,0
67196,-100,4,3,3,60,0,0
67363,-100,4,3,1,60,0,0
78030,-100,4,2,1,40,0,0
78697,333.333333333333,4,3,1,60,1,0
83697,-100,4,3,2,60,0,0
83863,-100,4,3,3,60,0,0
84030,-100,4,3,1,60,0,0
86780,-100,4,3,1,5,0,0
86863,-100,4,3,1,60,0,0
119946,-100,4,3,1,5,0,0
120196,-100,4,3,1,60,0,0
120280,-100,4,3,1,5,0,0
120530,-100,4,3,1,60,0,0
120613,-100,4,3,1,5,0,0
120696,-100,4,3,1,60,0,0
121363,-133.333333333333,4,3,1,60,0,0
126696,-100,4,3,1,60,0,0
131363,-100,4,3,7,60,0,0
131530,-100,4,3,2,60,0,0
131696,-100,4,3,3,60,0,0
131863,-100,4,3,4,60,0,0
132030,-100,4,3,1,60,0,0
134613,-100,4,3,1,5,0,0
134696,-100,4,3,1,60,0,0
135946,-100,4,3,1,5,0,0
136030,-100,4,3,1,60,0,0
138613,-100,4,3,1,5,0,0
138696,-100,4,3,1,60,0,0
142196,-200,4,3,1,60,0,0
142280,-200,4,3,1,5,0,0
142696,-133.333333333333,4,3,1,50,0,0
153780,-133.333333333333,4,3,1,5,0,0
153863,-133.333333333333,4,3,1,50,0,0
154363,-133.333333333333,4,3,1,5,0,0
154530,-133.333333333333,4,3,1,50,0,0
159113,-133.333333333333,4,3,1,5,0,0
159196,-133.333333333333,4,3,1,50,0,0
159696,-133.333333333333,4,3,1,5,0,0
159863,-133.333333333333,4,3,1,50,0,0
163530,-133.333333333333,4,3,2,50,0,0
163696,-133.333333333333,4,3,3,50,0,0
163863,-133.333333333333,4,3,4,50,0,0
164030,-100,4,3,1,60,0,0
173863,-100,4,3,2,60,0,0
174030,-100,4,3,3,60,0,0
174196,-100,4,3,4,60,0,0
174363,-100,4,3,1,60,0,0
174613,-100,4,3,1,5,0,0
174696,-100,4,3,1,60,0,0
185363,-79.9999999999999,4,3,1,70,0,1
204252,-79.9999999999999,4,3,2,70,0,1
204696,-79.9999999999999,4,3,1,70,0,1
204919,-79.9999999999999,4,3,3,70,0,1
205363,-100,4,3,1,60,0,0
207141,-100,4,3,7,60,0,0
207363,-100,4,3,2,60,0,0
207585,-100,4,3,3,60,0,0
207808,-100,4,3,4,60,0,0
208030,338.983050847458,4,2,1,40,1,0
208030,-200,4,2,1,70,0,0
208114,-200,4,2,1,5,0,0
208707,-200,4,2,1,40,0,0
208792,-200,4,2,1,5,0,0
209385,-200,4,2,1,40,0,0
209470,-200,4,2,1,5,0,0
210063,-200,4,2,1,40,0,0
210148,-200,4,2,1,5,0,0
210741,331.491712707182,4,2,1,40,1,0
210741,-200,4,2,1,40,0,0
211486,-200,4,2,1,5,0,0
212066,-200,4,2,1,40,0,0
212149,-200,4,2,1,5,0,0
212729,317.460317460317,4,2,1,40,1,0
213363,333.333333333333,4,2,1,40,1,0
213363,-200,4,2,1,40,0,0
213446,-200,4,2,1,5,0,0
214029,-200,4,2,1,40,0,0
214113,-200,4,2,1,5,0,0
214696,-200,4,2,1,40,0,0
214779,-200,4,2,1,5,0,0
215363,-200,4,2,1,40,0,0
215446,-200,4,2,1,5,0,0
216029,-200,4,2,1,40,0,0
216779,-200,4,2,1,5,0,0
217363,-200,4,2,1,40,0,0
217446,-200,4,2,1,5,0,0
218029,-200,4,2,1,40,0,0
218779,-200,4,2,1,5,0,0
219363,-200,4,2,1,40,0,0
219446,-200,4,2,1,5,0,0
220029,-200,4,2,1,40,0,0
220113,-200,4,2,1,5,0,0
220696,-200,4,2,1,40,0,0
220779,-200,4,2,1,5,0,0
221363,-200,4,2,1,40,0,0
222779,-200,4,2,1,5,0,0
223363,-200,4,2,1,40,0,0
224113,-200,4,2,1,5,0,0
224696,-200,4,2,1,40,0,0
224779,-200,4,2,1,5,0,0
225363,-200,4,2,1,40,0,0
225446,-200,4,2,1,5,0,0
226029,-200,4,2,1,40,0,0
226113,-200,4,2,1,5,0,0
226696,-200,4,2,1,40,0,0
228112,-200,4,2,1,5,0,0
228696,-200,4,2,1,40,0,0
229446,-200,4,2,1,5,0,0
230029,-200,4,2,1,40,0,0
230112,-200,4,2,1,5,0,0
230696,-200,4,2,1,40,0,0
230779,-200,4,2,1,5,0,0
231362,-200,4,2,1,40,0,0
231446,-200,4,2,1,5,0,0
232029,-200,4,2,1,40,0,0
234779,-200,4,2,1,5,0,0
235362,-200,4,2,1,40,0,0
235446,-200,4,2,1,5,0,0
236029,-200,4,2,1,40,0,0
236112,-200,4,2,1,5,0,0
236696,-200,4,2,1,40,0,0
236779,-200,4,2,1,5,0,0
237362,-200,4,2,1,40,0,0
240112,-200,4,2,1,5,0,0
240696,-200,4,2,1,40,0,0
240779,-200,4,2,1,5,0,0
241362,-200,4,2,1,40,0,0
241446,-200,4,2,1,5,0,0
242029,-200,4,2,1,40,0,0
242696,-100,4,3,1,30,0,0
243362,-100,4,3,1,40,0,0
244029,-100,4,3,1,50,0,0
244696,-100,4,3,1,60,0,0
245446,-100,4,3,1,40,0,0
246696,-100,4,3,1,60,0,0
270362,-100,4,3,2,50,0,0
270529,-100,4,3,3,50,0,0
270696,-100,4,3,1,60,0,0
271807,-100,4,3,2,50,0,0
272029,-100,4,3,3,50,0,0
272362,-100,4,3,4,50,0,0
272696,-100,4,3,1,60,0,0
276362,-100,4,3,1,40,0,0
276696,-100,4,3,1,50,0,0
277029,-100,4,3,1,60,0,0
278362,-100,4,3,1,70,0,0
278696,-100,4,3,1,60,0,0
294696,-133.333333333333,4,3,1,60,0,0
299196,-100,4,3,1,60,0,0
300029,-88.8888888888889,4,3,1,60,0,1
308029,-80,4,3,1,70,0,1
310696,-100,4,3,1,60,0,0
316029,-80,4,3,1,60,0,1
316446,-80,4,3,1,5,0,1
316529,-80,4,3,1,60,0,1
321362,-88.8888888888889,4,3,1,60,0,1
325362,-100,4,3,1,60,0,0
325474,-100,4,3,1,5,0,0
325585,-100,4,3,2,60,0,0
325696,-100,4,3,1,5,0,0
325807,-100,4,3,2,60,0,0
325918,-100,4,3,1,5,0,0
326029,-100,4,3,1,60,0,0
326140,-100,4,3,1,5,0,0
326251,-100,4,3,3,60,0,0
326362,-100,4,3,1,5,0,0
326474,-100,4,3,3,60,0,0
326585,-100,4,3,1,5,0,0
326696,-200,4,3,1,60,0,0
331529,-200,4,3,2,60,0,0
331696,-200,4,3,3,60,0,0
331862,-200,4,3,4,60,0,0
332029,-200,4,3,1,60,0,0
336862,-200,4,3,2,60,0,0
337029,-200,4,3,3,60,0,0
337196,-200,4,3,4,60,0,0
337362,-100,4,3,1,60,0,0
346779,-100,4,3,7,60,0,0
346862,-100,4,3,2,60,0,0
347029,-100,4,3,3,60,0,0
347196,-100,4,3,4,60,0,0
347362,-100,4,3,1,60,0,0
358196,-100,4,3,2,60,0,0
358362,-100,4,3,3,60,0,0
358529,-100,4,3,4,60,0,0
358696,-100,4,3,1,60,0,0
369362,-133.333333333333,4,2,1,30,0,0
369946,-133.333333333333,4,2,1,5,0,0
370029,-100,4,2,1,40,0,0
370612,-100,4,2,1,5,0,0
370696,-80,4,2,1,50,0,0
371279,-80,4,2,1,5,0,0
371363,333.333333333333,4,2,1,50,1,0
371363,-133.333333333333,4,2,1,50,0,0
374696,-100,4,2,1,50,0,0
375029,-80,4,2,1,50,0,0
375363,-133.333333333333,4,2,1,50,0,0
380696,-100,4,2,1,50,0,0
381363,-133.333333333333,4,2,1,50,0,0
384696,-200,4,2,1,50,0,0
385029,-133.333333333333,4,2,1,50,0,0
385363,-100,4,2,1,50,0,0
385696,-79.9999999999999,4,2,1,50,0,0
386029,-133.333333333333,4,2,1,50,0,0
387363,-133.333333333333,4,2,1,50,0,0
389696,-200,4,2,1,50,0,0
390029,-100,4,3,1,40,0,0
390696,-100,4,3,1,50,0,0
391363,-100,4,3,1,60,0,0
394029,-80,4,3,1,70,0,1
414696,-79.9999999999999,4,3,1,60,0,0
415362,-80,4,3,1,60,0,0
426029,-80,4,3,1,70,0,0
435362,-80,4,3,1,40,0,0
435696,-80,4,3,1,50,0,0
436696,-79.9999999999999,4,3,1,70,0,1
457362,-79.9999999999999,4,3,2,50,0,1
457474,-79.9999999999999,4,3,2,5,0,1
457585,-79.9999999999999,4,3,3,50,0,1
457696,-79.9999999999999,4,3,3,5,0,1
457807,-79.9999999999999,4,3,4,50,0,1
457918,-79.9999999999999,4,3,4,5,0,1
458029,-100,4,3,1,60,0,0
460362,-200,4,3,1,60,0,0
460612,-200,4,3,1,5,0,0
460696,-133.333333333333,4,3,1,60,0,0
461029,-133.333333333333,4,3,1,5,0,0
461140,-100,4,3,1,60,0,0
461474,-100,4,3,1,5,0,0
461585,-66.6666666666667,4,3,1,60,0,0
461918,-100,4,3,1,60,0,0
462029,-100,4,3,1,60,0,1
462140,372.670807453416,4,3,1,60,1,1
462389,372.670807453416,4,3,1,60,1,1
462451,-133.333333333333,4,3,1,60,0,1
462668,346.820809248555,4,3,1,60,1,0
462668,-66.6666666666667,4,3,1,60,0,0
463188,-100,4,3,1,60,0,0
463362,333.333333333333,4,3,1,60,1,0
463362,-1000,4,3,1,60,0,0
463445,-1000,4,3,1,5,0,0
468028,-66.6666666666667,4,3,1,50,0,0
468112,-66.6666666666667,4,3,1,5,0,0
468195,-200,4,3,1,50,0,0
468445,-200,4,3,1,5,0,0
468528,-200,4,3,1,50,0,0
468695,500,4,3,1,60,1,0
468695,-133.333333333333,4,3,1,60,0,0
468945,-133.333333333333,4,3,1,5,0,0
469195,-133.333333333333,4,3,1,60,0,0
469445,-133.333333333333,4,3,1,5,0,0
469695,-133.333333333333,4,3,1,60,0,0
469945,-133.333333333333,4,3,1,5,0,0
470195,-133.333333333333,4,3,1,60,0,0
470445,-133.333333333333,4,3,1,5,0,0
470695,-133.333333333333,4,3,1,60,0,0
470945,-133.333333333333,4,3,1,5,0,0
471195,-133.333333333333,4,3,1,60,0,0
471445,-133.333333333333,4,3,1,5,0,0
471695,-133.333333333333,4,3,1,60,0,0
471945,-133.333333333333,4,3,1,5,0,0
472195,-133.333333333333,4,3,1,60,0,0
472445,-133.333333333333,4,3,1,5,0,0
472695,-133.333333333333,4,3,1,60,0,0
472945,-133.333333333333,4,3,1,5,0,0
473195,-133.333333333333,4,3,1,60,0,0
473445,-133.333333333333,4,3,1,5,0,0
473528,-44.4444444444445,4,3,1,60,0,0
473778,-44.4444444444445,4,3,1,5,0,0
473861,-44.4444444444445,4,3,1,60,0,0
473945,-44.4444444444445,4,3,1,5,0,0
474028,500,4,3,1,60,1,0
474028,-133.333333333333,4,3,1,60,0,0
474278,-133.333333333333,4,3,1,5,0,0
474528,-133.333333333333,4,3,1,60,0,0
474778,-133.333333333333,4,3,1,5,0,0
475028,-133.333333333333,4,3,1,60,0,0
475278,-133.333333333333,4,3,1,5,0,0
475528,-133.333333333333,4,3,1,60,0,0
475778,-133.333333333333,4,3,1,5,0,0
476028,-133.333333333333,4,3,1,60,0,0
476278,-133.333333333333,4,3,1,5,0,0
476528,-133.333333333333,4,3,1,60,0,0
476778,-133.333333333333,4,3,1,5,0,0
477028,-133.333333333333,4,3,1,60,0,0
477278,-133.333333333333,4,3,1,5,0,0
477528,-133.333333333333,4,3,1,60,0,0
477778,-133.333333333333,4,3,1,5,0,0
478028,-133.333333333333,4,3,1,60,0,0
478278,-133.333333333333,4,3,1,5,0,0
478528,-133.333333333333,4,3,1,60,0,0
478778,-133.333333333333,4,3,1,5,0,0
478861,-133.333333333333,4,3,1,60,0,0
479028,-200,4,3,1,60,0,0
479277,-200,4,3,1,5,0,0
479361,333.333333333333,4,3,1,60,1,0
479361,-133.333333333333,4,3,1,60,0,0
489361,-100,4,3,1,60,0,0
500362,327.868852459016,4,3,1,60,1,0
500362,-80,4,3,1,60,0,0
500607,-80,4,3,1,5,0,0
500690,340.909090909091,4,3,1,60,1,0
501371,344.827586206897,4,3,1,60,1,0
502060,344.036697247706,4,3,1,60,1,0
503436,545.454545454546,4,3,1,60,1,0
503981,436.363636363636,4,3,1,60,1,0
504417,410.958904109589,4,3,1,60,1,0
504827,375,4,3,1,60,1,0
505202,285.714285714286,4,3,1,60,1,0
505487,250,4,3,1,60,1,0
505986,215.827338129496,4,3,1,60,1,0
506201,331.491712707182,4,3,1,60,1,0
506698,312.5,4,3,1,60,1,0
507166,285.714285714286,4,3,1,60,1,0
507594,278.099652375435,4,3,1,60,1,0
507872,333.333333333333,4,3,1,60,1,0
508205,272.727272727273,4,3,1,60,1,0
508205,-100,4,3,1,60,0,1
509295,279.06976744186,4,3,1,60,1,1
509853,-100,4,3,1,60,0,0
510271,285.714285714286,4,3,1,60,1,0
510703,293.398533007335,4,3,1,60,1,0
511163,333.333333333333,4,3,1,60,1,0
511662,236.220472440945,4,3,1,60,1,0
512134,269.058295964126,4,3,1,60,1,0
512672,361.44578313253,4,3,1,60,1,0
513035,413.793103448276,4,3,1,60,1,0
513448,431.654676258993,4,3,1,60,1,0
513879,558.139534883721,4,3,1,60,1,0
514437,685.714285714286,4,3,1,60,1,0
515122,681.818181818182,4,3,1,60,1,0
515803,674.157303370787,4,3,1,60,1,0
516477,697.674418604651,4,3,1,60,1,0
517174,666.666666666667,4,3,1,60,1,0
517174,-500,4,3,1,50,0,0
517840,-500,4,3,1,45,0,0
518507,-500,4,3,1,40,0,0
519174,-500,4,3,1,35,0,0
519840,-500,4,3,1,30,0,0
520507,-500,4,3,1,25,0,0
521174,-500,4,3,1,20,0,0
521840,-500,4,3,1,15,0,0
522507,-500,4,3,1,10,0,0
523174,-500,4,3,1,5,0,0
535840,-500,4,3,2,5,0,0

[Colours]
Combo1 : 94,94,255
Combo2 : 174,0,0
Combo3 : 0,106,236
Combo4 : 255,102,28

[HitObjects]
34,339,2030,6,0,L|41:304,3,29.9999990844727,0|0|0|0,0:0|0:0|0:0|0:0,0:0:0:0:
140,361,2696,2,0,L|133:326,3,29.9999990844727,0|0|0|0,0:0|0:0|0:0|0:0,0:0:0:0:
220,313,3363,2,0,L|225:272,1,29.9999990844727,0|0,0:0|0:0,0:0:0:0:
152,229,3696,2,0,L|145:186,1,29.9999990844727,0|0,0:0|0:0,0:0:0:0:
238,175,4030,2,0,L|243:134,1,29.9999990844727,0|0,0:0|0:0,0:0:0:0:
170,91,4363,2,0,L|163:48,1,29.9999990844727,0|0,0:0|0:0,0:0:0:0:
266,53,4696,6,0,B|289:48|338:65|383:91|456:77|456:77|435:83|425:93|425:93|399:115|373:107,1,262.500010013581,2|0,0:0|0:0,0:0:0:0:
331,140,5363,2,0,B|327:133|301:155|301:155|291:165|270:171|270:171|343:157|388:183|437:200|460:195,1,262.500010013581,2|0,0:0|0:0,0:0:0:0:
463,269,6030,6,0,B|417:269|356:249|356:249|295:229|241:241|200:267|201:339|251:369,1,350,2|0,0:0|0:0,0:0:0:0:
267,364,6696,2,0,B|311:339|312:267|271:241|217:229|156:249|156:249|95:269|49:269,1,350,2|0,0:0|0:0,0:0:0:0:
54,192,7363,5,2,3:2:0:0:
88,128,7530,1,0,0:0:0:0:
163,118,7696,1,2,0:0:0:0:
197,53,7863,1,2,0:0:0:0:
312,50,8196,5,2,0:0:0:0:
380,79,8363,1,2,0:0:0:0:
376,151,8530,1,2,0:0:0:0:
431,261,8696,5,2,0:0:0:0:
369,224,8863,1,0,0:0:0:0:
300,252,9030,1,2,0:0:0:0:
237,212,9196,1,2,0:0:0:0:
145,300,9530,5,2,0:0:0:0:
223,298,9696,1,2,0:0:0:0:
257,365,9863,1,2,0:0:0:0:
340,360,10030,6,0,P|387:334|417:304,1,75.0000028610231,2|0,0:0|0:0,0:0:0:0:
466,226,10363,2,0,P|401:202|367:204,1,75.0000028610231,2|0,0:0|0:0,0:0:0:0:
329,106,10696,2,0,P|298:131|270:182,1,75.0000028610231,2|0,0:0|0:0,0:0:0:0:
156,205,11030,2,0,P|194:232|243:247,1,75.0000028610231,2|0,0:0|0:0,0:0:0:0:
405,289,11363,5,2,0:0:0:0:
333,288,11530,1,0,0:0:0:0:
329,361,11696,1,2,0:0:0:0:
404,362,11863,1,2,0:0:0:0:
473,96,12196,5,2,0:0:0:0:
504,165,12363,1,2,0:0:0:0:
472,235,12530,1,2,0:0:0:0:
469,105,12696,5,2,0:0:0:0:
397,129,12863,1,0,0:0:0:0:
325,117,13030,1,2,0:0:0:0:
281,61,13196,1,2,0:0:0:0:
172,190,13530,5,2,0:0:0:0:
91,190,13696,1,2,0:0:0:0:
54,119,13863,1,2,0:0:0:0:
155,17,14030,6,0,P|189:57|205:90,1,75.0000028610231,2|0,0:0|0:0,0:0:0:0:
382,126,14363,2,0,P|337:144|293:171,1,75.0000028610231,2|0,0:0|0:0,0:0:0:0:
197,279,14696,2,0,P|212:229|211:178,1,75.0000028610231,2|0,0:0|0:0,0:0:0:0:
300,383,15030,1,2,0:0:0:0:
278,311,15196,1,2,0:0:0:0:
177,372,15363,5,2,0:0:0:0:
102,359,15530,1,2,0:0:0:0:
47,306,15696,1,0,0:0:0:0:
37,233,15863,1,2,0:0:0:0:
155,72,16196,2,0,L|306:74,1,150.000005722046
427,22,16696,5,2,0:0:0:0:
458,87,16863,1,0,0:0:0:0:
446,162,17030,1,0,0:0:0:0:
392,215,17196,1,0,0:0:0:0:
401,304,17363,5,2,0:0:0:0:
290,270,17530,1,2,0:0:0:0:
210,295,17696,1,2,0:0:0:0:
145,267,17863,1,2,0:0:0:0:
27,232,18030,6,0,P|67:212|104:204,1,75.0000028610231,6|2,0:0|0:0,0:0:0:0:
269,126,18363,2,0,P|231:150|199:190,1,75.0000028610231,2|0,0:0|0:0,0:0:0:0:
37,71,18696,2,0,P|70:115|160:85,1,150.000005722046,2|0,0:0|0:0,0:0:0:0:
360,29,19196,6,0,P|377:69|403:174,1,150.000005722046,2|2,0:0|0:0,0:0:0:0:
503,33,19696,2,0,P|480:77|468:118,1,75.0000028610231,2|0,0:0|0:0,0:0:0:0:
282,223,20030,2,0,P|294:165|317:89,2,112.500004291535,2|2|2,0:0|0:0|0:0,0:0:0:0:
177,327,20696,6,0,P|125:294|81:284,1,75.0000028610231,2|0,0:0|0:0,0:0:0:0:
327,316,21030,2,0,P|372:275|413:257,1,75.0000028610231,2|0,0:0|0:0,0:0:0:0:
166,180,21363,2,0,P|116:193|71:201,1,75.0000028610231,2|0,0:0|0:0,0:0:0:0:
365,188,21696,2,0,P|428:196|467:207,1,75.0000028610231,2|0,0:0|0:0,0:0:0:0:
215,24,22030,5,2,0:0:0:0:
264,86,22196,1,0,0:0:0:0:
234,157,22363,1,2,0:0:0:0:
266,227,22530,1,2,0:0:0:0:
118,355,22863,5,0,0:0:0:0:
115,346,23030,1,0,0:0:0:0:
117,335,23196,1,0,0:0:0:0:
248,360,23363,5,2,0:0:0:0:
318,356,23530,1,2,0:0:0:0:
389,355,23696,1,2,0:0:0:0:
72,130,24030,1,2,0:0:0:0:
451,47,24530,5,2,0:0:0:0:
227,74,24863,1,2,0:0:0:0:
290,110,25030,1,2,0:0:0:0:
357,140,25196,1,2,0:0:0:0:
267,326,25696,1,2,0:0:0:0:
6,350,26030,6,0,L|284:325,1,262.500010013581,2|0,0:0|0:0,0:0:0:0:
337,291,26696,6,0,L|22:262,1,300.000011444092,2|2,0:0|0:0,0:0:0:0:
256,192,27446,12,0,29030,0:0:0:0:
405,244,29196,6,2,B|389:228|389:228|272:223,1,112.500004291535,0|0,0:1|0:1,0:1:0:0:
303,150,29530,2,2,L|245:148,1,37.5000014305115,0|0,0:1|0:1,0:1:0:0:
358,303,29696,2,2,L|303:301,1,37.5000014305115,0|0,0:1|0:1,0:1:0:0:
420,154,29863,2,2,L|354:151,1,37.5000014305115,0|0,0:1|0:1,0:1:0:0:
168,219,30030,6,0,P|136:163|183:11,1,200,4|0,0:0|0:0,0:0:0:0:
464,130,30530,2,0,L|261:149,1,200,4|0,0:0|0:0,0:0:0:0:
369,364,31030,6,0,P|401:308|354:156,1,200,4|0,0:0|0:0,0:0:0:0:
73,275,31530,2,0,L|276:294,1,200,4|0,0:0|0:0,0:0:0:0:
152,78,32030,6,0,B|165:105|159:144|159:144|139:169|139:169|128:209|162:273,1,187.5,4|0,0:0|0:0,0:0:0:0:
70,119,32363,2,0,P|61:65|85:15,1,112.500004291535,4|0,0:2|0:0,0:0:0:0:
152,78,32696,6,0,B|209:87|209:87|242:57,2,100,4|0|0,0:0|0:0|0:0,0:0:0:0:
209,339,33196,2,0,B|188:285|188:285|148:272,2,100,4|0|0,0:0|0:0|0:0,0:0:0:0:
406,158,33696,2,0,B|370:203|370:203|379:245,2,100,4|0|0,0:0|0:0|0:0,0:0:0:0:
240,58,34196,2,0,B|209:87|209:87|152:78,1,100,4|0,0:0|0:0,0:0:0:0:
16,213,34530,2,0,L|73:202,1,50,0|0,0:0|0:0,0:0:0:0:
147,252,34696,6,0,P|160:199|142:147,1,112.500004291535,12|0,0:2|0:0,0:0:0:0:
62,299,35030,2,0,B|124:287|124:287|170:300|170:300|265:285,1,187.5,4|0,0:0|0:0,0:0:0:0:
398,266,35363,6,0,P|340:254|295:214,1,100,4|0,0:0|0:0,0:0:0:0:
461,109,35696,1,0,0:0:0:0:
245,288,35863,6,0,P|226:232|238:173,1,100,4|0,0:0|0:0,0:0:0:0:
475,206,36196,1,0,0:0:0:0:
149,166,36363,6,0,P|187:121|244:102,1,100,4|0,0:0|0:0,0:0:0:0:
398,266,36696,1,0,0:0:0:0:
206,22,36863,6,0,P|263:33|308:73,1,100,4|0,0:0|0:0,0:0:0:0:
307,230,37196,1,0,0:0:0:0:
461,109,37363,6,0,B|418:157|418:157|276:137,1,187.5,4|0,0:0|0:0,0:0:0:0:
195,247,37696,2,0,L|317:228,1,112.500004291535,4|0,0:2|0:0,0:0:0:0:
398,266,38030,5,4,0:0:0:0:
406,270,38196,1,0,0:0:0:0:
195,247,38363,1,0,0:0:0:0:
320,328,38530,5,4,0:0:0:0:
320,336,38696,1,0,0:0:0:0:
261,102,38863,1,0,0:0:0:0:
228,291,39030,5,4,0:0:0:0:
220,295,39197,1,0,0:0:0:0:
419,87,39363,1,0,0:0:0:0:
214,192,39530,5,4,0:0:0:0:
206,188,39696,1,0,0:0:0:0:
512,217,39863,1,0,0:0:0:0:
512,217,39946,1,0,0:0:0:0:
512,217,40030,6,0,P|476:183|427:176,1,100,12|0,0:2|0:0,0:0:0:0:
342,280,40280,1,0,0:0:0:0:
342,280,40363,2,0,B|362:204|317:214|342:132,1,150.000005722046,12|0,0:0|0:0,0:0:0:0:
317,39,40613,1,0,0:0:0:0:
317,39,40696,5,12,0:0:0:0:
70,231,41030,1,0,0:0:0:0:
219,299,41196,1,8,0:0:0:0:
143,188,41363,2,0,B|168:270|123:260|143:336,1,150.000005722046,0|8,0:0|0:0,0:0:0:0:
281,163,42030,5,0,0:0:0:0:
346,201,42197,1,8,0:0:0:0:
417,180,42363,1,0,0:0:0:0:
143,336,42696,2,0,B|123:260|168:270|143:188,1,150.000005722046,8|8,0:0|0:0,0:0:0:0:
317,345,43363,5,8,0:0:0:0:
442,153,43696,1,0,0:0:0:0:
293,85,43862,1,8,0:0:0:0:
369,196,44029,2,0,B|344:114|389:124|369:48,1,150.000005722046,0|8,0:0|0:0,0:0:0:0:
231,221,44696,5,0,0:0:0:0:
166,183,44863,1,8,0:0:0:0:
95,204,45029,1,0,0:0:0:0:
369,48,45362,2,0,B|389:124|344:114|369:196,1,150.000005722046,8|8,0:0|0:0,0:0:0:0:
195,39,46030,5,8,0:0:0:0:
195,39,46113,1,8,0:0:0:0:
444,157,46363,1,0,0:0:0:0:
120,166,46530,5,8,0:0:0:0:
120,166,46613,1,8,0:0:0:0:
369,48,46863,1,0,0:0:0:0:
378,312,47030,5,8,0:0:0:0:
378,312,47113,1,8,0:0:0:0:
129,194,47363,1,0,0:0:0:0:
453,185,47530,5,8,0:0:0:0:
453,185,47613,1,8,0:0:0:0:
453,185,47696,1,8,0:0:0:0:
204,303,47863,1,0,0:0:0:0:
347,44,48030,5,8,0:0:0:0:
347,44,48113,1,8,0:0:0:0:
231,230,48363,1,8,0:0:0:0:
231,230,48446,1,8,0:0:0:0:
98,38,48696,6,0,L|86:103,3,37.5000014305115,8|8|8|8,0:0|0:0|0:0|0:0,0:0:0:0:
200,147,49030,2,0,L|149:104,1,37.5000014305115,8|8,0:0|0:0,0:0:0:0:
54,180,49196,2,0,L|116:157,1,37.5000014305115,8|8,0:0|0:0,0:0:0:0:
196,33,49363,5,8,0:0:0:0:
225,10,49446,1,8,0:0:0:0:
261,2,49529,1,8,0:0:0:0:
297,12,49613,1,8,0:0:0:0:
326,36,49696,1,8,0:0:0:0:
340,70,49779,1,8,0:0:0:0:
339,107,49863,1,8,0:0:0:0:
321,139,49946,1,8,0:0:0:0:
290,161,50029,5,8,0:0:0:0:
276,214,50113,1,8,0:0:0:0:
292,267,50196,1,8,0:0:0:0:
334,304,50280,1,8,0:0:0:0:
389,311,50363,1,8,0:0:0:0:
439,288,50446,1,8,0:0:0:0:
470,242,50530,1,8,0:0:0:0:
470,186,50613,1,8,0:0:0:0:
441,139,50696,6,0,L|437:184,1,37.5000014305115,4|0,0:2|0:0,0:0:0:0:
334,304,50863,1,8,0:0:0:0:
337,310,50946,1,8,0:0:0:0:
339,317,51030,2,0,L|335:279,1,37.5000014305115,12|8,0:2|0:0,0:0:0:0:
215,170,51196,2,0,L|213:141,2,25.0000009536744,0|0|0,0:0|0:0|0:0,0:0:0:0:
202,192,51363,5,0,0:0:0:0:
172,214,51446,1,0,0:0:0:0:
135,216,51529,1,0,0:0:0:0:
103,198,51613,1,0,0:0:0:0:
64,130,51696,6,0,B|71:213|71:213|52:255|52:255|60:342,1,200,12|0,0:1|0:0,0:0:0:0:
138,43,52196,1,8,0:0:0:0:
320,209,52530,1,0,0:0:0:0:
327,210,52613,1,0,0:0:0:0:
333,212,52696,5,0,0:0:0:0:
354,199,52808,2,0,L|351:234,2,25.0000009536744,0|0|0,0:0|0:0|0:0,0:0:0:0:
406,146,53030,2,0,L|415:77,1,50.0000019073487,0|0,0:0|0:0,0:0:0:0:
374,32,53252,1,0,0:0:0:0:
304,60,53363,5,0,0:0:0:0:
281,48,53474,2,0,L|284:13,2,25.0000009536744,0|0|0,0:0|0:0|0:0,0:0:0:0:
223,95,53696,2,0,L|158:99,1,50.0000019073487,0|0,0:0|0:0,0:0:0:0:
105,64,53919,1,0,0:0:0:0:
41,103,54030,6,0,P|22:167|56:244,1,150,4|0,0:1|0:0,0:0:0:0:
143,251,54363,2,0,L|148:223,2,25.0000009536744,0|0|0,0:0|0:0|0:0,0:0:0:0:
165,262,54530,2,0,L|173:311,1,37.5000014305115,0|0,0:0|0:0,0:0:0:0:
264,178,54696,5,0,0:0:0:0:
270,173,54780,1,0,0:0:0:0:
276,168,54863,2,0,L|281:196,2,25.0000009536744,0|0|0,0:0|0:0|0:0,0:0:0:0:
298,157,55030,2,0,L|306:107,1,37.5000014305115,0|0,0:0|0:0,0:0:0:0:
394,251,55196,1,0,0:0:0:0:
412,255,55279,1,0,0:0:0:0:
430,260,55362,5,8,0:0:0:0:
271,305,55530,1,8,0:0:0:0:
257,318,55613,1,8,0:0:0:0:
298,157,55780,1,8,0:0:0:0:
293,138,55863,1,8,0:0:0:0:
394,251,56030,1,8,0:0:0:0:
412,255,56113,1,8,0:0:0:0:
430,260,56196,5,4,0:0:0:0:
395,275,56279,1,4,0:0:0:0:
359,277,56362,1,4,0:0:0:0:
326,260,56446,1,4,0:0:0:0:
293,241,56529,1,4,0:0:0:0:
256,237,56612,1,4,0:0:0:0:
220,245,56696,6,0,L|214:305,3,50,6|0|0|0,0:0|0:0|0:0|0:0,0:0:0:0:
129,172,57030,1,10,0:0:0:0:
107,183,57196,6,0,L|57:176,3,50,0|0|2|0,0:0|0:0|0:0|0:0,0:0:0:0:
180,92,57530,1,8,0:0:0:0:
169,69,57696,6,0,L|175:19,3,50,2|0|0|0,0:0|0:0|0:0|0:0,0:0:0:0:
260,143,58030,2,0,B|284:147|284:147|312:139,1,50,10|0,0:0|0:0,0:0:0:0:
391,208,58196,2,0,B|415:200|415:200|439:204,3,50,0|0|2|0,0:0|0:0|0:0|0:0,0:0:0:0:
304,299,58530,1,8,0:0:0:0:
322,316,58696,6,0,B|330:340|330:340|326:364,3,50,2|0|0|0,0:0|0:0|0:0|0:0,0:0:0:0:
231,229,59030,1,10,0:0:0:0:
214,247,59196,6,0,B|190:255|190:255|166:251,1,50,0|0,0:0|0:0,0:0:0:0:
87,169,59363,2,0,B|63:161|63:161|39:165,3,50,4|0|0|0,0:0|0:0|0:0|0:0,0:0:0:0:
204,127,59696,1,10,0:0:0:0:
219,107,59863,6,0,L|229:43,3,50,0|0|2|0,0:0|0:0|0:0|0:0,0:0:0:0:
294,240,60196,1,8,0:0:0:0:
309,260,60363,6,0,L|319:324,3,50,2|0|0|0,0:0|0:0|0:0|0:0,0:0:0:0:
384,127,60696,1,10,0:0:0:0:
399,107,60863,6,0,L|409:43,3,50,0|0|2|0,0:0|0:0|0:0|0:0,0:0:0:0:
474,240,61196,1,8,0:0:0:0:
485,259,61363,6,0,L|423:247,1,50,2|0,0:0|0:0,0:0:0:0:
316,309,61530,2,0,L|254:297,1,50,0|0,0:0|0:0,0:0:0:0:
142,218,61696,1,8,0:0:0:0:
147,265,61779,1,8,0:0:0:0:
110,296,61862,1,8,0:0:0:0:
64,283,61946,1,8,0:0:0:0:
50,239,62030,6,0,L|55:167,1,50,4|0,0:0|0:0,0:0:0:0:
141,101,62196,2,0,L|213:83,1,50,0|0,0:0|0:0,0:0:0:0:
288,152,62363,1,10,0:0:0:0:
34,260,62530,6,0,L|39:188,1,50,0|0,0:0|0:0,0:0:0:0:
125,122,62696,2,0,L|197:104,1,50,2|0,0:0|0:0,0:0:0:0:
272,173,62863,1,8,0:0:0:0:
18,281,63030,6,0,L|23:209,1,50,2|0,0:0|0:0,0:0:0:0:
125,122,63196,1,0,0:0:0:0:
132,115,63280,1,0,0:0:0:0:
140,109,63363,2,0,L|143:158,1,50,10|0,0:0|0:0,0:0:0:0:
231,285,63530,5,0,0:0:0:0:
262,304,63613,1,0,0:0:0:0:
299,308,63696,1,2,0:0:0:0:
335,297,63780,1,0,0:0:0:0:
363,272,63863,1,8,0:0:0:0:
378,98,64030,6,0,B|368:123|368:123|370:162,1,50,2|0,0:0|0:0,0:0:0:0:
476,212,64196,2,0,B|486:237|486:237|484:276,1,50,0|0,0:0|0:0,0:0:0:0:
399,368,64364,1,10,0:0:0:0:
414,76,64530,5,0,0:0:0:0:
404,79,64613,1,0,0:0:0:0:
394,81,64697,2,0,B|384:106|384:106|386:145,1,50,4|0,0:0|0:0,0:0:0:0:
492,195,64863,2,0,B|502:220|502:220|500:259,1,50,0|0,0:0|0:0,0:0:0:0:
415,351,65031,1,10,0:0:0:0:
69,258,65196,6,0,L|118:251,1,50,0|0,0:0|0:0,0:0:0:0:
217,230,65363,2,0,L|266:223,1,50,2|0,0:0|0:0,0:0:0:0:
364,204,65530,1,8,0:0:0:0:
85,272,65696,6,0,L|134:265,1,50,2|0,0:0|0:0,0:0:0:0:
233,244,65863,2,0,L|282:237,1,50,0|0,0:0|0:0,0:0:0:0:
380,218,66030,6,0,P|419:158|380:76,1,150.000005722046,8|0,0:0|0:0,0:0:0:0:
301,54,66280,2,0,B|260:76|260:76|133:60,1,150.000005722046,8|0,0:0|0:0,0:0:0:0:
65,20,66530,2,0,B|54:52|54:52|61:107,1,75.0000028610231,8|0,0:0|0:0,0:0:0:0:
118,250,66696,5,8,0:0:0:0:
147,210,66779,1,8,0:0:0:0:
194,195,66862,1,8,0:0:0:0:
241,208,66945,1,8,0:0:0:0:
272,247,67029,5,4,0:0:0:0:
288,266,67113,1,4,0:0:0:0:
310,276,67196,1,4,0:0:0:0:
335,276,67279,1,4,0:0:0:0:
358,265,67363,6,0,L|365:209,1,50,4|0,0:0|0:0,0:0:0:0:
237,62,67530,1,0,0:0:0:0:
244,99,67613,1,0,0:0:0:0:
251,136,67696,1,10,0:0:0:0:
430,312,67863,6,0,L|437:256,1,50
258,173,68029,1,2,0:0:0:0:
265,210,68112,1,0,0:0:0:0:
272,247,68195,1,8,0:0:0:0:
502,359,68363,6,0,L|509:303,1,50,2|0,0:0|0:0,0:0:0:0:
279,284,68530,1,0,0:0:0:0:
286,321,68613,1,0,0:0:0:0:
293,358,68696,2,0,L|300:302,1,50,10|0,0:0|0:0,0:0:0:0:
146,231,68863,5,0,0:0:0:0:
121,258,68947,1,0,0:0:0:0:
112,295,69030,1,2,0:0:0:0:
123,329,69113,1,0,0:0:0:0:
151,355,69196,1,8,0:0:0:0:
378,214,69363,6,0,L|313:227,1,50,2|0,0:0|0:0,0:0:0:0:
188,161,69530,1,0,0:0:0:0:
152,151,69613,1,0,0:0:0:0:
115,160,69696,1,10,0:0:0:0:
358,200,69863,6,0,L|293:213,1,50,0|0,0:0|0:0,0:0:0:0:
275,71,70030,2,0,L|210:58,1,50,4|0,0:0|0:0,0:0:0:0:
115,160,70196,1,0,0:0:0:0:
79,170,70279,1,0,0:0:0:0:
42,161,70362,1,10,0:0:0:0:
75,34,70530,6,0,P|79:59|77:84,1,50,0|0,0:0|0:0,0:0:0:0:
164,234,70696,1,2,0:0:0:0:
154,270,70779,1,0,0:0:0:0:
128,297,70862,1,8,0:0:0:0:
331,170,71030,6,0,P|307:161|287:146,1,50,2|0,0:0|0:0,0:0:0:0:
113,147,71196,1,0,0:0:0:0:
87,120,71279,1,0,0:0:0:0:
77,84,71362,1,10,0:0:0:0:
86,324,71530,6,0,P|105:308|127:297,1,50,0|0,0:0|0:0,0:0:0:0:
214,146,71696,1,2,0:0:0:0:
251,137,71779,1,0,0:0:0:0:
287,146,71862,1,8,0:0:0:0:
287,348,72030,6,0,P|278:324|275:299,1,50,2|0,0:0|0:0,0:0:0:0:
378,146,72196,2,0,P|374:170|366:194,1,50,0|0,0:0|0:0,0:0:0:0:
287,348,72363,1,8,0:0:0:0:
325,316,72446,1,8,0:0:0:0:
374,307,72529,1,8,0:0:0:0:
421,324,72612,1,8,0:0:0:0:
453,361,72696,5,4,0:0:0:0:
456,323,72779,1,0,0:0:0:0:
459,286,72862,1,0,0:0:0:0:
463,248,72945,1,0,0:0:0:0:
466,211,73029,1,10,0:0:0:0:
474,345,73196,5,0,0:0:0:0:
477,307,73279,1,0,0:0:0:0:
480,270,73363,1,2,0:0:0:0:
484,232,73445,1,0,0:0:0:0:
487,195,73529,1,8,0:0:0:0:
431,38,73696,5,2,0:0:0:0:
423,73,73779,1,0,0:0:0:0:
397,99,73862,1,0,0:0:0:0:
360,105,73945,1,0,0:0:0:0:
327,88,74030,2,0,L|278:84,1,50,10|0,0:0|0:0,0:0:0:0:
136,33,74196,5,0,0:0:0:0:
139,70,74279,1,0,0:0:0:0:
142,107,74362,1,2,0:0:0:0:
146,145,74445,1,0,0:0:0:0:
149,182,74530,1,8,0:0:0:0:
157,49,74696,5,2,0:0:0:0:
160,87,74779,1,0,0:0:0:0:
163,124,74862,1,0,0:0:0:0:
167,162,74945,1,0,0:0:0:0:
170,199,75030,1,10,0:0:0:0:
20,322,75196,2,0,P|53:316|82:320,1,50
215,281,75363,5,4,0:0:0:0:
243,255,75447,1,0,0:0:0:0:
259,222,75530,1,0,0:0:0:0:
262,186,75613,1,0,0:0:0:0:
248,150,75696,1,10,0:0:0:0:
77,198,75863,5,0,0:0:0:0:
85,235,75947,1,0,0:0:0:0:
105,266,76030,1,2,0:0:0:0:
135,286,76113,1,0,0:0:0:0:
173,292,76196,1,8,0:0:0:0:
219,120,76363,5,2,0:0:0:0:
183,108,76447,1,0,0:0:0:0:
146,110,76530,1,0,0:0:0:0:
113,126,76613,1,0,0:0:0:0:
89,155,76696,6,0,L|41:161,2,33.3333333333333,8|0|0,0:0|0:0|0:0,0:0:0:0:
170,199,76863,1,0,0:0:0:0:
178,203,76946,1,0,0:0:0:0:
187,207,77030,2,0,L|235:212,2,33.3333333333333,0|0|0,0:0|0:0|0:0,0:0:0:0:
101,260,77197,1,0,0:0:0:0:
93,264,77280,1,0,0:0:0:0:
85,268,77363,5,8,0:0:0:0:
102,314,77446,1,8,0:0:0:0:
141,345,77529,1,8,0:0:0:0:
189,354,77612,1,8,0:0:0:0:
236,337,77696,1,8,0:0:0:0:
272,304,77781,1,8,0:0:0:0:
321,295,77864,1,8,0:0:0:0:
368,310,77947,1,8,0:0:0:0:
401,347,78030,5,2,0:0:0:0:
321,295,78196,1,2,0:0:0:0:
345,202,78363,1,2,0:0:0:0:
440,197,78530,1,2,0:0:0:0:
492,287,78697,5,4,0:0:0:0:
479,284,78780,1,0,0:0:0:0:
467,282,78863,1,0,0:0:0:0:
455,279,78946,1,0,0:0:0:0:
443,278,79030,2,0,L|406:378,1,100,10|0,0:0|0:0,0:0:0:0:
183,186,79363,2,0,L|222:296,1,100,10|0,0:0|0:0,0:0:0:0:
424,120,79697,1,10,0:0:0:0:
298,49,79863,1,0,0:0:0:0:
114,106,80030,5,10,0:0:0:0:
101,109,80113,1,0,0:0:0:0:
89,111,80196,1,0,0:0:0:0:
77,114,80279,1,0,0:0:0:0:
67,117,80363,1,10,0:0:0:0:
285,174,80530,2,0,L|401:198,1,100,0|10,0:0|0:0,0:0:0:0:
105,265,80863,2,0,L|0:290,1,100,0|12,0:0|0:0,0:0:0:0:
244,345,81197,1,0,0:0:0:0:
389,308,81363,5,4,0:0:0:0:
401,309,81446,1,0,0:0:0:0:
413,311,81529,1,0,0:0:0:0:
426,312,81612,1,0,0:0:0:0:
438,314,81697,1,2,0:0:0:0:
264,266,81863,5,0,0:0:0:0:
276,264,81946,1,0,0:0:0:0:
288,262,82029,1,10,0:0:0:0:
301,261,82112,1,0,0:0:0:0:
313,259,82196,1,0,0:0:0:0:
400,224,82363,6,0,L|467:221,1,50,2|0,0:0|0:0,0:0:0:0:
273,356,82530,2,0,L|352:367,1,50,0|0,0:0|0:0,0:0:0:0:
169,240,82697,1,2,0:0:0:0:
402,315,82863,6,0,L|470:322,1,50
259,248,83030,2,0,L|316:239,1,50,2|0,0:0|0:0,0:0:0:0:
165,349,83197,1,0,0:0:0:0:
40,274,83363,5,8,0:0:0:0:
24,227,83447,1,8,0:0:0:0:
40,177,83530,1,8,0:0:0:0:
83,144,83613,1,8,0:0:0:0:
136,144,83697,1,4,0:0:0:0:
174,161,83780,1,4,0:0:0:0:
210,169,83863,1,4,0:0:0:0:
241,161,83947,1,4,0:0:0:0:
262,141,84030,6,0,L|273:81,3,50,4|0|0|0,0:0|0:0|0:0|0:0,0:0:0:0:
203,32,84363,1,10,0:0:0:0:
326,202,84530,1,0,0:0:0:0:
372,33,84697,2,0,L|488:22,1,100,10|0,0:0|0:0,0:0:0:0:
509,161,85030,5,10,0:0:0:0:
427,246,85197,1,0,0:0:0:0:
424,266,85280,1,0,0:0:0:0:
422,284,85363,2,0,L|415:348,3,50,10|0|0|0,0:0|0:0|0:0|0:0,0:0:0:0:
302,363,85697,5,10,0:0:0:0:
212,307,85863,1,0,0:0:0:0:
210,298,85919,1,0,0:0:0:0:
208,289,85974,1,0,0:0:0:0:
205,280,86030,2,0,L|189:220,3,50,0|0|0|0,0:0|0:0|0:0|0:0,0:0:0:0:
128,162,86363,5,0,0:0:0:0:
124,116,86446,1,0,0:0:0:0:
115,73,86530,2,0,L|98:237,1,150,14|0,0:1|0:0,0:0:0:0:
191,215,86863,6,0,L|257:217,1,50,8|8,0:0|0:0,0:0:0:0:
299,112,87030,2,0,L|373:117,1,50,8|8,0:0|0:0,0:0:0:0:
477,216,87196,5,0,0:0:0:0:
477,216,87280,1,0,0:0:0:0:
477,216,87363,2,0,L|403:211,1,50,8|8,0:0|0:0,0:0:0:0:
362,318,87530,2,0,L|281:314,1,50,8|8,0:0|0:0,0:0:0:0:
176,367,87696,5,0,0:0:0:0:
176,367,87780,1,0,0:0:0:0:
176,367,87863,2,0,L|163:300,1,50,8|8,0:0|0:0,0:0:0:0:
56,232,88030,2,0,L|67:170,1,50,8|8,0:0|0:0,0:0:0:0:
173,98,88196,5,0,0:0:0:0:
173,98,88280,1,0,0:0:0:0:
173,98,88363,2,0,L|161:38,1,50,8|8,0:0|0:0,0:0:0:0:
291,121,88530,1,0,0:0:0:0:
285,152,88613,1,0,0:0:0:0:
278,186,88696,2,0,L|264:258,1,50,0|0,0:0|0:0,0:0:0:0:
193,105,88863,2,2,L|400:94,1,200,8|0,0:0|0:0,1:0:0:0:
457,138,89280,1,0,0:0:0:0:
454,154,89363,5,4,0:0:0:0:
426,257,89530,1,0,0:0:0:0:
148,350,89696,5,10,0:0:0:0:
173,192,89863,1,0,0:0:0:0:
79,227,90030,1,2,0:0:0:0:
304,307,90196,5,0,0:0:0:0:
279,140,90363,1,10,0:0:0:0:
434,69,90530,1,0,0:0:0:0:
162,29,90696,6,0,L|37:17,1,100,2|0,0:0|0:0,0:0:0:0:
293,3,91030,1,10,0:0:0:0:
122,129,91196,1,0,0:0:0:0:
98,126,91280,1,0,0:0:0:0:
74,123,91363,1,2,0:0:0:0:
277,257,91530,5,0,0:0:0:0:
353,172,91696,1,10,0:0:0:0:
507,191,91863,1,0,0:0:0:0:
413,310,92030,5,4,0:0:0:0:
409,329,92196,1,0,0:0:0:0:
167,175,92363,2,0,L|178:279,1,100,10|0,0:0|0:0,0:0:0:0:
188,371,92696,1,2,0:0:0:0:
29,213,92863,2,0,L|68:97,1,100,0|10,0:0|0:0,0:0:0:0:
90,33,93196,1,0,0:0:0:0:
334,152,93363,6,0,L|410:167,3,50,2|0|0|0,0:0|0:0|0:0|0:0,0:0:0:0:
483,111,93696,1,12,0:0:0:0:
471,88,94030,6,0,P|457:79|406:84,1,50,2|0,0:0|0:0,0:0:0:0:
420,255,94196,2,0,P|452:254|485:227,1,50,0|0,0:0|0:0,0:0:0:0:
338,168,94363,1,12,0:0:0:0:
236,275,94530,5,0,0:0:0:0:
233,291,94613,1,0,0:0:0:0:
231,308,94696,1,4,0:0:0:0:
145,356,94863,1,0,0:0:0:0:
67,229,95030,2,0,L|54:115,1,100,10|0,0:0|0:0,0:0:0:0:
2,299,95363,1,2,0:0:0:0:
169,179,95530,2,0,L|190:47,1,100,0|10,0:0|0:0,0:0:0:0:
97,35,95863,1,0,0:0:0:0:
291,197,96030,6,0,L|421:188,1,100,4|0,0:0|0:0,0:0:0:0:
481,179,96363,1,10,0:0:0:0:
314,17,96530,2,0,L|335:119,1,100,0|2,0:0|0:0,0:0:0:0:
365,284,96863,1,0,0:0:0:0:
370,308,96946,1,0,0:0:0:0:
374,329,97030,1,12,0:0:0:0:
466,284,97196,1,0,0:0:0:0:
252,329,97363,5,0,0:0:0:0:
227,334,97446,1,0,0:0:0:0:
203,339,97529,1,0,0:0:0:0:
178,344,97612,1,0,0:0:0:0:
154,349,97696,1,12,0:0:0:0:
44,281,97863,1,0,0:0:0:0:
94,78,98030,1,12,0:0:0:0:
183,180,98196,5,0,0:0:0:0:
104,180,98363,1,0,0:0:0:0:
30,180,98530,1,0,0:0:0:0:
18,167,98863,6,0,L|15:101,1,50,0|0,0:0|0:0,0:0:0:0:
11,26,99030,1,12,0:0:0:0:
268,186,99196,2,0,L|283:115,1,50,0|0,0:0|0:0,0:0:0:0:
310,4,99363,1,12,0:0:0:0:
148,167,99530,5,0,0:0:0:0:
153,239,99696,1,0,0:0:0:0:
158,310,99863,2,0,L|165:373,1,50,0|0,0:0|0:0,0:0:0:0:
402,384,100030,5,12,0:0:0:0:
440,277,100196,1,0,0:0:0:0:
445,258,100280,1,0,0:0:0:0:
451,240,100363,1,10,0:0:0:0:
310,160,100530,1,0,0:0:0:0:
333,19,100696,1,10,0:0:0:0:
139,73,100863,5,0,0:0:0:0:
144,104,100946,1,0,0:0:0:0:
150,134,101030,1,10,0:0:0:0:
155,163,101113,1,0,0:0:0:0:
160,191,101196,1,0,0:0:0:0:
59,237,101363,5,10,0:0:0:0:
179,315,101530,1,0,0:0:0:0:
173,339,101613,1,0,0:0:0:0:
167,363,101696,1,10,0:0:0:0:
329,294,101863,1,0,0:0:0:0:
321,256,101946,1,0,0:0:0:0:
312,215,102030,6,0,L|287:369,1,150,12|0,0:0|0:0,0:0:0:0:
310,380,102363,1,10,0:0:0:0:
436,327,102530,2,0,L|417:243,1,50,0|0,0:0|0:0,0:0:0:0:
406,151,102696,5,12,0:0:0:0:
235,82,102946,1,0,0:0:0:0:
227,47,103030,1,10,0:0:0:0:
361,14,103196,1,0,0:0:0:0:
292,176,103363,1,10,0:0:0:0:
98,168,103530,1,0,0:0:0:0:
104,137,103613,1,0,0:0:0:0:
110,104,103696,1,10,0:0:0:0:
198,266,103863,5,0,0:0:0:0:
237,279,103946,1,0,0:0:0:0:
276,295,104030,1,10,0:0:0:0:
388,245,104196,2,0,L|455:223,1,50,0|0,0:0|0:0,0:0:0:0:
512,201,104363,1,10,0:0:0:0:
378,115,104530,2,0,L|311:86,1,50,0|0,0:0|0:0,0:0:0:0:
223,72,104696,5,10,0:0:0:0:
216,96,104779,1,0,0:0:0:0:
209,120,104862,1,0,0:0:0:0:
203,144,104945,1,0,0:0:0:0:
196,168,105030,1,12,0:0:0:0:
87,251,105196,5,0,0:0:0:0:
91,275,105279,1,0,0:0:0:0:
96,300,105363,1,12,0:0:0:0:
205,365,105530,5,0,0:0:0:0:
207,356,105585,1,0,0:0:0:0:
209,348,105641,1,0,0:0:0:0:
211,340,105696,1,10,0:0:0:0:
302,318,105863,1,0,0:0:0:0:
232,246,106030,1,10,0:0:0:0:
348,222,106196,5,0,0:0:0:0:
345,197,106279,1,0,0:0:0:0:
342,172,106362,1,10,0:0:0:0:
339,147,106445,1,0,0:0:0:0:
336,122,106529,1,0,0:0:0:0:
471,36,106696,5,10,0:0:0:0:
501,133,106863,1,0,0:0:0:0:
495,157,106946,1,0,0:0:0:0:
489,181,107029,1,10,0:0:0:0:
423,262,107196,2,0,L|432:328,1,50,0|0,0:0|0:0,0:0:0:0:
496,344,107363,6,0,L|326:308,1,150,14|0,0:0|0:0,0:0:0:0:
324,334,107696,1,10,0:0:0:0:
190,288,107863,5,0,0:0:0:0:
188,264,107946,1,0,0:0:0:0:
185,239,108030,1,12,0:0:0:0:
67,114,108280,1,0,0:0:0:0:
70,93,108363,1,10,0:0:0:0:
195,126,108530,1,0,0:0:0:0:
62,219,108696,1,10,0:0:0:0:
283,206,108863,5,0,0:0:0:0:
307,208,108946,1,0,0:0:0:0:
332,211,109029,1,10,0:0:0:0:
386,136,109196,5,0,0:0:0:0:
425,126,109280,1,0,0:0:0:0:
464,117,109363,2,0,L|472:42,1,50,12|0,0:0|0:0,0:0:0:0:
320,70,109530,2,0,L|312:12,1,50,0|0,0:0|0:0,0:0:0:0:
400,17,109696,1,8,0:0:0:0:
224,6,109863,2,0,L|215:65,1,50,0|0,0:0|0:0,0:0:0:0:
197,138,110030,5,8,0:0:0:0:
160,146,110113,1,8,0:0:0:0:
123,154,110196,1,8,0:0:0:0:
87,163,110279,1,8,0:0:0:0:
50,171,110363,5,0,0:0:0:0:
49,184,110419,1,0,0:0:0:0:
48,194,110474,1,0,0:0:0:0:
46,205,110530,2,0,L|36:271,1,50,0|0,0:0|0:0,0:0:0:0:
26,326,110696,6,0,L|144:341,1,100,12|0,0:0|0:0,0:0:0:0:
128,349,110946,1,0,0:0:0:0:
131,361,111030,1,10,0:0:0:0:
248,374,111196,1,0,0:0:0:0:
286,255,111363,1,10,0:0:0:0:
423,245,111530,1,0,0:0:0:0:
426,220,111613,1,0,0:0:0:0:
429,195,111696,1,10,0:0:0:0:
432,170,111779,1,0,0:0:0:0:
435,145,111863,1,0,0:0:0:0:
258,40,112030,5,10,0:0:0:0:
164,108,112196,1,0,0:0:0:0:
167,132,112279,1,0,0:0:0:0:
170,157,112362,1,10,0:0:0:0:
73,224,112530,2,0,L|59:299,1,50,0|0,0:0|0:0,0:0:0:0:
5,319,112696,6,0,L|188:285,1,150,14|0,0:0|0:0,0:0:0:0:
139,317,113030,1,10,0:0:0:0:
276,363,113196,5,0,0:0:0:0:
283,342,113280,1,0,0:0:0:0:
292,318,113363,1,12,0:0:0:0:
446,197,113613,1,0,0:0:0:0:
440,177,113696,1,10,0:0:0:0:
423,309,113863,1,0,0:0:0:0:
316,191,114030,1,10,0:0:0:0:
379,51,114196,5,0,0:0:0:0:
403,47,114279,1,0,0:0:0:0:
428,44,114362,1,10,0:0:0:0:
270,93,114530,5,0,0:0:0:0:
245,88,114613,1,0,0:0:0:0:
220,83,114696,1,10,0:0:0:0:
143,155,114863,2,0,L|72:163,1,50,0|0,0:0|0:0,0:0:0:0:
14,170,115030,1,10,0:0:0:0:
197,239,115196,2,0,L|284:270,1,50,0|0,0:0|0:0,0:0:0:0:
326,285,115363,5,10,0:0:0:0:
330,260,115446,1,0,0:0:0:0:
335,235,115529,1,0,0:0:0:0:
339,211,115612,1,0,0:0:0:0:
344,186,115696,1,12,0:0:0:0:
476,173,115863,5,0,0:0:0:0:
469,137,115946,1,0,0:0:0:0:
462,102,116030,1,12,0:0:0:0:
370,51,116196,5,0,0:0:0:0:
368,60,116251,1,0,0:0:0:0:
366,70,116307,1,0,0:0:0:0:
364,80,116363,1,10,0:0:0:0:
247,106,116530,1,0,0:0:0:0:
208,202,116696,1,10,0:0:0:0:
97,266,116863,5,0,0:0:0:0:
91,241,116946,1,0,0:0:0:0:
86,217,117030,1,10,0:0:0:0:
81,192,117112,1,0,0:0:0:0:
76,168,117196,1,0,0:0:0:0:
1,85,117363,5,10,0:0:0:0:
110,23,117530,1,0,0:0:0:0:
134,19,117613,1,0,0:0:0:0:
159,15,117696,1,10,0:0:0:0:
255,74,117863,2,0,L|335:85,1,50,0|0,0:0|0:0,0:0:0:0:
443,91,118030,2,0,B|399:110|399:110|377:169|377:169|319:186,1,150,12|0,0:0|0:0,0:0:0:0:
312,175,118363,1,10,0:0:0:0:
404,274,118530,5,0,0:0:0:0:
408,298,118613,1,0,0:0:0:0:
413,323,118696,1,12,0:0:0:0:
260,321,118863,1,0,0:0:0:0:
255,345,118946,1,0,0:0:0:0:
250,370,119029,1,10,0:0:0:0:
134,327,119196,6,0,L|123:258,1,50,0|0,0:0|0:0,0:0:0:0:
112,201,119363,1,0,0:0:0:0:
110,192,119418,1,0,0:0:0:0:
109,184,119474,1,0,0:0:0:0:
107,175,119530,2,0,L|95:115,1,50,0|0,0:0|0:0,0:0:0:0:
86,50,119696,1,8,0:0:0:0:
361,32,119863,6,0,L|429:26,1,50,2|0,0:0|0:0,0:0:0:0:
444,195,120196,2,0,L|521:208,1,50,2|0,0:0|0:0,0:0:0:0:
402,347,120530,2,0,L|462:374,1,50,2|0,0:0|0:0,0:0:0:0:
269,240,120696,6,0,L|258:157,1,50,2|0,0:0|0:0,0:0:0:0:
136,146,120863,2,0,L|127:52,1,50,2|0,0:0|0:0,0:0:0:0:
172,263,121030,5,2,0:0:0:0:
124,246,121113,1,2,0:0:0:0:
77,229,121196,1,2,0:0:0:0:
30,212,121279,1,2,0:0:0:0:
62,186,121363,6,0,L|48:335,2,150.000005722046,4|2|8,0:2|0:0|0:0,0:0:0:0:
131,96,122196,1,0,0:0:0:0:
198,161,122363,1,0,0:0:0:0:
290,143,122530,1,8,0:0:0:0:
324,56,122696,6,0,P|355:40|402:43,1,75.0000028610231,2|0,0:0|0:0,0:0:0:0:
290,143,123030,1,2,0:0:0:0:
374,250,123196,2,0,L|390:155,1,75.0000028610231,0|8,0:0|0:0,0:0:0:0:
185,87,123530,2,0,L|197:160,1,75.0000028610231,0|2,0:0|0:0,0:0:0:0:
259,320,123863,1,8,0:0:0:0:
259,320,123946,1,8,0:0:0:0:
259,320,124030,6,0,B|175:299|202:353|89:312,2,150.000005722046,0|2|8,0:0|0:0|0:0,0:0:0:0:
131,134,125030,1,2,0:0:0:0:
158,224,125196,1,8,0:0:0:0:
292,165,125363,6,0,P|258:151|221:154,1,75.0000028610231
360,64,125696,2,0,P|394:50|431:53,1,75.0000028610231,2|0,0:0|0:0,0:0:0:0:
475,205,126030,1,8,0:0:0:0:
455,236,126113,1,8,0:0:0:0:
421,249,126196,1,8,0:0:0:0:
386,237,126279,1,8,0:0:0:0:
366,207,126363,1,8,0:0:0:0:
339,169,126446,1,8,0:0:0:0:
295,157,126529,1,8,0:0:0:0:
252,176,126612,1,8,0:0:0:0:
231,216,126696,6,0,L|224:317,1,100,4|0,0:0|0:0,0:0:0:0:
73,130,127030,2,0,L|65:30,1,100,8|0,0:0|0:0,0:0:0:0:
297,56,127363,1,2,0:0:0:0:
323,190,127530,1,0,0:0:0:0:
187,140,127696,1,8,0:0:0:0:
302,40,127863,1,0,0:0:0:0:
483,92,128030,6,0,B|453:118|453:118|389:110,1,100,2|0,0:0|0:0,0:0:0:0:
209,221,128363,1,8,0:0:0:0:
302,40,128530,1,0,0:0:0:0:
487,224,128696,6,0,B|457:198|457:198|393:206,1,100,2|2,0:0|0:0,0:0:0:0:
213,95,129029,1,8,0:0:0:0:
306,276,129196,1,0,0:0:0:0:
112,251,129363,5,4,0:0:0:0:
92,209,129446,1,0,0:0:0:0:
108,167,129529,1,0,0:0:0:0:
150,150,129612,1,0,0:0:0:0:
192,169,129696,2,0,P|219:172|254:162,1,50,10|0,0:0|0:0,0:0:0:0:
323,24,129863,5,0,0:0:0:0:
368,27,129946,1,0,0:0:0:0:
396,62,130029,1,0,0:0:0:0:
390,107,130112,1,0,0:0:0:0:
353,133,130196,2,0,P|337:155|328:190,1,50,10|0,0:0|0:0,0:0:0:0:
414,319,130363,5,0,0:0:0:0:
388,356,130446,1,0,0:0:0:0:
344,363,130529,1,0,0:0:0:0:
308,335,130612,1,0,0:0:0:0:
304,290,130696,2,0,P|292:265|266:240,1,50,8|0,0:0|0:0,0:0:0:0:
231,131,130863,5,8,0:0:0:0:
254,124,130946,1,8,0:0:0:0:
168,272,131113,1,8,0:0:0:0:
145,265,131196,1,8,0:0:0:0:
119,46,131363,5,12,0:0:0:0:
152,96,131446,1,12,0:0:0:0:
149,152,131530,1,4,0:0:0:0:
120,193,131613,1,4,0:0:0:0:
84,219,131696,1,4,0:0:0:0:
69,257,131780,1,4,0:0:0:0:
73,292,131863,1,4,0:0:0:0:
89,318,131946,1,4,0:0:0:0:
115,335,132030,6,0,P|68:338|3:350,1,100,4|0,0:0|0:0,0:0:0:0:
236,205,132363,2,0,P|285:213|335:216,1,100,8|0,0:0|0:0,0:0:0:0:
79,72,132696,1,2,0:0:0:0:
151,230,132863,1,0,0:0:0:0:
250,69,133030,1,10,0:0:0:0:
44,177,133196,1,0,0:0:0:0:
221,301,133363,6,0,P|236:253|235:204,1,100,2|0,0:0|0:0,0:0:0:0:
152,34,133696,1,10,0:0:0:0:
3,147,133863,1,0,0:0:0:0:
3,147,133946,1,0,0:0:0:0:
3,147,134030,2,0,P|37:152|109:137,1,100,2|0,0:0|0:0,0:0:0:0:
412,62,134363,2,0,P|340:79|270:53,1,150,10|0,0:0|0:0,0:0:0:0:
270,53,134696,6,0,L|254:166,1,100,4|0,0:0|0:0,0:0:0:0:
392,290,135030,2,0,L|378:190,1,100,8|0,0:0|0:0,0:0:0:0:
216,366,135363,1,2,0:0:0:0:
138,219,135530,1,0,0:0:0:0:
0,323,135696,2,0,B|47:300|47:300|147:314,1,150,10|0,0:0|0:0,0:0:0:0:
216,366,136030,5,0,0:0:0:0:
216,366,136196,1,0,0:0:0:0:
424,261,136363,2,0,L|312:275,1,100,12|0,0:0|0:0,0:0:0:0:
216,171,136696,5,0,0:0:0:0:
216,171,136862,1,0,0:0:0:0:
8,66,137030,2,0,L|119:79,1,100,12|0,0:0|0:0,0:0:0:0:
250,2,137280,1,0,0:0:0:0:
250,2,137363,6,0,P|262:48|247:103,1,100,4|0,0:0|0:0,0:0:0:0:
479,175,137696,2,0,P|433:162|393:121,1,100,8|0,0:0|0:0,0:0:0:0:
170,52,138030,1,2,0:0:0:0:
314,154,138196,1,0,0:0:0:0:
157,249,138363,2,0,P|222:219|299:240,1,150,10|0,0:0|2:0,0:0:0:0:
295,237,138696,6,0,L|300:339,1,100,4|0,0:0|0:0,0:0:0:0:
411,148,139030,1,8,0:0:0:0:
191,58,139196,2,0,L|196:160,1,100,0|2,0:0|0:0,0:0:0:0:
402,241,139530,1,0,0:0:0:0:
404,245,139613,1,0,0:0:0:0:
407,248,139696,2,0,L|412:145,1,100,12|0,0:0|0:0,0:0:0:0:
213,334,140030,5,0,0:0:0:0:
179,350,140113,1,0,0:0:0:0:
142,346,140196,1,0,0:0:0:0:
113,324,140280,1,0,0:0:0:0:
99,290,140363,5,10,0:0:0:0:
256,184,140530,1,0,0:0:0:0:
265,186,140696,1,0,0:0:0:0:
32,81,140863,5,10,0:0:0:0:
274,188,141030,1,0,0:0:0:0:
283,190,141196,1,0,0:0:0:0:
18,327,141363,5,10,0:0:0:0:
186,77,141530,1,0,0:0:0:0:
369,288,141696,5,10,0:0:0:0:
176,64,141863,2,0,L|172:7,2,33.3333333333333,0|0|0,0:0|0:0|0:0,0:0:0:0:
186,77,142030,1,8,0:0:0:0:
284,35,142196,6,0,B|350:16|348:56|412:24,1,125,4|0,0:2|0:0,0:0:0:0:
407,27,142696,6,0,L|422:104,1,75.0000028610231,4|0,0:0|0:0,0:0:0:0:
355,215,143363,2,0,L|370:292,1,75.0000028610231,8|0,0:0|0:0,0:0:0:0:
407,27,144030,5,4,0:0:0:0:
421,100,144196,1,0,0:0:0:0:
355,215,144363,1,0,0:0:0:0:
369,288,144530,1,0,0:0:0:0:
105,27,145030,6,0,L|90:104,1,75.0000028610231,0|0,0:0|0:0,0:0:0:0:
157,215,145697,2,0,L|142:292,1,75.0000028610231
105,27,146364,5,0,0:0:0:0:
91,100,146530,1,0,0:0:0:0:
157,215,146696,1,6,0:0:0:0:
143,288,146864,1,0,0:0:0:0:
255,115,147363,6,0,B|259:85|259:85|255:70|255:70|257:37,1,75.0000028610231,8|0,0:0|0:0,0:0:0:0:
435,308,148030,5,4,0:0:0:0:
327,338,148196,1,0,0:0:0:0:
378,172,148696,1,8,0:0:0:0:
486,202,148863,1,0,0:0:0:0:
435,308,149363,5,4,0:0:0:0:
327,338,149530,1,0,0:0:0:0:
378,172,149696,1,0,0:0:0:0:
486,202,149862,1,0,0:0:0:0:
77,308,150363,5,0,0:0:0:0:
185,338,150529,1,0,0:0:0:0:
134,172,151030,1,8,0:0:0:0:
26,202,151195,1,0,0:0:0:0:
77,308,151696,5,0,0:0:0:0:
185,338,151863,1,0,0:0:0:0:
134,172,152030,1,6,0:0:0:0:
26,202,152195,1,0,0:0:0:0:
260,214,152530,2,0,L|253:171,2,25.0000009536744,0|0|0,0:0|0:0|0:0,0:0:0:0:
258,226,152696,5,10,0:0:0:0:
328,313,152863,1,0,0:0:0:0:
405,259,153030,1,0,0:0:0:0:
478,273,153196,1,0,0:0:0:0:
506,321,153363,5,4,0:0:0:0:
463,61,153530,2,0,B|449:176,1,112.500004291535
456,190,153863,1,0,0:0:0:0:
252,106,154030,1,10,0:0:0:0:
361,277,154196,2,0,L|346:160,1,112.500004291535
354,148,154530,1,0,0:0:0:0:
52,215,154696,5,4,0:0:0:0:
257,152,154863,1,0,0:0:0:0:
75,110,155030,1,4,0:0:0:0:
233,256,155196,1,0,0:0:0:0:
154,183,155363,5,8,0:0:0:0:
178,78,155696,5,4,0:0:0:0:
233,256,155863,1,0,0:0:0:0:
51,215,156030,1,2,0:0:0:0:
130,287,156363,5,0,0:0:0:0:
257,152,156530,1,0,0:0:0:0:
74,109,156697,1,8,0:0:0:0:
154,183,157030,5,4,0:0:0:0:
398,122,157196,1,0,0:0:0:0:
306,274,157364,1,4,0:0:0:0:
245,30,157530,1,0,0:0:0:0:
122,257,157864,5,0,0:0:0:0:
33,129,158030,1,8,0:0:0:0:
10,204,158196,2,0,B|95:223|56:154|178:189,1,150.000005722046
153,182,158613,1,0,0:0:0:0:
153,182,158696,5,12,0:0:0:0:
286,343,158863,2,0,P|274:287|296:230,1,112.500004291535
305,222,159196,1,0,0:0:0:0:
449,281,159363,1,12,0:0:0:0:
219,171,159530,2,0,P|261:132|321:123,1,112.500004291535
333,126,159863,1,0,0:0:0:0:
449,281,160030,5,12,0:0:0:0:
307,51,160196,1,0,0:0:0:0:
493,95,160363,1,12,0:0:0:0:
263,237,160530,1,4,0:2:0:0:
263,237,160863,5,0,0:0:0:0:
260,241,160946,1,0,0:0:0:0:
257,245,161030,2,0,L|161:258,1,75.0000028610231,12|0,0:0|0:0,0:0:0:0:
102,304,161280,1,0,0:0:0:0:
102,304,161363,5,8,0:0:0:0:
44,207,161530,1,0,0:0:0:0:
150,131,161696,1,0,0:0:0:0:
47,21,161863,1,0,0:0:0:0:
182,255,162030,5,8,0:0:0:0:
333,32,162196,1,8,0:0:0:0:
150,131,162363,1,8,0:0:0:0:
409,313,162529,1,8,0:0:0:0:
469,30,162696,5,8,0:0:0:0:
451,24,162780,1,8,0:0:0:0:
489,172,162946,1,8,0:0:0:0:
503,159,163030,1,8,0:0:0:0:
356,118,163196,1,8,0:0:0:0:
360,136,163280,1,8,0:0:0:0:
364,154,163363,5,8,0:0:0:0:
295,233,163530,1,4,0:0:0:0:
208,198,163696,1,4,0:0:0:0:
146,241,163863,1,4,0:0:0:0:
142,297,164030,5,4,0:1:0:0:
16,236,164196,1,0,0:0:0:0:
52,85,164363,2,0,L|227:70,1,150,8|0,0:0|0:0,0:0:0:0:
188,58,164696,5,0,0:0:0:0:
299,189,164863,1,0,0:0:0:0:
476,152,165030,1,8,0:0:0:0:
405,289,165196,5,0,0:0:0:0:
400,313,165279,1,0,0:0:0:0:
395,338,165362,1,0,0:0:0:0:
249,382,165530,1,0,0:0:0:0:
100,277,165696,2,0,L|71:124,1,150,8|0,0:0|0:0,0:0:0:0:
54,154,166030,5,0,0:0:0:0:
216,165,166196,1,0,0:0:0:0:
274,22,166363,1,8,0:0:0:0:
445,41,166530,5,0,0:0:0:0:
440,65,166613,1,0,0:0:0:0:
435,90,166696,1,4,0:0:0:0:
321,165,166863,1,0,0:0:0:0:
304,278,167030,1,8,0:0:0:0:
14,357,167280,5,0,0:0:0:0:
48,347,167363,1,0,0:0:0:0:
87,228,167530,1,0,0:0:0:0:
201,208,167696,1,8,0:0:0:0:
364,357,167863,5,0,0:0:0:0:
388,358,167946,1,0,0:0:0:0:
413,360,168029,1,0,0:0:0:0:
497,254,168196,1,0,0:0:0:0:
467,131,168363,1,8,0:0:0:0:
342,70,168530,5,0,0:0:0:0:
328,83,168613,1,0,0:0:0:0:
315,97,168696,2,0,L|259:96,1,50,0|0,0:0|0:0,0:0:0:0:
170,86,168863,2,0,L|92:80,1,50
26,71,169030,2,0,L|8:181,1,100,12|0,0:0|0:0,0:0:0:0:
83,326,169363,5,4,0:0:0:0:
222,334,169530,1,0,0:0:0:0:
293,216,169696,1,8,0:0:0:0:
508,13,169946,5,0,0:0:0:0:
489,4,170030,1,0,0:0:0:0:
411,110,170196,1,0,0:0:0:0:
296,36,170363,1,8,0:0:0:0:
144,216,170613,5,0,0:0:0:0:
115,211,170696,1,0,0:0:0:0:
43,118,170863,1,0,0:0:0:0:
158,43,171030,1,8,0:0:0:0:
310,194,171280,5,0,0:0:0:0:
307,215,171363,1,0,0:0:0:0:
401,314,171530,1,0,0:0:0:0:
505,230,171696,1,8,0:0:0:0:
435,70,171863,5,0,0:0:0:0:
410,72,171946,1,0,0:0:0:0:
386,76,172030,2,0,L|252:84,1,100,4|0,0:0|0:0,0:0:0:0:
173,172,172363,2,0,L|23:147,1,150,8|0,0:0|0:0,0:0:0:0:
6,122,172696,1,0,0:0:0:0:
178,52,172863,1,0,0:0:0:0:
253,249,173030,1,8,0:0:0:0:
449,302,173196,1,0,0:0:0:0:
455,277,173280,1,0,0:0:0:0:
462,245,173363,6,0,L|479:147,1,100,0|0,0:0|0:0,0:0:0:0:
384,71,173696,1,12,0:0:0:0:
263,112,173863,1,4,0:0:0:0:
258,127,173946,1,4,0:0:0:0:
253,144,174030,1,4,0:0:0:0:
203,151,174113,1,4,0:0:0:0:
154,158,174196,1,4,0:0:0:0:
104,166,174280,1,4,0:0:0:0:
56,172,174363,2,0,L|36:328,1,150,12|0,0:0|0:0,0:0:0:0:
123,355,174696,5,4,0:0:0:0:
147,352,174779,1,0,0:0:0:0:
172,349,174862,1,0,0:0:0:0:
197,347,174946,1,0,0:0:0:0:
222,344,175029,1,8,0:0:0:0:
274,253,175196,6,0,L|346:259,1,50,0|0,0:0|0:0,0:0:0:0:
394,194,175363,2,0,L|457:200,1,50,2|0,0:0|0:0,0:0:0:0:
502,130,175530,1,10,0:0:0:0:
373,28,175696,5,2,0:0:0:0:
370,40,175779,1,0,0:0:0:0:
368,52,175862,1,0,0:0:0:0:
366,64,175946,1,0,0:0:0:0:
362,79,176030,5,12,0:0:0:0:
337,82,176113,1,0,0:0:0:0:
312,85,176196,1,0,0:0:0:0:
287,87,176280,1,0,0:0:0:0:
262,90,176363,1,2,0:0:0:0:
236,178,176530,6,0,L|164:172,1,50,10|0,0:0|0:0,0:0:0:0:
116,237,176697,2,0,L|53:231,1,50,2|0,0:0|0:0,0:0:0:0:
8,301,176864,1,0,0:0:0:0:
214,268,177030,5,12,0:0:0:0:
225,271,177113,1,0,0:0:0:0:
236,278,177196,1,0,0:0:0:0:
243,288,177280,1,0,0:0:0:0:
228,317,177363,5,4,0:0:0:0:
251,309,177446,1,0,0:0:0:0:
275,301,177529,1,0,0:0:0:0:
299,293,177613,1,0,0:0:0:0:
322,285,177696,1,8,0:0:0:0:
414,217,177863,6,0,L|342:201,1,50,0|0,0:0|0:0,0:0:0:0:
263,184,178030,2,0,L|259:118,1,50,2|0,0:0|0:0,0:0:0:0:
141,113,178196,1,10,0:0:0:0:
270,22,178363,5,2,0:0:0:0:
286,26,178446,1,0,0:0:0:0:
302,30,178529,1,0,0:0:0:0:
318,34,178613,1,0,0:0:0:0:
337,41,178696,6,0,L|345:113,1,50,12|0,0:0|0:0,0:0:0:0:
450,159,178863,2,0,L|455:244,1,50,0|0,0:0|0:0,0:0:0:0:
380,312,179030,1,12,0:0:0:0:
312,194,179196,5,0,0:0:0:0:
295,195,179280,1,0,0:0:0:0:
278,195,179363,2,0,L|222:200,1,50,8|8,0:0|0:0,0:0:0:0:
57,192,179530,2,0,L|-9:185,1,50,8|8,0:0|0:0,0:0:0:0:
133,250,179696,5,0,0:0:0:0:
138,225,179780,1,0,0:0:0:0:
144,201,179862,1,0,0:0:0:0:
150,177,179946,1,0,0:0:0:0:
156,152,180030,5,12,0:0:0:0:
109,138,180113,1,0,0:0:0:0:
96,92,180196,1,0,0:0:0:0:
127,55,180280,1,0,0:0:0:0:
175,62,180363,1,10,0:0:0:0:
209,93,180446,1,0,0:0:0:0:
252,116,180530,1,0,0:0:0:0:
301,116,180613,1,0,0:0:0:0:
342,88,180696,5,10,0:0:0:0:
310,67,180780,1,0,0:0:0:0:
273,79,180863,1,0,0:0:0:0:
247,108,180946,1,0,0:0:0:0:
220,140,181030,1,10,0:0:0:0:
187,168,181113,1,0,0:0:0:0:
144,177,181196,1,0,0:0:0:0:
100,166,181280,1,0,0:0:0:0:
66,134,181363,5,12,0:0:0:0:
103,112,181446,1,0,0:0:0:0:
140,120,181530,1,0,0:0:0:0:
177,146,181613,1,0,0:0:0:0:
214,174,181696,1,10,0:0:0:0:
258,194,181780,1,0,0:0:0:0:
311,195,181863,1,0,0:0:0:0:
356,173,181946,1,0,0:0:0:0:
377,128,182030,5,10,0:0:0:0:
335,95,182113,1,0,0:0:0:0:
284,97,182196,1,0,0:0:0:0:
238,122,182280,1,0,0:0:0:0:
202,156,182363,1,10,0:0:0:0:
156,177,182446,1,0,0:0:0:0:
107,173,182530,1,0,0:0:0:0:
60,152,182613,1,0,0:0:0:0:
37,108,182696,5,8,0:0:0:0:
155,40,182863,1,0,0:0:0:0:
214,265,183030,1,0,0:0:0:0:
81,318,183196,1,8,0:0:0:0:
484,344,183363,5,8,0:0:0:0:
324,275,183530,1,8,0:0:0:0:
307,46,183697,1,8,0:0:0:0:
491,10,183863,1,8,0:0:0:0:
460,160,184030,5,0,0:0:0:0:
447,161,184085,1,0,0:0:0:0:
434,163,184141,1,0,0:0:0:0:
422,164,184196,1,0,0:0:0:0:
409,166,184252,1,0,0:0:0:0:
397,168,184307,1,0,0:0:0:0:
385,169,184363,1,12,0:1:0:0:
19,185,185363,5,4,0:0:0:0:
53,172,185446,1,0,0:0:0:0:
91,178,185530,1,8,0:0:0:0:
123,207,185613,1,0,0:0:0:0:
161,229,185696,1,0,0:0:0:0:
206,231,185780,1,0,0:0:0:0:
247,212,185863,1,10,0:0:0:0:
276,175,185946,1,0,0:0:0:0:
279,132,186030,1,0,0:0:0:0:
254,95,186113,1,0,0:0:0:0:
215,80,186196,6,0,P|191:85|149:118,1,62.5,10|0,0:0|0:0,0:0:0:0:
118,192,186363,2,0,P|108:226|110:261,1,62.5,0|0,0:0|0:0,0:0:0:0:
169,332,186530,2,0,P|209:351|243:352,1,62.5,10|0,0:0|0:0,0:0:0:0:
328,341,186696,5,0,0:0:0:0:
364,332,186779,1,0,0:0:0:0:
393,309,186862,1,10,0:0:0:0:
408,275,186946,1,0,0:0:0:0:
408,238,187029,1,0,0:0:0:0:
391,205,187112,1,0,0:0:0:0:
359,183,187196,1,10,0:0:0:0:
320,182,187280,1,0,0:0:0:0:
291,200,187363,1,0,0:0:0:0:
247,211,187446,1,0,0:0:0:0:
202,202,187530,6,0,P|158:184|130:158,1,62.5,10|0,0:0|0:0,0:0:0:0:
86,95,187696,2,0,P|112:78|165:70,1,62.5,0|0,0:0|0:0,0:0:0:0:
238,59,187863,2,0,P|259:60|323:78,1,62.5,10|0,0:0|0:0,0:0:0:0:
357,157,188030,5,4,0:0:0:0:
375,184,188113,1,0,0:0:0:0:
402,200,188196,1,8,0:0:0:0:
434,207,188280,1,0,0:0:0:0:
477,198,188363,1,0,0:0:0:0:
508,160,188446,1,0,0:0:0:0:
494,118,188530,1,10,0:0:0:0:
454,100,188613,1,0,0:0:0:0:
414,102,188696,1,0,0:0:0:0:
378,123,188780,1,0,0:0:0:0:
343,154,188863,1,10,0:0:0:0:
297,181,188946,1,0,0:0:0:0:
242,180,189030,1,0,0:0:0:0:
186,166,189113,1,0,0:0:0:0:
139,128,189196,1,10,0:0:0:0:
119,72,189280,1,0,0:0:0:0:
144,24,189363,5,0,0:0:0:0:
170,44,189446,1,0,0:0:0:0:
180,77,189530,1,10,0:0:0:0:
169,109,189613,1,0,0:0:0:0:
143,145,189696,1,0,0:0:0:0:
125,186,189780,1,0,0:0:0:0:
128,227,189863,1,10,0:0:0:0:
149,267,189946,1,0,0:0:0:0:
189,281,190030,1,0,0:0:0:0:
228,269,190113,1,0,0:0:0:0:
249,228,190196,6,0,P|242:213|193:179,1,62.5,14|0,0:0|0:0,0:0:0:0:
353,245,190363,2,0,P|372:209|385:172,1,62.5
404,336,190530,2,0,P|438:330|485:312,1,62.5,12|0,0:0|0:0,0:0:0:0:
275,341,190696,5,4,0:0:0:0:
238,368,190780,1,0,0:0:0:0:
193,378,190863,1,8,0:0:0:0:
153,366,190946,1,0,0:0:0:0:
114,340,191030,1,0,0:0:0:0:
95,297,191113,1,0,0:0:0:0:
107,255,191196,2,0,P|128:228|175:207,1,62.5,10|0,0:0|0:0,0:0:0:0:
243,187,191363,5,0,0:0:0:0:
279,208,191446,1,0,0:0:0:0:
328,213,191530,1,10,0:0:0:0:
372,201,191613,1,0,0:0:0:0:
405,164,191696,2,0,P|412:146|413:87,1,62.5,0|0,0:0|0:0,0:0:0:0:
338,41,191863,2,0,P|316:29|254:22,1,62.5,10|0,0:0|0:0,0:0:0:0:
178,88,192030,5,0,0:0:0:0:
123,110,192113,1,0,0:0:0:0:
68,111,192196,1,10,0:0:0:0:
24,87,192280,1,0,0:0:0:0:
8,42,192363,1,0,0:0:0:0:
34,11,192446,1,0,0:0:0:0:
74,10,192530,1,10,0:0:0:0:
92,35,192613,1,0,0:0:0:0:
86,68,192696,1,0,0:0:0:0:
59,90,192780,1,0,0:0:0:0:
35,121,192863,1,10,0:0:0:0:
29,160,192946,1,0,0:0:0:0:
45,197,193030,6,0,P|65:215|118:237,1,62.5,0|0,0:0|0:0,0:0:0:0:
195,243,193196,2,0,P|227:236|283:216,1,62.5,10|0,0:0|0:0,0:0:0:0:
385,159,193363,5,4,0:0:0:0:
359,140,193446,1,0,0:0:0:0:
330,128,193529,1,10,0:0:0:0:
300,122,193613,1,0,0:0:0:0:
269,122,193696,2,0,P|241:130|188:153,1,62.5,0|0,0:0|0:0,0:0:0:0:
347,271,193863,5,10,0:0:0:0:
378,273,193946,1,0,0:0:0:0:
409,270,194029,1,0,0:0:0:0:
438,260,194113,1,0,0:0:0:0:
465,244,194196,2,0,P|485:223|520:177,1,62.5,10|0,0:0|0:0,0:0:0:0:
277,345,194363,5,0,0:0:0:0:
253,335,194446,1,0,0:0:0:0:
224,337,194530,1,10,0:0:0:0:
200,347,194613,1,0,0:0:0:0:
182,366,194696,5,4,0:0:0:0:
202,331,194780,1,0,0:0:0:0:
190,290,194863,1,10,0:0:0:0:
160,249,194946,1,0,0:0:0:0:
139,199,195030,1,0,0:0:0:0:
151,144,195113,1,0,0:0:0:0:
199,108,195196,1,10,0:0:0:0:
256,130,195280,1,0,0:0:0:0:
267,189,195363,6,0,P|269:213|240:260,1,62.5,4|0,0:0|0:0,0:0:0:0:
377,120,195530,2,0,P|404:145|433:181,1,62.5,0|0,0:0|0:0,0:0:0:0:
278,36,195696,5,8,0:0:0:0:
211,29,195780,1,8,0:0:0:0:
144,19,195863,1,8,0:0:0:0:
76,12,195946,1,8,0:0:0:0:
6,3,196030,6,0,L|11:103,1,62.5,4|0,0:0|0:0,0:0:0:0:
17,159,196196,2,0,L|22:239,1,62.5,8|0,0:0|0:0,0:0:0:0:
31,314,196363,1,0,0:0:0:0:
49,323,196446,1,0,0:0:0:0:
61,336,196529,1,10,0:0:0:0:
64,352,196613,1,0,0:0:0:0:
58,363,196696,5,0,0:0:0:0:
91,346,196780,1,0,0:0:0:0:
137,346,196863,1,10,0:0:0:0:
178,370,196946,1,0,0:0:0:0:
227,380,197030,1,0,0:0:0:0:
271,361,197113,1,0,0:0:0:0:
299,321,197196,2,0,P|302:283|285:243,1,62.5,10|0,0:0|0:0,0:0:0:0:
352,201,197363,5,0,0:0:0:0:
311,169,197446,1,0,0:0:0:0:
262,166,197530,1,10,0:0:0:0:
225,187,197613,1,0,0:0:0:0:
206,217,197696,1,0,0:0:0:0:
175,230,197780,1,0,0:0:0:0:
144,224,197863,1,10,0:0:0:0:
125,205,197946,1,0,0:0:0:0:
116,185,198030,6,0,P|121:147|139:111,1,62.5,0|0,0:0|0:0,0:0:0:0:
192,62,198196,1,10,0:0:0:0:
204,54,198280,2,0,P|231:38|286:26,1,62.5,0|0,0:0|0:0,0:0:0:0:
353,29,198446,1,0,0:0:0:0:
369,36,198530,2,0,P|403:52|441:79,1,62.5,10|0,0:0|0:0,0:0:0:0:
482,148,198696,5,4,0:0:0:0:
474,168,198780,1,0,0:0:0:0:
457,185,198863,1,8,0:0:0:0:
434,196,198946,1,0,0:0:0:0:
402,199,199030,1,0,0:0:0:0:
365,182,199113,1,0,0:0:0:0:
340,153,199196,1,10,0:0:0:0:
303,122,199280,1,0,0:0:0:0:
254,114,199363,1,0,0:0:0:0:
205,131,199446,1,0,0:0:0:0:
173,179,199530,1,10,0:0:0:0:
179,241,199613,1,0,0:0:0:0:
215,294,199696,1,0,0:0:0:0:
276,310,199780,1,0,0:0:0:0:
339,293,199863,1,10,0:0:0:0:
371,238,199946,1,0,0:0:0:0:
358,171,200030,5,0,0:0:0:0:
316,181,200113,1,0,0:0:0:0:
282,211,200196,1,12,0:0:0:0:
240,232,200280,1,0,0:0:0:0:
195,230,200363,1,0,0:0:0:0:
146,209,200446,1,0,0:0:0:0:
124,158,200530,1,12,0:0:0:0:
138,106,200613,1,0,0:0:0:0:
188,75,200696,1,0,0:0:0:0:
247,72,200780,1,0,0:0:0:0:
294,105,200863,6,0,P|314:139|329:192,1,62.5,8|8,0:0|0:0,0:0:0:0:
169,317,201030,2,0,P|128:298|100:275,1,62.5,8|8,0:0|0:0,0:0:0:0:
35,116,201196,2,0,P|60:66|96:35,1,62.5,8|8,0:0|0:0,0:0:0:0:
311,288,201363,6,0,L|406:303,1,62.5,4|0,0:0|0:0,0:0:0:0:
199,171,201530,2,0,L|130:155,1,62.5,8|0,0:0|0:0,0:0:0:0:
392,107,201696,1,0,0:0:0:0:
407,106,201779,1,0,0:0:0:0:
423,105,201862,1,10,0:0:0:0:
438,104,201946,1,0,0:0:0:0:
455,104,202030,5,0,0:0:0:0:
438,82,202113,1,0,0:0:0:0:
411,64,202196,1,10,0:0:0:0:
376,62,202280,1,0,0:0:0:0:
339,81,202363,1,0,0:0:0:0:
301,108,202446,1,0,0:0:0:0:
250,117,202530,2,0,P|226:114|183:98,1,62.5,14|0,0:0|0:0,0:0:0:0:
143,203,202696,5,0,0:0:0:0:
118,171,202780,1,0,0:0:0:0:
80,156,202863,2,0,P|55:151|4:159,1,62.5,8|0,0:0|0:0,0:0:0:0:
76,270,203030,2,0,P|53:293|21:340,1,62.5,0|0,0:0|0:0,0:0:0:0:
176,337,203196,5,10,0:0:0:0:
216,355,203280,1,0,0:0:0:0:
264,345,203363,1,0,0:0:0:0:
305,305,203446,1,0,0:0:0:0:
356,272,203530,1,12,0:0:0:0:
418,268,203613,1,0,0:0:0:0:
467,308,203696,2,0,P|483:337|491:373,1,62.5,12|0,0:0|0:0,0:0:0:0:
404,136,203863,2,0,P|457:144|509:165,1,62.5
307,18,204030,5,12,0:0:0:0:
212,244,204252,1,4,0:0:0:0:
48,52,204474,1,4,0:0:0:0:
16,362,204696,5,4,0:0:0:0:
228,336,204919,1,4,0:0:0:0:
453,310,205141,1,4,0:0:0:0:
220,126,205363,5,4,0:1:0:0:
179,187,205696,5,0,0:0:0:0:
168,188,205751,1,0,0:0:0:0:
157,190,205807,1,0,0:0:0:0:
148,193,205863,2,0,L|87:204,1,50,0|0,0:0|0:0,0:0:0:0:
28,270,206030,2,0,L|95:285,1,50
154,297,206196,1,0,0:0:0:0:
164,298,206251,1,0,0:0:0:0:
175,300,206307,1,0,0:0:0:0:
185,303,206363,2,0,L|246:314,1,50,0|0,0:0|0:0,0:0:0:0:
311,328,206530,2,0,L|384:344,1,50,0|0,0:0|0:0,0:0:0:0:
415,281,206696,5,8,0:0:0:0:
415,272,206752,1,8,0:0:0:0:
416,265,206808,1,8,0:0:0:0:
381,200,206919,1,8,0:0:0:0:
311,188,207030,1,8,0:0:0:0:
255,231,207141,1,4,0:0:0:0:
185,216,207252,1,4,0:0:0:0:
147,153,207363,5,4,0:0:0:0:
263,27,207585,1,4,0:0:0:0:
425,75,207808,1,4,0:0:0:0:
479,353,208030,6,0,B|370:423|244:359|204:235|246:120|335:75|471:114|485:266|421:340|302:316|211:274|150:290|127:379,1,800,6|0,0:0|0:0,0:0:0:0:
44,220,211403,2,0,B|-5:112|94:129|53:30,2,200,0|0|0,0:0|0:0|0:0,0:0:0:0:
400,273,213363,6,0,B|336:303|275:274|252:212|252:212|207:139|141:142|101:197|129:255|185:269|235:242|261:182|261:182|261:128|296:88|340:68|394:74|434:112|429:185|351:180,1,800,2|0,0:0|0:0,0:0:0:0:
227,348,216696,2,0,B|124:383|144:294|25:328,2,200,0|0|0,0:0|0:0|0:0,0:0:0:0:
92,86,218696,6,0,B|143:53|195:63|297:112|285:236|186:248|89:171|232:29|232:29|288:64|326:123|337:207|262:226|284:315|284:315|293:290|308:282,1,800,2|0,0:0|0:0,0:0:0:0:
92,86,222029,1,0,0:0:0:0:
436,21,222696,2,0,L|424:220,1,200
122,354,224029,6,0,B|81:310|73:244|108:183|156:158|156:158|277:228|281:364|152:375|73:274|183:147|314:220|314:220|337:163|310:110,1,800,2|0,0:0|0:0,0:0:0:0:
122,354,227363,1,0,0:0:0:0:
0,84,228029,2,0,L|202:51,1,200,0|0,0:0|0:0,0:0:0:0:
340,241,229362,6,0,B|419:210|490:280|458:374|351:395|286:338|311:272|217:233|152:233|152:233|217:233|308:184|291:124|440:154|473:195,1,800
341,239,232696,1,0,0:0:0:0:
210,107,233362,1,0,0:0:0:0:
161,286,234029,1,0,0:0:0:0:
122,106,234696,6,0,B|96:101|63:107|63:107|130:58|196:54|248:117|248:117|303:183|405:197|483:183|510:97|484:16|401:-31|310:9|292:106|351:151,1,800,2|0,0:0|0:0,0:0:0:0:
122,106,238029,1,0,0:0:0:0:
391,97,238696,1,0,0:0:0:0:
295,325,239362,1,0,0:0:0:0:
256,32,240029,6,0,B|252:21|257:1|257:1|223:44|233:87|275:118|275:118|361:128|402:212|376:292|299:331|245:321|197:296|183:240|225:189|271:207,1,600,2|0,0:0|0:0,0:0:0:0:
256,32,242696,5,0,0:0:0:0:
227,133,242862,1,0,0:0:0:0:
97,148,243029,1,0,0:0:0:0:
31,39,243196,1,0,0:0:0:0:
157,84,243362,5,0,0:0:0:0:
174,212,243529,1,0,0:0:0:0:
321,219,243696,1,0,0:0:0:0:
362,82,243862,1,0,0:0:0:0:
260,137,244029,5,0,0:0:0:0:
242,299,244196,1,0,0:0:0:0:
84,310,244362,1,0,0:0:0:0:
45,170,244529,1,0,0:0:0:0:
161,205,244696,5,0,0:0:0:0:
181,369,244862,1,0,0:0:0:0:
447,371,245029,1,0,0:0:0:0:
472,191,245196,1,0,0:0:0:0:
480,166,245279,1,0,0:0:0:0:
489,142,245362,5,8,0:0:0:0:
468,149,245446,1,0,0:0:0:0:
443,148,245529,1,0,0:0:0:0:
426,136,245612,1,0,0:0:0:0:
417,165,245696,5,0,0:0:0:0:
381,145,245779,1,0,0:0:0:0:
368,114,245862,1,0,0:0:0:0:
367,81,245946,1,0,0:0:0:0:
334,116,246029,5,0,0:0:0:0:
296,94,246112,1,0,0:0:0:0:
244,104,246196,1,0,0:0:0:0:
208,140,246279,1,0,0:0:0:0:
155,171,246362,1,0,0:0:0:0:
90,172,246446,1,0,0:0:0:0:
30,134,246529,1,0,0:0:0:0:
17,63,246612,1,0,0:0:0:0:
70,7,246696,6,0,P|88:2|195:21,1,100,12|0,0:1|0:0,0:0:0:0:
237,34,246946,1,0,0:0:0:0:
237,34,247029,2,0,L|242:122,1,50
277,170,247196,1,10,0:0:0:0:
392,219,247362,1,0,0:0:0:0:
429,207,247446,1,0,0:0:0:0:
460,185,247529,1,0,0:0:0:0:
487,157,247612,1,0,0:0:0:0:
492,124,247696,6,0,P|454:126|419:143,1,50,8|0,0:0|0:0,0:0:0:0:
376,46,247862,2,0,P|345:57|315:86,1,50
192,168,248029,6,0,P|185:191|176:310,1,100,8|0,0:0|0:0,0:0:0:0:
249,305,248279,1,0,0:0:0:0:
249,305,248362,2,0,L|253:354,1,50
265,211,248529,1,10,0:0:0:0:
72,338,248696,1,0,0:0:0:0:
64,310,248779,1,0,0:0:0:0:
57,283,248862,1,0,0:0:0:0:
50,258,248946,1,0,0:0:0:0:
45,231,249029,6,0,P|71:235|116:259,1,50,12|0,0:0|0:0,0:0:0:0:
235,369,249196,2,0,P|279:379|331:379,1,50,0|0,0:0|0:0,0:0:0:0:
396,246,249362,6,0,P|397:223|481:176,1,100,12|0,0:1|0:0,0:0:0:0:
500,235,249612,1,0,0:0:0:0:
500,235,249696,2,0,L|482:312,1,50
307,198,249862,1,10,0:0:0:0:
400,108,250028,1,2,0:0:0:0:
408,84,250112,1,0,0:0:0:0:
416,60,250195,1,0,0:0:0:0:
218,22,250362,1,8,0:0:0:0:
222,33,250445,1,0,0:0:0:0:
226,45,250528,1,0,0:0:0:0:
230,57,250612,1,0,0:0:0:0:
232,73,250696,5,8,0:0:0:0:
34,134,250862,1,0,0:0:0:0:
57,106,250946,1,0,0:0:0:0:
84,81,251029,2,0,P|105:67|127:56,1,50
172,135,251196,1,10,0:0:0:0:
137,233,251362,6,0,P|174:252|206:260,1,50,2|0,0:0|0:0,0:0:0:0:
275,277,251529,2,0,P|302:277|358:266,1,50
315,147,251696,5,8,0:0:0:0:
296,150,251779,1,0,0:0:0:0:
276,157,251862,1,0,0:0:0:0:
263,169,251946,1,0,0:0:0:0:
253,183,252029,5,12,0:1:0:0:
157,135,252195,1,0,0:0:0:0:
129,123,252279,1,0,0:0:0:0:
99,114,252362,1,2,0:0:0:0:
249,26,252529,6,0,P|271:46|292:76,1,50,10|0,0:0|0:0,0:0:0:0:
394,60,252696,2,0,P|404:103|401:134,1,50,2|0,0:0|0:0,0:0:0:0:
402,198,252862,1,0,0:0:0:0:
498,277,253029,5,8,0:0:0:0:
484,286,253112,1,0,0:0:0:0:
472,298,253195,1,0,0:0:0:0:
464,312,253279,1,0,0:0:0:0:
465,330,253362,6,0,P|417:325|351:332,1,100,10|0,0:0|0:0,0:0:0:0:
293,266,253612,1,0,0:0:0:0:
298,280,253695,1,2,0:0:0:0:
209,353,253862,6,0,P|183:323|137:245,1,100,10|0,0:0|0:0,0:0:0:0:
89,229,254112,1,0,0:0:0:0:
89,229,254196,2,0,L|103:142,1,50
268,129,254362,5,12,0:0:0:0:
289,143,254446,1,0,0:0:0:0:
316,148,254529,1,0,0:0:0:0:
344,148,254612,1,0,0:0:0:0:
377,137,254696,6,0,L|393:15,1,100,12|0,0:1|0:0,0:0:0:0:
455,102,254946,1,0,0:0:0:0:
459,116,255029,2,0,L|472:202,1,50
481,250,255196,1,10,0:0:0:0:
367,380,255362,2,0,P|327:379|284:368,1,50,2|0,0:0|0:0,0:0:0:0:
256,308,255529,1,0,0:0:0:0:
134,368,255696,5,8,0:0:0:0:
137,343,255779,1,0,0:0:0:0:
130,319,255862,1,0,0:0:0:0:
113,301,255946,1,0,0:0:0:0:
89,293,256029,6,0,L|199:273,1,100,10|0,0:0|0:0,0:0:0:0:
232,219,256279,1,0,0:0:0:0:
235,209,256362,2,0,P|240:184|233:118,1,50,2|0,0:0|0:0,0:0:0:0:
348,132,256529,5,10,0:0:0:0:
333,97,256612,1,0,0:0:0:0:
306,71,256695,1,2,0:0:0:0:
272,58,256779,1,0,0:0:0:0:
234,58,256862,2,0,P|209:67|155:106,1,50,0|0,0:0|0:0,0:0:0:0:
117,197,257029,5,8,0:0:0:0:
166,204,257112,1,8,0:0:0:0:
215,211,257195,1,0,0:0:0:0:
265,218,257279,1,0,0:0:0:0:
314,226,257362,6,0,L|339:357,1,100,12|0,0:1|0:0,0:0:0:0:
417,291,257612,1,0,0:0:0:0:
417,291,257696,2,0,L|411:367,1,50
253,346,257862,1,10,0:0:0:0:
313,218,258029,2,0,L|323:149,1,50,2|0,0:0|0:0,0:0:0:0:
334,78,258196,1,0,0:0:0:0:
75,75,258362,5,8,0:0:0:0:
88,95,258445,1,0,0:0:0:0:
91,120,258528,1,0,0:0:0:0:
85,144,258612,1,0,0:0:0:0:
69,163,258696,6,0,P|110:176|155:223,1,100,8|0,0:0|0:0,0:0:0:0:
176,335,258946,1,2,0:0:0:0:
176,335,259029,2,0,P|184:301|202:256,1,50
102,281,259196,1,10,0:0:0:0:
267,166,259362,2,0,P|251:185|234:204,1,50,2|0,0:0|0:0,0:0:0:0:
277,285,259529,1,0,0:0:0:0:
413,189,259696,5,12,0:0:0:0:
400,209,259779,1,0,0:0:0:0:
397,234,259862,1,0,0:0:0:0:
403,258,259946,1,0,0:0:0:0:
419,277,260030,6,0,P|399:284|337:364,1,100,12|0,0:1|0:0,0:0:0:0:
273,367,260279,1,0,0:0:0:0:
276,368,260362,2,0,L|219:374,1,50
146,351,260529,1,10,0:0:0:0:
79,229,260695,1,2,0:0:0:0:
42,223,260779,1,0,0:0:0:0:
5,228,260862,1,0,0:0:0:0:
100,94,261029,6,0,P|129:121|164:150,1,50,8|0,0:0|0:0,0:0:0:0:
225,167,261196,2,0,P|263:175|302:172,1,50,0|0,0:0|0:0,0:0:0:0:
367,116,261362,6,0,P|407:88|457:84,1,100,8|0,0:0|0:0,0:0:0:0:
492,171,261612,1,0,0:0:0:0:
492,171,261696,2,0,L|480:259,1,50
338,229,261862,6,0,L|403:235,1,50,10|0,0:0|0:0,0:0:0:0:
509,305,262029,2,0,B|446:294|446:294|399:251|399:251|326:244,1,200,2|8,0:0|0:0,0:0:0:0:
216,319,262529,5,0,0:0:0:0:
169,322,262612,1,0,0:0:0:0:
121,326,262696,1,8,0:0:0:0:
36,213,262862,1,0,0:0:0:0:
95,63,263029,1,10,0:0:0:0:
171,155,263196,5,0,0:0:0:0:
198,160,263279,1,0,0:0:0:0:
221,165,263362,2,0,L|286:179,1,50,10|0,0:0|0:0,0:0:0:0:
327,119,263529,2,0,L|391:103,1,50,0|0,0:0|0:0,0:0:0:0:
390,183,263696,1,10,0:0:0:0:
391,191,263751,1,0,0:0:0:0:
392,199,263807,1,0,0:0:0:0:
392,209,263862,2,0,L|397:268,1,50,0|0,0:0|0:0,0:0:0:0:
309,267,264029,5,10,0:0:0:0:
284,263,264112,1,0,0:0:0:0:
259,257,264196,2,0,L|187:247,1,50,0|0,0:0|0:0,0:0:0:0:
182,348,264362,1,10,0:0:0:0:
163,315,264445,1,0,0:0:0:0:
133,294,264528,1,0,0:0:0:0:
96,289,264611,1,0,0:0:0:0:
61,301,264696,5,10,0:0:0:0:
49,266,264779,1,0,0:0:0:0:
39,231,264862,2,0,L|22:168,1,50,0|0,0:0|0:0,0:0:0:0:
91,139,265029,1,10,0:0:0:0:
92,131,265084,1,0,0:0:0:0:
93,123,265140,1,0,0:0:0:0:
93,113,265195,2,0,L|98:54,1,50,0|0,0:0|0:0,0:0:0:0:
183,30,265362,6,0,L|193:99,1,50,10|0,0:0|0:0,0:0:0:0:
263,101,265529,1,0,0:0:0:0:
262,109,265584,1,0,0:0:0:0:
261,117,265640,1,0,0:0:0:0:
261,127,265696,2,0,L|256:186,1,50,10|0,0:0|0:0,0:0:0:0:
180,221,265862,2,0,L|193:278,1,50,0|0,0:0|0:0,0:0:0:0:
261,318,266029,5,10,0:0:0:0:
269,317,266084,1,0,0:0:0:0:
277,316,266140,1,0,0:0:0:0:
287,316,266195,2,0,L|346:311,1,50,0|0,0:0|0:0,0:0:0:0:
423,252,266362,2,0,B|360:239|360:239|335:201,1,100,8|0,0:0|0:0,0:0:0:0:
327,121,266696,5,8,0:0:0:0:
324,108,266751,1,8,0:0:0:0:
321,96,266807,1,8,0:0:0:0:
247,48,266918,1,8,0:0:0:0:
183,100,267029,2,0,L|168:169,1,66.6666666666667,0|0,0:0|0:0,0:0:0:0:
138,244,267251,1,0,0:0:0:0:
225,231,267362,2,0,L|237:304,1,66.6666666666667,0|0,0:0|0:0,0:0:0:0:
148,353,267585,5,0,0:0:0:0:
147,342,267640,1,0,0:0:0:0:
144,329,267696,1,0,0:0:0:0:
233,379,267807,1,0,0:0:0:0:
321,318,267918,1,0,0:0:0:0:
423,348,268029,1,12,0:0:0:0:
466,213,268279,5,0,0:0:0:0:
473,187,268362,1,8,0:0:0:0:
326,123,268612,1,8,0:0:0:0:
315,90,268696,1,8,0:0:0:0:
372,8,268862,1,0,0:0:0:0:
157,81,269112,5,8,0:0:0:0:
164,113,269196,1,8,0:0:0:0:
68,177,269362,1,4,0:2:0:0:
246,329,269612,5,8,0:0:0:0:
253,299,269696,1,8,0:0:0:0:
395,245,269862,1,4,0:2:0:0:
72,260,270112,5,8,0:0:0:0:
78,294,270196,1,8,0:0:0:0:
181,246,270362,1,4,0:0:0:0:
189,199,270446,1,4,0:0:0:0:
199,153,270529,1,4,0:0:0:0:
210,105,270612,1,4,0:0:0:0:
220,58,270696,6,0,L|289:49,3,50,4|0|0|0,0:2|0:0|0:0|0:0,0:0:0:0:
291,139,271029,2,0,L|305:208,1,50,8|0,0:0|0:0,0:0:0:0:
359,75,271196,2,0,L|369:10,1,50,0|0,0:0|0:0,0:0:0:0:
385,160,271362,5,8,0:0:0:0:
394,161,271417,1,8,0:0:0:0:
405,164,271474,1,8,0:0:0:0:
469,228,271585,1,8,0:0:0:0:
461,319,271696,1,8,0:0:0:0:
384,366,271807,1,4,0:0:0:0:
302,336,271918,1,4,0:0:0:0:
221,348,272029,5,4,0:0:0:0:
254,273,272140,1,4,0:0:0:0:
230,221,272251,1,4,0:0:0:0:
266,157,272362,5,4,0:0:0:0:
250,118,272474,1,4,0:0:0:0:
262,93,272585,1,4,0:0:0:0:
211,38,272696,5,12,0:2:0:0:
425,186,272918,5,4,0:0:0:0:
138,371,273140,1,4,0:0:0:0:
0,108,273362,1,4,0:1:0:0:
98,155,273696,6,0,L|129:218,1,50,8|0,0:0|0:0,0:0:0:0:
304,251,273862,2,0,L|334:172,1,50,8|0,0:0|0:0,0:0:0:0:
213,59,274029,5,0,0:0:0:0:
215,82,274112,1,0,0:0:0:0:
218,107,274196,2,0,L|223:165,1,50,8|0,0:0|0:0,0:0:0:0:
431,39,274362,5,0,0:0:0:0:
429,62,274445,1,0,0:0:0:0:
426,87,274529,2,0,L|421:145,1,50,8|0,0:0|0:0,0:0:0:0:
498,235,274696,2,0,L|510:170,1,50,8|0,0:0|0:0,0:0:0:0:
400,334,274862,2,0,L|383:254,1,50,0|0,0:0|0:0,0:0:0:0:
231,237,275029,5,8,0:0:0:0:
206,241,275112,1,0,0:0:0:0:
186,255,275195,1,0,0:0:0:0:
173,277,275278,1,0,0:0:0:0:
170,300,275362,5,8,0:0:0:0:
132,296,275445,1,8,0:0:0:0:
95,292,275528,1,8,0:0:0:0:
58,289,275611,1,8,0:0:0:0:
20,285,275696,5,0,0:0:0:0:
19,277,275751,1,0,0:0:0:0:
17,269,275807,1,0,0:0:0:0:
16,261,275862,1,0,0:0:0:0:
14,252,275918,1,0,0:0:0:0:
13,244,275973,1,0,0:0:0:0:
12,236,276029,1,12,0:1:0:0:
436,359,276362,5,8,0:0:0:0:
483,222,276529,1,8,0:0:0:0:
168,278,276696,5,8,0:0:0:0:
128,128,276862,1,8,0:0:0:0:
331,233,277029,5,8,0:0:0:0:
361,14,277196,1,8,0:0:0:0:
238,107,277362,5,0,0:0:0:0:
263,113,277446,1,0,0:0:0:0:
286,130,277529,1,0,0:0:0:0:
296,150,277612,1,8,0:0:0:0:
337,154,277696,5,0,0:0:0:0:
285,169,277779,1,0,0:0:0:0:
248,203,277862,1,8,0:0:0:0:
199,208,277946,1,8,0:0:0:0:
166,175,278029,5,0,0:0:0:0:
215,176,278112,1,0,0:0:0:0:
246,214,278196,1,0,0:0:0:0:
278,264,278279,1,0,0:0:0:0:
332,292,278362,1,8,0:0:0:0:
398,286,278446,1,8,0:0:0:0:
459,245,278529,1,8,0:0:0:0:
471,172,278612,1,8,0:0:0:0:
429,111,278696,5,4,0:0:0:0:
396,129,278779,1,0,0:0:0:0:
359,133,278862,1,10,0:0:0:0:
324,122,278945,1,0,0:0:0:0:
293,162,279029,5,0,0:0:0:0:
249,137,279112,1,0,0:0:0:0:
200,132,279195,1,10,0:0:0:0:
153,147,279278,1,0,0:0:0:0:
118,109,279362,5,0,0:0:0:0:
114,146,279445,1,0,0:0:0:0:
110,183,279528,1,10,0:0:0:0:
106,218,279611,1,0,0:0:0:0:
55,208,279696,5,0,0:0:0:0:
61,258,279779,1,0,0:0:0:0:
66,308,279862,1,10,0:0:0:0:
72,357,279945,1,0,0:0:0:0:
33,325,280029,5,0,0:0:0:0:
66,308,280112,1,0,0:0:0:0:
102,314,280195,1,10,0:0:0:0:
128,340,280278,1,0,0:0:0:0:
171,313,280363,5,0,0:0:0:0:
215,335,280446,1,0,0:0:0:0:
263,327,280529,1,10,0:0:0:0:
297,292,280612,1,0,0:0:0:0:
342,313,280696,5,0,0:0:0:0:
337,276,280779,1,0,0:0:0:0:
332,239,280862,1,10,0:0:0:0:
327,202,280945,1,0,0:0:0:0:
347,156,281029,5,0,0:0:0:0:
348,147,281085,1,0,0:0:0:0:
349,138,281140,1,0,0:0:0:0:
350,129,281196,2,0,L|336:56,1,50,10|0,0:0|0:0,0:0:0:0:
47,62,281362,5,0,0:0:0:0:
71,104,281445,1,0,0:0:0:0:
115,127,281529,1,10,0:0:0:0:
164,122,281611,1,0,0:0:0:0:
202,91,281696,1,0,0:0:0:0:
445,142,281862,5,10,0:0:0:0:
420,184,281945,1,0,0:0:0:0:
376,207,282028,1,0,0:0:0:0:
327,202,282111,1,0,0:0:0:0:
289,171,282196,1,10,0:0:0:0:
33,238,282362,5,0,0:0:0:0:
57,280,282445,1,0,0:0:0:0:
101,303,282528,1,10,0:0:0:0:
150,298,282611,1,0,0:0:0:0:
188,267,282696,1,0,0:0:0:0:
448,300,282862,5,10,0:0:0:0:
424,342,282945,1,0,0:0:0:0:
380,365,283028,1,0,0:0:0:0:
331,360,283111,1,0,0:0:0:0:
293,329,283196,2,0,L|284:273,1,50,10|0,0:0|0:0,0:0:0:0:
324,70,283362,5,0,0:0:0:0:
333,118,283445,1,0,0:0:0:0:
310,161,283528,1,10,0:0:0:0:
265,181,283611,1,0,0:0:0:0:
218,169,283696,5,0,0:0:0:0:
209,167,283751,1,0,0:0:0:0:
200,167,283807,1,0,0:0:0:0:
191,167,283862,2,0,B|188:194|188:194|195:226,1,50,12|0,0:0|0:0,0:0:0:0:
66,360,284029,5,4,0:0:0:0:
102,326,284112,1,0,0:0:0:0:
115,279,284195,1,10,0:0:0:0:
101,231,284278,1,0,0:0:0:0:
60,194,284362,1,0,0:0:0:0:
23,161,284445,1,0,0:0:0:0:
9,114,284528,1,10,0:0:0:0:
23,66,284611,1,0,0:0:0:0:
59,33,284695,5,0,0:0:0:0:
100,69,284779,1,0,0:0:0:0:
151,86,284862,1,10,0:0:0:0:
206,80,284945,1,0,0:0:0:0:
252,52,285028,1,0,0:0:0:0:
298,23,285112,1,0,0:0:0:0:
352,17,285195,1,10,0:0:0:0:
404,34,285278,1,0,0:0:0:0:
445,70,285362,5,6,0:2:0:0:
432,168,285474,2,0,L|424:101,1,66.6666666666667,2|0,0:2|0:0,0:0:0:0:
295,181,285696,5,2,0:2:0:0:
308,279,285808,2,0,L|315:212,1,66.6666666666667,2|0,0:2|0:0,0:0:0:0:
464,262,286029,5,2,0:2:0:0:
451,360,286140,2,0,L|443:293,1,66.6666666666667,2|0,0:2|0:0,0:0:0:0:
424,100,286362,6,0,L|419:150,1,50
308,279,286529,1,8,0:0:0:0:
299,282,286585,1,0,0:0:0:0:
290,284,286640,1,0,0:0:0:0:
281,286,286696,5,4,0:0:0:0:
58,170,286862,1,10,0:0:0:0:
95,176,286946,1,0,0:0:0:0:
131,183,287029,1,0,0:0:0:0:
257,3,287196,5,10,0:0:0:0:
233,33,287279,1,0,0:0:0:0:
209,60,287362,1,0,0:0:0:0:
211,96,287445,1,0,0:0:0:0:
213,132,287529,1,10,0:0:0:0:
444,215,287696,5,0,0:0:0:0:
431,180,287779,1,0,0:0:0:0:
420,144,287862,1,10,0:0:0:0:
387,128,287945,1,0,0:0:0:0:
355,112,288029,1,4,0:0:0:0:
168,271,288196,5,10,0:0:0:0:
205,277,288279,1,0,0:0:0:0:
241,285,288362,1,0,0:0:0:0:
271,265,288445,1,0,0:0:0:0:
301,245,288529,1,10,0:0:0:0:
77,124,288696,5,0,0:0:0:0:
70,132,288779,1,0,0:0:0:0:
71,153,288862,1,0,0:0:0:0:
92,173,288946,1,0,0:0:0:0:
134,173,289029,1,8,0:0:0:0:
170,137,289112,1,8,0:0:0:0:
227,120,289196,1,8,0:0:0:0:
293,143,289279,1,8,0:0:0:0:
331,213,289362,6,0,L|340:293,1,50,4|0,0:0|0:0,0:0:0:0:
456,103,289529,1,8,0:0:0:0:
431,75,289612,1,0,0:0:0:0:
397,61,289695,1,0,0:0:0:0:
360,62,289778,1,0,0:0:0:0:
326,78,289862,1,10,0:0:0:0:
302,107,289945,1,0,0:0:0:0:
293,143,290029,5,0,0:0:0:0:
263,176,290112,1,0,0:0:0:0:
221,188,290196,1,10,0:0:0:0:
178,176,290278,1,0,0:0:0:0:
148,144,290362,1,0,0:0:0:0:
140,100,290445,1,0,0:0:0:0:
156,59,290528,1,10,0:0:0:0:
192,33,290612,1,0,0:0:0:0:
236,29,290695,5,0,0:0:0:0:
250,79,290779,1,0,0:0:0:0:
288,115,290862,1,10,0:0:0:0:
339,124,290945,1,0,0:0:0:0:
387,104,291029,1,0,0:0:0:0:
438,107,291112,1,0,0:0:0:0:
477,141,291195,1,10,0:0:0:0:
485,192,291278,1,0,0:0:0:0:
461,237,291362,5,0,0:0:0:0:
418,196,291445,1,0,0:0:0:0:
401,139,291528,1,10,0:0:0:0:
415,81,291611,1,0,0:0:0:0:
455,38,291695,5,0,0:0:0:0:
464,38,291751,1,0,0:0:0:0:
473,38,291807,1,0,0:0:0:0:
482,38,291862,2,0,L|418:22,1,50,10|0,0:0|0:0,0:0:0:0:
252,81,292029,5,0,0:0:0:0:
228,72,292112,1,0,0:0:0:0:
203,71,292195,1,10,0:0:0:0:
179,77,292278,1,0,0:0:0:0:
154,48,292362,5,0,0:0:0:0:
144,84,292445,1,0,0:0:0:0:
135,121,292528,1,10,0:0:0:0:
126,157,292611,1,0,0:0:0:0:
87,125,292695,5,0,0:0:0:0:
46,153,292779,1,0,0:0:0:0:
35,201,292862,1,10,0:0:0:0:
59,244,292945,1,0,0:0:0:0:
23,296,293029,5,0,0:0:0:0:
74,261,293112,1,0,0:0:0:0:
134,276,293196,1,10,0:0:0:0:
164,330,293279,1,0,0:0:0:0:
203,299,293362,5,0,0:0:0:0:
253,294,293445,1,0,0:0:0:0:
302,289,293529,1,10,0:0:0:0:
352,284,293611,1,0,0:0:0:0:
329,253,293696,5,0,0:0:0:0:
367,257,293779,1,0,0:0:0:0:
404,261,293862,1,10,0:0:0:0:
441,265,293945,1,0,0:0:0:0:
451,287,294029,5,0,0:0:0:0:
454,262,294112,1,0,0:0:0:0:
457,237,294195,1,10,0:0:0:0:
460,212,294278,1,0,0:0:0:0:
479,196,294362,5,0,0:0:0:0:
478,187,294418,1,0,0:0:0:0:
477,178,294474,1,0,0:0:0:0:
476,169,294529,2,0,L|483:113,1,50,12|0,0:0|0:0,0:0:0:0:
425,28,294696,6,0,B|338:9|378:87|255:43,1,150.000005722046,4|0,0:2|0:0,0:0:0:0:
283,52,295112,1,0,0:0:0:0:
283,52,295196,1,8,0:0:0:0:
13,145,295362,2,0,P|51:142|93:153,1,75.0000028610231,2|8,0:2|0:0,0:0:0:0:
142,86,295612,2,0,P|163:117|175:159,1,75.0000028610231,2|0,0:2|0:0,0:0:0:0:
129,228,295862,1,10,0:2:0:0:
41,310,296029,5,6,0:2:0:0:
129,228,296196,1,10,0:2:0:0:
239,244,296362,1,2,0:2:0:0:
296,332,296529,1,8,0:2:0:0:
390,305,296696,2,0,B|406:271|406:271|395:226,1,75.0000028610231,2|8,0:2|0:0,0:0:0:0:
246,173,297029,2,0,B|230:207|230:207|241:252,1,75.0000028610231,2|8,0:2|0:0,0:0:0:0:
296,332,297362,6,0,L|333:174,1,150.000005722046,6|0,0:2|0:0,0:0:0:0:
330,185,297779,1,0,0:0:0:0:
330,185,297862,1,8,0:0:0:0:
159,251,298029,1,0,0:0:0:0:
85,63,298196,1,10,0:2:0:0:
107,34,298279,1,2,0:2:0:0:
143,25,298362,1,2,0:2:0:0:
176,42,298445,1,2,0:2:0:0:
191,75,298529,1,10,0:2:0:0:
182,111,298612,1,2,0:2:0:0:
152,132,298696,6,0,L|128:139,6,25.0000009536744,2|2|2|10|2|2|2,0:2|0:2|0:2|0:2|0:2|0:2|0:2,0:0:0:0:
311,120,299196,2,0,P|329:120|355:115,1,33.3333333333333,10|2,0:2|0:2,0:0:0:0:
341,135,299307,2,0,P|356:126|376:108,1,33.3333333333333,2|2,0:2|0:2,0:0:0:0:
374,132,299418,2,0,P|383:116|391:91,1,33.3333333333333,2|2,0:2|0:2,0:0:0:0:
401,112,299529,5,8,0:0:0:0:
453,119,299612,1,8,0:0:0:0:
480,167,299696,1,8,0:0:0:0:
471,226,299779,1,8,0:0:0:0:
419,265,299862,1,8,0:0:0:0:
348,259,299946,1,8,0:0:0:0:
300,201,300029,6,0,P|305:174|319:150,1,56.2500021457673,4|0,0:0|0:0,0:0:0:0:
433,190,300196,2,0,P|405:190|378:200,1,56.2500021457673,10|0,0:0|0:0,0:0:0:0:
419,265,300362,2,0,P|440:282|454:306,1,56.2500021457673,0|0,0:0|0:0,0:0:0:0:
362,382,300529,2,0,P|377:358|381:331,1,56.2500021457673,10|0,0:0|0:0,0:0:0:0:
221,184,300696,6,0,P|195:195|167:194,1,56.2500021457673,0|0,0:0|0:0,0:0:0:0:
145,77,300862,2,0,P|158:101|180:118,1,56.2500021457673,10|0,0:0|0:0,0:0:0:0:
217,51,301029,2,0,P|223:24|237:0,1,56.2500021457673
348,39,301196,2,0,P|321:39|294:49,1,56.2500021457673,10|0,0:0|0:0,0:0:0:0:
245,260,301363,6,0,P|267:278|281:302,1,56.2500021457673
191,381,301529,2,0,P|205:358|209:330,1,56.2500021457673,10|0,0:0|0:0,0:0:0:0:
132,332,301696,2,0,P|107:342|79:342,1,56.2500021457673,0|0,0:0|0:0,0:0:0:0:
56,223,301862,2,0,P|70:248|92:265,1,56.2500021457673,10|0,0:0|0:0,0:0:0:0:
300,201,302029,5,0,0:0:0:0:
314,176,302112,1,0,0:0:0:0:
304,143,302196,1,10,0:0:0:0:
266,132,302279,1,0,0:0:0:0:
227,155,302362,1,0,0:0:0:0:
176,157,302446,1,0,0:0:0:0:
129,125,302529,1,10,0:0:0:0:
108,66,302612,1,0,0:0:0:0:
135,3,302696,6,0,L|194:-1,1,56.2500021457673,4|0,0:0|0:0,0:0:0:0:
266,132,302862,2,0,P|255:104|257:78,1,56.2500021457673,8|0,0:0|0:0,0:0:0:0:
444,138,303029,2,0,L|385:134,1,56.2500021457673,0|0,0:0|0:0,0:0:0:0:
313,267,303195,2,0,P|323:239|321:213,1,56.2500021457673,10|0,0:0|0:0,0:0:0:0:
75,163,303362,6,0,P|94:154|130:153,1,56.2500021457673,0|0,0:0|0:0,0:0:0:0:
173,329,303529,2,0,L|177:266,1,56.2500021457673,10|0,0:0|0:0,0:0:0:0:
267,203,303696,2,0,P|286:211|322:212,1,56.2500021457673,0|0,0:0|0:0,0:0:0:0:
365,37,303863,2,0,L|368:93,1,56.2500021457673,10|0,0:0|0:0,0:0:0:0:
441,246,304029,6,0,L|435:301,1,56.2500021457673
282,112,304196,2,0,P|255:103|221:107,1,56.2500021457673,10|0,0:0|0:0,0:0:0:0:
247,312,304362,2,0,L|252:367,1,56.2500021457673
406,178,304529,2,0,P|433:169|467:173,1,56.2500021457673,10|0,0:0|0:0,0:0:0:0:
176,272,304696,5,0,0:0:0:0:
150,259,304779,1,0,0:0:0:0:
137,227,304862,1,10,0:0:0:0:
155,191,304946,1,0,0:0:0:0:
199,187,305029,1,0,0:0:0:0:
243,209,305112,1,0,0:0:0:0:
299,202,305196,1,14,0:0:0:0:
343,158,305279,1,0,0:0:0:0:
347,90,305362,6,0,B|338:23,1,56.2500021457673,4|0,0:0|0:0,0:0:0:0:
173,34,305529,2,0,B|181:90,1,56.2500021457673,8|0,0:0|0:0,0:0:0:0:
431,58,305696,2,0,B|424:3,1,56.2500021457673
257,2,305862,2,0,B|264:57,1,56.2500021457673,10|0,0:0|0:0,0:0:0:0:
90,207,306029,6,0,B|99:140,1,56.2500021457673,0|0,0:0|0:0,0:0:0:0:
264,151,306196,2,0,B|256:207,1,56.2500021457673,10|0,0:0|0:0,0:0:0:0:
6,175,306363,2,0,B|13:120,1,56.2500021457673,0|0,0:0|0:0,0:0:0:0:
180,119,306529,2,0,B|173:174,1,56.2500021457673,10|0,0:0|0:0,0:0:0:0:
347,330,306696,6,0,B|338:263,1,56.2500021457673,0|0,0:0|0:0,0:0:0:0:
173,274,306863,2,0,B|181:330,1,56.2500021457673,10|0,0:0|0:0,0:0:0:0:
431,298,307030,2,0,B|424:243,1,56.2500021457673,0|0,0:0|0:0,0:0:0:0:
257,242,307196,2,0,B|264:297,1,56.2500021457673,10|0,0:0|0:0,0:0:0:0:
358,101,307362,5,0,0:0:0:0:
386,93,307446,1,0,0:0:0:0:
422,102,307529,1,10,0:0:0:0:
450,137,307612,1,0,0:0:0:0:
446,190,307696,1,0,0:0:0:0:
396,224,307779,1,0,0:0:0:0:
333,194,307862,1,10,0:0:0:0:
257,213,307946,1,0,0:0:0:0:
211,295,308029,6,0,P|206:326|214:356,1,62.5,4|0,0:0|0:0,0:0:0:0:
358,101,308196,2,0,P|364:70|355:40,1,62.5,8|0,0:0|0:0,0:0:0:0:
382,271,308362,2,0,P|413:276|443:268,1,62.5,0|0,0:0|0:0,0:0:0:0:
188,124,308529,2,0,P|157:118|127:127,1,62.5,10|0,0:0|0:0,0:0:0:0:
353,375,308696,6,0,P|323:358|303:330,1,62.5,0|0,0:0|0:0,0:0:0:0:
218,20,308862,2,0,P|248:37|267:65,1,62.5,10|0,0:0|0:0,0:0:0:0:
463,130,309029,2,0,P|445:159|418:179,1,62.5,0|0,0:0|0:0,0:0:0:0:
108,265,309196,2,0,P|124:235|152:216,1,62.5,10|0,0:0|0:0,0:0:0:0:
410,288,309362,6,0,P|441:290|471:281,1,62.5,4|0,0:0|0:0,0:0:0:0:
160,107,309529,2,0,P|129:104|100:114,1,62.5,10|0,0:0|0:0,0:0:0:0:
375,73,309695,2,0,P|377:42|368:12,1,62.5,0|0,0:0|0:0,0:0:0:0:
194,323,309862,2,0,P|192:353|201:383,1,62.5,10|0,0:0|0:0,0:0:0:0:
478,111,310029,5,8,0:0:0:0:
462,84,310112,1,8,0:0:0:0:
425,67,310196,1,8,0:0:0:0:
375,73,310279,1,8,0:0:0:0:
336,116,310362,1,0,0:0:0:0:
278,153,310446,1,0,0:0:0:0:
201,155,310529,1,0,0:0:0:0:
125,114,310612,1,0,0:0:0:0:
89,33,310696,5,12,0:0:0:0:
93,45,310779,1,0,0:0:0:0:
95,57,310862,1,0,0:0:0:0:
97,69,310945,1,0,0:0:0:0:
97,82,311029,1,10,0:0:0:0:
97,94,311112,1,0,0:0:0:0:
95,107,311195,1,0,0:0:0:0:
92,119,311279,1,0,0:0:0:0:
89,131,311362,1,10,0:0:0:0:
84,142,311445,1,0,0:0:0:0:
79,154,311529,1,0,0:0:0:0:
73,164,311612,1,0,0:0:0:0:
65,175,311696,6,0,P|56:205|60:238,1,50,10|0,0:0|0:0,0:0:0:0:
171,323,311862,2,0,L|166:273,1,50
239,150,312029,5,10,0:0:0:0:
248,141,312112,1,0,0:0:0:0:
258,133,312195,1,0,0:0:0:0:
269,127,312278,1,0,0:0:0:0:
281,123,312362,1,10,0:0:0:0:
294,121,312445,1,0,0:0:0:0:
306,121,312528,1,0,0:0:0:0:
318,123,312612,1,0,0:0:0:0:
330,126,312695,1,10,0:0:0:0:
342,132,312778,1,0,0:0:0:0:
352,139,312862,1,0,0:0:0:0:
361,147,312945,1,0,0:0:0:0:
369,157,313029,2,0,L|376:206,3,50,10|0|0|0,0:0|0:0|0:0|0:0,0:0:0:0:
448,231,313362,5,12,0:0:0:0:
444,242,313445,1,0,0:0:0:0:
438,253,313528,1,0,0:0:0:0:
429,262,313611,1,0,0:0:0:0:
420,270,313695,1,10,0:0:0:0:
409,276,313778,1,0,0:0:0:0:
397,280,313861,1,0,0:0:0:0:
385,282,313945,1,0,0:0:0:0:
372,282,314029,1,10,0:0:0:0:
361,276,314112,1,0,0:0:0:0:
349,272,314195,1,0,0:0:0:0:
337,269,314278,1,0,0:0:0:0:
325,268,314362,1,10,0:0:0:0:
312,269,314445,1,0,0:0:0:0:
300,271,314528,1,0,0:0:0:0:
288,275,314612,1,0,0:0:0:0:
277,280,314696,6,0,L|275:329,1,50,14|0,0:0|0:0,0:0:0:0:
147,238,314862,2,0,L|145:189,1,50
269,127,315029,2,0,L|271:77,3,50,14|0|0|0,0:0|0:0|0:0|0:0,0:0:0:0:
148,23,315362,5,8,0:0:0:0:
104,46,315446,1,8,0:0:0:0:
79,94,315529,1,8,0:0:0:0:
91,152,315612,1,8,0:0:0:0:
145,189,315696,1,8,0:0:0:0:
176,251,315779,1,8,0:0:0:0:
146,319,315862,1,8,0:0:0:0:
68,335,315945,1,8,0:0:0:0:
9,274,316029,6,0,B|52:294|96:262|96:262|141:302|141:302|184:242|288:274,1,312.5,4|0,0:1|0:0,0:0:0:0:
357,352,316529,1,10,0:0:0:0:
425,358,316612,1,0,0:0:0:0:
475,319,316696,1,0,0:0:0:0:
489,264,316779,1,0,0:0:0:0:
473,216,316862,1,10,0:0:0:0:
439,186,316946,1,0,0:0:0:0:
428,150,317029,1,0,0:0:0:0:
433,119,317112,1,0,0:0:0:0:
444,96,317196,1,10,0:0:0:0:
457,82,317279,1,0,0:0:0:0:
468,76,317362,5,4,0:1:0:0:
459,92,317446,1,0,0:0:0:0:
439,107,317529,1,8,0:0:0:0:
408,114,317612,1,0,0:0:0:0:
370,107,317696,1,0,0:0:0:0:
343,72,317779,1,0,0:0:0:0:
294,61,317862,1,10,0:0:0:0:
244,88,317946,1,0,0:0:0:0:
230,148,318029,5,0,0:0:0:0:
223,73,318112,1,0,0:0:0:0:
165,34,318196,1,10,0:0:0:0:
104,47,318279,1,0,0:0:0:0:
70,91,318362,1,0,0:0:0:0:
70,141,318446,1,0,0:0:0:0:
92,178,318529,1,10,0:0:0:0:
123,198,318612,1,0,0:0:0:0:
154,202,318696,5,4,0:1:0:0:
187,186,318779,1,0,0:0:0:0:
230,182,318862,1,8,0:0:0:0:
275,204,318946,1,0,0:0:0:0:
304,251,319029,1,0,0:0:0:0:
362,273,319112,1,0,0:0:0:0:
427,249,319196,2,0,L|435:183,1,62.5,10|0,0:0|0:0,0:0:0:0:
348,51,319362,5,0,0:0:0:0:
355,50,319446,1,0,0:0:0:0:
362,49,319529,2,0,P|366:84|357:111,1,62.5,12|0,0:0|0:0,0:0:0:0:
241,175,319696,2,0,P|237:144|246:114,1,62.5,12|0,0:0|0:0,0:0:0:0:
123,66,319862,1,0,0:0:0:0:
123,66,319946,1,0,0:0:0:0:
123,66,320029,6,0,L|82:61,2,41.6666666666667,8|8|8,0:0|0:0|0:0,0:0:0:0:
175,2,320251,1,8,0:0:0:0:
251,32,320362,1,8,0:0:0:0:
245,114,320474,1,0,0:0:0:0:
167,136,320585,1,0,0:0:0:0:
163,217,320696,6,0,B|162:241|162:241|150:267,3,41.6666666666667,0|0|0|0,0:0|0:0|0:0|0:0,0:0:0:0:
239,245,320918,5,0,0:0:0:0:
248,242,320974,1,0,0:0:0:0:
257,239,321029,1,0,0:0:0:0:
266,236,321085,1,0,0:0:0:0:
275,233,321140,1,0,0:0:0:0:
284,230,321196,1,0,0:0:0:0:
293,227,321251,1,0,0:0:0:0:
302,224,321307,1,0,0:0:0:0:
311,221,321362,6,0,L|377:228,1,56.2500021457673,12|0,0:0|0:0,0:0:0:0:
505,275,321529,1,0,0:0:0:0:
479,264,321612,1,0,0:0:0:0:
451,268,321695,1,0,0:0:0:0:
430,285,321778,1,0,0:0:0:0:
420,311,321862,2,0,L|427:367,1,56.2500021457673,12|0,0:0|0:0,0:0:0:0:
274,130,322029,5,0,0:0:0:0:
299,118,322112,1,0,0:0:0:0:
327,122,322195,1,0,0:0:0:0:
348,139,322278,1,0,0:0:0:0:
359,166,322362,2,0,L|352:222,1,56.2500021457673,12|0,0:0|0:0,0:0:0:0:
161,359,322529,5,0,0:0:0:0:
181,378,322612,1,0,0:0:0:0:
208,384,322695,1,0,0:0:0:0:
234,374,322778,1,0,0:0:0:0:
251,352,322862,2,0,B|258:292,1,56.2500021457673,12|0,0:0|0:0,0:0:0:0:
137,206,323029,5,0,0:0:0:0:
117,225,323112,1,0,0:0:0:0:
90,231,323195,1,0,0:0:0:0:
64,221,323278,1,0,0:0:0:0:
47,199,323362,2,0,B|40:139,1,56.2500021457673,12|0,0:0|0:0,0:0:0:0:
154,38,323529,2,0,B|210:61,1,56.2500021457673,0|0,0:0|0:0,0:0:0:0:
239,212,323696,2,0,B|191:248,3,56.2500021457673,12|0|0|0,0:0|0:0|0:0|0:0,0:0:0:0:
118,279,324029,6,0,B|112:251|112:251|118:223,1,56.2500021457673,12|0,0:0|0:0,0:0:0:0:
247,120,324196,1,0,0:0:0:0:
272,108,324279,1,0,0:0:0:0:
305,113,324362,1,0,0:0:0:0:
327,145,324446,1,0,0:0:0:0:
364,169,324529,1,8,0:0:0:0:
414,173,324612,1,8,0:0:0:0:
459,138,324696,1,8,0:0:0:0:
457,76,324779,1,8,0:0:0:0:
395,47,324862,1,8,0:0:0:0:
339,95,324946,1,8,0:0:0:0:
364,169,325029,5,0,0:0:0:0:
362,178,325085,1,0,0:0:0:0:
360,187,325140,1,0,0:0:0:0:
358,196,325196,1,0,0:0:0:0:
356,205,325251,1,0,0:0:0:0:
354,214,325307,1,0,0:0:0:0:
352,223,325362,6,0,L|344:157,1,66.6666666666667,12|0,0:2|0:0,0:0:0:0:
181,259,325585,2,0,L|242:285,1,66.6666666666667,4|0,0:0|0:0,0:0:0:0:
234,93,325807,2,0,L|181:133,1,66.6666666666667,4|0,0:0|0:0,0:0:0:0:
292,364,326029,6,0,L|385:294,1,66.6666666666667,4|0,0:0|0:0,0:0:0:0:
88,137,326251,2,0,L|102:253,1,66.6666666666667,4|0,0:0|0:0,0:0:0:0:
386,73,326474,2,0,L|279:28,1,66.6666666666667,4|0,0:0|0:0,0:0:0:0:
256,192,326696,5,4,0:1:0:0:
493,360,328029,5,4,0:1:0:0:
38,350,329196,5,0,0:0:0:0:
58,261,329362,1,4,0:1:0:0:
483,64,330696,5,4,0:1:0:0:
446,178,330862,1,0,0:0:0:0:
336,152,331029,1,8,0:0:0:0:
209,272,331279,5,8,0:0:0:0:
207,260,331362,1,8,0:0:0:0:
195,173,331529,1,4,0:0:0:0:
286,220,331696,1,4,0:0:0:0:
287,317,331862,1,4,0:0:0:0:
124,365,332029,6,0,L|118:303,1,50,4|0,0:1|0:0,0:0:0:0:
33,254,332362,2,0,L|27:192,1,50,2|0,0:0|0:0,0:0:0:0:
102,126,332696,2,0,L|96:64,1,50,2|0,0:0|0:0,0:0:0:0:
193,168,333029,1,2,0:0:0:0:
200,260,333196,1,0,0:0:0:0:
295,335,333362,6,0,P|320:309|355:305,1,50,4|0,0:1|0:0,0:0:0:0:
385,155,333696,2,0,P|402:191|424:207,1,50,2|0,0:0|0:0,0:0:0:0:
499,361,334029,2,0,P|481:336|456:328,1,50,2|0,0:0|0:0,0:0:0:0:
405,271,334362,1,2,0:0:0:0:
286,202,334529,5,0,0:0:0:0:
286,196,334584,1,0,0:0:0:0:
287,190,334640,1,0,0:0:0:0:
287,185,334696,1,8,0:0:0:0:
308,88,334862,1,0,0:0:0:0:
194,87,335029,1,0,0:0:0:0:
174,187,335196,1,0,0:0:0:0:
67,119,335362,5,8,0:0:0:0:
9,236,335529,1,8,0:0:0:0:
95,340,335696,1,8,0:0:0:0:
223,290,335862,1,8,0:0:0:0:
357,352,336029,5,8,0:0:0:0:
460,254,336196,1,8,0:0:0:0:
464,241,336279,1,8,0:0:0:0:
370,141,336446,1,8,0:0:0:0:
366,128,336529,1,8,0:0:0:0:
448,21,336696,5,8,0:0:0:0:
440,55,336780,1,8,0:0:0:0:
247,82,336946,1,4,0:0:0:0:
253,110,337029,1,4,0:0:0:0:
260,139,337112,1,4,0:0:0:0:
268,169,337195,1,4,0:0:0:0:
275,197,337279,1,4,0:0:0:0:
283,226,337362,6,0,L|97:221,1,150,12|0,0:0|0:0,0:0:0:0:
120,240,337696,1,10,0:0:0:0:
310,324,337862,2,0,L|191:329,1,100,0|10,0:0|0:0,0:0:0:0:
385,236,338196,5,0,0:0:0:0:
387,259,338279,1,0,0:0:0:0:
388,282,338362,1,10,0:0:0:0:
470,197,338529,1,0,0:0:0:0:
473,159,338612,1,0,0:0:0:0:
477,121,338696,6,0,L|316:102,1,150,8|0,0:0|0:0,0:0:0:0:
342,94,339029,1,10,0:0:0:0:
205,209,339196,2,0,L|310:185,1,100,0|10,0:0|0:0,0:0:0:0:
151,83,339529,5,0,0:0:0:0:
149,60,339612,1,0,0:0:0:0:
148,37,339695,1,10,0:0:0:0:
66,122,339862,1,0,0:0:0:0:
63,160,339945,1,0,0:0:0:0:
59,198,340029,6,0,L|6:34,1,150,12|0,0:0|0:0,0:0:0:0:
30,52,340362,1,10,0:0:0:0:
154,252,340529,2,0,L|173:147,1,100,0|10,0:0|0:0,0:0:0:0:
71,337,340862,5,0,0:0:0:0:
48,335,340945,1,0,0:0:0:0:
25,334,341028,1,10,0:0:0:0:
160,373,341195,1,0,0:0:0:0:
198,370,341278,1,0,0:0:0:0:
236,366,341362,6,0,L|289:226,1,150,12|0,0:0|0:0,0:0:0:0:
299,250,341695,1,10,0:0:0:0:
360,340,341862,1,0,0:0:0:0:
489,121,342029,6,0,L|463:226,1,100,10|0,0:0|0:0,0:0:0:0:
459,240,342279,1,0,0:0:0:0:
452,261,342362,1,14,0:0:0:0:
358,147,342529,1,0,0:0:0:0:
368,159,342612,1,0,0:0:0:0:
382,163,342696,6,0,L|211:136,1,150,12|0,0:0|0:0,0:0:0:0:
238,150,343029,1,10,0:0:0:0:
116,239,343196,2,0,L|219:229,1,100,0|10,0:0|0:0,0:0:0:0:
82,123,343529,5,0,0:0:0:0:
59,121,343612,1,0,0:0:0:0:
36,120,343695,1,14,0:0:0:0:
131,27,343862,1,0,0:0:0:0:
169,30,343945,1,0,0:0:0:0:
207,34,344029,6,0,L|376:48,1,150,12|0,0:0|0:0,0:0:0:0:
365,59,344362,1,10,0:0:0:0:
492,138,344529,2,0,L|381:151,1,100,0|10,0:0|0:0,0:0:0:0:
295,178,344862,5,0,0:0:0:0:
297,155,344945,1,0,0:0:0:0:
298,132,345028,1,14,0:0:0:0:
167,125,345196,1,0,0:0:0:0:
170,163,345279,1,0,0:0:0:0:
174,201,345362,6,0,L|188:370,1,150,12|0,0:0|0:0,0:0:0:0:
199,359,345696,1,10,0:0:0:0:
78,270,345862,1,0,0:0:0:0:
304,267,346029,5,10,0:0:0:0:
355,353,346196,1,0,0:0:0:0:
377,355,346279,1,0,0:0:0:0:
396,359,346362,1,12,0:0:0:0:
464,274,346529,1,0,0:0:0:0:
465,263,346612,1,0,0:0:0:0:
465,251,346696,5,8,0:0:0:0:
441,246,346779,1,4,0:0:0:0:
414,222,346862,1,4,0:0:0:0:
400,192,346946,1,4,0:0:0:0:
377,171,347029,1,4,0:0:0:0:
344,158,347112,1,4,0:0:0:0:
305,171,347196,1,4,0:0:0:0:
293,202,347279,1,4,0:0:0:0:
302,234,347362,5,0,0:0:0:0:
289,232,347417,1,0,0:0:0:0:
277,230,347473,1,0,0:0:0:0:
264,228,347528,1,0,0:0:0:0:
252,226,347584,1,0,0:0:0:0:
240,225,347639,1,0,0:0:0:0:
227,223,347696,2,0,L|190:112,1,100,12|0,0:0|0:0,0:0:0:0:
56,384,348029,5,12,0:0:0:0:
45,237,348196,1,0,0:0:0:0:
179,298,348362,1,2,0:0:0:0:
78,378,348529,5,8,0:0:0:0:
72,253,348696,1,2,0:0:0:0:
194,313,348862,1,0,0:0:0:0:
392,371,349029,5,8,0:0:0:0:
394,333,349112,1,0,0:0:0:0:
397,296,349195,1,0,0:0:0:0:
400,258,349278,1,0,0:0:0:0:
439,233,349362,5,12,0:0:0:0:
309,263,349529,1,0,0:0:0:0:
489,342,349696,1,2,0:0:0:0:
300,370,349862,5,8,0:0:0:0:
319,250,350029,1,2,0:0:0:0:
489,328,350196,1,2,0:0:0:0:
433,84,350362,5,0,0:0:0:0:
426,82,350417,1,0,0:0:0:0:
418,81,350473,1,0,0:0:0:0:
411,80,350529,2,0,L|363:66,1,50,0|0,0:0|0:0,0:0:0:0:
296,31,350695,5,12,0:0:0:0:
490,9,350862,1,0,0:0:0:0:
472,155,351029,1,2,0:0:0:0:
320,140,351196,5,8,0:0:0:0:
295,17,351362,1,2,0:0:0:0:
461,143,351529,1,0,0:0:0:0:
159,0,351696,5,8,0:0:0:0:
147,35,351779,1,0,0:0:0:0:
136,71,351862,1,0,0:0:0:0:
125,107,351945,1,0,0:0:0:0:
148,141,352029,5,12,0:0:0:0:
50,46,352196,1,0,0:0:0:0:
221,77,352362,1,0,0:0:0:0:
161,248,352529,5,8,0:0:0:0:
269,294,352696,1,0,0:0:0:0:
266,286,352751,1,0,0:0:0:0:
263,278,352807,1,0,0:0:0:0:
258,269,352862,2,0,L|237:212,1,50,0|0,0:0|0:0,0:0:0:0:
275,152,353029,1,12,0:0:0:0:
70,246,353196,1,0,0:0:0:0:
354,341,353362,5,12,0:0:0:0:
363,253,353529,1,0,0:0:0:0:
370,160,353696,1,2,0:0:0:0:
485,225,353862,5,8,0:0:0:0:
479,131,354029,1,2,0:0:0:0:
476,38,354196,1,0,0:0:0:0:
257,217,354362,5,8,0:0:0:0:
252,186,354445,1,0,0:0:0:0:
247,155,354528,1,0,0:0:0:0:
242,124,354611,1,0,0:0:0:0:
262,92,354695,5,12,0:0:0:0:
165,135,354862,1,0,0:0:0:0:
181,223,355029,1,2,0:0:0:0:
25,219,355196,5,8,0:0:0:0:
98,269,355363,1,2,0:0:0:0:
78,356,355530,1,2,0:0:0:0:
289,366,355696,5,0,0:0:0:0:
287,357,355751,1,0,0:0:0:0:
286,349,355807,1,0,0:0:0:0:
285,342,355863,2,0,L|271:294,1,50,0|0,0:0|0:0,0:0:0:0:
260,219,356029,5,12,0:0:0:0:
346,248,356196,1,0,0:0:0:0:
365,336,356362,1,2,0:0:0:0:
503,233,356529,5,8,0:0:0:0:
417,204,356696,1,2,0:0:0:0:
398,116,356862,1,0,0:0:0:0:
264,19,357029,5,8,0:0:0:0:
259,50,357112,1,0,0:0:0:0:
254,81,357195,1,0,0:0:0:0:
249,112,357278,1,0,0:0:0:0:
269,144,357362,5,12,0:0:0:0:
61,270,357612,1,8,0:0:0:0:
55,245,357696,1,8,0:0:0:0:
162,165,357862,1,8,0:0:0:0:
162,194,357946,1,8,0:0:0:0:
162,225,358029,1,8,0:0:0:0:
56,149,358196,1,4,0:0:0:0:
116,79,358362,1,4,0:0:0:0:
210,85,358529,1,4,0:0:0:0:
451,325,358696,5,12,0:0:0:0:
497,205,358862,1,0,0:0:0:0:
370,150,359029,1,0,0:0:0:0:
405,23,359195,1,0,0:0:0:0:
144,11,359362,5,12,0:0:0:0:
176,152,359529,1,0,0:0:0:0:
42,233,359696,1,0,0:0:0:0:
37,263,359779,1,0,0:0:0:0:
32,294,359862,1,0,0:0:0:0:
28,325,359945,1,0,0:0:0:0:
44,355,360029,5,12,0:0:0:0:
141,250,360196,1,0,0:0:0:0:
40,128,360362,1,0,0:0:0:0:
137,23,360529,1,0,0:0:0:0:
351,39,360696,5,12,0:0:0:0:
357,76,360779,1,0,0:0:0:0:
363,114,360862,1,0,0:0:0:0:
368,152,360945,1,0,0:0:0:0:
413,175,361029,5,12,0:0:0:0:
407,212,361112,1,0,0:0:0:0:
401,250,361195,1,0,0:0:0:0:
396,289,361278,1,0,0:0:0:0:
430,318,361362,5,12,0:0:0:0:
304,231,361529,1,0,0:0:0:0:
510,140,361696,1,0,0:0:0:0:
416,9,361862,1,0,0:0:0:0:
163,13,362029,5,12,0:0:0:0:
197,165,362196,1,0,0:0:0:0:
42,233,362362,1,0,0:0:0:0:
37,263,362445,1,0,0:0:0:0:
32,294,362528,1,0,0:0:0:0:
28,325,362611,1,0,0:0:0:0:
44,355,362695,5,12,0:0:0:0:
177,297,362862,1,0,0:0:0:0:
226,293,362945,1,0,0:0:0:0:
276,289,363028,1,12,0:0:0:0:
393,234,363196,1,0,0:0:0:0:
442,230,363279,1,0,0:0:0:0:
492,226,363362,5,8,0:0:0:0:
486,250,363445,1,8,0:0:0:0:
481,274,363528,1,8,0:0:0:0:
476,299,363611,1,8,0:0:0:0:
472,323,363696,5,0,0:0:0:0:
463,323,363751,1,0,0:0:0:0:
455,324,363807,1,0,0:0:0:0:
446,325,363862,2,0,L|379:328,1,50,0|0,0:0|0:0,0:0:0:0:
272,200,364029,5,14,0:0:0:0:
319,214,364112,1,0,0:0:0:0:
332,260,364195,1,0,0:0:0:0:
301,297,364279,1,0,0:0:0:0:
253,290,364362,1,10,0:0:0:0:
219,259,364445,1,0,0:0:0:0:
176,236,364529,1,0,0:0:0:0:
127,236,364612,1,0,0:0:0:0:
86,264,364695,5,10,0:0:0:0:
118,285,364779,1,0,0:0:0:0:
155,273,364862,1,0,0:0:0:0:
181,244,364945,1,0,0:0:0:0:
208,212,365029,1,10,0:0:0:0:
241,184,365112,1,0,0:0:0:0:
284,175,365195,1,0,0:0:0:0:
328,186,365279,1,0,0:0:0:0:
362,218,365362,5,14,0:0:0:0:
325,240,365445,1,0,0:0:0:0:
288,232,365529,1,0,0:0:0:0:
251,206,365612,1,0,0:0:0:0:
214,178,365695,1,10,0:0:0:0:
170,158,365779,1,0,0:0:0:0:
117,157,365862,1,0,0:0:0:0:
72,179,365945,1,0,0:0:0:0:
51,224,366029,5,10,0:0:0:0:
93,257,366112,1,0,0:0:0:0:
144,255,366195,1,0,0:0:0:0:
190,230,366279,1,0,0:0:0:0:
226,196,366362,1,14,0:0:0:0:
272,175,366445,1,0,0:0:0:0:
321,179,366529,1,0,0:0:0:0:
368,200,366612,1,0,0:0:0:0:
391,244,366695,5,12,0:0:0:0:
302,320,366862,1,0,0:0:0:0:
296,295,366945,1,0,0:0:0:0:
291,271,367028,1,0,0:0:0:0:
473,167,367196,1,8,0:0:0:0:
258,105,367362,1,0,0:0:0:0:
254,80,367445,1,0,0:0:0:0:
250,55,367528,1,0,0:0:0:0:
247,30,367611,1,0,0:0:0:0:
243,6,367695,1,12,0:0:0:0:
42,146,367862,1,0,0:0:0:0:
419,307,368029,5,8,0:0:0:0:
176,344,368196,1,8,0:0:0:0:
139,60,368362,1,8,0:0:0:0:
139,60,369362,6,2,B|132:102|94:124|94:124|202:107|180:175|300:120,1,262.500010013581,2|0,0:0|0:0,0:1:0:0:
386,92,370029,2,2,B|419:47|397:2|332:-10|297:3|263:77|285:160|352:211,1,350,2|0,0:0|0:0,0:1:0:0:
440,285,370696,2,2,B|272:365|272:212|103:285|103:285|141:278|190:306,1,437.5,2|0,0:0|0:0,0:1:0:0:
122,377,371363,6,0,B|184:231|64:230|135:87,1,300.000011444092,2|0,3:2|0:0,0:0:0:0:
336,188,372196,1,2,0:0:0:0:
205,171,372363,1,10,0:0:0:0:
142,263,372529,1,2,0:0:0:0:
361,384,372696,5,10,0:0:0:0:
376,254,372863,1,8,0:0:0:0:
391,124,373029,1,8,0:0:0:0:
391,124,373363,1,0,0:0:0:0:
392,131,373446,1,0,0:0:0:0:
394,138,373529,1,2,0:0:0:0:
376,254,373696,1,2,0:0:0:0:
274,303,373863,1,2,0:0:0:0:
78,263,374029,6,0,P|125:241|202:256,1,112.500004291535,10|0,0:0|0:1,0:1:0:0:
274,303,374363,2,0,L|285:371,2,50.0000019073487,2|0|0,0:0|0:0|0:0,0:0:0:0:
357,148,374696,2,0,P|378:218|360:291,1,150,2|0,0:0|0:0,0:0:0:0:
489,55,375029,2,0,P|463:143|484:233,1,187.5,2|0,0:0|0:0,0:0:0:0:
357,24,375363,5,8,0:0:0:0:
252,63,375529,1,8,0:0:0:0:
338,134,375696,1,8,0:0:0:0:
102,40,376029,2,0,L|85:135,1,75.0000028610231,8|2,0:0|0:0,0:0:0:0:
199,218,376363,2,0,L|185:144,1,75.0000028610231,10|2,0:0|0:0,0:0:0:0:
36,315,376696,6,0,P|90:301|145:309,1,112.500004291535,10|0,3:2|0:0,0:0:0:0:
185,338,377029,1,0,0:0:0:0:
233,348,377140,1,0,0:0:0:0:
282,336,377251,1,0,0:0:0:0:
321,306,377363,2,0,L|343:179,1,112.500004291535,2|0,0:0|0:0,0:0:0:0:
347,179,377696,1,10,0:0:0:0:
429,309,377863,1,2,0:0:0:0:
216,186,378029,5,10,0:0:0:0:
347,179,378196,1,8,0:0:0:0:
478,168,378363,1,10,0:0:0:0:
478,168,378696,1,2,0:0:0:0:
481,161,378779,1,0,0:0:0:0:
485,155,378863,1,0,0:0:0:0:
428,80,379029,1,2,0:0:0:0:
315,90,379196,1,2,0:0:0:0:
150,161,379363,6,0,P|200:182|271:165,1,112.500004291535,10|0,0:0|0:0,0:0:0:0:
315,90,379696,2,0,L|323:24,2,50.0000019073487,0|0|0,0:0|0:0|0:0,0:0:0:0:
342,291,380029,2,0,P|359:233|356:179,1,112.500004291535
453,384,380363,2,0,P|436:326|438:272,1,112.500004291535,8|0,0:0|0:0,0:0:0:0:
501,157,380696,6,0,B|415:147|445:201|342:179,1,150,10|0,0:0|0:0,0:0:0:0:
340,172,381029,1,8,0:0:0:0:
438,274,381196,1,8,0:0:0:0:
272,384,381363,5,2,0:0:0:0:
316,280,381530,1,2,0:0:0:0:
241,195,381696,2,0,L|146:204,1,75.0000028610231,2|2,0:0|0:0,0:0:0:0:
52,327,382029,6,0,P|86:254|72:178,1,150.000005722046,8|0,3:2|0:0,0:0:0:0:
183,112,382529,2,0,B|103:126|124:88|36:108,1,150.000005722046,8|0,0:0|0:0,0:0:0:0:
288,47,383029,1,0,0:0:0:0:
288,47,383196,1,2,0:0:0:0:
369,282,383363,6,0,B|403:201|347:209|384:116,1,150.000005722046,8|0,3:2|0:0,0:0:0:0:
183,276,383863,2,0,P|254:288|303:235,1,150.000005722046,8|0,0:0|0:0,0:0:0:0:
459,364,384363,1,0,0:0:0:0:
459,364,384530,1,2,0:0:0:0:
377,135,384696,6,0,P|399:127|441:123,1,50,10|0,3:2|0:0,0:0:0:0:
303,234,385029,2,0,P|328:245|367:278,1,75.0000028610231,2|8,0:0|0:0,0:0:0:0:
199,121,385363,2,0,P|214:87|256:37,1,100,2|0,0:0|0:0,0:0:0:0:
55,294,385696,2,0,B|54:248|99:216|99:216|149:232|176:276,1,187.5,2|0,0:0|0:0,0:0:0:0:
274,317,386029,6,0,B|223:314|238:366|175:357,1,112.500004291535,10|0,3:2|0:0,0:0:0:0:
157,352,386363,1,0,0:0:0:0:
293,323,386529,1,8,0:0:0:0:
312,329,386863,1,2,0:0:0:0:
322,217,387029,1,2,0:0:0:0:
439,158,387196,1,2,0:0:0:0:
312,329,387363,5,10,3:2:0:0:
212,145,387529,1,2,0:0:0:0:
102,217,387696,2,0,L|21:203,1,75.0000028610231,2|0,0:0|0:0,0:0:0:0:
194,18,388029,2,0,P|226:48|192:158,1,150.000005722046,2|0,0:0|0:0,0:0:0:0:
9,316,388529,6,0,L|125:295,1,112.500004291535,2|0,0:0|0:0,0:0:0:0:
137,304,388863,1,2,0:0:0:0:
230,242,389029,1,2,0:0:0:0:
346,302,389196,2,0,P|378:272|344:162,1,150.000005722046,2|0,0:0|0:0,0:0:0:0:
135,78,389696,2,0,L|208:65,1,75.0000028610231,2|0,0:0|0:0,0:0:0:0:
231,53,390029,5,12,0:0:0:0:
322,94,390196,1,0,0:0:0:0:
419,24,390363,1,0,0:0:0:0:
489,144,390529,1,0,0:0:0:0:
324,3,390696,5,12,0:2:0:0:
485,169,390863,1,8,0:0:0:0:
252,213,391029,1,8,0:0:0:0:
439,18,391196,1,8,0:0:0:0:
455,329,391363,5,12,0:0:0:0:
373,250,391529,1,8,0:0:0:0:
370,225,391613,1,8,0:0:0:0:
366,200,391696,1,8,0:0:0:0:
493,119,391946,5,8,0:0:0:0:
489,144,392029,1,8,0:0:0:0:
303,39,392196,1,12,0:2:0:0:
422,0,392446,5,8,0:0:0:0:
418,25,392529,1,8,0:0:0:0:
232,155,392696,1,12,0:0:0:0:
138,44,392863,5,0,0:0:0:0:
113,37,392946,1,0,0:0:0:0:
83,42,393029,1,8,0:0:0:0:
53,60,393113,1,8,0:0:0:0:
30,92,393196,1,8,0:0:0:0:
22,136,393279,1,8,0:0:0:0:
39,183,393363,5,8,0:0:0:0:
90,164,393446,1,8,0:0:0:0:
149,172,393529,1,8,0:0:0:0:
197,215,393613,1,8,0:0:0:0:
213,282,393696,1,8,0:0:0:0:
248,347,393779,1,8,0:0:0:0:
320,382,393863,1,8,0:0:0:0:
402,364,393946,1,8,0:0:0:0:
438,287,394029,5,4,0:0:0:0:
400,269,394112,1,0,0:0:0:0:
359,264,394196,1,8,0:0:0:0:
318,273,394278,1,0,0:0:0:0:
283,294,394363,1,0,0:0:0:0:
244,312,394446,1,0,0:0:0:0:
203,315,394529,1,10,0:0:0:0:
163,307,394612,1,0,0:0:0:0:
133,275,394696,1,0,0:0:0:0:
128,229,394779,1,0,0:0:0:0:
161,190,394863,6,0,P|194:171|232:161,1,62.5,10|0,0:0|0:0,0:0:0:0:
108,105,395029,2,0,P|130:73|147:25,1,62.5
45,173,395196,2,0,P|26:147|-5:115,1,62.5,10|0,0:0|0:0,0:0:0:0:
8,316,395363,5,0,0:0:0:0:
44,303,395446,1,0,0:0:0:0:
82,318,395529,1,10,0:0:0:0:
109,351,395613,1,0,0:0:0:0:
146,376,395696,1,0,0:0:0:0:
192,382,395779,1,0,0:0:0:0:
233,355,395863,1,10,0:0:0:0:
256,307,395946,1,0,0:0:0:0:
236,261,396029,1,0,0:0:0:0:
193,244,396113,1,0,0:0:0:0:
152,250,396196,6,0,P|149:271|168:312,1,62.5,10|0,0:0|0:0,0:0:0:0:
317,214,396363,2,0,P|297:191|238:180,1,62.5,0|0,0:0|0:0,0:0:0:0:
334,373,396529,2,0,P|367:355|392:321,1,62.5,10|0,0:0|0:0,0:0:0:0:
465,222,396696,5,4,0:0:0:0:
455,207,396779,1,0,0:0:0:0:
439,193,396863,1,8,0:0:0:0:
419,185,396946,1,0,0:0:0:0:
393,184,397029,1,0,0:0:0:0:
361,196,397113,1,0,0:0:0:0:
338,221,397196,1,10,0:0:0:0:
302,240,397279,1,0,0:0:0:0:
259,248,397363,1,0,0:0:0:0:
217,232,397446,1,0,0:0:0:0:
187,186,397529,1,10,0:0:0:0:
193,132,397613,1,0,0:0:0:0:
235,95,397696,1,0,0:0:0:0:
293,93,397779,1,0,0:0:0:0:
344,117,397863,1,10,0:0:0:0:
401,131,397946,1,0,0:0:0:0:
460,111,398029,5,0,0:0:0:0:
436,85,398113,1,0,0:0:0:0:
393,79,398196,1,10,0:0:0:0:
350,101,398279,1,0,0:0:0:0:
309,124,398363,1,0,0:0:0:0:
264,137,398446,1,0,0:0:0:0:
219,119,398529,1,10,0:0:0:0:
188,78,398613,1,0,0:0:0:0:
197,28,398696,1,0,0:0:0:0:
238,3,398779,1,0,0:0:0:0:
289,9,398863,6,0,P|315:14|350:37,1,62.5,10|0,0:0|0:0,0:0:0:0:
392,157,399029,2,0,P|381:194|345:243,1,62.5,0|0,0:0|0:0,0:0:0:0:
278,295,399196,2,0,P|251:302|200:309,1,62.5,14|0,0:0|0:0,0:0:0:0:
124,144,399363,5,4,0:0:0:0:
147,177,399446,1,0,0:0:0:0:
148,220,399529,1,8,0:0:0:0:
127,259,399613,1,0,0:0:0:0:
85,278,399696,1,0,0:0:0:0:
45,267,399779,1,0,0:0:0:0:
16,230,399863,2,0,P|9:207|31:145,1,62.5,10|0,0:0|0:0,0:0:0:0:
228,150,400029,5,0,0:0:0:0:
205,117,400112,1,0,0:0:0:0:
204,74,400196,1,10,0:0:0:0:
225,35,400279,1,0,0:0:0:0:
267,16,400362,2,0,P|291:9|344:12,1,62.5,0|0,0:0|0:0,0:0:0:0:
446,62,400529,2,0,P|419:73|356:90,1,62.5,10|0,0:0|0:0,0:0:0:0:
340,181,400696,5,0,0:0:0:0:
360,206,400779,1,0,0:0:0:0:
392,230,400862,1,10,0:0:0:0:
431,239,400946,1,0,0:0:0:0:
476,230,401029,1,0,0:0:0:0:
440,200,401112,1,0,0:0:0:0:
396,206,401196,1,10,0:0:0:0:
355,232,401279,1,0,0:0:0:0:
314,257,401362,1,0,0:0:0:0:
267,264,401446,1,0,0:0:0:0:
225,244,401529,1,10,0:0:0:0:
205,203,401612,1,0,0:0:0:0:
215,156,401696,6,0,P|226:123|249:97,1,62.5,0|0,0:0|0:0,0:0:0:0:
104,220,401862,2,0,P|76:178|73:143,1,62.5,10|0,0:0|0:0,0:0:0:0:
207,366,402029,5,4,0:0:0:0:
164,372,402112,1,0,0:0:0:0:
138,342,402196,1,8,0:0:0:0:
159,298,402279,1,0,0:0:0:0:
204,298,402362,1,0,0:0:0:0:
230,331,402446,1,0,0:0:0:0:
261,356,402529,1,10,0:0:0:0:
304,363,402612,1,0,0:0:0:0:
345,347,402696,1,0,0:0:0:0:
368,310,402779,1,0,0:0:0:0:
354,267,402862,1,10,0:0:0:0:
314,244,402946,1,0,0:0:0:0:
296,199,403029,1,0,0:0:0:0:
310,156,403112,1,0,0:0:0:0:
346,126,403196,1,10,0:0:0:0:
390,134,403279,1,0,0:0:0:0:
407,178,403362,5,4,0:0:0:0:
359,175,403445,1,0,0:0:0:0:
312,173,403528,1,8,0:0:0:0:
265,171,403611,1,0,0:0:0:0:
219,169,403695,1,0,0:0:0:0:
172,168,403778,1,0,0:0:0:0:
126,166,403861,1,10,0:0:0:0:
77,164,403946,1,0,0:0:0:0:
28,161,404029,6,0,P|10:125|10:89,1,62.5,4|0,0:0|0:0,0:0:0:0:
115,256,404196,2,0,P|77:267|40:300,1,62.5,0|0,0:0|0:0,0:0:0:0:
243,286,404362,1,8,0:0:0:0:
306,254,404446,1,8,0:0:0:0:
376,263,404529,1,8,0:0:0:0:
429,310,404612,1,8,0:0:0:0:
431,379,404696,6,0,P|349:373|333:356,1,62.5,4|0,0:0|0:0,0:0:0:0:
501,279,404862,2,0,P|490:235|493:193,1,62.5,8|0,0:0|0:0,0:0:0:0:
365,134,405029,1,0,0:0:0:0:
354,138,405112,1,0,0:0:0:0:
351,150,405196,1,10,0:0:0:0:
355,161,405279,1,0,0:0:0:0:
365,167,405362,5,0,0:0:0:0:
336,151,405446,1,0,0:0:0:0:
301,149,405529,1,10,0:0:0:0:
262,164,405612,1,0,0:0:0:0:
217,186,405696,1,0,0:0:0:0:
162,175,405779,1,0,0:0:0:0:
130,132,405862,2,0,P|115:106|107:50,1,62.5,10|0,0:0|0:0,0:0:0:0:
25,256,406029,5,0,0:0:0:0:
68,240,406112,1,0,0:0:0:0:
105,264,406196,1,10,0:0:0:0:
129,305,406279,1,0,0:0:0:0:
166,335,406362,1,0,0:0:0:0:
210,345,406446,1,0,0:0:0:0:
248,334,406529,1,10,0:0:0:0:
262,305,406612,1,0,0:0:0:0:
257,282,406696,6,0,P|233:261|177:250,1,62.5,0|0,0:0|0:0,0:0:0:0:
347,211,406862,1,10,0:0:0:0:
341,190,406946,2,0,P|324:154|302:130,1,62.5
450,232,407112,1,0,0:0:0:0:
462,217,407196,2,0,P|484:181|489:131,1,62.5,14|0,0:0|0:0,0:0:0:0:
320,350,407362,5,4,0:0:0:0:
312,330,407446,1,0,0:0:0:0:
295,313,407529,1,8,0:0:0:0:
272,302,407612,1,0,0:0:0:0:
240,299,407696,1,0,0:0:0:0:
203,316,407779,1,0,0:0:0:0:
178,345,407862,1,10,0:0:0:0:
141,376,407946,1,0,0:0:0:0:
92,384,408029,1,0,0:0:0:0:
43,367,408112,1,0,0:0:0:0:
11,319,408196,1,10,0:0:0:0:
17,257,408279,1,0,0:0:0:0:
53,204,408362,1,0,0:0:0:0:
114,188,408446,1,0,0:0:0:0:
177,205,408529,1,10,0:0:0:0:
212,265,408612,1,0,0:0:0:0:
192,330,408696,5,0,0:0:0:0:
241,351,408779,1,0,0:0:0:0:
291,326,408862,1,12,0:0:0:0:
312,275,408945,1,0,0:0:0:0:
300,227,409029,1,0,0:0:0:0:
264,181,409112,1,0,0:0:0:0:
272,121,409195,1,12,0:0:0:0:
309,72,409278,1,0,0:0:0:0:
370,59,409362,1,0,0:0:0:0:
427,77,409446,1,0,0:0:0:0:
454,124,409529,6,0,L|444:218,1,62.5,8|8,0:0|0:0,0:0:0:0:
332,233,409696,2,0,L|319:320,1,62.5,8|8,0:0|0:0,0:0:0:0:
231,16,409862,2,0,L|221:95,1,62.5,8|8,0:0|0:0,0:0:0:0:
82,237,410029,6,0,P|94:197|97:154,1,62.5,4|0,0:0|0:0,0:0:0:0:
9,143,410196,2,0,P|35:122|74:83,1,62.5,8|0,0:0|0:0,0:0:0:0:
152,302,410362,1,0,0:0:0:0:
162,272,410445,1,0,0:0:0:0:
178,245,410528,1,10,0:0:0:0:
198,222,410611,1,0,0:0:0:0:
222,202,410696,5,0,0:0:0:0:
201,165,410779,1,0,0:0:0:0:
230,133,410862,1,10,0:0:0:0:
270,140,410946,1,0,0:0:0:0:
289,178,411029,1,0,0:0:0:0:
332,193,411112,1,0,0:0:0:0:
372,176,411196,2,0,P|396:154|408:116,1,62.5,10|0,0:0|0:0,0:0:0:0:
501,247,411362,5,0,0:0:0:0:
460,262,411446,1,0,0:0:0:0:
439,300,411529,2,0,P|432:331|433:373,1,62.5,10|0,0:0|0:0,0:0:0:0:
320,378,411696,2,0,P|299:327|253:295,1,62.5,0|0,0:0|0:0,0:0:0:0:
201,262,411862,2,0,P|192:295|192:361,1,62.5,10|0,0:0|0:0,0:0:0:0:
41,207,412029,5,0,0:0:0:0:
80,218,412112,1,0,0:0:0:0:
115,206,412196,1,10,0:0:0:0:
144,174,412279,1,0,0:0:0:0:
179,144,412362,1,0,0:0:0:0:
232,133,412446,1,0,0:0:0:0:
285,147,412529,1,10,0:0:0:0:
327,188,412612,1,0,0:0:0:0:
335,241,412696,5,4,0:0:0:0:
317,243,412779,1,0,0:0:0:0:
299,245,412862,1,8,0:0:0:0:
281,247,412945,1,0,0:0:0:0:
264,250,413029,1,0,0:0:0:0:
246,252,413112,1,0,0:0:0:0:
228,254,413195,1,10,0:0:0:0:
211,256,413279,1,0,0:0:0:0:
189,237,413362,5,4,0:0:0:0:
223,244,413445,1,0,0:0:0:0:
258,252,413528,1,10,0:0:0:0:
293,260,413611,1,0,0:0:0:0:
328,268,413695,1,0,0:0:0:0:
363,275,413778,1,0,0:0:0:0:
398,283,413862,1,10,0:0:0:0:
432,291,413945,1,0,0:0:0:0:
467,266,414029,5,4,0:0:0:0:
423,274,414112,1,0,0:0:0:0:
379,284,414196,1,10,0:0:0:0:
335,294,414278,1,0,0:0:0:0:
292,304,414362,1,0,0:0:0:0:
248,313,414445,1,0,0:0:0:0:
204,323,414528,1,10,0:0:0:0:
162,333,414612,1,0,0:0:0:0:
139,295,414696,5,0,0:0:0:0:
125,307,414779,1,0,0:0:0:0:
106,308,414862,1,0,0:0:0:0:
93,297,414946,1,0,0:0:0:0:
118,272,415029,5,8,0:0:0:0:
70,248,415113,1,8,0:0:0:0:
68,195,415196,1,8,0:0:0:0:
122,161,415279,1,8,0:0:0:0:
188,184,415362,5,4,0:0:0:0:
336,222,415529,1,8,0:0:0:0:
340,188,415612,1,0,0:0:0:0:
345,152,415696,1,0,0:0:0:0:
255,108,415862,1,10,0:0:0:0:
423,209,416029,1,0,0:0:0:0:
427,239,416112,1,0,0:0:0:0:
431,270,416196,1,10,0:0:0:0:
436,301,416278,1,0,0:0:0:0:
440,332,416362,6,0,L|514:345,1,62.5,0|0,0:0|0:0,0:0:0:0:
216,279,416529,2,0,L|306:268,1,62.5,10|0,0:0|0:0,0:0:0:0:
45,226,416696,5,0,0:0:0:0:
89,217,416779,1,0,0:0:0:0:
118,251,416862,1,10,0:0:0:0:
104,294,416945,1,0,0:0:0:0:
60,303,417029,2,0,P|43:307|0:284,1,62.5,0|0,0:0|0:0,0:0:0:0:
228,188,417196,5,10,0:0:0:0:
183,196,417279,1,0,0:0:0:0:
154,162,417362,1,0,0:0:0:0:
168,119,417445,1,0,0:0:0:0:
212,110,417529,2,0,P|229:106|272:129,1,62.5,10|0,0:0|0:0,0:0:0:0:
74,142,417696,5,0,0:0:0:0:
71,132,417751,1,0,0:0:0:0:
69,122,417807,1,0,0:0:0:0:
66,111,417862,2,0,L|51:46,1,62.5,10|0,0:0|0:0,0:0:0:0:
38,240,418029,5,0,0:0:0:0:
97,231,418112,1,0,0:0:0:0:
133,274,418196,1,10,0:0:0:0:
121,329,418278,1,0,0:0:0:0:
73,349,418362,2,0,P|38:352|-2:328,1,62.5,0|0,0:0|0:0,0:0:0:0:
259,212,418529,5,10,0:0:0:0:
199,205,418612,1,0,0:0:0:0:
176,154,418695,1,0,0:0:0:0:
201,104,418778,1,0,0:0:0:0:
253,97,418862,2,0,P|287:103|320:136,1,62.5,10|0,0:0|0:0,0:0:0:0:
209,289,419029,5,0,0:0:0:0:
237,318,419112,1,0,0:0:0:0:
275,335,419196,2,0,P|299:337|361:320,1,62.5,10|0,0:0|0:0,0:0:0:0:
442,248,419362,5,0,0:0:0:0:
441,236,419418,1,0,0:0:0:0:
441,223,419474,1,0,0:0:0:0:
440,210,419529,2,0,L|441:136,1,62.5,10|0,0:0|0:0,0:0:0:0:
352,210,419696,5,0,0:0:0:0:
315,196,419779,1,0,0:0:0:0:
278,200,419862,1,10,0:0:0:0:
250,222,419946,1,0,0:0:0:0:
259,176,420029,5,0,0:0:0:0:
231,196,420112,1,0,0:0:0:0:
205,200,420196,1,10,0:0:0:0:
187,193,420279,1,0,0:0:0:0:
209,234,420362,5,0,0:0:0:0:
193,233,420446,1,0,0:0:0:0:
179,238,420529,1,14,0:0:0:0:
170,248,420612,1,0,0:0:0:0:
169,190,420696,6,0,P|134:135|0:158,1,187.5,4|0,0:0|0:0,0:0:0:0:
37,152,421029,2,0,L|18:27,1,125,0|10,0:0|0:0,0:0:0:0:
75,228,421362,1,0,0:0:0:0:
178,50,421529,2,0,B|235:56|235:56|265:104|265:104|420:125,1,250,10|10,0:0|0:0,0:0:0:0:
436,242,422029,5,4,0:0:0:0:
348,311,422196,1,8,0:0:0:0:
316,313,422279,1,0,0:0:0:0:
285,315,422362,1,0,0:0:0:0:
254,317,422445,1,0,0:0:0:0:
223,319,422529,1,10,0:0:0:0:
184,237,422696,1,0,0:0:0:0:
152,233,422779,1,0,0:0:0:0:
121,229,422862,1,10,0:0:0:0:
188,101,423029,5,0,0:0:0:0:
119,66,423140,1,0,0:0:0:0:
46,87,423251,1,0,0:0:0:0:
109,142,423362,6,0,L|269:124,1,125,4|8,0:0|0:0,0:0:0:0:
258,140,423612,1,0,0:0:0:0:
284,154,423696,1,0,0:0:0:0:
322,22,423862,2,0,B|327:78|327:78|366:120|366:120|378:276,1,250,10|10,0:0|0:0,0:0:0:0:
413,46,424362,1,0,0:0:0:0:
443,39,424445,1,0,0:0:0:0:
474,33,424529,1,10,0:0:0:0:
201,223,424696,5,4,0:0:0:0:
282,260,424862,1,8,0:0:0:0:
285,287,424946,1,0,0:0:0:0:
288,313,425029,2,0,L|293:378,1,62.5,0|0,0:0|0:0,0:0:0:0:
105,312,425196,2,0,L|116:240,1,62.5,10|0,0:0|0:0,0:0:0:0:
16,148,425362,2,0,L|76:105,1,62.5,0|0,0:0|0:0,0:0:0:0:
177,44,425529,5,8,0:0:0:0:
224,57,425612,1,8,0:0:0:0:
260,93,425696,1,8,0:0:0:0:
301,133,425779,1,8,0:0:0:0:
365,156,425862,1,8,0:0:0:0:
429,129,425946,1,8,0:0:0:0:
460,60,426029,6,0,P|439:39|370:15,1,62.5,4|0,0:0|0:0,0:0:0:0:
416,220,426196,1,8,0:0:0:0:
435,221,426279,2,0,P|473:208|508:167,1,62.5,0|0,0:0|0:0,0:0:0:0:
301,41,426446,1,0,0:0:0:0:
294,56,426529,2,0,P|292:94|300:139,1,62.5,10|0,0:0|0:0,0:0:0:0:
489,78,426696,1,0,0:0:0:0:
486,64,426779,2,0,P|475:40|443:2,1,62.5,0|10,0:0|0:0,0:0:0:0:
406,242,426946,1,0,0:0:0:0:
420,252,427029,6,0,P|438:261|503:269,1,62.5,0|0,0:0|0:0,0:0:0:0:
262,307,427196,2,0,P|304:293|351:294,1,62.5,10|0,0:0|0:0,0:0:0:0:
71,249,427362,6,0,P|92:270|161:294,1,62.5,4|0,0:0|0:0,0:0:0:0:
130,75,427529,1,10,0:0:0:0:
111,74,427612,2,0,P|73:87|38:128,1,62.5,0|0,0:0|0:0,0:0:0:0:
272,281,427779,1,0,0:0:0:0:
278,266,427862,2,0,P|280:228|272:183,1,62.5,10|0,0:0|0:0,0:0:0:0:
60,259,428029,1,0,0:0:0:0:
63,273,428112,2,0,P|74:297|106:335,1,62.5,0|10,0:0|0:0,0:0:0:0:
155,70,428279,1,0,0:0:0:0:
141,60,428362,6,0,P|123:51|58:43,1,62.5,0|0,0:0|0:0,0:0:0:0:
343,89,428529,2,0,P|301:103|254:102,1,62.5,10|0,0:0|0:0,0:0:0:0:
445,227,428696,6,0,L|463:143,1,62.5,4|0,0:0|0:0,0:0:0:0:
289,344,428862,1,10,0:0:0:0:
285,325,428946,2,0,L|269:236,1,62.5
89,233,429112,1,0,0:0:0:0:
94,216,429196,2,0,L|114:136,1,62.5,10|0,0:0|0:0,0:0:0:0:
295,16,429362,1,0,0:0:0:0:
290,33,429446,2,0,L|270:113,1,62.5,0|10,0:0|0:0,0:0:0:0:
448,152,429612,1,0,0:0:0:0:
443,169,429696,6,0,L|423:249,1,62.5
156,358,429862,2,0,L|179:269,1,62.5,10|0,0:0|0:0,0:0:0:0:
153,24,430029,6,0,L|177:116,1,62.5,4|0,0:0|0:0,0:0:0:0:
339,205,430196,1,8,0:0:0:0:
345,188,430279,2,0,L|372:109,1,62.5,0|0,0:0|0:0,0:0:0:0:
40,299,430446,1,0,0:0:0:0:
34,282,430529,2,0,L|7:203,1,62.5,10|0,0:0|0:0,0:0:0:0:
120,9,430696,1,0,0:0:0:0:
126,26,430779,2,0,L|153:105,1,62.5,0|10,0:0|0:0,0:0:0:0:
353,240,430946,1,0,0:0:0:0:
359,223,431029,6,0,L|386:144,1,62.5
144,249,431196,2,0,L|232:198,1,62.5,12|0,0:0|0:0,0:0:0:0:
483,17,431362,6,0,L|412:23,1,62.5,0|0,0:0|0:0,0:0:0:0:
253,104,431529,2,0,B|315:94|315:94|340:43|340:43|480:28,1,250,12|10,0:0|0:0,0:0:0:0:
245,13,432029,1,0,0:0:0:0:
399,117,432196,1,10,0:0:0:0:
169,69,432362,1,0,0:0:0:0:
164,99,432445,1,0,0:0:0:0:
159,130,432528,1,10,0:0:0:0:
223,212,432696,5,4,0:0:0:0:
160,296,432862,2,0,B|236:292|236:292|285:345,1,125,8|0,0:0|0:0,0:0:0:0:
379,340,433112,2,0,L|292:237,1,125,0|0,0:0|0:0,0:0:0:0:
180,137,433362,6,0,B|256:133|256:133|305:186,1,125,0|8,0:0|0:0,0:0:0:0:
399,181,433612,2,0,L|312:78,1,125,0|0,0:0|0:0,0:0:0:0:
247,53,433862,2,0,L|154:57,1,62.5,8|0,0:0|0:0,0:0:0:0:
105,141,434029,5,4,0:0:0:0:
13,213,434196,1,8,0:0:0:0:
5,188,434279,1,0,0:0:0:0:
220,251,434446,1,0,0:0:0:0:
213,225,434529,2,0,B|195:176|195:176|-9:166,1,250,10|10,0:0|0:0,0:0:0:0:
130,323,435029,1,0,0:0:0:0:
123,300,435112,1,0,0:0:0:0:
116,279,435196,1,10,0:0:0:0:
361,194,435362,5,4,0:0:0:0:
363,170,435446,1,0,0:0:0:0:
365,147,435529,1,0,0:0:0:0:
366,126,435612,1,0,0:0:0:0:
398,142,435696,5,8,0:0:0:0:
352,149,435779,1,8,0:0:0:0:
302,133,435862,1,8,0:0:0:0:
262,91,435946,1,8,0:0:0:0:
209,61,436029,1,8,0:0:0:0:
139,59,436112,1,8,0:0:0:0:
77,95,436196,1,8,0:0:0:0:
62,166,436279,1,8,0:0:0:0:
97,230,436362,1,8,0:0:0:0:
173,238,436446,1,8,0:0:0:0:
243,203,436529,1,8,0:0:0:0:
324,240,436612,1,8,0:0:0:0:
354,321,436696,5,4,0:0:0:0:
300,292,436779,1,0,0:0:0:0:
281,234,436862,1,8,0:0:0:0:
308,179,436945,1,0,0:0:0:0:
367,159,437029,1,0,0:0:0:0:
427,172,437112,1,0,0:0:0:0:
480,139,437196,1,10,0:0:0:0:
493,78,437278,1,0,0:0:0:0:
460,25,437361,1,0,0:0:0:0:
398,12,437445,1,0,0:0:0:0:
338,33,437529,6,0,L|333:100,1,62.5,10|0,0:0|0:0,0:0:0:0:
431,234,437696,2,0,L|426:167,1,62.5,0|0,0:0|0:0,0:0:0:0:
255,118,437862,2,0,L|250:185,1,62.5,10|0,0:0|0:0,0:0:0:0:
261,362,438029,5,0,0:0:0:0:
217,377,438112,1,0,0:0:0:0:
171,367,438195,1,10,0:0:0:0:
137,336,438278,1,0,0:0:0:0:
123,292,438362,1,0,0:0:0:0:
133,247,438445,1,0,0:0:0:0:
164,212,438529,1,10,0:0:0:0:
176,167,438612,1,0,0:0:0:0:
166,122,438695,1,0,0:0:0:0:
136,86,438779,1,0,0:0:0:0:
93,68,438862,6,0,L|83:144,1,62.5,10|0,0:0|0:0,0:0:0:0:
255,212,439029,2,0,L|246:150,1,62.5,0|0,0:0|0:0,0:0:0:0:
36,264,439196,2,0,L|27:325,1,62.5,10|0,0:0|0:0,0:0:0:0:
288,332,439362,5,4,0:0:0:0:
318,326,439445,1,0,0:0:0:0:
349,320,439528,1,8,0:0:0:0:
380,315,439611,1,0,0:0:0:0:
418,349,439696,5,0,0:0:0:0:
430,313,439779,1,0,0:0:0:0:
443,278,439862,1,10,0:0:0:0:
456,243,439945,1,0,0:0:0:0:
505,233,440029,5,0,0:0:0:0:
475,200,440112,1,0,0:0:0:0:
447,166,440196,1,10,0:0:0:0:
419,133,440278,1,0,0:0:0:0:
434,85,440362,5,0,0:0:0:0:
386,94,440445,1,0,0:0:0:0:
338,104,440528,1,10,0:0:0:0:
290,112,440611,1,0,0:0:0:0:
248,84,440696,5,0,0:0:0:0:
268,141,440779,1,0,0:0:0:0:
243,197,440862,1,10,0:0:0:0:
186,223,440945,1,0,0:0:0:0:
126,201,441029,1,0,0:0:0:0:
64,193,441112,1,0,0:0:0:0:
14,231,441195,1,10,0:0:0:0:
2,292,441278,1,0,0:0:0:0:
35,345,441362,1,0,0:0:0:0:
95,361,441445,1,0,0:0:0:0:
151,332,441529,6,0,P|185:323|217:327,1,62.5,12|0,0:0|0:0,0:0:0:0:
355,362,441696,2,0,P|330:337|317:307,1,62.5,0|0,0:0|0:0,0:0:0:0:
279,171,441862,2,0,P|269:204|250:230,1,62.5,12|0,0:0|0:0,0:0:0:0:
64,193,442029,5,4,0:0:0:0:
36,156,442112,1,0,0:0:0:0:
35,110,442195,1,8,0:0:0:0:
60,71,442278,1,0,0:0:0:0:
104,56,442362,1,0,0:0:0:0:
148,68,442445,1,0,0:0:0:0:
177,104,442529,2,0,L|188:167,1,62.5,10|0,0:0|0:0,0:0:0:0:
429,261,442696,5,0,0:0:0:0:
426,200,442780,1,0,0:0:0:0:
381,159,442863,1,10,0:0:0:0:
320,162,442946,1,0,0:0:0:0:
280,207,443029,2,0,L|269:270,1,62.5,0|0,0:0|0:0,0:0:0:0:
162,384,443196,2,0,L|151:321,1,62.5,10|0,0:0|0:0,0:0:0:0:
2,143,443362,5,0,0:0:0:0:
47,148,443446,1,0,0:0:0:0:
94,154,443529,1,10,0:0:0:0:
140,159,443611,1,0,0:0:0:0:
187,165,443696,2,0,B|199:131|199:131|198:100,1,62.5,0|0,0:0|0:0,0:0:0:0:
296,4,443862,2,0,B|284:38|284:38|285:69,1,62.5,10|0,0:0|0:0,0:0:0:0:
266,234,444029,5,0,0:0:0:0:
297,230,444112,1,0,0:0:0:0:
328,226,444195,1,10,0:0:0:0:
359,222,444278,1,0,0:0:0:0:
391,219,444363,2,0,B|403:253|403:253|402:284,1,62.5,0|0,0:0|0:0,0:0:0:0:
500,380,444529,2,0,B|488:346|488:346|489:315,1,62.5,10|0,0:0|0:0,0:0:0:0:
480,113,444696,5,4,0:0:0:0:
470,68,444779,1,0,0:0:0:0:
442,31,444862,1,8,0:0:0:0:
401,9,444945,1,0,0:0:0:0:
354,7,445029,1,0,0:0:0:0:
311,25,445112,1,0,0:0:0:0:
280,60,445195,1,10,0:0:0:0:
266,104,445279,1,0,0:0:0:0:
273,150,445362,1,0,0:0:0:0:
298,189,445445,1,0,0:0:0:0:
328,226,445529,1,10,0:0:0:0:
353,265,445612,1,0,0:0:0:0:
354,312,445695,1,0,0:0:0:0:
333,353,445778,1,0,0:0:0:0:
294,378,445862,1,10,0:0:0:0:
248,380,445945,1,0,0:0:0:0:
206,360,446029,5,4,0:0:0:0:
262,333,446112,1,0,0:0:0:0:
327,328,446196,1,8,0:0:0:0:
388,354,446279,1,0,0:0:0:0:
454,334,446362,1,0,0:0:0:0:
498,276,446446,1,0,0:0:0:0:
492,201,446529,1,10,0:0:0:0:
437,146,446612,1,0,0:0:0:0:
356,145,446696,6,0,L|279:151,1,62.5,4|0,0:0|0:0,0:0:0:0:
194,51,446862,2,0,L|256:55,1,62.5,0|0,0:0|0:0,0:0:0:0:
205,270,447029,1,8,0:0:0:0:
141,294,447112,1,8,0:0:0:0:
71,267,447195,1,8,0:0:0:0:
39,192,447278,1,8,0:0:0:0:
81,114,447362,6,0,L|85:181,1,62.5,4|0,0:0|0:0,0:0:0:0:
201,332,447529,2,0,L|205:265,1,62.5,8|0,0:0|0:0,0:0:0:0:
298,108,447696,1,0,0:0:0:0:
344,107,447779,1,0,0:0:0:0:
381,134,447862,1,10,0:0:0:0:
397,177,447945,1,0,0:0:0:0:
385,222,448029,5,0,0:0:0:0:
337,183,448112,1,0,0:0:0:0:
322,124,448195,1,10,0:0:0:0:
346,67,448278,1,0,0:0:0:0:
399,37,448362,1,0,0:0:0:0:
460,45,448445,1,0,0:0:0:0:
503,88,448529,6,0,L|515:166,1,62.5,10|0,0:0|0:0,0:0:0:0:
343,349,448696,1,0,0:0:0:0:
342,355,448779,1,0,0:0:0:0:
340,361,448862,6,0,P|331:323|335:286,1,62.5,10|0,0:0|0:0,0:0:0:0:
337,183,449029,2,0,P|308:209|274:224,1,62.5,0|0,0:0|0:0,0:0:0:0:
185,275,449196,2,0,P|222:286|252:308,1,62.5,10|0,0:0|0:0,0:0:0:0:
465,250,449362,1,0,0:0:0:0:
469,254,449446,1,0,0:0:0:0:
473,258,449529,6,0,L|403:250,1,62.5,12|0,0:0|0:0,0:0:0:0:
285,107,449696,2,0,L|348:100,1,62.5,12|0,0:0|0:0,0:0:0:0:
185,275,449862,5,0,0:0:0:0:
121,270,449946,1,0,0:0:0:0:
78,223,450029,2,0,P|74:183|85:141,1,62.5,12|0,0:0|0:0,0:0:0:0:
264,83,450196,5,0,0:0:0:0:
319,49,450280,1,0,0:0:0:0:
381,62,450362,2,0,P|407:91|423:133,1,62.5,12|0,0:0|0:0,0:0:0:0:
312,285,450529,5,0,0:0:0:0:
288,344,450613,1,0,0:0:0:0:
230,370,450696,2,0,P|192:362|155:338,1,62.5,12|0,0:0|0:0,0:0:0:0:
155,150,450862,5,0,0:0:0:0:
140,87,450946,1,0,0:0:0:0:
171,32,451029,2,0,P|207:16|251:14,1,62.5,12|0,0:0|0:0,0:0:0:0:
362,166,451196,5,0,0:0:0:0:
411,208,451280,1,0,0:0:0:0:
418,271,451363,2,0,P|398:305|363:333,1,62.5,8|0,0:0|0:0,0:0:0:0:
286,130,451529,1,8,0:0:0:0:
338,91,451612,2,0,P|377:91|418:107,1,62.5,8|0,0:0|0:0,0:0:0:0:
278,279,451779,1,8,0:0:0:0:
222,252,451862,6,0,P|202:217|195:173,1,62.5,8|0,0:0|0:0,0:0:0:0:
151,44,452029,2,0,P|142:73|125:100,1,62.5,8|0,0:0|0:0,0:0:0:0:
8,313,452196,5,0,0:0:0:0:
63,285,452279,1,0,0:0:0:0:
131,282,452362,1,8,0:0:0:0:
190,327,452446,1,8,0:0:0:0:
269,346,452529,1,8,0:0:0:0:
353,326,452612,1,8,0:0:0:0:
419,258,452696,6,0,L|421:195,1,62.5,4|0,0:0|0:0,0:0:0:0:
300,44,452862,2,0,L|302:107,1,62.5,8|0,0:0|0:0,0:0:0:0:
212,250,453029,5,0,0:0:0:0:
177,280,453112,1,0,0:0:0:0:
131,282,453195,1,10,0:0:0:0:
94,255,453278,1,0,0:0:0:0:
83,210,453362,5,0,0:0:0:0:
143,220,453445,1,0,0:0:0:0:
179,268,453529,1,10,0:0:0:0:
172,329,453611,1,0,0:0:0:0:
126,368,453695,1,0,0:0:0:0:
65,364,453778,1,0,0:0:0:0:
23,320,453862,2,0,L|18:258,1,62.5,10|0,0:0|0:0,0:0:0:0:
147,62,454028,5,0,0:0:0:0:
148,55,454111,1,0,0:0:0:0:
150,49,454196,2,0,B|164:79|164:79|155:133,1,62.5,10|0,0:0|0:0,0:0:0:0:
77,183,454362,2,0,B|63:153|63:153|72:99,1,62.5,0|0,0:0|0:0,0:0:0:0:
298,311,454529,5,10,0:0:0:0:
299,318,454612,1,0,0:0:0:0:
301,324,454697,2,0,B|315:294|315:294|306:240,1,62.5
228,190,454863,2,0,B|214:220|214:220|223:274,1,62.5,8|8,0:0|0:0,0:0:0:0:
374,104,455029,5,8,0:0:0:0:
383,100,455085,1,0,0:0:0:0:
392,96,455140,1,0,0:0:0:0:
401,92,455196,1,0,0:0:0:0:
410,88,455251,1,0,0:0:0:0:
419,84,455307,1,0,0:0:0:0:
428,80,455362,6,0,L|436:12,1,62.5,12|0,0:0|0:0,0:0:0:0:
285,170,455529,1,0,0:0:0:0:
283,176,455612,1,0,0:0:0:0:
281,182,455696,2,0,L|273:114,1,62.5,14|0,0:0|0:0,0:0:0:0:
473,253,455862,1,0,0:0:0:0:
475,259,455945,1,0,0:0:0:0:
477,265,456029,6,0,L|485:197,1,62.5,14|0,0:0|0:0,0:0:0:0:
250,331,456196,1,0,0:0:0:0:
248,337,456279,1,0,0:0:0:0:
246,343,456363,2,0,L|238:275,1,62.5,14|0,0:0|0:0,0:0:0:0:
54,134,456529,1,0,0:0:0:0:
48,131,456612,1,0,0:0:0:0:
42,127,456696,6,0,L|42:82,2,41.6666666666667,8|8|8,0:0|0:0|0:0,0:0:0:0:
38,209,456918,1,8,0:0:0:0:
108,253,457029,1,8,0:0:0:0:
182,215,457140,1,0,0:0:0:0:
251,260,457251,1,0,0:0:0:0:
246,343,457362,6,0,P|208:356|157:351,1,83.3333333333333,4|0,0:0|0:0,0:0:0:0:
300,170,457585,2,0,P|330:196|351:243,1,83.3333333333333,4|0,0:0|0:0,0:0:0:0:
124,210,457807,2,0,P|131:170|161:128,1,83.3333333333333,4|0,0:0|0:0,0:0:0:0:
425,49,458029,5,4,0:1:0:0:
231,298,459196,1,4,0:1:0:0:
112,5,460196,2,0,L|73:1,2,33.3333333333333
121,15,460362,6,0,P|135:50|134:87,1,75,8|0,0:0|0:0,0:0:0:0:
23,154,460696,6,2,B|94:142|77:198|169:176,1,150.000005722046,4|0,0:0|0:0,0:1:0:0:
314,157,461140,2,2,P|207:188|224:282,1,200,4|0,0:2|0:0,0:1:0:0:
396,310,461585,2,2,B|290:311|290:311|267:296|267:296|146:302,1,250.000009536744,4|0,0:1|0:0,0:1:0:0:
63,369,461918,5,0,0:0:0:0:
67,362,461974,1,0,0:0:0:0:
71,355,462029,2,0,L|61:267,1,66.6666666666667,8|8,0:0|0:0,0:0:0:0:
161,89,462264,1,0,0:0:0:0:
165,96,462326,1,0,0:0:0:0:
169,103,462389,1,0,0:0:0:0:
173,110,462451,6,0,L|166:169,1,50.0000019073487,0|0,0:0|0:0,0:0:0:0:
177,269,462668,6,0,L|226:257,1,50.0000019073487,8|8,0:0|0:0,0:0:0:0:
382,202,463188,2,0,L|437:219,2,33.3333333333333,0|0|0,0:0|0:0|0:0,0:0:0:0:
302,181,463362,6,0,B|285:129|328:91|382:95|406:148|401:223|331:261,1,276.666666666667,12|0,0:1|0:0,0:0:0:0:
331,260,468028,6,0,L|415:251,1,75.0000028610231,8|0,0:0|0:0,0:0:0:0:
454,327,468195,6,0,L|379:334,1,75.0000028610231,0|0,0:0|0:0,0:0:0:0:
370,344,468528,1,0,0:0:0:0:
146,336,468695,6,0,P|181:347|220:343,1,75.0000028610231,6|0,0:0|0:0,0:0:0:0:
218,343,469195,2,0,P|180:340|147:323,1,75.0000028610231,10|0,0:0|0:0,0:0:0:0:
152,311,469695,2,0,P|181:333|219:342,1,75.0000028610231,2|0,0:0|0:0,0:0:0:0:
217,342,470195,2,0,P|182:326|157:298,1,75.0000028610231,10|0,0:0|0:0,0:0:0:0:
166,289,470695,2,0,P|185:319|218:341,1,75.0000028610231,2|0,0:0|0:0,0:0:0:0:
217,340,471195,2,0,P|189:313|175:279,1,75.0000028610231,10|0,0:0|0:0,0:0:0:0:
187,273,471695,2,0,P|194:308|217:340,1,75.0000028610231,2|0,0:0|0:0,0:0:0:0:
216,339,472195,2,0,P|199:304|197:267,1,75.0000028610231,10|0,0:0|0:0,0:0:0:0:
209,266,472695,2,0,P|205:303|215:338,1,75.0000028610231,2|0,0:0|0:0,0:0:0:0:
215,338,473195,2,0,P|211:301|222:266,1,75.0000028610231,10|0,0:0|0:0,0:0:0:0:
273,187,473528,5,0,0:0:0:0:
278,192,473611,1,0,0:0:0:0:
282,198,473695,2,0,L|366:207,1,75.0000028610231,8|0,0:0|0:0,0:0:0:0:
405,131,473862,2,0,L|330:124,1,75.0000028610231,8|0,0:0|0:0,0:0:0:0:
74,60,474028,6,0,P|109:49|148:53,1,75.0000028610231,6|0,0:0|0:0,0:0:0:0:
146,53,474528,2,0,P|108:56|75:73,1,75.0000028610231,10|0,0:0|0:0,0:0:0:0:
80,85,475028,2,0,P|109:63|147:54,1,75.0000028610231,2|0,0:0|0:0,0:0:0:0:
145,54,475528,2,0,P|110:70|85:98,1,75.0000028610231,10|0,0:0|0:0,0:0:0:0:
94,107,476028,2,0,P|113:77|146:55,1,75.0000028610231,2|0,0:0|0:0,0:0:0:0:
145,56,476528,2,0,P|117:83|103:117,1,75.0000028610231,10|0,0:0|0:0,0:0:0:0:
115,123,477028,2,0,P|122:88|145:56,1,75.0000028610231,2|0,0:0|0:0,0:0:0:0:
144,57,477528,2,0,P|127:92|125:129,1,75.0000028610231,10|0,0:0|0:0,0:0:0:0:
137,130,478028,2,0,P|133:93|143:58,1,75.0000028610231,2|0,0:0|0:0,0:0:0:0:
143,58,478528,2,0,P|139:95|150:130,1,75.0000028610231,10|0,0:0|0:0,0:0:0:0:
221,187,478861,5,0,0:0:0:0:
226,182,478944,1,0,0:0:0:0:
230,176,479028,2,0,L|280:170,1,50,12|0,0:2|0:0,0:0:0:0:
380,289,479361,5,8,0:0:0:0:
380,289,479444,2,0,P|342:263|274:266,1,112.500004291535,8|0,0:0|0:0,0:0:0:0:
62,123,479861,1,8,0:0:0:0:
62,123,479944,2,0,P|109:151|164:147,1,112.500004291535,8|0,0:0|0:0,0:0:0:0:
304,47,480362,1,8,0:0:0:0:
303,47,480445,2,0,P|275:94|279:149,1,112.500004291535,8|0,0:0|0:0,0:0:0:0:
138,365,480862,1,8,0:0:0:0:
138,364,480944,2,0,P|166:317|162:262,1,112.500004291535,8|0,0:0|0:0,0:0:0:0:
62,123,481361,5,8,0:0:0:0:
62,123,481444,1,8,0:0:0:0:
303,47,481694,1,8,0:0:0:0:
303,47,481777,1,8,0:0:0:0:
248,293,482027,5,8,0:0:0:0:
248,293,482111,2,0,B|268:237|268:237|256:178,1,112.500004291535,8|0,0:0|0:0,0:0:0:0:
35,166,482527,1,8,0:0:0:0:
35,166,482611,2,0,B|15:222|15:222|27:281,1,112.500004291535,8|0,0:0|0:0,0:0:0:0:
205,123,483027,1,8,0:0:0:0:
205,123,483111,2,0,B|149:103|149:103|97:113,1,112.500004291535,8|0,0:0|0:0,0:0:0:0:
78,336,483527,1,8,0:0:0:0:
78,336,483611,2,0,B|134:356|134:356|185:345,1,112.500004291535,8|0,0:0|0:0,0:0:0:0:
35,166,484027,5,8,0:0:0:0:
35,166,484110,1,8,0:0:0:0:
205,123,484360,1,8,0:0:0:0:
205,123,484443,1,8,0:0:0:0:
328,248,484694,5,8,0:0:0:0:
328,248,484777,2,0,L|350:114,1,112.500004291535,8|0,0:0|0:0,0:0:0:0:
62,34,485194,1,8,0:0:0:0:
62,34,485277,2,0,L|80:144,1,112.500004291535,8|0,0:0|0:0,0:0:0:0:
184,248,485694,1,8,0:0:0:0:
184,248,485777,2,0,L|161:114,1,112.500004291535,8|0,0:0|0:0,0:0:0:0:
450,34,486194,1,8,0:0:0:0:
450,34,486276,2,0,L|431:144,1,112.500004291535,8|0,0:0|0:0,0:0:0:0:
328,248,486694,5,8,0:0:0:0:
328,248,486777,1,8,0:0:0:0:
62,34,487027,1,8,0:0:0:0:
62,34,487110,1,8,0:0:0:0:
46,329,487361,5,8,0:0:0:0:
46,329,487444,2,0,P|100:334|163:307,1,112.500004291535,8|0,0:0|0:0,0:0:0:0:
183,78,487861,1,8,0:0:0:0:
183,78,487944,2,0,P|237:73|300:100,1,112.500004291535,8|0,0:0|0:0,0:0:0:0:
438,244,488361,1,8,0:0:0:0:
438,244,488444,1,8,0:0:0:0:
154,314,488694,5,8,0:0:0:0:
140,301,488777,1,0,0:0:0:0:
131,275,488861,1,0,0:0:0:0:
134,241,488944,1,0,0:0:0:0:
166,216,489027,1,8,0:0:0:0:
214,222,489111,1,8,0:0:0:0:
239,272,489194,1,8,0:0:0:0:
299,292,489277,1,8,0:0:0:0:
359,252,489361,6,0,L|366:195,1,50,8|8,0:0|0:0,0:0:0:0:
285,137,489527,2,0,L|279:187,1,50,8|8,0:0|0:0,0:0:0:0:
452,151,489694,2,0,L|446:102,1,50,8|8,0:0|0:0,0:0:0:0:
357,36,489861,2,8,L|363:85,1,50
447,268,490027,5,4,0:1:0:0:
458,290,490111,1,0,0:0:0:0:
460,314,490194,1,0,0:0:0:0:
365,202,490361,1,10,0:0:0:0:
283,136,490527,5,0,0:0:0:0:
272,114,490611,1,0,0:0:0:0:
270,90,490694,1,2,0:0:0:0:
365,202,490861,1,0,0:0:0:0:
349,307,491027,5,10,0:0:0:0:
335,327,491110,1,0,0:0:0:0:
315,341,491194,1,0,0:0:0:0:
365,202,491361,1,2,0:0:0:0:
381,97,491528,5,0,0:0:0:0:
395,77,491610,1,0,0:0:0:0:
415,63,491693,1,10,0:0:0:0:
365,202,491860,1,0,0:0:0:0:
266,240,492027,5,2,0:0:0:0:
241,238,492111,1,0,0:0:0:0:
219,228,492194,1,0,0:0:0:0:
465,165,492361,1,10,0:0:0:0:
490,167,492445,1,0,0:0:0:0:
512,177,492528,1,0,0:0:0:0:
274,78,492694,5,4,0:1:0:0:
269,55,492778,1,0,0:0:0:0:
263,31,492861,1,0,0:0:0:0:
170,164,493027,1,10,0:0:0:0:
362,173,493194,5,0,0:0:0:0:
357,150,493278,1,0,0:0:0:0:
351,126,493361,1,2,0:0:0:0:
170,164,493527,1,0,0:0:0:0:
286,298,493694,5,10,0:0:0:0:
281,275,493777,1,0,0:0:0:0:
275,251,493861,1,0,0:0:0:0:
170,164,494027,1,2,0:0:0:0:
400,354,494194,5,0,0:0:0:0:
395,331,494277,1,0,0:0:0:0:
389,307,494361,1,10,0:0:0:0:
49,250,494527,1,0,0:0:0:0:
34,270,494611,1,0,0:0:0:0:
19,290,494694,2,0,L|71:285,1,50,4|0,0:0|0:0,0:0:0:0:
219,168,494861,2,0,L|169:163,1,50
286,298,495027,1,12,0:0:0:0:
166,370,495194,2,0,B|166:343|166:343|169:335|169:335|169:304,1,50
164,60,495361,5,12,0:1:0:0:
199,50,495444,1,0,0:0:0:0:
235,56,495527,1,0,0:0:0:0:
189,248,495694,1,10,0:0:0:0:
309,33,495861,5,0,0:0:0:0:
335,58,495944,1,0,0:0:0:0:
347,92,496027,1,10,0:0:0:0:
123,221,496194,1,0,0:0:0:0:
404,145,496361,5,10,0:0:0:0:
396,180,496444,1,0,0:0:0:0:
372,207,496527,1,0,0:0:0:0:
96,156,496694,1,10,0:0:0:0:
354,283,496861,5,0,0:0:0:0:
320,294,496944,1,0,0:0:0:0:
285,287,497027,1,10,0:0:0:0:
123,91,497194,1,0,0:0:0:0:
16,232,497361,5,10,0:0:0:0:
21,268,497444,1,0,0:0:0:0:
26,304,497527,1,0,0:0:0:0:
215,125,497694,1,10,0:0:0:0:
220,89,497777,1,0,0:0:0:0:
225,53,497860,1,0,0:0:0:0:
390,314,498027,5,12,0:1:0:0:
425,323,498110,1,0,0:0:0:0:
460,332,498193,1,0,0:0:0:0:
154,187,498361,1,8,0:0:0:0:
122,314,498527,5,0,0:0:0:0:
87,323,498610,1,0,0:0:0:0:
52,332,498693,1,10,0:0:0:0:
358,187,498861,1,0,0:0:0:0:
164,28,499027,5,10,0:0:0:0:
173,63,499111,1,0,0:0:0:0:
182,98,499194,1,0,0:0:0:0:
29,251,499361,1,10,0:0:0:0:
226,349,499527,5,0,0:0:0:0:
235,314,499610,1,0,0:0:0:0:
244,279,499694,1,8,0:0:0:0:
29,133,499861,2,0,B|51:143|51:143|104:132,1,50
187,46,500027,5,8,0:0:0:0:
195,43,500083,1,0,0:0:0:0:
202,40,500138,1,0,0:0:0:0:
210,38,500194,1,0,0:0:0:0:
217,35,500249,1,0,0:0:0:0:
225,33,500305,1,0,0:0:0:0:
233,30,500362,6,0,P|236:117|321:115,1,187.5,12|0,0:0|0:0,0:0:0:0:
354,47,500690,5,4,0:0:0:0:
368,236,501371,1,4,0:0:0:0:
464,132,502060,1,4,0:0:0:0:
159,61,502748,5,4,0:0:0:0:
126,297,503436,1,4,0:0:0:0:
22,146,503981,1,4,0:0:0:0:
320,80,504417,5,4,0:0:0:0:
354,298,504827,1,4,0:0:0:0:
441,161,505202,1,4,0:0:0:0:
182,67,505487,5,4,0:0:0:0:
150,289,505737,1,4,0:0:0:0:
44,156,505986,1,4,0:0:0:0:
328,64,506201,5,4,0:0:0:0:
363,290,506366,1,4,0:0:0:0:
449,169,506532,1,4,0:0:0:0:
163,46,506698,5,4,0:0:0:0:
152,295,506854,1,4,0:0:0:0:
66,157,507010,1,4,0:0:0:0:
329,74,507166,5,4,0:0:0:0:
356,297,507308,1,4,0:0:0:0:
453,178,507451,1,4,0:0:0:0:
167,64,507594,5,4,0:0:0:0:
145,301,507733,1,4,0:0:0:0:
62,164,507872,1,4,0:0:0:0:
334,100,508038,6,0,L|326:166,1,50
224,211,508205,6,0,P|213:241|177:267,3,50
143,195,508477,1,0,0:0:0:0:
154,189,508545,1,0,0:0:0:0:
165,185,508613,1,0,0:0:0:0:
178,184,508681,1,0,0:0:0:0:
190,186,508749,1,0,0:0:0:0:
202,191,508817,1,0,0:0:0:0:
212,198,508886,1,0,0:0:0:0:
221,207,508954,1,0,0:0:0:0:
227,218,509022,1,0,0:0:0:0:
231,230,509090,1,0,0:0:0:0:
231,242,509158,1,0,0:0:0:0:
230,255,509227,1,0,0:0:0:0:
225,268,509295,2,0,P|247:251|300:244,7,50,0|0|0|0|0|0|0|0,0:0|0:0|0:0|0:0|0:0|0:0|0:0|0:0,0:0:0:0:
290,317,509853,5,0,0:0:0:0:
344,246,509992,1,0,0:0:0:0:
435,252,510132,1,0,0:0:0:0:
428,266,510271,5,0,0:0:0:0:
352,262,510413,1,0,0:0:0:0:
305,324,510556,1,0,0:0:0:0:
317,330,510703,5,0,0:0:0:0:
359,276,510850,1,0,0:0:0:0:
427,292,510996,1,0,0:0:0:0:
423,304,511163,5,0,0:0:0:0:
364,290,511329,1,0,0:0:0:0:
330,335,511496,1,0,0:0:0:0:
338,345,511662,5,0,0:0:0:0:
366,310,511898,1,0,0:0:0:0:
414,320,512134,1,0,0:0:0:0:
406,332,512403,5,0,0:0:0:0:
366,326,512672,1,0,0:0:0:0:
346,350,513033,1,0,0:0:0:0:
358,359,513448,5,0,0:0:0:0:
376,341,513879,1,0,0:0:0:0:
403,342,514437,1,0,0:0:0:0:
398,355,515122,5,0,0:0:0:0:
366,350,515803,1,0,0:0:0:0:
354,374,516477,1,0,0:0:0:0:
380,58,517174,6,0,B|391:-5|471:-14|530:28|509:137|432:166|365:155|365:155|300:192|312:292|416:295|447:198|365:155|365:155|258:124|234:29|234:29|258:124|194:200|194:200|279:236|275:315,1,1120,4|0,0:1|2:0,0:0:0:0:
