osu file format v14

[General]
AudioFilename: Demetori - Crimson Belvedere ~ Eastern Dream .mp3
AudioLeadIn: 0
PreviewTime: 246626
Countdown: 0
SampleSet: None
StackLeniency: 0.5
Mode: 0
LetterboxInBreaks: 0
WidescreenStoryboard: 1

[Editor]
DistanceSpacing: 2
BeatDivisor: 4
GridSize: 4
TimelineZoom: 1.3

[Metadata]
Title:Kourou ~ Eastern Dream
TitleUnicode:紅楼 ~ Eastern Dream
Artist:Demetori
ArtistUnicode:Demetori
Creator:tokiko
Version:Bygone Dream
Source:東方紅魔郷 ~ the Embodiment of Scarlet Devil.
Tags:touhou project eosd th06 credits staff roll theme Crimson Belvedere ~ Eastern Dream... 如臨深遠 ~雨縒煙柳~ Sinen ni Nozomu ga Gotoshi Comiket 71 С71 marathon team shanghai alice ZUN
BeatmapID:1754205
BeatmapSetID:837842

[Difficulty]
HPDrainRate:6
CircleSize:4.3
OverallDifficulty:8
ApproachRate:9
SliderMultiplier:1.85
SliderTickRate:1

[Events]
//Background and Video events
0,0,"Demetori - Crimson Belvedere ~ Eastern Dream.jpg",0,0
//Break Periods
2,282,2391
2,3191,5300
2,6100,8209
2,9009,11118
2,11918,14027
2,14827,16936
2,17736,19845
2,20645,23118
2,260280,262389
2,263189,265298
2,269007,271116
2,271916,274025
2,274825,276207
2,462225,464625
2,468625,471025
//Storyboard Layer 0 (Background)
//Storyboard Layer 1 (Fail)
//Storyboard Layer 2 (Pass)
//Storyboard Layer 3 (Foreground)
//Storyboard Sound Samples

[TimingPoints]
82,363.636363636364,4,3,1,65,1,0
23718,363.636363636364,4,3,1,45,1,0
23718,-133.333333333333,4,3,1,45,0,0
32354,-133.333333333333,4,2,1,5,0,0
32445,-133.333333333333,4,3,1,45,0,0
35354,-117.647058823529,4,3,1,45,0,0
46990,-100,4,3,1,65,0,0
58081,-200,4,3,1,65,0,0
58627,-100,4,3,1,65,0,0
109536,-100,4,3,1,45,0,0
109718,-100,4,3,1,65,0,0
116808,-100,4,3,1,35,0,0
118990,-200,4,3,1,45,0,0
119718,-133.333333333333,4,3,1,45,0,0
137081,-133.333333333333,4,2,1,5,0,0
137172,-133.333333333333,4,3,1,45,0,0
142990,363.636363636364,13,3,1,65,1,0
157353,-100,13,2,1,5,0,0
157444,-100,13,3,1,65,0,0
157626,-100,13,2,1,5,0,0
157717,-100,13,3,1,65,0,0
157899,-100,13,2,1,5,0,0
158020,-100,13,3,1,65,0,0
161899,-200,13,3,1,45,0,0
162262,-200,13,3,1,5,0,0
162444,-200,13,3,1,45,0,0
162808,363.636363636364,4,3,1,45,1,0
162808,-133.333333333333,4,3,1,45,0,0
174353,-133.333333333333,4,2,1,5,0,0
174444,-133.333333333333,4,3,1,45,0,0
180171,-133.333333333333,4,2,1,5,0,0
180262,-133.333333333333,4,3,1,45,0,0
186080,-200,4,3,1,65,0,0
188989,-90.9090909090909,4,3,1,65,0,1
235535,-100,4,3,1,65,0,0
257171,363.636363636364,4,3,1,65,1,0
267352,-133.333333333333,4,3,1,65,0,0
282080,-133.333333333333,4,3,1,20,0,0
282625,-133.333333333333,4,3,1,30,0,0
282989,-133.333333333333,4,3,1,40,0,0
283716,-133.333333333333,4,3,1,20,0,0
283898,-133.333333333333,4,3,1,25,0,0
284080,-133.333333333333,4,3,1,30,0,0
284261,-133.333333333333,4,3,1,35,0,0
284443,-133.333333333333,4,3,1,40,0,0
284625,-133.333333333333,4,3,1,45,0,0
284807,-117.647058823529,4,3,1,50,0,0
284989,-117.647058823529,4,3,1,55,0,0
285352,-117.647058823529,4,3,1,60,0,0
285716,-117.647058823529,4,3,1,65,0,0
286443,363.636363636364,4,3,1,65,1,0
309624,-100,4,2,1,5,0,0
309715,-100,4,3,1,65,0,0
321353,363.636363636364,9,3,1,45,1,0
321353,-133.333333333333,9,3,1,45,0,0
347353,363.636363636364,9,3,1,65,1,0
366807,363.636363636364,9,3,1,65,1,0
397897,363.636363636364,4,3,1,65,1,1
397897,-90.9090909090909,4,3,1,65,0,1
406260,-117.647058823529,4,3,1,65,0,1
406533,-117.647058823529,4,2,1,5,0,1
406624,-90.9090909090909,4,3,1,65,0,1
406987,-90.9090909090909,4,3,1,30,0,1
407169,-90.9090909090909,4,3,1,35,0,1
407351,-90.9090909090909,4,3,1,45,0,1
407533,-90.9090909090909,4,3,1,50,0,1
407715,-90.9090909090909,4,3,1,55,0,1
407897,-90.9090909090909,4,3,1,60,0,1
408078,-100,4,3,1,65,0,0
412442,-200,4,3,1,45,0,0
413897,-133.333333333333,4,3,1,45,0,0
415351,-100,4,3,1,65,0,0
421078,-100,4,2,1,5,0,0
421169,-100,4,3,1,65,0,0
423987,-100,4,2,1,5,0,0
424078,-100,4,3,1,65,0,0
426897,-100,4,2,1,5,0,0
426987,-100,4,3,1,65,0,0
429897,-100,4,3,1,45,0,0
430987,-100,4,3,1,65,0,0
432715,-100,4,2,1,5,0,0
432806,-100,4,3,1,65,0,0
458987,377.358490566038,4,3,1,65,1,0
458987,-133.333333333333,4,3,1,65,0,0
461251,387.096774193548,4,3,1,35,1,0
462025,533.333333333333,6,3,1,35,1,0
468158,-100,6,3,1,20,0,0
468425,-100,6,3,1,35,0,0
474825,533.333333333333,3,3,1,65,1,0
474825,-66.6666666666667,3,3,1,65,0,0
483825,-66.6666666666667,3,2,1,5,0,0
483891,-66.6666666666667,3,3,1,65,0,0
484091,-66.6666666666667,3,2,1,5,0,0
484158,-66.6666666666667,3,3,1,65,0,0
484358,-66.6666666666667,3,2,1,5,0,0
484425,-66.6666666666667,3,3,1,65,0,0
488358,-66.6666666666667,3,2,1,5,0,0
488425,-66.6666666666667,3,3,1,65,0,0
491558,-66.6666666666667,3,3,1,5,0,0
491625,-66.6666666666667,3,3,1,65,0,0
492625,-66.6666666666667,3,2,1,6,0,0
492691,-66.6666666666667,3,3,1,65,0,0
493691,-66.6666666666667,3,2,1,5,0,0
493758,-66.6666666666667,3,3,1,65,0,0
493958,-66.6666666666667,3,2,1,5,0,0
494025,-66.6666666666667,3,3,1,65,0,0
497958,-66.6666666666667,3,3,1,5,0,0
498025,-66.6666666666667,3,3,1,65,0,0
500358,-66.6666666666667,3,2,1,5,0,0
500425,-66.6666666666667,3,3,1,65,0,0
503025,-66.6666666666667,3,2,1,5,0,0
503091,-66.6666666666667,3,3,1,65,0,0
503291,-66.6666666666667,3,2,1,5,0,0
503358,-66.6666666666667,3,3,1,65,0,0
503558,-66.6666666666667,3,2,1,5,0,0
503625,-66.6666666666667,3,3,1,65,0,0
504891,-66.6666666666667,3,2,1,5,0,0
504958,-66.6666666666667,3,3,1,65,0,0
506758,-66.6666666666667,3,2,1,5,0,0
506825,-66.6666666666667,3,3,1,65,0,0
508091,-66.6666666666667,3,2,1,5,0,0
508158,-66.6666666666667,3,3,1,65,0,0
514491,-66.6666666666667,3,2,1,5,0,0
514558,-66.6666666666667,3,3,1,65,0,0
517691,-66.6666666666667,3,2,1,5,0,0
517758,-66.6666666666667,3,3,1,65,0,0
519558,-66.6666666666667,3,3,1,5,0,0
519625,-66.6666666666667,3,3,1,65,0,0
525425,-66.6666666666667,3,2,1,5,0,0
525491,-66.6666666666667,3,3,1,65,0,0
525691,-66.6666666666667,3,2,1,5,0,0
525758,-66.6666666666667,3,3,1,65,0,0
525958,-66.6666666666667,3,2,1,5,0,0
526025,-66.6666666666667,3,3,1,65,0,0
533691,-66.6666666666667,3,2,1,5,0,0
533758,-66.6666666666667,3,3,1,65,0,0
537158,-66.6666666666667,3,2,1,5,0,0
537225,-66.6666666666667,3,3,1,65,0,0
555825,-66.6666666666667,3,2,1,5,0,0
555891,-66.6666666666667,3,3,1,65,0,0
557691,-66.6666666666667,3,2,1,5,0,0
557758,-66.6666666666667,3,3,1,65,0,0
557958,-66.6666666666667,3,2,1,5,0,0
558025,-66.6666666666667,3,3,1,65,0,0
561958,-66.6666666666667,3,3,1,65,0,0
562025,-66.6666666666667,3,3,1,65,0,0
562225,-66.6666666666667,3,3,1,5,0,0
562291,-66.6666666666667,3,3,1,65,0,0
563891,-66.6666666666667,3,3,1,65,0,0
564091,-66.6666666666667,3,2,1,5,0,0
564158,-66.6666666666667,3,3,1,65,0,0
564358,-66.6666666666667,3,2,1,5,0,0
564425,-66.6666666666667,3,3,1,65,0,0
573158,-66.6666666666667,3,2,1,5,0,0
573225,-66.6666666666667,3,3,1,65,0,0
577225,-55.5555555555556,3,3,1,65,0,1
581958,-55.5555555555556,3,2,1,5,0,1
582025,-55.5555555555556,3,3,1,65,0,1
586225,-55.5555555555556,3,3,1,5,0,1
586291,-55.5555555555556,3,3,1,65,0,1
586825,-62.5,3,3,1,55,0,1
587625,-71.4285714285714,3,3,1,45,0,1
588425,-83.3333333333333,3,3,1,35,0,1
590025,-100,3,3,1,25,0,0
617225,-100,3,2,1,5,0,0

[Colours]
Combo1 : 166,87,118
Combo2 : 232,96,60

[HitObjects]
124,40,82,5,6,0:0:0:0:
192,288,2991,5,4,0:0:0:0:
452,132,5900,5,4,0:0:0:0:
384,380,8809,5,4,0:0:0:0:
92,336,11718,5,4,0:0:0:0:
340,267,14627,5,4,0:0:0:0:
184,12,17536,5,4,0:0:0:0:
432,76,20445,5,4,0:0:0:0:
432,76,23718,6,0,L|424:160,1,69.3750026464463
340,204,24081,2,0,L|346:273,1,69.3750026464463
360,376,24445,1,2,0:0:0:0:
268,324,24627,2,0,P|232:312|192:304,1,69.3750026464463
64,336,24990,6,0,P|84:304|100:260,1,69.3750026464463,0|2,0:0|0:0,0:0:0:0:
176,204,25354,2,0,P|156:172|140:128,1,69.3750026464463,0|2,0:0|0:0,0:0:0:0:
156,40,25718,1,0,0:0:0:0:
288,88,25899,2,0,L|364:76,2,69.3750026464463,10|0|0,0:0|0:0|0:0,0:0:0:0:
163,47,26445,1,0,0:0:0:0:
163,47,26536,1,0,0:0:0:0:
163,47,26627,6,0,L|94:57,1,69.3750026464463,2|0,0:0|0:0,0:0:0:0:
20,132,26990,2,0,B|40:176|40:176|20:264,1,138.750005292893,0|10,0:0|0:0,0:0:0:0:
100,332,27536,2,0,L|118:260,1,69.3750026464463,2|0,0:0|0:0,0:0:0:0:
224,180,27899,6,0,B|268:164|268:164|360:180,1,138.750005292893,2|0,0:0|0:0,0:0:0:0:
432,256,28445,2,0,L|501:267,1,69.3750026464463,2|0,0:0|0:0,0:0:0:0:
428,384,28808,2,0,L|359:373,1,69.3750026464463,10|0,0:0|0:0,0:0:0:0:
256,356,29172,1,0,0:0:0:0:
308,212,29354,1,0,0:0:0:0:
308,212,29445,1,0,0:0:0:0:
308,212,29536,6,0,P|320:248|324:280,1,69.3750026464463,2|0,0:0|0:0,0:0:0:0:
432,256,29899,2,0,P|436:221|447:188,1,69.3750026464463,2|0,0:0|0:0,0:0:0:0:
512,68,30263,2,0,P|507:33|496:0,2,69.3750026464463,8|0|0,0:0|0:0|0:0,0:0:0:0:
384,120,30808,6,0,B|312:144|320:96|244:120,1,138.750005292893,2|0,0:0|0:0,0:0:0:0:
144,136,31354,2,0,L|155:67,1,69.3750026464463,2|0,0:0|0:0,0:0:0:0:
248,118,31718,2,0,L|259:186,1,69.3750026464463,10|0,0:0|0:0,0:0:0:0:
168,292,32081,2,0,P|120:264|68:256,1,104.06250396967
44,276,32445,6,0,B|60:236|60:236|36:140,1,138.750005292893,2|2,0:0|0:0,0:0:0:0:
36,143,33172,1,2,0:0:0:0:
100,60,33354,2,0,L|168:52,1,69.3750026464463,10|0,0:0|0:0,0:0:0:0:
256,108,33718,1,0,0:0:0:0:
180,220,33899,6,0,P|224:272|292:280,1,138.750005292893,2|0,0:0|0:0,0:0:0:0:
372,216,34445,2,0,L|376:176,2,34.6875013232232
290,280,34808,1,0,0:0:0:0:
356,360,34990,1,0,0:0:0:0:
438,296,35172,1,0,0:0:0:0:
306,136,35354,6,0,B|256:120|256:120|152:132,1,157.250002999306,4|8,0:0|0:0,0:0:0:0:
80,272,36081,2,0,L|-1:263,2,78.6250014996529,0|0|8,0:0|0:0|0:0,0:0:0:0:
144,364,36627,2,0,P|172:332|176:216,1,157.250002999306,2|0,0:0|0:0,0:0:0:0:
132,112,37172,1,0,0:0:0:0:
216,32,37354,2,0,P|256:20|304:16,1,78.6250014996529,2|0,0:0|0:0,0:0:0:0:
408,44,37718,1,0,0:0:0:0:
344,192,37899,2,0,P|352:232|368:268,1,78.6250014996529,2|0,0:0|0:0,0:0:0:0:
348,344,38172,1,0,0:0:0:0:
348,344,38263,6,0,L|268:336,1,78.6250014996529,2|0,0:0|0:0,0:0:0:0:
367,266,38627,2,0,L|445:273,1,78.6250014996529,2|0,0:0|0:0,0:0:0:0:
328,168,38990,2,0,L|250:161,2,78.6250014996529,0|0|2,0:0|0:0|0:0,0:0:0:0:
424,40,39536,6,0,B|404:88|404:88|432:192,1,157.250002999306,2|0,0:0|0:0,0:0:0:0:
512,276,40081,2,0,L|491:351,1,78.6250014996529,0|2,0:0|0:0,0:0:0:0:
380,316,40445,2,0,L|359:241,1,78.6250014996529
324,128,40808,1,10,0:0:0:0:
204,240,41172,6,0,P|136:244|76:180,1,157.250002999306,2|8,0:0|0:0,0:0:0:0:
77,183,41899,2,0,P|72:228|56:264,1,78.6250014996529,2|0,0:0|0:0,0:0:0:0:
0,360,42263,1,10,0:0:0:0:
148,304,42445,6,0,B|236:280|224:328|308:304,1,157.250002999306,2|0,0:0|0:0,0:0:0:0:
400,240,42990,1,2,0:0:0:0:
302,305,43172,1,10,0:0:0:0:
408,352,43354,1,2,0:0:0:0:
408,352,43536,1,2,0:0:0:0:
316,224,43718,2,0,L|328:144,1,78.6250014996529,8|0,0:0|0:0,0:0:0:0:
172,112,44081,6,0,L|183:189,1,78.6250014996529,12|0,0:0|0:0,0:0:0:0:
224,36,44445,2,0,B|184:20|184:20|104:36,1,117.937502249479,8|0,0:0|0:0,0:0:0:0:
72,44,44808,1,2,0:0:0:0:
172,112,44990,1,2,0:0:0:0:
36,192,45172,1,10,0:0:0:0:
216,276,45354,6,0,B|264:288|264:288|320:272|320:272|372:284,1,157.250002999306,6|2,0:0|0:0,0:0:0:0:
236,372,45899,2,0,L|160:352,1,78.6250014996529,10|0,0:0|0:0,0:0:0:0:
136,196,46263,1,2,0:0:0:0:
12,292,46445,1,2,0:0:0:0:
232,184,46627,5,10,0:0:0:0:
232,184,46990,6,0,P|184:112|88:112,1,185,6|8,0:0|0:0,0:0:0:0:
216,276,47718,2,0,P|260:268|304:248,1,92.5,2|0,0:0|0:0,0:0:0:0:
400,148,48081,1,8,0:0:0:0:
480,320,48263,6,0,B|428:352|428:352|304:340,1,185,6|0,0:0|0:0,0:0:0:0:
204,244,48808,2,0,L|111:236,1,92.5,10|0,0:0|0:0,0:0:0:0:
208,340,49172,1,2,0:0:0:0:
304,240,49354,1,10,0:0:0:0:
192,92,49536,2,0,L|127:86,2,46.25,0|0|8,0:0|0:0|0:0,0:0:0:0:
372,24,49899,6,0,P|440:16|476:80,1,138.75,6|0,0:0|0:0,0:0:0:0:
459,114,50263,2,0,B|423:130|423:130|371:122,1,92.5,8|0,0:0|0:0,0:0:0:0:
192,92,50627,1,2,0:0:0:0:
284,108,50808,1,2,0:0:0:0:
248,24,50990,1,2,0:0:0:0:
224,208,51172,6,0,P|256:264|372:256,1,185,6|0,0:0|0:0,0:0:0:0:
448,148,51718,1,12,0:0:0:0:
365,261,51899,2,0,L|373:309,1,46.25
456,352,52081,1,2,0:0:0:0:
377,188,52263,5,2,0:0:0:0:
365,180,52354,1,0,0:0:0:0:
353,172,52445,1,2,0:0:0:0:
385,164,52535,1,0,0:0:0:0:
416,156,52626,1,2,0:0:0:0:
448,148,52717,1,2,0:0:0:0:
479,139,52808,6,0,L|384:115,1,92.5,2|0,0:0|0:0,0:0:0:0:
220,192,53172,2,0,B|146:172|146:172|171:277,1,185,12|0,0:0|0:0,0:0:0:0:
300,336,53718,1,2,0:0:0:0:
171,277,53899,1,10,0:0:0:0:
269,105,54081,6,0,B|320:80|320:80|448:112,1,185,6|0,0:0|0:0,0:0:0:0:
340,256,54627,2,0,L|328:156,1,92.5,10|0,0:0|0:0,0:0:0:0:
312,28,54990,1,0,0:0:0:0:
184,84,55172,1,10,0:0:0:0:
48,52,55354,1,2,0:0:0:0:
48,52,55445,1,0,0:0:0:0:
48,52,55536,2,0,L|40:12,2,30.8333333333333
76,68,55718,6,0,L|60:160,1,92.5,2|0,0:0|0:0,0:0:0:0:
140,324,56081,2,0,P|212:272|304:280,1,185,12|2,0:0|0:0,0:0:0:0:
428,340,56627,1,2,0:0:0:0:
488,216,56808,1,10,0:0:0:0:
363,155,56990,5,2,0:0:0:0:
303,279,57354,1,2,0:0:0:0:
428,340,57718,1,2,0:0:0:0:
488,216,58081,2,0,P|496:168|488:124,1,92.5
440,48,58627,6,0,B|344:20|352:72|256:44,1,185,6|8,0:0|0:0,0:0:0:0:
258,44,59354,2,0,P|272:88|280:140,1,92.5,2|0,0:0|0:0,0:0:0:0:
256,284,59718,1,8,0:0:0:0:
76,236,59899,6,0,P|132:168|216:192,1,185,2|2,0:0|0:0,0:0:0:0:
348,240,60445,2,0,L|440:228,1,92.5,10|0,0:0|0:0,0:0:0:0:
496,100,60808,1,2,0:0:0:0:
439,228,60990,1,0,0:0:0:0:
304,104,61172,2,0,L|212:92,1,92.5,8|0,0:0|0:0,0:0:0:0:
32,140,61536,6,0,B|56:192|56:192|20:320,1,185,0|8,0:0|0:0,0:0:0:0:
204,280,62263,2,0,L|231:190,1,92.5,2|0,0:0|0:0,0:0:0:0:
276,60,62627,1,8,0:0:0:0:
407,191,62808,6,0,B|363:215|363:215|231:191,1,185,6|2,0:0|0:0,0:0:0:0:
185,43,63354,2,0,L|275:59,1,92.5,10|0,0:0|0:0,0:0:0:0:
230,190,63718,2,0,L|139:173,1,92.5,2|0,0:0|0:0,0:0:0:0:
8,220,64081,1,10,0:0:0:0:
112,312,64263,1,2,0:0:0:0:
292,264,64445,6,0,P|328:192|276:108,1,185,6|8,0:0|0:0,0:0:0:0:
139,174,65172,2,0,P|183:185|230:190,1,92.5,2|0,0:0|0:0,0:0:0:0:
348,112,65536,1,8,0:0:0:0:
396,300,65718,6,0,P|368:344|244:360,1,185,2|2,0:0|0:0,0:0:0:0:
136,276,66263,2,0,P|148:324|152:368,1,92.5,10|0,0:0|0:0,0:0:0:0:
4,240,66627,2,0,P|8:194|19:149,2,92.5,2|0|8,0:0|0:0|0:0,0:0:0:0:
136,276,67172,1,2,0:0:0:0:
284,164,67354,6,0,B|372:140|372:140|452:192,1,185,6|8,0:0|0:0,0:0:0:0:
348,312,67899,2,0,L|360:220,1,92.5,0|2,0:0|0:0,0:0:0:0:
220,240,68263,2,0,L|208:332,1,92.5,0|10,0:0|0:0,0:0:0:0:
360,220,68627,6,0,L|385:30,1,185,6|2,0:0|0:0,0:0:0:0:
500,200,69172,1,8,0:0:0:0:
444,328,69354,1,0,0:0:0:0:
439,339,69445,1,0,0:0:0:0:
434,351,69536,1,10,0:0:0:0:
360,220,69718,1,2,0:0:0:0:
500,200,69899,1,10,0:0:0:0:
348,312,70081,1,2,0:0:0:0:
208,192,70263,6,0,P|124:148|36:160,1,185,6|8,0:0|0:0,0:0:0:0:
37,159,70990,1,2,0:0:0:0:
60,296,71172,1,0,0:0:0:0:
208,192,71354,1,8,0:0:0:0:
348,312,71536,6,0,B|388:328|440:328|440:328|476:296|488:252,1,185,2|2,0:0|0:0,0:0:0:0:
408,136,72081,2,0,P|360:116|316:108,1,92.5,8|0,0:0|0:0,0:0:0:0:
208,192,72445,1,2,0:0:0:0:
320,108,72627,1,2,0:0:0:0:
416,268,72808,2,0,P|464:248|508:240,1,92.5,8|0,0:0|0:0,0:0:0:0:
360,360,73172,6,0,B|316:376|284:376|284:376|240:352|180:348,1,185,2|8,0:0|0:0,0:0:0:0:
80,192,73899,2,0,P|123:176|169:168,1,92.5,2|0,0:0|0:0,0:0:0:0:
296,228,74263,1,8,0:0:0:0:
451,143,74445,6,0,P|407:71|315:79,1,185,6|2,0:0|0:0,0:0:0:0:
296,228,74990,2,0,L|280:328,1,92.5,10|0,0:0|0:0,0:0:0:0:
216,196,75354,1,2,0:0:0:0:
352,160,75536,1,2,0:0:0:0:
228,24,75718,2,0,L|136:36,1,92.5,8|0,0:0|0:0,0:0:0:0:
60,88,75990,1,0,0:0:0:0:
60,88,76081,6,0,B|76:144|76:144|33:263,1,185,6|8,0:0|0:0,0:0:0:0:
34,263,76808,2,0,L|65:350,1,92.5,2|0,0:0|0:0,0:0:0:0:
200,376,77172,1,8,0:0:0:0:
316,232,77354,6,0,B|240:184|240:184|144:196,1,185,2|2,0:0|0:0,0:0:0:0:
200,376,77899,2,0,L|220:284,1,92.5,10|0,0:0|0:0,0:0:0:0:
256,104,78263,1,2,0:0:0:0:
145,195,78445,1,2,0:0:0:0:
316,232,78627,1,10,0:0:0:0:
200,376,78808,1,2,0:0:0:0:
256,104,78990,6,0,P|344:92|424:148,1,185,6|8,0:0|0:0,0:0:0:0:
351,316,79536,2,0,P|327:276|316:232,1,92.5,2|0,0:0|0:0,0:0:0:0:
420,143,79899,2,0,L|426:112,3,30.8333333333333,0|0|0|8,0:0|0:0|0:0|0:0,0:0:0:0:
351,316,80263,6,0,B|247:344|263:288|167:316,1,185,6|2,0:0|0:0,0:0:0:0:
44,364,80808,1,8,0:0:0:0:
44,364,80990,1,0,0:0:0:0:
169,315,81172,1,0,0:0:0:0:
132,184,81354,1,0,0:0:0:0:
0,228,81536,1,8,0:0:0:0:
169,315,81718,1,0,0:0:0:0:
308,192,81899,6,0,B|360:172|360:172|488:192,1,185,12|2,0:0|0:0,0:0:0:0:
376,272,82445,2,0,L|388:368,1,92.5,8|2,0:0|0:0,0:0:0:0:
387,363,82990,1,0,0:0:0:0:
456,308,83172,1,8,0:0:0:0:
296,236,83354,5,0,0:0:0:0:
372,184,83718,1,0,0:0:0:0:
376,272,84081,1,0,0:0:0:0:
256,340,84263,1,2,0:0:0:0:
136,272,84445,1,0,0:0:0:0:
256,128,84627,1,0,0:0:0:0:
256,128,84718,1,0,0:0:0:0:
256,128,84808,6,0,L|256:32,1,92.5,12|0,0:0|0:0,0:0:0:0:
256,35,85172,1,0,0:0:0:0:
392,64,85354,2,0,L|392:156,1,92.5,8|0,0:0|0:0,0:0:0:0:
392,156,85899,1,0,0:0:0:0:
256,288,86081,6,0,B|196:252|196:252|80:268,1,185,12|2,0:0|0:0,0:0:0:0:
28,344,86627,1,2,0:0:0:0:
28,344,86808,1,2,0:0:0:0:
80,168,86990,2,0,L|266:145,1,185,2|2,0:0|0:0,0:0:0:0:
420,244,87718,6,0,P|400:168|484:136,1,185,12|2,0:0|0:0,0:0:0:0:
512,272,88263,2,0,P|484:308|444:336,1,92.5,8|0,0:0|0:0,0:0:0:0:
360,229,88808,2,0,P|390:234|420:244,2,61.6666666666667,2|0|0,0:0|0:0|0:0,0:0:0:0:
276,264,89172,6,0,P|256:220|248:172,1,92.5,2|0,0:0|0:0,0:0:0:0:
128,104,89536,2,0,P|119:149|100:191,1,92.5,2|2,0:0|0:0,0:0:0:0:
32,252,89808,1,0,0:0:0:0:
32,252,89899,2,0,B|28:300|60:336|60:336|104:316|168:324,1,185,6|2,0:0|0:0,0:0:0:0:
256,360,90445,1,0,0:0:0:0:
268,356,90536,1,0,0:0:0:0:
280,352,90627,5,8,0:0:0:0:
412,308,90808,2,0,L|440:318,2,30.8333333333333
380,320,90990,1,0,0:0:0:0:
256,184,91172,6,0,B|232:136|232:136|256:4,1,185,12|2,0:0|0:0,0:0:0:0:
396,28,91718,2,0,L|376:136,1,92.5,2|0,0:0|0:0,0:0:0:0:
256,184,92081,1,2,0:0:0:0:
328,304,92263,1,0,0:0:0:0:
451,238,92445,1,2,0:0:0:0:
379,118,92627,1,0,0:0:0:0:
256,184,92808,5,8,0:0:0:0:
221,180,92899,1,0,0:0:0:0:
187,176,92990,1,2,0:0:0:0:
152,172,93081,1,0,0:0:0:0:
108,188,93172,1,8,0:0:0:0:
126,158,93262,1,0,0:0:0:0:
132,124,93353,1,2,0:0:0:0:
124,91,93444,1,0,0:0:0:0:
103,63,93536,6,0,B|151:83|151:83|239:59,1,138.75,6|0,0:0|0:0,0:0:0:0:
276,44,93899,1,8,0:0:0:0:
408,192,94081,2,0,P|340:264|256:252,1,185,2|2,0:0|0:0,0:0:0:0:
312,176,94627,1,8,0:0:0:0:
312,176,94990,6,0,L|352:268,1,92.5,2|0,0:0|0:0,0:0:0:0:
220,316,95354,2,0,L|183:231,1,92.5,10|0,0:0|0:0,0:0:0:0:
132,100,95718,1,2,0:0:0:0:
40,204,95899,1,2,0:0:0:0:
212,132,96081,1,10,0:0:0:0:
227,323,96263,1,0,0:0:0:0:
227,323,96354,1,0,0:0:0:0:
227,323,96445,6,0,B|276:340|276:340|352:320|352:320|407:335,1,185,6|8,0:0|0:0,0:0:0:0:
244,244,96990,2,0,B|192:224|192:224|64:244,1,185,6|2,0:0|0:0,0:0:0:0:
24,328,97536,1,8,0:0:0:0:
24,328,97899,6,0,L|116:313,1,92.5,2|0,0:0|0:0,0:0:0:0:
184,192,98263,2,0,L|92:207,1,92.5,10|0,0:0|0:0,0:0:0:0:
92,206,98536,1,0,0:0:0:0:
92,206,98627,1,2,0:0:0:0:
20,148,98808,1,2,0:0:0:0:
112,44,98990,2,0,L|204:29,1,92.5,10|0,0:0|0:0,0:0:0:0:
376,112,99354,6,0,P|384:64|400:20,1,92.5,6|0,0:0|0:0,0:0:0:0:
398,22,99627,1,0,0:0:0:0:
398,22,99718,1,8,0:0:0:0:
444,192,99899,2,0,P|356:212|280:152,1,185,6|2,0:0|0:0,0:0:0:0:
376,112,100445,1,8,0:0:0:0:
376,112,100808,5,2,0:0:0:0:
444,192,100990,1,2,0:0:0:0:
376,312,101172,2,0,P|328:308|284:292,1,92.5,10|0,0:0|0:0,0:0:0:0:
192,192,101536,1,2,0:0:0:0:
168,280,101718,1,2,0:0:0:0:
288,212,101899,1,10,0:0:0:0:
264,124,102081,1,0,0:0:0:0:
420,32,102263,6,0,L|512:24,1,92.5,6|0,0:0|0:0,0:0:0:0:
512,23,102536,1,0,0:0:0:0:
512,23,102627,1,8,0:0:0:0:
468,210,102808,2,0,B|412:230|412:230|288:212,1,185,6|2,0:0|0:0,0:0:0:0:
192,192,103354,1,12,0:0:0:0:
192,192,103718,5,2,0:0:0:0:
220,268,103899,1,2,0:0:0:0:
112,352,104081,2,0,L|20:344,1,92.5,12|0,0:0|0:0,0:0:0:0:
19,343,104354,1,0,0:0:0:0:
19,343,104445,1,8,0:0:0:0:
0,212,104627,1,8,0:0:0:0:
80,100,104808,2,0,L|72:68,2,30.8333333333333
88,128,104990,1,0,0:0:0:0:
220,268,105172,6,0,B|264:252|264:252|356:272,1,138.75,6|0,0:0|0:0,0:0:0:0:
396,288,105536,1,8,0:0:0:0:
236,364,105718,2,0,P|148:328|128:244,1,185,6|2,0:0|0:0,0:0:0:0:
220,268,106263,6,0,P|236:224|244:179,1,92.5,8|0,0:0|0:0,0:0:0:0:
204,44,106627,1,2,0:0:0:0:
336,88,106808,2,0,P|384:84|432:76,2,92.5,0|8|0,0:0|0:0|0:0,0:0:0:0:
204,44,107354,2,0,P|158:36|112:32,1,92.5,2|0,0:0|0:0,0:0:0:0:
164,164,107718,2,0,P|209:156|255:152,1,92.5,10|0,0:0|0:0,0:0:0:0:
340,192,107990,1,0,0:0:0:0:
340,192,108081,6,0,B|352:232|352:232|328:292,1,92.5,6|0,0:0|0:0,0:0:0:0:
333,279,108354,1,0,0:0:0:0:
333,279,108445,1,8,0:0:0:0:
148,284,108627,2,0,L|114:370,2,92.5,2|2|8,0:0|0:0|0:0,0:0:0:0:
60,192,109172,1,0,0:0:0:0:
60,192,109263,1,0,0:0:0:0:
60,192,109354,2,0,L|77:149,1,46.25,2|0,0:0|0:0,0:0:0:0:
188,116,109536,5,8,0:0:0:0:
179,94,109627,1,8,0:0:0:0:
170,73,109718,2,0,L|152:30,1,46.25,8|0,0:0|0:0,0:0:0:0:
256,32,109899,2,0,L|273:74,1,46.25
380,136,110081,5,8,0:0:0:0:
356,164,110171,1,8,0:0:0:0:
332,192,110264,1,0,0:0:0:0:
341,214,110354,1,0,0:0:0:0:
350,234,110445,1,0,0:0:0:0:
359,254,110536,1,0,0:0:0:0:
368,274,110627,2,0,L|350:316,1,46.25,2|0,0:0|0:0,0:0:0:0:
256,316,110808,2,0,L|238:358,1,46.25
144,358,110990,6,0,L|202:228,1,138.75,6|0,0:0|0:0,0:0:0:0:
224,192,111354,1,8,0:0:0:0:
40,192,111536,2,0,L|2:277,2,92.5,6|0|2,0:0|0:0|0:0,0:0:0:0:
104,68,112081,1,8,0:0:0:0:
240,104,112263,6,0,L|332:96,1,92.5,0|2,0:0|0:0,0:0:0:0:
464,140,112627,2,0,B|440:192|440:192|468:316,1,185
332,284,113172,2,0,L|311:191,1,92.5,2|2,0:0|0:0,0:0:0:0:
352,60,113536,1,12,0:0:0:0:
464,140,113718,1,2,0:0:0:0:
280,120,113899,6,0,L|184:108,1,92.5,2|8,0:0|0:0,0:0:0:0:
96,96,114263,1,2,0:0:0:0:
200,248,114445,2,0,L|12:224,1,185,2|2,0:0|0:0,0:0:0:0:
88,344,114990,2,0,L|179:355,1,92.5,8|0,0:0|0:0,0:0:0:0:
336,252,115354,6,0,B|356:192|356:192|336:132,2,123.333333333333,6|8|6,0:0|0:0|0:0,0:0:0:0:
176,252,116081,2,0,B|156:192|156:192|176:132,2,123.333333333333,2|2|2,0:0|0:0|0:0,0:0:0:0:
256,192,116808,5,4,0:0:0:0:
256,192,118263,5,4,0:0:0:0:
256,192,118990,2,0,L|256:100,1,92.5
173,132,119718,6,0,P|112:101|44:92,1,138.750005292893,2|8,0:0|0:0,0:0:0:0:
44,93,120445,2,0,L|52:168,1,69.3750026464463,2|0,0:0|0:0,0:0:0:0:
136,220,120808,2,0,L|143:288,1,69.3750026464463,10|2,0:0|0:0,0:0:0:0:
256,368,121172,6,0,P|320:336|388:328,1,138.750005292893,2|8,0:0|0:0,0:0:0:0:
468,348,121718,1,2,0:0:0:0:
508,276,121899,2,0,P|516:240|520:200,1,69.3750026464463,2|2,0:0|0:0,0:0:0:0:
412,184,122263,2,0,P|415:218|423:252,1,69.3750026464463,10|0,0:0|0:0,0:0:0:0:
472,120,122627,6,0,B|432:96|432:96|340:104,1,138.750005292893,6|8,0:0|0:0,0:0:0:0:
256,168,123172,2,0,L|115:155,1,138.750005292893,2|2,0:0|0:0,0:0:0:0:
12,144,123718,1,8,0:0:0:0:
12,144,124081,2,0,L|20:216,2,69.3750026464463,0|2|8,0:0|0:0|0:0,0:0:0:0:
76,64,124627,1,0,0:0:0:0:
117,155,124808,5,2,0:0:0:0:
181,75,124990,1,2,0:0:0:0:
12,144,125172,1,10,0:0:0:0:
12,144,125536,6,0,L|28:296,1,138.750005292893,6|8,0:0|0:0,0:0:0:0:
136,300,126081,1,0,0:0:0:0:
136,300,126172,1,0,0:0:0:0:
136,300,126263,2,0,L|143:368,1,69.3750026464463,2|0,0:0|0:0,0:0:0:0:
248,360,126627,2,0,L|241:291,1,69.3750026464463,10|2,0:0|0:0,0:0:0:0:
344,192,126990,6,0,B|388:180|388:180|480:192,1,138.750005292893,2|8,0:0|0:0,0:0:0:0:
512,276,127536,1,2,0:0:0:0:
468,352,127718,2,0,L|400:344,1,69.3750026464463,0|2,0:0|0:0,0:0:0:0:
296,328,128081,1,10,0:0:0:0:
296,328,128445,6,0,P|272:264|288:196,1,138.750005292893,2|8,0:0|0:0,0:0:0:0:
368,132,128990,2,0,P|376:98|370:64,1,69.3750026464463,6|0,0:0|0:0,0:0:0:0:
284,4,129354,2,0,P|278:37|286:71,1,69.3750026464463,2|8,0:0|0:0,0:0:0:0:
375,139,129718,1,2,0:0:0:0:
375,139,129808,1,0,0:0:0:0:
375,139,129899,6,0,L|443:131,1,69.3750026464463,2|0,0:0|0:0,0:0:0:0:
480,32,130263,1,2,0:0:0:0:
512,168,130445,1,8,0:0:0:0:
384,52,130627,2,0,P|348:40|316:36,1,69.3750026464463,2|0,0:0|0:0,0:0:0:0:
217,127,130990,2,0,P|253:115|285:111,1,69.3750026464463,10|0,0:0|0:0,0:0:0:0:
408,192,131354,6,0,B|428:260|428:260|400:332,1,138.750005292893,6|8,0:0|0:0,0:0:0:0:
328,356,131899,1,2,0:0:0:0:
256,312,132081,2,0,L|282:247,1,69.3750026464463,2|0,0:0|0:0,0:0:0:0:
192,192,132445,2,0,L|218:127,1,69.3750026464463,10|2,0:0|0:0,0:0:0:0:
324,36,132808,6,0,B|400:12|388:60|464:36,1,138.750005292893,2|8,0:0|0:0,0:0:0:0:
504,108,133354,1,2,0:0:0:0:
468,184,133536,2,0,L|476:220,2,34.6875013232232,0|0|2,0:0|0:0|0:0,0:0:0:0:
368,156,133899,2,0,L|384:228,1,69.3750026464463,8|2,0:0|0:0,0:0:0:0:
256,284,134263,6,0,B|212:264|212:264|116:276,1,138.750005292893,6|8,0:0|0:0,0:0:0:0:
200,348,134808,2,0,L|216:208,1,138.750005292893,2|2,0:0|0:0,0:0:0:0:
232,72,135354,1,8,0:0:0:0:
104,124,135536,6,0,L|113:192,2,69.3750026464463,2|0|2,0:0|0:0|0:0,0:0:0:0:
90,20,136081,1,8,0:0:0:0:
232,72,136263,2,0,L|241:4,2,69.3750026464463,2|0|2,0:0|0:0|0:0,0:0:0:0:
104,124,136808,2,0,L|120:232,1,104.06250396967,10|0,0:0|0:0,0:0:0:0:
68,292,137172,6,0,P|124:256|196:264,1,138.750005292893,6|8,0:0|0:0,0:0:0:0:
284,312,137718,2,0,P|324:264|308:192,1,138.750005292893,2|2,0:0|0:0,0:0:0:0:
228,128,138263,2,0,P|220:92|228:60,1,69.3750026464463,10|0,0:0|0:0,0:0:0:0:
284,12,138536,1,0,0:0:0:0:
284,12,138627,6,0,B|236:40|236:40|153:26,1,138.750005292893,2|8,0:0|0:0,0:0:0:0:
72,8,139172,1,2,0:0:0:0:
16,72,139354,2,0,L|24:148,1,69.3750026464463,2|0,0:0|0:0,0:0:0:0:
37,243,139718,1,8,0:0:0:0:
37,243,140081,6,0,P|97:211|168:204,1,138.750005292893,6|8,0:0|0:0,0:0:0:0:
264,240,140627,1,0,0:0:0:0:
184,308,140808,1,2,0:0:0:0:
320,336,140990,2,0,L|392:328,1,69.3750026464463,0|8,0:0|0:0,0:0:0:0:
424,192,141354,6,0,L|352:184,1,69.3750026464463,0|2,0:0|0:0,0:0:0:0:
292,100,141718,1,2,0:0:0:0:
396,84,141899,1,2,0:0:0:0:
256,192,142081,1,2,0:0:0:0:
88,148,142263,1,8,0:0:0:0:
54,141,142354,1,8,0:0:0:0:
22,153,142445,1,8,0:0:0:0:
2,180,142536,1,8,0:0:0:0:
0,214,142627,2,0,L|8:288,1,69.3750026464463,8|2,0:0|0:0,0:0:0:0:
168,192,142990,6,0,L|184:52,1,138.75,6|0,0:0|0:0,0:0:0:0:
140,36,143353,2,0,B|184:52|184:52|232:44,1,92.5,8|0,0:0|0:0,0:0:0:0:
268,20,143626,2,0,L|279:111,1,92.5,2|0,0:0|0:0,0:0:0:0:
288,156,143899,1,2,0:0:0:0:
420,192,144080,2,0,L|408:290,1,92.5,8|0,0:0|0:0,0:0:0:0:
356,332,144353,6,0,B|402:326|402:326|444:348,1,92.5,2|0,0:0|0:0,0:0:0:0:
460,232,144626,2,0,B|414:238|414:238|372:216,1,92.5,8|0,0:0|0:0,0:0:0:0:
288,156,144899,2,0,L|299:65,1,92.5,2|0,0:0|0:0,0:0:0:0:
388,32,145171,1,10,0:0:0:0:
210,96,145353,6,0,L|194:233,1,138.75,2|0,0:0|0:0,0:0:0:0:
188,280,145717,1,8,0:0:0:0:
304,356,145899,2,0,P|348:340|400:332,1,92.5,2|0,0:0|0:0,0:0:0:0:
436,344,146171,1,0,0:0:0:0:
436,344,146262,2,0,L|448:300,1,46.25,2|0,0:0|0:0,0:0:0:0:
432,208,146444,6,0,P|388:192|336:184,1,92.5,10|0,0:0|0:0,0:0:0:0:
300,100,146717,2,0,P|254:112|208:137,1,92.5,2|0,0:0|0:0,0:0:0:0:
144,192,146990,2,0,P|76:200|32:152,2,138.75,8|8|8,0:0|0:0|0:0,0:0:0:0:
300,100,147717,6,0,B|320:144|320:144|304:232,1,138.75,6|0,0:0|0:0,0:0:0:0:
220,268,148080,2,0,L|236:358,1,92.5,8|0,0:0|0:0,0:0:0:0:
148,340,148353,1,0,0:0:0:0:
148,340,148444,2,0,L|139:290,1,46.25,2|0,0:0|0:0,0:0:0:0:
120,204,148626,1,2,0:0:0:0:
0,132,148808,6,0,L|16:40,1,92.5,10|0,0:0|0:0,0:0:0:0:
112,28,149080,1,0,0:0:0:0:
112,28,149171,2,0,L|103:73,1,46.25,2|0,0:0|0:0,0:0:0:0:
176,132,149353,2,0,B|212:144|212:144|268:132,1,92.5,8|0,0:0|0:0,0:0:0:0:
320,56,149626,1,0,0:0:0:0:
320,56,149717,2,0,L|369:68,1,46.25,2|0,0:0|0:0,0:0:0:0:
456,92,149899,1,8,0:0:0:0:
336,240,150080,6,0,P|400:308|484:300,1,185,2|8,0:0|0:0,0:0:0:0:
412,180,150626,2,0,P|372:152|328:140,2,92.5,2|0|2,0:0|0:0|0:0,0:0:0:0:
256,300,151171,6,0,B|216:308|216:308|166:292,1,92.5,10|2,0:0|0:0,0:0:0:0:
80,256,151444,2,0,B|72:292|72:292|88:352,1,92.5,2|2,0:0|0:0,0:0:0:0:
167,293,151717,2,0,B|175:257|175:257|159:197,1,92.5,2|2,0:0|0:0,0:0:0:0:
120,120,151990,2,0,B|111:84|111:84|127:24,1,92.5,2|2,0:0|0:0,0:0:0:0:
216,12,152262,1,10,0:0:0:0:
256,192,152444,6,0,B|300:208|300:208|392:192,1,138.75,6|0,0:0|0:0,0:0:0:0:
436,180,152808,1,8,0:0:0:0:
412,268,152990,2,0,L|318:284,1,92.5,2|0,0:0|0:0,0:0:0:0:
320,283,153262,1,0,0:0:0:0:
320,283,153353,1,0,0:0:0:0:
204,360,153535,2,0,L|112:344,1,92.5,8|0,0:0|0:0,0:0:0:0:
92,252,153808,5,0,0:0:0:0:
92,252,153899,2,0,L|145:261,1,46.25,2|0,0:0|0:0,0:0:0:0:
224,224,154080,2,0,B|244:192|244:192|236:136,1,92.5,8|0,0:0|0:0,0:0:0:0:
160,80,154353,2,0,B|140:112|140:112|148:168,1,92.5,8|0,0:0|0:0,0:0:0:0:
224,224,154626,1,8,0:0:0:0:
400,160,154808,6,0,P|468:156|512:208,1,138.75,6|0,0:0|0:0,0:0:0:0:
500,252,155171,1,8,0:0:0:0:
376,312,155353,2,0,P|328:308|284:296,1,92.5,2|0,0:0|0:0,0:0:0:0:
224,224,155626,2,0,P|177:227|133:239,1,92.5,2|0,0:0|0:0,0:0:0:0:
24,284,155899,6,0,P|36:240|40:192,1,92.5,10|0,0:0|0:0,0:0:0:0:
16,104,156171,1,0,0:0:0:0:
16,104,156262,2,0,L|60:92,1,46.25,8|0,0:0|0:0,0:0:0:0:
124,24,156444,2,0,L|168:36,1,46.25,10|0,0:0|0:0,0:0:0:0:
232,104,156626,2,0,L|261:96,2,30.8333333333333
212,148,156808,1,0,0:0:0:0:
212,148,156899,1,0,0:0:0:0:
212,148,156990,2,0,L|168:136,1,46.25
92,224,157171,6,0,P|104:268|132:308,1,92.5,6|0,0:0|0:0,0:0:0:0:
215,337,157444,2,0,P|175:314|127:305,1,92.5,6|0,0:0|0:0,0:0:0:0:
47,344,157717,2,0,P|91:332|131:303,1,92.5,6|0,0:0|0:0,0:0:0:0:
232,236,158020,2,0,L|296:248,1,61.6666666666667,0|8,0:0|0:0,0:0:0:0:
380,336,158262,2,0,L|440:324,1,61.6666666666667
508,220,158505,1,8,0:0:0:0:
508,220,158626,6,0,L|417:202,1,92.5
380,116,158899,2,0,L|289:98,1,92.5,2|0,0:0|0:0,0:0:0:0:
232,24,159171,2,0,L|188:36,1,46.25
100,64,159353,1,8,0:0:0:0:
256,192,159535,6,0,B|264:236|264:236|224:332,1,138.75,6|0,0:0|0:0,0:0:0:0:
204,360,159899,1,8,0:0:0:0:
388,340,160080,6,0,B|380:296|380:296|420:200,1,138.75,6|0,0:0|0:0,0:0:0:0:
440,172,160444,1,2,0:0:0:0:
256,192,160626,5,8,0:0:0:0:
184,132,160808,2,0,L|189:102,2,30.8333333333333,2|0|0,0:0|0:0|0:0,0:0:0:0:
178,162,160990,1,8,0:0:0:0:
48,192,161171,2,0,L|32:100,1,92.5
136,280,161535,6,0,L|131:310,3,30.8333333333333,2|0|0|8,0:0|0:0|0:0|0:0,0:0:0:0:
256,192,161899,6,0,P|320:176|392:168,1,138.75,2|8,0:0|0:0,0:0:0:0:
472,192,162808,6,0,P|496:124|508:56,1,138.750005292893,6|8,0:0|0:0,0:0:0:0:
507,58,163535,2,0,L|439:50,1,69.3750026464463,2|0,0:0|0:0,0:0:0:0:
360,116,163898,2,0,L|292:108,1,69.3750026464463,10|2,0:0|0:0,0:0:0:0:
160,60,164262,6,0,P|172:128|195:193,1,138.750005292893,2|8,0:0|0:0,0:0:0:0:
256,252,164808,1,2,0:0:0:0:
216,324,164989,2,0,P|182:323|147:312,1,69.3750026464463,2|2,0:0|0:0,0:0:0:0:
127,204,165353,2,0,P|160:194|195:193,1,69.3750026464463,10|0,0:0|0:0,0:0:0:0:
71,269,165717,6,0,B|47:229|47:229|55:137,1,138.750005292893,2|8,0:0|0:0,0:0:0:0:
138,66,166262,2,0,L|127:205,1,138.750005292893,2|2,0:0|0:0,0:0:0:0:
184,292,166808,1,8,0:0:0:0:
184,292,167171,2,0,L|256:284,2,69.3750026464463,0|2|8,0:0|0:0|0:0,0:0:0:0:
104,228,167717,1,0,0:0:0:0:
195,187,167898,5,2,0:0:0:0:
115,123,168080,1,2,0:0:0:0:
184,292,168262,1,10,0:0:0:0:
184,292,168626,6,0,L|336:276,1,138.750005292893,2|8,0:0|0:0,0:0:0:0:
380,192,169171,1,0,0:0:0:0:
380,192,169262,1,0,0:0:0:0:
380,192,169353,2,0,L|452:184,1,69.3750026464463,2|0,0:0|0:0,0:0:0:0:
432,80,169717,2,0,L|363:87,1,69.3750026464463,10|2,0:0|0:0,0:0:0:0:
228,56,170080,6,0,B|212:96|212:96|228:192,1,138.750005292893,2|8,0:0|0:0,0:0:0:0:
296,240,170626,1,2,0:0:0:0:
372,208,170808,2,0,L|360:128,1,69.3750026464463,2|2,0:0|0:0,0:0:0:0:
348,36,171171,1,10,0:0:0:0:
348,36,171535,6,0,P|416:24|484:36,1,138.750005292893,2|8,0:0|0:0,0:0:0:0:
416,116,172080,2,0,P|408:152|416:184,1,69.3750026464463,2|0,0:0|0:0,0:0:0:0:
508,228,172444,2,0,P|516:191|508:160,1,69.3750026464463,2|8,0:0|0:0,0:0:0:0:
423,123,172808,1,2,0:0:0:0:
423,123,172898,1,0,0:0:0:0:
423,123,172989,6,0,L|351:115,1,69.3750026464463,0|2,0:0|0:0,0:0:0:0:
340,124,173262,1,0,0:0:0:0:
326,133,173353,2,0,L|254:125,1,69.3750026464463,0|8,0:0|0:0,0:0:0:0:
168,72,173717,1,2,0:0:0:0:
256,20,173898,1,2,0:0:0:0:
184,148,174080,2,0,P|172:200|184:248,1,104.06250396967,10|0,0:0|0:0,0:0:0:0:
256,288,174444,6,0,B|188:272|188:272|128:307,1,138.750005292893,6|8,0:0|0:0,0:0:0:0:
60,356,174989,1,2,0:0:0:0:
0,296,175171,2,0,L|68:256,1,69.3750026464463,2|2,0:0|0:0,0:0:0:0:
76,156,175535,2,0,L|144:116,1,69.3750026464463,10|0,0:0|0:0,0:0:0:0:
256,192,175898,6,0,B|280:260|232:260|256:332,1,138.750005292893,2|8,0:0|0:0,0:0:0:0:
332,360,176444,1,2,0:0:0:0:
404,320,176626,2,0,L|438:323,2,34.6875013232232,0|0|2,0:0|0:0|0:0,0:0:0:0:
460,232,176989,2,0,L|391:224,1,69.3750026464463,8|2,0:0|0:0,0:0:0:0:
256,192,177353,6,0,B|240:148|240:148|256:56,1,138.750005292893,2|8,0:0|0:0,0:0:0:0:
320,140,177898,2,0,L|176:152,1,138.750005292893,2|2,0:0|0:0,0:0:0:0:
76,160,178444,1,8,0:0:0:0:
116,292,178626,6,0,L|254:280,1,138.750005292893,2|2,0:0|0:0,0:0:0:0:
344,336,179171,1,8,0:0:0:0:
440,236,179353,2,0,L|511:230,2,69.3750026464463,2|0|2,0:0|0:0|0:0,0:0:0:0:
308,192,179898,2,0,B|296:156|296:156|312:92,1,104.06250396967,10|0,0:0|0:0,0:0:0:0:
376,40,180262,6,0,P|320:64|240:40,1,138.750005292893,6|8,0:0|0:0,0:0:0:0:
152,0,180808,2,0,P|124:64|148:128,1,138.750005292893,2|2,0:0|0:0,0:0:0:0:
228,192,181353,2,0,P|235:225|227:259,1,69.3750026464463,10|0,0:0|0:0,0:0:0:0:
172,308,181626,1,0,0:0:0:0:
172,308,181717,6,0,B|220:288|220:288|308:308,1,138.750005292893,2|8,0:0|0:0,0:0:0:0:
384,332,182262,1,0,0:0:0:0:
464,304,182444,2,0,L|472:236,1,69.3750026464463,2|0,0:0|0:0,0:0:0:0:
484,132,182808,1,8,0:0:0:0:
484,132,183171,6,0,P|424:156|352:148,1,138.750005292893,6|8,0:0|0:0,0:0:0:0:
256,104,183717,2,0,L|264:184,1,69.3750026464463,2|0,0:0|0:0,0:0:0:0:
160,192,184080,2,0,L|166:122,1,69.3750026464463,2|8,0:0|0:0,0:0:0:0:
128,24,184444,1,2,0:0:0:0:
4,156,184626,6,0,L|10:226,1,69.3750026464463,10|2,0:0|0:0,0:0:0:0:
104,288,184989,1,2,0:0:0:0:
104,288,185080,1,0,0:0:0:0:
104,288,185171,2,0,L|93:342,1,34.6875013232232
184,344,185353,2,0,L|190:310,1,34.6875013232232,2|0,0:0|0:0,0:0:0:0:
268,264,185535,1,0,0:0:0:0:
268,264,185626,1,0,0:0:0:0:
268,264,185717,2,0,L|261:230,1,34.6875013232232,10|0,0:0|0:0,0:0:0:0:
196,164,185898,1,0,0:0:0:0:
199,147,185988,1,0,0:0:0:0:
202,130,186080,6,0,L|296:116,1,92.5,10|2,0:0|0:0,0:0:0:0:
432,32,186626,2,0,B|456:72|456:72|444:168,1,138.75,6|0,0:0|0:0,0:0:0:0:
444,163,187262,1,0,0:0:0:0:
444,163,187353,1,8,0:0:0:0:
328,192,187535,2,0,L|308:329,1,138.75,2|2,0:0|0:0,0:0:0:0:
160,376,188262,2,0,B|97:344|97:344|29:356,1,138.75,2|0,0:0|0:0,0:0:0:0:
29,356,188989,6,0,P|8:305|0:257,1,101.750003105164,12|0,0:0|0:0,0:0:0:0:
140,192,189353,2,0,P|159:145|168:95,1,101.750003105164,2|0,0:0|0:0,0:0:0:0:
40,16,189717,1,8,0:0:0:0:
40,16,189898,1,0,0:0:0:0:
168,95,190080,1,2,0:0:0:0:
364,36,190262,6,0,P|460:28|500:124,1,203.500006210327,2|8,0:0|0:0,0:0:0:0:
372,192,190808,1,2,0:0:0:0:
504,268,190989,1,2,0:0:0:0:
320,360,191171,2,0,L|216:352,1,101.750003105164,10|0,0:0|0:0,0:0:0:0:
169,207,191535,2,0,L|273:199,1,101.750003105164,2|8,0:0|0:0,0:0:0:0:
473,184,191898,6,0,L|372:192,1,101.750003105164,6|0,0:0|0:0,0:0:0:0:
256,96,192262,2,0,B|272:156|272:156|240:244|240:244|256:288,1,203.500006210327,0|10,0:0|0:0,0:0:0:0:
400,340,192808,1,2,0:0:0:0:
372,192,192989,1,2,0:0:0:0:
196,328,193171,6,0,B|140:356|140:356|0:336,1,203.500006210327,2|8,0:0|0:0,0:0:0:0:
120,240,193717,2,0,L|104:139,1,101.750003105164,2|0,0:0|0:0,0:0:0:0:
272,24,194080,2,0,L|256:125,1,101.750003105164,10|2,0:0|0:0,0:0:0:0:
104,139,194444,2,0,L|88:38,1,101.750003105164,10|2,0:0|0:0,0:0:0:0:
208,204,194808,6,0,L|192:305,1,101.750003105164,6|0,0:0|0:0,0:0:0:0:
340,272,195171,2,0,L|324:373,1,101.750003105164,2|0,0:0|0:0,0:0:0:0:
192,304,195535,2,0,P|144:288|92:284,2,101.750003105164,10|0|2,0:0|0:0|0:0,0:0:0:0:
352,160,196080,6,0,P|360:80|256:48,1,203.500006210327,2|8,0:0|0:0,0:0:0:0:
128,128,196626,2,0,P|69:122|24:112,1,101.750003105164,2|2,0:0|0:0,0:0:0:0:
156,28,196989,1,10,0:0:0:0:
228,164,197171,1,2,0:0:0:0:
348,68,197353,2,0,P|397:57|448:53,1,101.750003105164,2|0,0:0|0:0,0:0:0:0:
512,248,197717,6,0,P|463:237|412:233,1,101.750003105164,6|0,0:0|0:0,0:0:0:0:
288,320,198080,2,0,B|236:352|236:352|92:332,1,203.500006210327,2|10,0:0|0:0,0:0:0:0:
36,192,198626,1,2,0:0:0:0:
84,48,198808,1,2,0:0:0:0:
256,156,198989,6,0,L|356:140,1,101.750003105164,2|0,0:0|0:0,0:0:0:0:
500,192,199353,1,8,0:0:0:0:
440,332,199535,2,0,P|424:284|416:232,1,101.750003105164,2|2,0:0|0:0,0:0:0:0:
452,80,199898,1,10,0:0:0:0:
308,36,200080,2,0,L|300:-8,2,33.9166677017212
332,60,200262,2,0,L|313:161,1,101.750003105164,0|8,0:0|0:0,0:0:0:0:
124,236,200626,6,0,L|106:135,1,101.750003105164,6|0,0:0|0:0,0:0:0:0:
232,212,200989,2,0,L|214:312,1,101.750003105164,2|0,0:0|0:0,0:0:0:0:
68,360,201353,1,8,0:0:0:0:
68,360,201535,1,0,0:0:0:0:
214,312,201717,1,2,0:0:0:0:
412,368,201898,6,0,P|484:328|456:224,1,203.500006210327,2|10,0:0|0:0,0:0:0:0:
320,156,202444,1,0,0:0:0:0:
444,68,202626,1,0,0:0:0:0:
360,252,202808,2,0,L|320:348,1,101.750003105164,10|0,0:0|0:0,0:0:0:0:
172,320,203171,2,0,L|132:226,1,101.750003105164,2|8,0:0|0:0,0:0:0:0:
60,36,203535,6,0,L|20:132,1,101.750003105164,6|0,0:0|0:0,0:0:0:0:
168,88,203898,2,0,B|228:72|228:72|304:100|304:100|364:84,1,203.500006210327,2|10,0:0|0:0,0:0:0:0:
500,24,204444,1,2,0:0:0:0:
512,176,204626,1,2,0:0:0:0:
324,264,204808,6,0,B|292:216|292:216|308:68,1,203.500006210327,2|2,0:0|0:0,0:0:0:0:
411,192,205353,2,0,L|512:176,1,101.750003105164,8|0,0:0|0:0,0:0:0:0:
324,264,205717,2,0,L|223:247,1,101.750003105164,10|0,0:0|0:0,0:0:0:0:
292,376,206080,2,0,L|392:359,1,101.750003105164,2|0,0:0|0:0,0:0:0:0:
223,247,206444,6,0,L|122:230,1,101.750003105164,6|0,0:0|0:0,0:0:0:0:
189,97,206808,2,0,L|88:80,1,101.750003105164,2|0,0:0|0:0,0:0:0:0:
122,230,207171,2,0,P|109:281|88:325,2,101.750003105164,8|0|2,0:0|0:0|0:0,0:0:0:0:
308,140,207717,6,0,P|392:148|400:256,1,203.500006210327,2|8,0:0|0:0,0:0:0:0:
256,304,208262,2,0,P|240:252|232:200,1,101.750003105164,2|2,0:0|0:0,0:0:0:0:
284,60,208626,1,10,0:0:0:0:
400,156,208808,1,2,0:0:0:0:
200,116,208989,2,0,P|184:67|176:17,1,101.750003105164,2|8,0:0|0:0,0:0:0:0:
279,205,209353,6,0,P|270:255|255:303,1,101.750003105164,6|0,0:0|0:0,0:0:0:0:
108,348,209717,2,0,B|76:296|76:296|100:156,1,203.500006210327,2|10,0:0|0:0,0:0:0:0:
248,116,210262,1,2,0:0:0:0:
148,0,210444,1,2,0:0:0:0:
184,200,210626,6,0,L|204:300,1,101.750003105164,2|0,0:0|0:0,0:0:0:0:
348,352,210989,1,8,0:0:0:0:
424,220,211171,2,0,P|376:204|320:196,1,101.750003105164,2|0,0:0|0:0,0:0:0:0:
203,299,211535,1,8,0:0:0:0:
88,200,211717,1,2,0:0:0:0:
72,224,211898,1,2,0:0:0:0:
40,372,212080,1,8,0:0:0:0:
172,216,212262,6,0,P|224:200|272:192,1,101.750003105164,6|0,0:0|0:0,0:0:0:0:
356,64,212626,2,0,P|304:48|256:40,1,101.750003105164,2|0,0:0|0:0,0:0:0:0:
116,100,212989,2,0,P|64:84|16:76,1,101.750003105164,8|0,0:0|0:0,0:0:0:0:
72,224,213353,1,2,0:0:0:0:
270,192,213535,6,0,B|384:156|372:232|472:192,1,203.500006210327,2|10,0:0|0:0,0:0:0:0:
508,48,214080,1,2,0:0:0:0:
356,64,214262,1,2,0:0:0:0:
492,216,214444,2,0,L|480:324,1,101.750003105164,8|2,0:0|0:0,0:0:0:0:
336,368,214808,2,0,L|324:266,1,101.750003105164,10|0,0:0|0:0,0:0:0:0:
204,80,215171,6,0,L|96:72,1,101.750003105164,6|0,0:0|0:0,0:0:0:0:
32,208,215535,2,0,L|240:192,1,203.500006210327,2|10,0:0|0:0,0:0:0:0:
376,132,216080,1,2,0:0:0:0:
400,284,216262,1,2,0:0:0:0:
284,112,216444,6,0,P|340:44|448:68,1,203.500006210327,2|10,0:0|0:0,0:0:0:0:
388,208,216989,1,2,0:0:0:0:
512,300,217171,1,2,0:0:0:0:
320,368,217353,2,0,L|220:348,1,101.750003105164,8|2,0:0|0:0,0:0:0:0:
124,228,217717,1,2,0:0:0:0:
68,372,217898,1,8,0:0:0:0:
228,248,218080,6,0,L|312:184,1,101.750003105164,6|0,0:0|0:0,0:0:0:0:
432,92,218444,1,2,0:0:0:0:
308,186,218626,1,0,0:0:0:0:
448,248,218808,2,0,P|440:296|416:348,2,101.750003105164,8|0|2,0:0|0:0|0:0,0:0:0:0:
320,84,219353,6,0,B|256:56|256:56|124:72,1,203.500006210327,2|8,0:0|0:0,0:0:0:0:
32,192,219898,2,0,L|137:180,1,101.750003105164,2|2,0:0|0:0,0:0:0:0:
256,272,220262,1,10,0:0:0:0:
120,336,220444,1,2,0:0:0:0:
234,168,220626,2,0,L|339:156,1,101.750003105164,2|8,0:0|0:0,0:0:0:0:
488,292,220989,6,0,P|496:236|512:192,1,101.750003105164,6|0,0:0|0:0,0:0:0:0:
464,48,221353,2,0,B|404:76|404:76|268:56,1,203.500006210327,2|10,0:0|0:0,0:0:0:0:
116,32,221898,1,2,0:0:0:0:
160,180,222080,1,2,0:0:0:0:
348,104,222262,6,0,L|448:119,1,101.750003105164,2|0,0:0|0:0,0:0:0:0:
512,260,222626,1,2,0:0:0:0:
384,343,222808,2,0,P|364:295|356:243,1,101.750003105164,8|2,0:0|0:0,0:0:0:0:
448,119,223171,6,0,P|445:152|435:185,2,67.8333354034424
352,108,223535,1,8,0:0:0:0:
352,108,223656,2,0,P|341:75|337:42,1,67.8333354034424,8|8,0:0|0:0,0:0:0:0:
448,119,223898,6,0,P|442:166|419:214,1,101.750003105164,6|0,0:0|0:0,0:0:0:0:
284,300,224262,2,0,P|206:238|107:249,1,203.500006210327,2|10,0:0|0:0,0:0:0:0:
4,364,224808,1,2,0:0:0:0:
108,250,224989,1,2,0:0:0:0:
0,72,225171,6,0,P|28:160|124:132,1,203.500006210327,2|10,0:0|0:0,0:0:0:0:
216,20,225717,1,2,0:0:0:0:
344,104,225898,1,2,0:0:0:0:
208,260,226080,2,0,L|104:248,1,101.750003105164,8|0,0:0|0:0,0:0:0:0:
204,368,226444,2,0,L|308:356,1,101.750003105164,2|8,0:0|0:0,0:0:0:0:
507,332,226808,6,0,L|405:343,1,101.750003105164,6|0,0:0|0:0,0:0:0:0:
316,220,227171,2,0,B|300:164|300:164|332:76|332:76|316:12,1,203.500006210327,2|2,0:0|0:0,0:0:0:0:
168,64,227717,2,0,L|132:160,1,101.750003105164,2|2,0:0|0:0,0:0:0:0:
0,292,228080,6,0,P|96:276|140:360,1,203.500006210327,2|8,0:0|0:0,0:0:0:0:
296,380,228626,2,0,P|344:376|400:364,1,101.750003105164,2|0,0:0|0:0,0:0:0:0:
484,240,228989,1,10,0:0:0:0:
484,240,229171,1,2,0:0:0:0:
356,160,229353,1,10,0:0:0:0:
356,160,229535,1,2,0:0:0:0:
512,32,229717,6,0,L|408:20,1,101.750003105164,6|0,0:0|0:0,0:0:0:0:
356,160,230080,2,0,L|252:148,1,101.750003105164,2|0,0:0|0:0,0:0:0:0:
104,128,230444,1,10,0:0:0:0:
254,148,230626,1,2,0:0:0:0:
200,4,230808,1,2,0:0:0:0:
176,204,230989,1,2,0:0:0:0:
176,204,231080,1,0,0:0:0:0:
176,204,231171,6,0,L|160:304,1,101.750003105164,0|10,0:0|0:0,0:0:0:0:
304,356,231535,1,2,0:0:0:0:
159,304,231717,1,2,0:0:0:0:
328,192,231898,2,0,P|376:180|428:176,1,101.750003105164,8|0,0:0|0:0,0:0:0:0:
480,312,232262,2,0,P|429:308|379:296,1,101.750003105164,8|0,0:0|0:0,0:0:0:0:
492,116,232626,6,0,P|505:67|511:16,1,101.750003105164,6|8,0:0|0:0,0:0:0:0:
360,44,232989,2,0,P|365:94|379:143,1,101.750003105164,2|0,0:0|0:0,0:0:0:0:
480,312,233353,1,10,0:0:0:0:
379,143,233535,1,10,0:0:0:0:
256,296,233717,1,2,0:0:0:0:
108,92,233898,6,0,P|16:96|4:192,1,203.500006210327,6|8,0:0|0:0,0:0:0:0:
36,216,234353,2,0,L|88:208,1,50.8750015525818,2|2,0:0|0:0,0:0:0:0:
188,192,234535,2,0,L|238:184,2,50.8750015525818,8|0|0,0:0|0:0|0:0,0:0:0:0:
156,292,234808,1,2,0:0:0:0:
156,292,234898,1,0,0:0:0:0:
156,292,234989,6,0,L|164:344,1,50.8750015525818,2|8,0:0|0:0,0:0:0:0:
256,376,235171,1,8,0:0:0:0:
440,284,235354,1,0,0:0:0:0:
440,284,235444,1,0,0:0:0:0:
440,284,235535,6,0,L|412:96,1,185,6|8,0:0|0:0,0:0:0:0:
256,4,236262,2,0,L|242:95,1,92.5,2|2,0:0|0:0,0:0:0:0:
216,232,236626,1,8,0:0:0:0:
336,96,236808,6,0,B|248:60|248:60|152:68,1,185,6|2,0:0|0:0,0:0:0:0:
96,192,237353,2,0,L|3:184,1,92.5,8|0,0:0|0:0,0:0:0:0:
3,184,237626,1,0,0:0:0:0:
3,184,237717,1,2,0:0:0:0:
92,304,237898,1,2,0:0:0:0:
216,232,238080,1,10,0:0:0:0:
192,92,238262,1,2,0:0:0:0:
173,302,238444,6,0,P|250:305|294:216,1,185,6|8,0:0|0:0,0:0:0:0:
192,92,239171,1,2,0:0:0:0:
256,28,239353,2,0,P|304:20|356:16,1,92.5,2|10,0:0|0:0,0:0:0:0:
508,108,239717,6,0,P|424:104|408:192,1,185,2|2,0:0|0:0,0:0:0:0:
488,300,240262,1,8,0:0:0:0:
372,376,240444,2,0,L|343:338,2,46.25,0|0|2,0:0|0:0|0:0,0:0:0:0:
488,300,240808,1,2,0:0:0:0:
405,188,240989,2,0,L|350:113,1,92.5,10|0,0:0|0:0,0:0:0:0:
184,192,241353,6,0,B|128:216|128:216|4:200,1,185,6|8,0:0|0:0,0:0:0:0:
132,336,242080,2,0,L|228:348,1,92.5,2|2,0:0|0:0,0:0:0:0:
372,368,242444,1,2,0:0:0:0:
424,192,242626,2,0,B|448:104|448:104|424:8,1,185,6|2,0:0|0:0,0:0:0:0:
288,0,243171,2,0,L|310:90,1,92.5,8|0,0:0|0:0,0:0:0:0:
310,89,243444,1,0,0:0:0:0:
310,89,243535,1,2,0:0:0:0:
256,220,243717,1,2,0:0:0:0:
80,160,243898,2,0,L|57:70,1,92.5,10|2,0:0|0:0,0:0:0:0:
156,224,244262,6,0,L|120:358,1,138.75,6|0,0:0|0:0,0:0:0:0:
164,376,244626,2,0,P|208:356|252:348,1,92.5,8|0,0:0|0:0,0:0:0:0:
388,368,244989,1,2,0:0:0:0:
472,260,245171,2,0,P|488:216|492:168,1,92.5,2|10,0:0|0:0,0:0:0:0:
352,48,245535,6,0,B|248:16|264:79|171:48,1,185,6|2,0:0|0:0,0:0:0:0:
28,4,246080,2,0,L|40:96,1,92.5,8|0,0:0|0:0,0:0:0:0:
96,152,246353,1,0,0:0:0:0:
96,152,246444,2,0,P|56:172|8:168,1,92.5,8|2,0:0|0:0,0:0:0:0:
171,48,246808,2,0,P|216:44|257:64,1,92.5,2|2,0:0|0:0,0:0:0:0:
280,248,247171,6,0,P|328:176|420:172,1,185,6|8,0:0|0:0,0:0:0:0:
303,336,247898,2,0,P|258:328|214:313,1,92.5,2|2,0:0|0:0,0:0:0:0:
152,192,248262,1,10,0:0:0:0:
288,56,248444,6,0,P|372:76|388:164,1,185,6|2,0:0|0:0,0:0:0:0:
279,247,248989,2,0,P|287:293|304:336,1,92.5,8|0,0:0|0:0,0:0:0:0:
344,360,249262,1,0,0:0:0:0:
344,360,249353,2,0,L|439:349,1,92.5,2|2,0:0|0:0,0:0:0:0:
279,247,249717,2,0,L|184:236,1,92.5,10|2,0:0|0:0,0:0:0:0:
16,312,250080,6,0,B|48:268|48:268|28:136,1,185,6|8,0:0|0:0,0:0:0:0:
192,52,250807,1,2,0:0:0:0:
177,143,250989,2,0,L|162:237,1,92.5,2|10,0:0|0:0,0:0:0:0:
312,344,251353,6,0,B|348:356|348:356|404:344,1,92.5,2|0,0:0|0:0,0:0:0:0:
456,216,251717,2,0,B|420:204|420:204|364:216,1,92.5,2|8,0:0|0:0,0:0:0:0:
196,292,252080,2,0,B|144:312|144:312|12:296,1,185,2|2,0:0|0:0,0:0:0:0:
0,156,252626,2,0,L|100:168,1,92.5,12|0,0:0|0:0,0:0:0:0:
276,192,252989,6,0,P|340:128|432:144,1,185,2|8,0:0|0:0,0:0:0:0:
512,252,253535,1,0,0:0:0:0:
427,140,253717,2,0,P|416:96|412:44,2,92.5,2|2|10,0:0|0:0|0:0,0:0:0:0:
368,316,254262,6,0,B|265:339|281:291|185:315,1,185,6|2,0:0|0:0,0:0:0:0:
60,376,254808,2,0,P|48:332|44:280,1,92.5,8|0,0:0|0:0,0:0:0:0:
140,184,255171,1,2,0:0:0:0:
185,314,255353,1,2,0:0:0:0:
336,216,255535,2,0,P|380:204|428:200,1,92.5,12|0,0:0|0:0,0:0:0:0:
312,341,255898,6,0,L|260:265,1,92.5,6|0,0:0|0:0,0:0:0:0:
332,132,256262,2,0,L|280:56,1,92.5,8|2,0:0|0:0,0:0:0:0:
140,40,256626,1,10,0:0:0:0:
116,176,256808,1,2,0:0:0:0:
116,176,256989,1,2,0:0:0:0:
256,192,257171,5,6,0:0:0:0:
256,192,257261,12,4,260080,0:0:0:0:
256,192,262989,5,4,0:0:0:0:
256,192,265898,5,4,0:0:0:0:
164,192,267352,6,0,L|164:264,1,69.3750026464463,2|2,0:0|0:0,0:0:0:0:
348,192,267716,2,0,L|348:268,1,69.3750026464463,2|2,0:0|0:0,0:0:0:0:
348,261,268261,1,2,0:0:0:0:
164,261,268443,1,2,0:0:0:0:
256,192,268807,5,6,0:0:0:0:
256,192,271716,5,4,0:0:0:0:
256,192,274625,5,4,0:0:0:0:
256,192,276807,5,2,0:0:0:0:
256,192,277534,1,4,0:0:0:0:
204,192,279352,6,0,B|256:208|256:208|304:192,1,104.06250396967
256,96,279898,1,2,0:0:0:0:
256,192,280443,5,4,0:0:0:0:
256,192,282080,5,0,0:0:0:0:
288,272,282261,2,0,L|326:264,5,23.1250008821488
256,308,282625,2,0,L|289:330,5,23.1250008821488
207,310,282989,2,0,L|214:350,3,23.1250008821488
56,252,283352,6,0,L|79:115,1,138.750005292893,6|8,0:0|0:0,0:0:0:0:
216,12,283898,1,8,0:0:0:0:
191,30,284080,1,8,0:0:0:0:
78,115,284261,1,8,0:0:0:0:
169,224,284443,1,8,0:0:0:0:
281,137,284624,1,8,0:0:0:0:
512,192,284807,5,8,0:0:0:0:
348,356,284989,2,0,L|368:280,1,78.6250014996529,8|8,0:0|0:0,0:0:0:0:
432,52,285352,1,8,0:0:0:0:
368,280,285534,1,8,0:0:0:0:
148,192,285716,6,0,L|137:152,1,39.3125007498264,10|0,0:0|0:0,0:0:0:0:
52,124,285898,1,8,0:0:0:0:
52,124,285989,1,8,0:0:0:0:
52,124,286080,2,0,L|45:149,1,26.2083338332176
88,356,286261,1,8,0:0:0:0:
108,348,286352,1,8,0:0:0:0:
128,340,286443,6,0,B|184:320|184:320|320:348,1,185,6|8,0:0|0:0,0:0:0:0:
484,292,287170,1,2,0:0:0:0:
360,228,287352,1,2,0:0:0:0:
480,160,287533,1,10,0:0:0:0:
384,316,287715,6,0,P|300:304|268:216,1,185,2|2,0:0|0:0,0:0:0:0:
356,92,288261,2,0,P|272:48|180:64,1,185,10|2,0:0|0:0,0:0:0:0:
60,116,288806,1,2,0:0:0:0:
144,280,288988,2,0,P|160:236|168:184,1,92.5,10|0,0:0|0:0,0:0:0:0:
76,352,289352,6,0,B|136:372|136:372|208:352|208:352|260:368,1,185,2|8,0:0|0:0,0:0:0:0:
344,260,289897,2,0,B|298:271|298:271|254:258,1,92.5,0|2,0:0|0:0,0:0:0:0:
208,128,290261,1,2,0:0:0:0:
76,260,290443,1,10,0:0:0:0:
288,176,290624,6,0,B|376:144|376:144|472:164,1,185,6|2,0:0|0:0,0:0:0:0:
392,332,291170,2,0,L|384:240,1,92.5,8|2,0:0|0:0,0:0:0:0:
420,152,291443,1,0,0:0:0:0:
420,152,291533,2,0,B|376:167|376:167|332:156,1,92.5,2|0,0:0|0:0,0:0:0:0:
204,216,291897,2,0,L|114:192,1,92.5,10|2,0:0|0:0,0:0:0:0:
256,40,292261,6,0,B|284:24|320:24|320:24|344:44|372:52|372:52|404:52|436:40,1,185,6|8,0:0|0:0,0:0:0:0:
484,220,292988,1,2,0:0:0:0:
452,344,293170,1,2,0:0:0:0:
348,264,293352,1,10,0:0:0:0:
180,332,293533,6,0,B|124:352|124:352|0:332,1,185,2|2,0:0|0:0,0:0:0:0:
116,252,294079,2,0,L|108:159,1,92.5,10|0,0:0|0:0,0:0:0:0:
232,100,294443,2,0,L|224:193,1,92.5,2|2,0:0|0:0,0:0:0:0:
276,320,294806,1,10,0:0:0:0:
460,252,294988,1,2,0:0:0:0:
460,252,295079,1,0,0:0:0:0:
460,252,295170,6,0,P|412:232|368:224,1,92.5,6|0,0:0|0:0,0:0:0:0:
276,320,295533,2,0,P|233:301|188:292,1,92.5,8|0,0:0|0:0,0:0:0:0:
56,332,295897,1,2,0:0:0:0:
24,196,296079,1,2,0:0:0:0:
156,156,296261,1,10,0:0:0:0:
276,320,296443,6,0,B|316:348|360:356|360:356|400:336|428:292,1,185,6|2,0:0|0:0,0:0:0:0:
332,192,296988,1,10,0:0:0:0:
404,72,297170,2,0,L|440:68,2,30.8333333333333
388,100,297352,1,8,0:0:0:0:
256,144,297533,1,8,0:0:0:0:
184,24,297715,2,0,L|148:20,2,30.8333333333333
200,53,297897,1,2,0:0:0:0:
84,192,298079,6,0,L|96:284,1,92.5,6|0,0:0|0:0,0:0:0:0:
232,327,298443,2,0,L|244:235,1,92.5,8|0,0:0|0:0,0:0:0:0:
324,124,298806,1,2,0:0:0:0:
440,200,298988,1,2,0:0:0:0:
359,311,299170,1,10,0:0:0:0:
180,248,299352,6,0,B|120:228|120:228|0:248,1,185,2|2,0:0|0:0,0:0:0:0:
44,116,299897,2,0,L|140:100,1,92.5,8|0,0:0|0:0,0:0:0:0:
256,16,300261,2,0,L|347:31,1,92.5,2|2,0:0|0:0,0:0:0:0:
460,116,300624,1,10,0:0:0:0:
347,31,300806,1,2,0:0:0:0:
268,196,300988,6,0,B|248:244|248:244|268:320|268:320|252:372,1,185,6|8,0:0|0:0,0:0:0:0:
120,244,301715,2,0,L|155:159,1,92.5,2|2,0:0|0:0,0:0:0:0:
212,32,302079,1,10,0:0:0:0:
348,156,302261,6,0,B|424:212|424:212|512:180,1,185,6|2,0:0|0:0,0:0:0:0:
452,36,302806,2,0,L|436:144,1,92.5,8|2,0:0|0:0,0:0:0:0:
352,160,303079,1,0,0:0:0:0:
352,160,303170,2,0,L|336:268,1,92.5,2|0,0:0|0:0,0:0:0:0:
464,312,303533,2,0,L|450:220,1,92.5,8|0,0:0|0:0,0:0:0:0:
344,64,303897,6,0,B|248:40|264:88|160:64,1,185,6|8,0:0|0:0,0:0:0:0:
52,144,304443,1,2,0:0:0:0:
52,144,304533,1,0,0:0:0:0:
52,144,304624,2,0,P|51:191|63:236,1,92.5,2|2,0:0|0:0,0:0:0:0:
184,304,304988,1,10,0:0:0:0:
332,192,305170,6,0,P|420:188|476:260,1,185,2|2,0:0|0:0,0:0:0:0:
396,368,305715,2,0,P|384:323|380:277,1,92.5,8|0,0:0|0:0,0:0:0:0:
491,168,306079,2,0,P|487:214|475:258,2,92.5,2|2|10,0:0|0:0|0:0,0:0:0:0:
328,80,306624,1,2,0:0:0:0:
328,80,306715,1,0,0:0:0:0:
328,80,306806,6,0,B|312:136|312:136|348:260,1,185,6|8,0:0|0:0,0:0:0:0:
464,336,307352,1,0,0:0:0:0:
347,257,307533,1,2,0:0:0:0:
228,332,307715,2,0,L|232:368,2,30.8333333333333
224,300,307897,1,8,0:0:0:0:
40,272,308079,6,0,L|59:85,1,185,6|8,0:0|0:0,0:0:0:0:
184,32,308624,2,0,L|194:124,1,92.5,8|2,0:0|0:0,0:0:0:0:
316,192,308988,1,10,0:0:0:0:
448,148,309170,1,2,0:0:0:0:
388,324,309352,2,0,B|336:348|336:348|256:328,1,138.75,2|0,0:0|0:0,0:0:0:0:
216,344,309715,6,0,B|184:300|184:300|216:168,1,185,6|8,0:0|0:0,0:0:0:0:
360,60,310443,1,2,0:0:0:0:
316,192,310624,1,2,0:0:0:0:
224,88,310806,1,10,0:0:0:0:
400,144,310988,6,0,B|416:200|416:200|372:324,1,185,2|2,0:0|0:0,0:0:0:0:
240,280,311533,2,0,L|209:367,1,92.5,8|0,0:0|0:0,0:0:0:0:
80,312,311897,2,0,L|49:224,1,92.5,2|2,0:0|0:0,0:0:0:0:
4,92,312261,1,10,0:0:0:0:
176,160,312443,1,0,0:0:0:0:
176,160,312533,1,0,0:0:0:0:
176,160,312624,6,0,P|240:108|340:120,1,185,6|0,0:0|0:0,0:0:0:0:
444,220,313170,1,2,0:0:0:0:
444,220,313261,1,0,0:0:0:0:
444,220,313352,2,0,L|436:268,1,46.25,2|0,0:0|0:0,0:0:0:0:
420,356,313533,1,2,0:0:0:0:
304,276,313715,1,8,0:0:0:0:
136,348,313897,6,0,P|80:280|104:192,1,185,6|2,0:0|0:0,0:0:0:0:
236,144,314443,2,0,P|256:96|268:52,1,92.5,10|0,0:0|0:0,0:0:0:0:
392,0,314806,2,0,P|404:44|422:86,1,92.5,2|0,0:0|0:0,0:0:0:0:
512,192,315170,2,0,P|499:236|481:278,1,92.5,10|2,0:0|0:0,0:0:0:0:
408,336,315443,1,0,0:0:0:0:
408,336,315533,6,0,B|356:316|356:316|284:336|284:336|231:321,1,185,6|8,0:0|0:0,0:0:0:0:
96,192,316261,1,2,0:0:0:0:
232,160,316443,1,2,0:0:0:0:
216,296,316624,1,10,0:0:0:0:
156,112,316806,6,0,B|216:76|216:76|332:92,1,185,2|2,0:0|0:0,0:0:0:0:
392,216,317352,2,0,L|482:203,1,92.5,10|0,0:0|0:0,0:0:0:0:
512,68,317715,1,2,0:0:0:0:
512,68,317897,1,2,0:0:0:0:
329,91,318079,2,0,L|239:78,1,92.5,10|0,0:0|0:0,0:0:0:0:
96,192,318443,6,0,P|88:144|72:96,1,92.5,6|0,0:0|0:0,0:0:0:0:
40,284,318806,2,0,B|144:312|132:256|224:284,1,185,10|2,0:0|0:0,0:0:0:0:
348,340,319352,1,2,0:0:0:0:
460,260,319533,1,10,0:0:0:0:
332,120,319715,6,0,B|292:100|256:100|256:100|208:120|148:100,1,185,6|2,0:0|0:0,0:0:0:0:
240,268,320261,2,0,P|256:224|264:172,1,92.5,12|0,0:0|0:0,0:0:0:0:
204,4,320624,1,2,0:0:0:0:
72,132,320806,1,2,0:0:0:0:
72,132,320897,1,8,0:0:0:0:
72,132,320988,2,0,P|79:177|95:220,1,92.5,8|2,0:0|0:0,0:0:0:0:
240,268,321353,6,0,L|380:260,1,138.750005292893,4|2,0:0|0:0,0:0:0:0:
452,324,322080,1,2,0:0:0:0:
452,324,322443,1,2,0:0:0:0:
378,260,322625,2,0,P|356:196|372:128,1,138.750005292893,2|2,0:0|0:0,0:0:0:0:
428,48,323353,1,6,0:0:0:0:
371,128,323716,1,6,0:0:0:0:
314,48,324080,2,0,P|252:28|180:20,1,138.750005292893,2|10,0:0|0:0,0:0:0:0:
48,60,324625,6,0,B|76:104|76:104|56:192,1,138.750005292893,6|0,0:0|0:0,0:0:0:0:
24,288,325171,1,2,0:0:0:0:
100,360,325353,2,0,L|176:352,1,69.3750026464463,8|0,0:0|0:0,0:0:0:0:
256,296,325716,1,2,0:0:0:0:
380,360,325898,6,0,L|456:352,1,69.3750026464463,6|0,0:0|0:0,0:0:0:0:
512,224,326262,2,0,L|372:208,1,138.750005292893,2|6,0:0|0:0,0:0:0:0:
312,84,326807,1,2,0:0:0:0:
196,160,326989,2,0,L|128:152,1,69.3750026464463,10|2,0:0|0:0,0:0:0:0:
20,240,327353,1,8,0:0:0:0:
20,240,327443,2,0,L|0:237,4,17.3437506616116,0|0|0|0|8,0:0|0:0|0:0|0:0|0:0,0:0:0:0:
40,268,327716,1,8,0:0:0:0:
204,340,327898,6,0,B|256:360|256:360|340:344,1,138.750005292893,6|8,0:0|0:0,0:0:0:0:
380,192,328534,1,0,0:0:0:0:
380,192,328625,2,0,L|453:208,1,69.3750026464463,2|2,0:0|0:0,0:0:0:0:
496,300,328989,1,8,0:0:0:0:
376,368,329171,6,0,L|308:353,1,69.3750026464463,2|0,0:0|0:0,0:0:0:0:
212,252,329534,2,0,L|144:266,1,69.3750026464463,2|0,0:0|0:0,0:0:0:0:
132,280,329807,1,0,0:0:0:0:
120,295,329898,2,0,L|52:281,1,69.3750026464463,2|0,0:0|0:0,0:0:0:0:
0,152,330262,5,8,0:0:0:0:
88,96,330443,1,0,0:0:0:0:
84,80,330534,1,0,0:0:0:0:
80,64,330625,2,0,L|86:29,1,34.6875013232232,2|0,0:0|0:0,0:0:0:0:
172,4,330807,1,2,0:0:0:0:
256,116,330989,1,8,0:0:0:0:
412,40,331171,6,0,P|448:32|484:28,2,69.3750026464463,2|0|2,0:0|0:0|0:0,0:0:0:0:
360,132,331716,1,8,0:0:0:0:
440,244,331898,2,0,P|420:304|352:328,1,138.750005292893,2|2,0:0|0:0,0:0:0:0:
228,272,332443,6,0,P|192:264|156:260,1,69.3750026464463,8|0,0:0|0:0,0:0:0:0:
32,312,332807,2,0,P|8:252|36:184,1,138.750005292893,2|0,0:0|0:0,0:0:0:0:
152,116,333353,1,2,0:0:0:0:
280,168,333534,2,0,P|296:120|304:64,1,104.06250396967,10|0,0:0|0:0,0:0:0:0:
292,32,333898,2,0,L|256:24,2,34.6875013232232,2|0|2,0:0|0:0|0:0,0:0:0:0:
428,68,334262,1,10,0:0:0:0:
339,226,334443,6,0,P|275:250|211:212,1,138.750005292893,6|8,0:0|0:0,0:0:0:0:
160,92,335171,1,2,0:0:0:0:
244,152,335353,1,2,0:0:0:0:
148,196,335534,1,10,0:0:0:0:
208,320,335716,6,0,B|256:336|256:336|352:316,1,138.750005292893,2|8,0:0|0:0,0:0:0:0:
282,194,336443,2,0,B|234:178|234:178|148:196,1,138.750005292893,2|8,0:0|0:0,0:0:0:0:
48,224,337080,1,0,0:0:0:0:
48,224,337171,2,0,L|36:156,1,69.3750026464463,2|2,0:0|0:0,0:0:0:0:
80,60,337534,1,8,0:0:0:0:
256,92,337716,6,0,P|320:72|392:64,1,138.750005292893,2|2,0:0|0:0,0:0:0:0:
492,96,338262,1,8,0:0:0:0:
432,220,338443,2,0,P|363:212|296:192,1,138.750005292893,2|2,0:0|0:0,0:0:0:0:
180,116,338989,6,0,L|188:48,1,69.3750026464463,8|0,0:0|0:0,0:0:0:0:
52,80,339353,2,0,L|67:217,1,138.750005292893,2|2,0:0|0:0,0:0:0:0:
67,217,339807,1,0,0:0:0:0:
67,217,339898,1,2,0:0:0:0:
188,303,340080,2,0,L|296:295,1,104.06250396967,8|0,0:0|0:0,0:0:0:0:
320,275,340443,2,0,L|324:235,2,34.6875013232232,2|0|2,0:0|0:0|0:0,0:0:0:0:
224,172,340807,1,8,0:0:0:0:
348,48,340989,6,0,B|420:20|412:68|484:48,1,138.750005292893,2|8,0:0|0:0,0:0:0:0:
512,168,341625,1,0,0:0:0:0:
512,168,341716,2,0,L|504:204,1,34.6875013232232,2|0,0:0|0:0,0:0:0:0:
446,250,341898,2,0,L|449:266,3,17.3437506616116
420,228,342080,1,8,0:0:0:0:
288,192,342262,6,0,B|220:172|220:172|156:192,1,138.750005292893,6|6,0:0|0:0,0:0:0:0:
208,328,342989,2,0,L|218:259,2,69.3750026464463,2|2|10,0:0|0:0|0:0,0:0:0:0:
76,288,343716,2,0,L|65:219,1,69.3750026464463,2|2,0:0|0:0,0:0:0:0:
44,80,344080,1,8,0:0:0:0:
200,156,344262,6,0,L|216:52,1,104.06250396967,2|8,0:0|0:0,0:0:0:0:
224,20,344625,1,8,0:0:0:0:
344,88,344807,1,8,0:0:0:0:
476,48,344989,2,0,L|482:7,2,34.6875013232232,2|0|0,0:0|0:0|0:0,0:0:0:0:
474,85,345262,1,8,0:0:0:0:
474,85,345353,1,8,0:0:0:0:
412,168,345534,1,0,0:0:0:0:
415,193,345624,1,0,0:0:0:0:
419,219,345715,1,0,0:0:0:0:
423,245,345806,1,0,0:0:0:0:
427,270,345898,6,0,L|416:339,1,69.3750026464463,12|0,0:0|0:0,0:0:0:0:
284,372,346262,1,0,0:0:0:0:
284,372,346353,1,0,0:0:0:0:
284,372,346443,2,0,L|278:331,1,34.6875013232232,2|0,0:0|0:0,0:0:0:0:
192,276,346625,2,0,L|198:235,1,34.6875013232232
308,156,346807,1,2,0:0:0:0:
308,156,346898,1,0,0:0:0:0:
308,156,346989,2,0,L|297:87,1,69.3750026464463,2|2,0:0|0:0,0:0:0:0:
124,24,347353,6,0,P|40:40|12:132,1,185,6|8,0:0|0:0,0:0:0:0:
152,244,348080,2,0,L|336:236,1,185,2|8,0:0|0:0,0:0:0:0:
496,140,348625,6,0,B|464:192|464:192|492:316,2,185,2|10|2,0:0|0:0|0:0,0:0:0:0:
320,192,349716,2,0,L|272:272,1,92.5,8|0,0:0|0:0,0:0:0:0:
180,280,350080,1,2,0:0:0:0:
180,280,350171,1,0,0:0:0:0:
180,280,350262,2,0,L|156:320,1,46.25,2|0,0:0|0:0,0:0:0:0:
64,320,350443,1,10,0:0:0:0:
0,144,350625,6,0,P|72:88|164:96,1,185,2|8,0:0|0:0,0:0:0:0:
324,196,351171,1,2,0:0:0:0:
324,196,351353,2,0,P|414:202|485:146,1,185,2|8,0:0|0:0,0:0:0:0:
348,24,351898,6,0,L|208:8,1,138.75,2|0,0:0|0:0,0:0:0:0:
168,24,352262,2,0,P|156:68|168:116,1,92.5,6|0,0:0|0:0,0:0:0:0:
280,192,352625,2,0,P|292:148|280:100,1,92.5,2|0,0:0|0:0,0:0:0:0:
168,24,352989,2,0,L|76:12,1,92.5,10|0,0:0|0:0,0:0:0:0:
24,88,353353,1,2,0:0:0:0:
8,119,353443,1,0,0:0:0:0:
3,153,353534,1,2,0:0:0:0:
10,187,353625,1,0,0:0:0:0:
26,217,353716,1,10,0:0:0:0:
180,320,353898,6,0,L|272:308,1,92.5,6|0,0:0|0:0,0:0:0:0:
348,192,354262,2,0,L|256:180,1,92.5,10|0,0:0|0:0,0:0:0:0:
164,20,354625,2,0,L|256:8,1,92.5,10|0,0:0|0:0,0:0:0:0:
300,36,354898,1,0,0:0:0:0:
300,36,354989,2,0,L|364:28,1,46.25,2|0,0:0|0:0,0:0:0:0:
436,60,355171,6,0,P|419:102|408:147,1,92.5,2|0,0:0|0:0,0:0:0:0:
300,236,355534,2,0,P|289:191|272:148,1,92.5,10|0,0:0|0:0,0:0:0:0:
232,124,355807,1,0,0:0:0:0:
232,124,355898,2,0,L|136:116,1,92.5,2|0,0:0|0:0,0:0:0:0:
115,251,356262,2,0,L|211:243,1,92.5,10|0,0:0|0:0,0:0:0:0:
316,332,356625,1,2,0:0:0:0:
328,324,356716,1,0,0:0:0:0:
340,316,356807,2,0,L|400:311,1,46.25,2|0,0:0|0:0,0:0:0:0:
456,248,356989,1,10,0:0:0:0:
336,100,357171,6,0,B|256:60|256:60|160:72,1,185,6|2,0:0|0:0,0:0:0:0:
24,92,357716,1,8,0:0:0:0:
120,192,357898,2,0,B|136:248|136:248|100:376,1,185,2|8,0:0|0:0,0:0:0:0:
232,324,358443,2,0,L|258:233,1,92.5,2|0,0:0|0:0,0:0:0:0:
384,100,358807,6,0,P|296:108|240:36,2,185,10|2|10,0:0|0:0|0:0,0:0:0:0:
448,32,359716,1,2,0:0:0:0:
504,168,359898,1,0,0:0:0:0:
504,168,359989,1,0,0:0:0:0:
504,168,360080,1,2,0:0:0:0:
400,256,360262,1,10,0:0:0:0:
228,192,360443,6,0,B|176:172|176:172|44:192,1,185,2|8,0:0|0:0,0:0:0:0:
132,356,361171,2,0,L|224:342,1,92.5,2|0,0:0|0:0,0:0:0:0:
256,312,361443,1,0,0:0:0:0:
256,312,361534,2,0,L|301:318,1,46.25,8|0,0:0|0:0,0:0:0:0:
380,368,361716,6,0,L|472:354,1,92.5,6|0,0:0|0:0,0:0:0:0:
408,228,362080,2,0,L|364:221,2,30.8333333333333,2|0|0,0:0|0:0|0:0,0:0:0:0:
424,220,362262,1,0,0:0:0:0:
440,212,362353,1,0,0:0:0:0:
456,204,362443,2,0,L|464:112,1,92.5,2|0,0:0|0:0,0:0:0:0:
332,64,362807,2,0,L|340:156,1,92.5,10|0,0:0|0:0,0:0:0:0:
212,192,363171,1,2,0:0:0:0:
212,192,363262,1,0,0:0:0:0:
212,192,363353,2,0,L|207:145,1,46.25,2|0,0:0|0:0,0:0:0:0:
144,80,363534,1,10,0:0:0:0:
24,224,363716,6,0,P|60:304|152:300,1,185,6|8,0:0|0:0,0:0:0:0:
296,192,364443,2,0,P|344:180|392:176,1,92.5,2|2,0:0|0:0,0:0:0:0:
512,240,364807,1,10,0:0:0:0:
352,332,364989,6,0,B|300:356|300:356|168:344,1,185,2|8,0:0|0:0,0:0:0:0:
44,212,365717,1,2,0:0:0:0:
33,179,365807,1,0,0:0:0:0:
41,146,365898,1,2,0:0:0:0:
64,121,365989,1,2,0:0:0:0:
97,112,366080,2,0,L|143:123,1,46.25,2|0,0:0|0:0,0:0:0:0:
208,192,366262,2,0,L|252:181,2,46.25,2|0|2,0:0|0:0|0:0,0:0:0:0:
180,232,366534,1,2,0:0:0:0:
180,232,366625,1,10,0:0:0:0:
328,344,366807,6,0,L|424:332,1,92.5,6|0,0:0|0:0,0:0:0:0:
472,204,367170,2,0,L|376:192,1,92.5,10|0,0:0|0:0,0:0:0:0:
308,136,367443,1,0,0:0:0:0:
308,136,367534,2,0,B|292:104|292:104|306:49,2,92.5,2|2|10,0:0|0:0|0:0,0:0:0:0:
488,96,368079,6,0,L|512:6,1,92.5,2|0,0:0|0:0,0:0:0:0:
404,103,368443,2,0,L|379:192,1,92.5,2|0,0:0|0:0,0:0:0:0:
208,264,368807,2,0,B|152:284|152:284|24:264,1,185,2|8,0:0|0:0,0:0:0:0:
0,128,369352,1,2,0:0:0:0:
0,128,369443,1,0,0:0:0:0:
0,128,369534,2,0,L|52:136,1,46.25,2|0,0:0|0:0,0:0:0:0:
120,76,369716,2,0,L|172:84,1,46.25,2|0,0:0|0:0,0:0:0:0:
255,97,369897,1,8,0:0:0:0:
428,32,370079,6,0,P|444:100|420:168,1,138.75,2|2,0:0|0:0,0:0:0:0:
384,192,370443,2,0,L|292:176,1,92.5,2|8,0:0|0:0,0:0:0:0:
108,208,370807,2,0,L|16:192,1,92.5,2|0,0:0|0:0,0:0:0:0:
16,192,371079,1,0,0:0:0:0:
16,192,371170,1,2,0:0:0:0:
132,336,371352,6,0,L|224:320,1,92.5,10|0,0:0|0:0,0:0:0:0:
320,220,371716,2,0,B|304:272|304:272|340:356,1,138.75,8|2,0:0|0:0,0:0:0:0:
380,368,372079,2,0,L|472:352,1,92.5,2|0,0:0|0:0,0:0:0:0:
412,236,372443,2,0,L|320:220,1,92.5,10|0,0:0|0:0,0:0:0:0:
256,96,372807,1,2,0:0:0:0:
248,84,372897,1,0,0:0:0:0:
240,72,372988,2,0,L|288:64,1,46.25,2|0,0:0|0:0,0:0:0:0:
376,44,373170,1,10,0:0:0:0:
320,220,373352,6,0,P|324:268|336:312,1,92.5,2|0,0:0|0:0,0:0:0:0:
208,368,373716,2,0,P|144:336|72:324,1,138.75,10|2,0:0|0:0,0:0:0:0:
32,332,374079,1,2,0:0:0:0:
0,192,374261,1,2,0:0:0:0:
136,224,374443,1,10,0:0:0:0:
256,84,374625,6,0,P|340:44|428:64,2,185,2|2|2,0:0|0:0|0:0,0:0:0:0:
356,184,375534,1,2,0:0:0:0:
226,243,375716,2,0,P|178:235|134:223,1,92.5,2|8,0:0|0:0,0:0:0:0:
100,100,376079,1,2,0:0:0:0:
100,100,376170,1,0,0:0:0:0:
100,100,376261,2,0,P|144:88|190:80,1,92.5,2|8,0:0|0:0,0:0:0:0:
356,184,376625,6,0,B|332:136|332:136|355:6,1,185,6|0,0:0|0:0,0:0:0:0:
512,108,377352,2,0,L|496:202,1,92.5,2|2,0:0|0:0,0:0:0:0:
472,336,377716,1,10,0:0:0:0:
300,268,377897,6,0,B|256:248|256:248|164:260,1,138.75,2|0,0:0|0:0,0:0:0:0:
132,292,378261,2,0,L|34:281,1,92.5,2|0,0:0|0:0,0:0:0:0:
0,100,378625,2,0,L|185:121,1,185,8|2,0:0|0:0,0:0:0:0:
316,84,379170,1,2,0:0:0:0:
404,192,379352,1,2,0:0:0:0:
412,204,379443,1,0,0:0:0:0:
420,216,379534,2,0,L|488:224,1,46.25,2|0,0:0|0:0,0:0:0:0:
512,140,379716,1,10,0:0:0:0:
304,236,379897,6,0,P|312:284|328:328,1,92.5,6|0,0:0|0:0,0:0:0:0:
360,360,380170,1,0,0:0:0:0:
360,360,380261,2,0,P|312:348|268:344,1,92.5,2|0,0:0|0:0,0:0:0:0:
196,224,380625,2,0,P|150:228|105:239,1,92.5,2|0,0:0|0:0,0:0:0:0:
0,332,380988,1,8,0:0:0:0:
64,160,381170,6,0,P|75:115|80:69,1,92.5,2|0,0:0|0:0,0:0:0:0:
212,28,381534,2,0,P|216:73|228:118,1,92.5,2|8,0:0|0:0,0:0:0:0:
364,244,381897,2,0,P|344:328|256:344,1,185,6|8,0:0|0:0,0:0:0:0:
104,252,382625,1,2,0:0:0:0:
104,252,382716,1,0,0:0:0:0:
104,252,382807,2,0,P|56:240|8:236,1,92.5,2|10,0:0|0:0,0:0:0:0:
156,352,383170,6,0,B|200:272|200:272|188:176,1,185,6|8,0:0|0:0,0:0:0:0:
164,40,383716,1,2,0:0:0:0:
300,72,383897,2,0,L|312:172,1,92.5,2|2,0:0|0:0,0:0:0:0:
436,224,384261,1,10,0:0:0:0:
268,300,384443,6,0,B|212:320|212:320|84:300,1,185,6|8,0:0|0:0,0:0:0:0:
16,188,384988,1,2,0:0:0:0:
152,160,385170,2,0,L|243:145,1,92.5,2|2,0:0|0:0,0:0:0:0:
196,276,385534,2,0,L|104:261,1,92.5,10|2,0:0|0:0,0:0:0:0:
68,80,385897,1,10,0:0:0:0:
243,145,386079,2,0,L|335:130,1,92.5,10|0,0:0|0:0,0:0:0:0:
496,248,386443,6,0,L|488:340,1,92.5,6|0,0:0|0:0,0:0:0:0:
352,376,386807,2,0,L|344:284,1,92.5,10|0,0:0|0:0,0:0:0:0:
288,212,387079,1,0,0:0:0:0:
288,212,387170,2,0,B|256:200|256:200|196:208,2,92.5,2|2|10,0:0|0:0|0:0,0:0:0:0:
160,344,387716,6,0,L|68:354,1,92.5,2|0,0:0|0:0,0:0:0:0:
14,227,388079,2,0,L|105:216,1,92.5,10|0,0:0|0:0,0:0:0:0:
288,268,388443,2,0,B|320:228|320:228|308:92,1,185,2|8,0:0|0:0,0:0:0:0:
176,48,388988,1,2,0:0:0:0:
176,48,389079,1,0,0:0:0:0:
176,48,389170,2,0,L|179:97,1,46.25,2|0,0:0|0:0,0:0:0:0:
268,128,389352,2,0,L|264:81,1,46.25,2|0,0:0|0:0,0:0:0:0:
360,48,389534,1,10,0:0:0:0:
476,192,389716,6,0,P|492:260|464:328,1,138.75,6|0,0:0|0:0,0:0:0:0:
428,340,390079,2,0,L|336:328,1,92.5,8|0,0:0|0:0,0:0:0:0:
208,192,390443,2,0,L|116:180,2,92.5,2|0|10,0:0|0:0|0:0,0:0:0:0:
328,52,390988,6,0,L|420:40,1,92.5,2|0,0:0|0:0,0:0:0:0:
500,152,391352,2,0,B|476:192|476:192|488:284,1,138.75,12|0,0:0|0:0,0:0:0:0:
460,320,391716,2,0,L|448:224,1,92.5,2|0,0:0|0:0,0:0:0:0:
316,192,392079,2,0,L|304:283,1,92.5,10|0,0:0|0:0,0:0:0:0:
196,372,392443,1,2,0:0:0:0:
196,372,392534,1,0,0:0:0:0:
196,372,392625,2,0,L|148:364,1,46.25,2|0,0:0|0:0,0:0:0:0:
60,348,392807,1,10,0:0:0:0:
148,192,392988,6,0,P|162:147|168:96,1,92.5,6|0,0:0|0:0,0:0:0:0:
284,24,393352,2,0,P|285:93|302:160,1,138.75,10|0,0:0|0:0,0:0:0:0:
339,189,393716,2,0,P|383:177|431:169,1,92.5,2|0,0:0|0:0,0:0:0:0:
499,289,394079,1,8,0:0:0:0:
332,352,394261,6,0,P|244:356|184:288,2,185,2|10|2,0:0|0:0|0:0,0:0:0:0:
419,239,395170,1,2,0:0:0:0:
312,148,395352,2,0,P|298:103|292:52,1,92.5,10|0,0:0|0:0,0:0:0:0:
156,32,395716,2,0,P|149:77|136:121,1,92.5,2|0,0:0|0:0,0:0:0:0:
40,224,396079,1,2,0:0:0:0:
200,308,396261,6,0,B|256:328|256:328|388:304,1,185,6|2,0:0|0:0,0:0:0:0:
468,192,396807,1,8,0:0:0:0:
304,96,396988,2,0,L|213:112,1,92.5,6|2,0:0|0:0,0:0:0:0:
212,112,397261,1,0,0:0:0:0:
212,112,397352,1,2,0:0:0:0:
377,208,397534,2,0,L|468:192,1,92.5,10|0,0:0|0:0,0:0:0:0:
332,344,397897,6,0,P|280:324|232:316,1,101.750003105164,12|0,0:0|0:0,0:0:0:0:
84,340,398260,1,2,0:0:0:0:
0,152,398442,2,0,P|52:132|100:124,1,101.750003105164,2|0,0:0|0:0,0:0:0:0:
244,176,398806,1,2,0:0:0:0:
444,144,398987,2,0,L|456:40,1,101.750003105164,10|2,0:0|0:0,0:0:0:0:
455,42,399260,1,0,0:0:0:0:
455,42,399351,5,2,0:0:0:0:
336,216,399533,2,0,P|244:176|140:192,1,203.500006210327,10|2,0:0|0:0,0:0:0:0:
16,276,400078,1,10,0:0:0:0:
156,344,400260,1,10,0:0:0:0:
48,164,400442,2,0,L|60:60,1,101.750003105164,2|0,0:0|0:0,0:0:0:0:
256,0,400806,6,0,L|267:101,1,101.750003105164,6|0,0:0|0:0,0:0:0:0:
388,192,401169,1,2,0:0:0:0:
257,355,401351,2,0,L|149:343,1,101.750003105164,10|2,0:0|0:0,0:0:0:0:
155,343,401624,1,0,0:0:0:0:
155,343,401715,1,2,0:0:0:0:
80,160,401897,2,0,L|188:148,1,101.750003105164,10|2,0:0|0:0,0:0:0:0:
181,148,402169,1,0,0:0:0:0:
181,148,402260,5,2,0:0:0:0:
388,192,402442,1,10,0:0:0:0:
316,60,402624,2,0,P|296:108|284:160,1,101.750003105164,2|0,0:0|0:0,0:0:0:0:
352,296,402987,1,10,0:0:0:0:
352,296,403169,1,10,0:0:0:0:
492,228,403351,2,0,P|480:178|460:131,1,101.750003105164,10|0,0:0|0:0,0:0:0:0:
228,24,403715,6,0,B|124:12,1,101.750003105164,12|0,0:0|0:0,0:0:0:0:
92,160,404078,2,0,B|196:148,1,101.750003105164,2|8,0:0|0:0,0:0:0:0:
340,192,404442,2,0,B|399:185,2,50.8750015525818,2|0|2,0:0|0:0|0:0,0:0:0:0:
228,368,404806,2,0,B|124:356,1,101.750003105164,10|2,0:0|0:0,0:0:0:0:
126,356,405078,1,0,0:0:0:0:
126,356,405169,5,2,0:0:0:0:
32,248,405351,1,10,0:0:0:0:
124,124,405533,2,0,B|228:112,1,101.750003105164,2|0,0:0|0:0,0:0:0:0:
372,160,405897,1,10,0:0:0:0:
340,12,406078,1,2,0:0:0:0:
276,204,406260,6,0,P|264:260|280:320,1,117.937502249479,10|0,0:0|0:0,0:0:0:0:
348,348,406624,6,0,B|280:316|280:316|152:336,1,203.500006210327,12|8,0:0|0:0,0:0:0:0:
32,248,407169,1,8,0:0:0:0:
153,335,407351,1,8,0:0:0:0:
196,136,407533,1,8,0:0:0:0:
48,352,407715,1,8,0:0:0:0:
356,300,407897,1,8,0:0:0:0:
120,80,408078,6,0,P|108:168|176:228,1,185,12|0,0:0|0:0,0:0:0:0:
216,43,408624,2,0,P|282:102|272:191,1,185,12|0,0:0|0:0,0:0:0:0:
196,136,409169,1,12,0:0:0:0:
196,136,409533,5,6,0:0:0:0:
196,136,410987,5,6,0:0:0:0:
196,136,412442,6,0,L|228:224,1,92.5,6|2,0:0|0:0,0:0:0:0:
227,222,413351,1,2,0:0:0:0:
364,244,413715,1,0,0:0:0:0:
364,244,413806,1,0,0:0:0:0:
364,244,413897,6,0,L|392:319,1,69.3750026464463,6|0,0:0|0:0,0:0:0:0:
428,316,414169,1,8,0:0:0:0:
428,316,414260,2,0,L|456:391,1,69.3750026464463,8|8,0:0|0:0,0:0:0:0:
320,344,414624,1,0,0:0:0:0:
288,329,414714,1,0,0:0:0:0:
254,324,414805,1,0,0:0:0:0:
220,327,414896,1,0,0:0:0:0:
187,340,414987,2,0,L|162:275,1,69.3750026464463,10|0,0:0|0:0,0:0:0:0:
32,140,415351,6,0,B|88:160|88:160|209:128,1,185,6|8,0:0|0:0,0:0:0:0:
300,104,415897,1,2,0:0:0:0:
408,192,416078,2,0,L|497:169,1,92.5,2|2,0:0|0:0,0:0:0:0:
432,292,416442,2,0,L|342:269,1,92.5,10|0,0:0|0:0,0:0:0:0:
164,320,416806,6,0,B|208:240|208:240|184:148,1,185,2|8,0:0|0:0,0:0:0:0:
156,60,417351,1,2,0:0:0:0:
48,148,417533,2,0,L|72:243,2,92.5,2|2|10,0:0|0:0|0:0,0:0:0:0:
156,60,418078,1,2,0:0:0:0:
284,191,418260,6,0,P|329:184|373:169,2,92.5,2|0|10,0:0|0:0|0:0,0:0:0:0:
364,76,418806,2,0,P|444:108|464:200,1,185,2|2,0:0|0:0,0:0:0:0:
368,296,419351,2,0,P|378:340|398:382,1,92.5,10|0,0:0|0:0,0:0:0:0:
224,324,419715,6,0,P|179:310|133:307,1,92.5,2|2,0:0|0:0,0:0:0:0:
60,192,420078,2,0,P|106:188|150:175,1,92.5,2|10,0:0|0:0,0:0:0:0:
256,84,420442,1,2,0:0:0:0:
124,36,420624,1,2,0:0:0:0:
241,191,420806,2,0,B|253:239|253:239|224:324,1,138.75,6|0,0:0|0:0,0:0:0:0:
136,344,421169,6,0,P|224:324|296:376,1,185,2|8,0:0|0:0,0:0:0:0:
428,336,421715,1,2,0:0:0:0:
428,336,421806,1,0,0:0:0:0:
428,336,421897,2,0,P|448:292|456:248,1,92.5,2|2,0:0|0:0,0:0:0:0:
328,192,422260,2,0,P|308:148|300:104,1,92.5,10|0,0:0|0:0,0:0:0:0:
360,36,422533,1,0,0:0:0:0:
360,36,422624,6,0,P|288:76|188:60,1,185,2|8,0:0|0:0,0:0:0:0:
68,8,423169,1,2,0:0:0:0:
68,8,423260,1,0,0:0:0:0:
68,8,423351,2,0,L|76:104,1,92.5,2|2,0:0|0:0,0:0:0:0:
152,268,423715,2,0,B|200:284|200:284|288:268,1,138.75,10|0,0:0|0:0,0:0:0:0:
340,192,424078,6,0,L|430:209,2,92.5,2|0|10,0:0|0:0|0:0,0:0:0:0:
256,80,424624,2,0,B|224:132|224:132|247:253,1,185,2|2,0:0|0:0,0:0:0:0:
128,320,425169,2,0,L|109:226,1,92.5,10|2,0:0|0:0,0:0:0:0:
20,56,425533,6,0,L|1:146,1,92.5,2|2,0:0|0:0,0:0:0:0:
109,229,425897,1,10,0:0:0:0:
272,144,426078,2,0,P|356:112|448:124,1,185,2|2,0:0|0:0,0:0:0:0:
504,300,426624,2,0,B|488:252|488:252|512:164,1,138.75,12|0,0:0|0:0,0:0:0:0:
424,192,426987,6,0,L|372:373,1,185,2|8,0:0|0:0,0:0:0:0:
256,300,427533,2,0,B|176:256|176:256|84:276,1,185,2|2,0:0|0:0,0:0:0:0:
0,164,428078,2,0,L|91:144,1,92.5,10|2,0:0|0:0,0:0:0:0:
164,80,428351,1,0,0:0:0:0:
164,80,428442,6,0,B|264:48|248:100|352:80,1,185,2|8,0:0|0:0,0:0:0:0:
428,40,428987,1,2,0:0:0:0:
496,160,429169,2,0,P|484:208|464:248,1,92.5,2|2,0:0|0:0,0:0:0:0:
288,300,429533,2,0,P|267:258|257:213,1,92.5,12|0,0:0|0:0,0:0:0:0:
300,32,429897,6,0,B|208:24,1,92.5,2|8,0:0|0:0,0:0:0:0:
196,32,430169,1,8,0:0:0:0:
185,41,430260,1,8,0:0:0:0:
336,152,430442,6,0,B|244:144,1,92.5,2|8,0:0|0:0,0:0:0:0:
232,152,430714,1,8,0:0:0:0:
221,161,430805,1,8,0:0:0:0:
372,272,430988,6,0,B|280:264,1,92.5,2|0,0:0|0:0,0:0:0:0:
268,272,431260,1,0,0:0:0:0:
257,281,431351,1,2,0:0:0:0:
246,290,431442,1,0,0:0:0:0:
235,299,431533,2,0,B|186:295,1,46.25
112,348,431715,2,0,B|65:344,1,46.25,2|0,0:0|0:0,0:0:0:0:
8,268,431897,1,0,0:0:0:0:
19,259,431988,1,0,0:0:0:0:
30,250,432078,6,0,L|102:190,1,92.5,2|2,0:0|0:0,0:0:0:0:
284,220,432442,2,0,P|352:200|420:192,1,138.75,10|0,0:0|0:0,0:0:0:0:
496,244,432806,6,0,B|516:192|516:192|488:64,1,185,6|8,0:0|0:0,0:0:0:0:
420,4,433351,1,2,0:0:0:0:
320,100,433533,2,0,L|340:191,1,92.5,2|2,0:0|0:0,0:0:0:0:
204,160,433897,2,0,L|224:69,1,92.5,10|0,0:0|0:0,0:0:0:0:
280,252,434260,6,0,B|188:264|188:264|104:224,1,185,2|8,0:0|0:0,0:0:0:0:
24,176,434806,1,2,0:0:0:0:
140,109,434987,2,0,L|224:69,1,92.5,2|2,0:0|0:0,0:0:0:0:
352,120,435351,2,0,L|436:80,1,92.5,10|2,0:0|0:0,0:0:0:0:
512,136,435624,1,0,0:0:0:0:
512,136,435715,6,0,B|528:192|528:192|492:316,1,185,6|8,0:0|0:0,0:0:0:0:
356,348,436260,2,0,P|268:312|176:324,1,185,2|2,0:0|0:0,0:0:0:0:
48,364,436806,2,0,P|32:316|24:272,1,92.5,10|2,0:0|0:0,0:0:0:0:
24,274,437078,1,0,0:0:0:0:
24,274,437169,5,2,0:0:0:0:
136,192,437351,2,0,P|152:144|160:100,1,92.5,2|10,0:0|0:0,0:0:0:0:
132,12,437715,1,2,0:0:0:0:
256,76,437897,2,0,P|304:72|352:60,1,92.5,2|0,0:0|0:0,0:0:0:0:
512,148,438260,2,0,B|528:200|528:200|512:284,1,138.75,6|0,0:0|0:0,0:0:0:0:
428,324,438624,6,0,B|336:348|348:292|244:324,1,185,2|10,0:0|0:0,0:0:0:0:
120,364,439169,1,2,0:0:0:0:
120,364,439260,1,0,0:0:0:0:
120,364,439351,2,0,P|72:360|28:348,1,92.5,2|2,0:0|0:0,0:0:0:0:
0,212,439715,2,0,P|44:200|90:196,1,92.5,10|0,0:0|0:0,0:0:0:0:
268,256,440078,6,0,P|356:248|392:168,1,185,2|8,0:0|0:0,0:0:0:0:
332,40,440624,1,2,0:0:0:0:
208,92,440806,2,0,P|196:48|192:0,1,92.5,2|2,0:0|0:0,0:0:0:0:
332,40,441169,2,0,P|328:86|315:130,1,92.5,10|2,0:0|0:0,0:0:0:0:
180,248,441533,6,0,B|124:276|124:276|0:260,1,185,6|8,0:0|0:0,0:0:0:0:
72,140,442078,2,0,L|255:116,1,185,2|2,0:0|0:0,0:0:0:0:
363,224,442624,2,0,L|271:236,1,92.5,10|0,0:0|0:0,0:0:0:0:
148,96,442987,6,0,L|240:84,1,92.5,2|0,0:0|0:0,0:0:0:0:
360,12,443351,1,10,0:0:0:0:
239,84,443533,1,2,0:0:0:0:
363,224,443715,2,0,L|455:212,1,92.5,2|2,0:0|0:0,0:0:0:0:
400,340,444078,2,0,L|308:328,1,92.5,2|2,0:0|0:0,0:0:0:0:
128,356,444442,6,0,B|96:312|96:312|124:184,1,185,6|8,0:0|0:0,0:0:0:0:
148,96,444987,1,2,0:0:0:0:
280,144,445169,2,0,L|298:53,1,92.5,2|2,0:0|0:0,0:0:0:0:
432,12,445533,2,0,L|450:102,1,92.5,10|0,0:0|0:0,0:0:0:0:
392,280,445897,6,0,P|348:268|300:260,1,92.5,2|2,0:0|0:0,0:0:0:0:
301,260,446169,1,0,0:0:0:0:
301,260,446260,1,10,0:0:0:0:
168,300,446442,1,2,0:0:0:0:
48,236,446624,2,0,P|32:284|24:332,1,92.5,2|2,0:0|0:0,0:0:0:0:
168,300,446987,2,0,P|159:254|144:210,1,92.5,10|2,0:0|0:0,0:0:0:0:
84,140,447260,1,0,0:0:0:0:
84,140,447351,6,0,P|144:180|248:156,1,185,6|8,0:0|0:0,0:0:0:0:
356,68,447897,2,0,P|444:80|484:160,1,185,2|2,0:0|0:0,0:0:0:0:
396,268,448442,2,0,P|408:312|427:354,1,92.5,10|2,0:0|0:0,0:0:0:0:
427,354,448715,1,0,0:0:0:0:
427,354,448806,5,2,0:0:0:0:
256,280,448987,2,0,P|275:238|287:193,1,92.5,2|10,0:0|0:0,0:0:0:0:
256,0,449351,2,0,P|304:76|392:64,1,185,2|2,0:0|0:0,0:0:0:0:
224,152,449897,2,0,B|180:172|180:172|88:156,1,138.75,6|0,0:0|0:0,0:0:0:0:
84,64,450260,6,0,B|92:156|92:156|44:240,1,185,6|8,0:0|0:0,0:0:0:0:
164,308,450806,2,0,L|257:143,1,185,2|2,0:0|0:0,0:0:0:0:
368,224,451351,2,0,L|322:304,1,92.5,10|2,0:0|0:0,0:0:0:0:
256,368,451624,1,0,0:0:0:0:
256,368,451715,6,0,B|200:340|200:340|76:356,1,185,6|8,0:0|0:0,0:0:0:0:
24,228,452260,1,8,0:0:0:0:
112,120,452442,2,0,P|132:76|140:32,1,92.5,2|2,0:0|0:0,0:0:0:0:
256,104,452806,2,0,P|264:149|283:191,1,92.5,10|0,0:0|0:0,0:0:0:0:
436,300,453169,5,10,0:0:0:0:
304,340,453351,2,0,L|215:365,1,92.5,2|2,0:0|0:0,0:0:0:0:
62,257,453715,5,10,0:0:0:0:
194,216,453897,2,0,L|283:191,1,92.5,2|2,0:0|0:0,0:0:0:0:
296,200,454169,1,0,0:0:0:0:
309,210,454260,2,0,L|398:185,1,92.5,10|0,0:0|0:0,0:0:0:0:
496,120,454533,1,0,0:0:0:0:
496,120,454624,6,0,P|508:76|496:28,1,92.5,12|2,0:0|0:0,0:0:0:0:
398,184,454987,2,0,P|387:229|399:273,1,92.5,12|2,0:0|0:0,0:0:0:0:
436,360,455260,1,0,0:0:0:0:
436,360,455351,2,0,L|340:344,1,92.5,2|8,0:0|0:0,0:0:0:0:
403,277,455624,1,8,0:0:0:0:
403,277,455715,2,0,L|499:261,1,92.5,2|8,0:0|0:0,0:0:0:0:
404,100,456078,6,0,B|352:76|352:76|280:96|280:96|228:80,1,185,6|8,0:0|0:0,0:0:0:0:
96,44,456624,2,0,B|116:100|116:100|80:228,1,185,2|2,0:0|0:0,0:0:0:0:
32,352,457169,2,0,L|6:263,1,92.5,8|0,0:0|0:0,0:0:0:0:
172,180,457533,6,0,P|256:220|340:192,1,185,6|8,0:0|0:0,0:0:0:0:
339,192,458260,2,0,P|423:151|507:180,1,185,2|8,0:0|0:0,0:0:0:0:
506,179,458987,6,0,L|492:320,1,138.750005292893,6|2,0:0|0:0,0:0:0:0:
412,344,459553,1,2,0:0:0:0:
332,371,459741,2,0,B|288:352|288:352|197:363,1,138.750005292893,2|8,0:0|0:0,0:0:0:0:
198,364,460496,6,0,L|60:345,1,138.750005292893,6|0,0:0|0:0,0:0:0:0:
61,345,461251,2,0,L|0:353,2,61.6666666666667,8|8|8,0:0|0:0|0:0,0:0:0:0:
116,268,461638,2,0,L|177:276,2,61.6666666666667,2|2|2,0:0|0:0|0:0,0:0:0:0:
61,191,462025,5,6,0:0:0:0:
61,191,465225,5,6,0:0:0:0:
61,191,467358,5,2,0:0:0:0:
172,108,467625,1,2,0:0:0:0:
208,240,467891,1,2,0:0:0:0:
84,104,468158,1,6,0:0:0:0:
38,278,468425,5,6,0:0:0:0:
38,278,471625,5,2,0:0:0:0:
168,320,471891,1,2,0:0:0:0:
212,188,472158,1,2,0:0:0:0:
82,146,472424,1,2,0:0:0:0:
168,320,472691,1,2,0:0:0:0:
342,230,472958,1,2,0:0:0:0:
360,220,473091,1,2,0:0:0:0:
378,210,473225,6,0,B|392:176|392:176|380:120,1,92.5,6|0,0:0|0:0,0:0:0:0:
292,92,473625,2,0,B|278:58|278:58|290:2,1,92.5,12|0,0:0|0:0,0:0:0:0:
176,32,474025,2,0,L|152:131,1,92.5,8|8,0:0|0:0,0:0:0:0:
104,300,474558,1,2,0:0:0:0:
96,324,474691,1,2,0:0:0:0:
88,348,474825,6,0,P|152:324|224:328,1,138.750005292893,6|2,0:0|0:0,0:0:0:0:
316,368,475225,1,8,0:0:0:0:
404,312,475358,2,0,P|412:280|408:244,1,69.3750026464463,2|0,0:0|0:0,0:0:0:0:
308,152,475625,2,0,P|376:156|436:120,1,138.750005292893,10|2,0:0|0:0,0:0:0:0:
340,20,476158,1,2,0:0:0:0:
212,72,476425,6,0,B|168:88|168:88|76:76,1,138.750005292893,2|2,0:0|0:0,0:0:0:0:
16,160,476825,1,10,0:0:0:0:
96,224,476958,2,0,L|164:215,1,69.3750026464463,2|0,0:0|0:0,0:0:0:0:
304,236,477225,2,0,B|324:284|324:284|300:372,2,138.750005292893,10|2|10,0:0|0:0|0:0,0:0:0:0:
436,192,478025,6,0,L|381:64,1,138.750005292893,6|2,0:0|0:0,0:0:0:0:
288,20,478425,1,10,0:0:0:0:
204,80,478558,2,0,L|232:144,1,69.3750026464463,2|0,0:0|0:0,0:0:0:0:
216,284,478825,2,0,B|268:240|268:240|344:248,1,138.750005292893,10|2,0:0|0:0,0:0:0:0:
460,312,479358,1,2,0:0:0:0:
512,184,479625,6,0,P|524:120|508:48,1,138.750005292893,2|2,0:0|0:0,0:0:0:0:
412,8,480025,1,10,0:0:0:0:
352,96,480158,2,0,P|316:92|284:80,1,69.3750026464463
156,28,480425,2,0,B|84:8|92:48|16:24,2,138.750005292893,10|2|10,0:0|0:0|0:0,0:0:0:0:
236,144,481225,6,0,B|256:192|256:192|236:276,1,138.750005292893,6|2,0:0|0:0,0:0:0:0:
144,328,481625,1,10,0:0:0:0:
68,260,481758,2,0,L|85:192,1,69.3750026464463,2|0,0:0|0:0,0:0:0:0:
120,56,482025,2,0,B|156:44|156:44|180:56|180:56|216:40|264:48,1,138.750005292893,10|2,0:0|0:0,0:0:0:0:
384,96,482558,2,0,L|367:164,1,69.3750026464463,2|0,0:0|0:0,0:0:0:0:
256,248,482825,6,0,P|200:208|132:216,1,138.750005292893,2|2,0:0|0:0,0:0:0:0:
52,284,483225,1,10,0:0:0:0:
4,192,483358,2,0,P|-4:156|4:120,1,69.3750026464463,2|0,0:0|0:0,0:0:0:0:
104,32,483625,2,0,B|140:20|140:20|208:32,1,104.06250396967,10|0,0:0|0:0,0:0:0:0:
256,88,483891,2,0,B|292:100|292:100|360:88,1,104.06250396967,2|0,0:0|0:0,0:0:0:0:
432,68,484158,2,0,L|420:180,1,104.06250396967,10|0,0:0|0:0,0:0:0:0:
472,240,484425,6,0,P|416:204|344:212,1,138.750005292893,6|2,0:0|0:0,0:0:0:0:
276,288,484825,1,10,0:0:0:0:
206,366,484958,2,0,L|134:362,1,69.3750026464463,2|0,0:0|0:0,0:0:0:0:
36,268,485225,2,0,B|16:228|16:228|36:136,1,138.750005292893,10|2,0:0|0:0,0:0:0:0:
172,100,485758,2,0,L|187:32,1,69.3750026464463,8|0,0:0|0:0,0:0:0:0:
320,60,486025,6,0,P|376:28|448:36,1,138.750005292893,6|2,0:0|0:0,0:0:0:0:
420,184,486425,2,0,P|404:153|396:119,2,69.3750026464463,10|0|0,0:0|0:0|0:0,0:0:0:0:
512,284,486825,6,0,P|503:317|488:348,1,69.3750026464463,10|0,0:0|0:0,0:0:0:0:
352,376,487091,2,0,L|284:368,1,69.3750026464463,2|0,0:0|0:0,0:0:0:0:
220,244,487358,2,0,L|288:236,1,69.3750026464463,2|0,0:0|0:0,0:0:0:0:
444,160,487625,6,0,B|464:116|464:116|448:24,1,138.750005292893,6|2,0:0|0:0,0:0:0:0:
344,12,488025,1,10,0:0:0:0:
256,68,488158,2,0,L|152:56,1,104.06250396967,2|0,0:0|0:0,0:0:0:0:
84,16,488425,2,0,B|68:52|68:52|84:108|84:108|68:156,1,138.750005292893,10|2,0:0|0:0,0:0:0:0:
24,276,488958,1,2,0:0:0:0:
120,240,489091,1,10,0:0:0:0:
256,280,489225,6,0,P|324:288|380:244,1,138.750005292893,2|2,0:0|0:0,0:0:0:0:
420,152,489625,1,10,0:0:0:0:
352,72,489758,2,0,P|340:40|336:4,1,69.3750026464463,2|0,0:0|0:0,0:0:0:0:
220,84,490025,2,0,B|180:108|180:108|88:96,2,138.750005292893,10|2|10,0:0|0:0|0:0,0:0:0:0:
336,5,490825,6,0,L|473:24,1,138.750005292893,6|2,0:0|0:0,0:0:0:0:
492,128,491225,1,10,0:0:0:0:
412,192,491358,2,0,L|424:300,1,104.06250396967,2|0,0:0|0:0,0:0:0:0:
480,348,491625,2,0,B|424:324|424:324|344:340,1,138.750005292893,10|2,0:0|0:0,0:0:0:0:
216,364,492158,1,2,0:0:0:0:
88,304,492425,6,0,P|72:256|84:204,1,104.06250396967,2|0,0:0|0:0,0:0:0:0:
168,184,492691,2,0,P|100:177|61:123,1,138.750005292893,12|2,0:0|0:0,0:0:0:0:
136,4,493225,1,10,0:0:0:0:
256,72,493491,2,0,B|296:84|296:84|368:72,1,104.06250396967,2|0,0:0|0:0,0:0:0:0:
412,20,493758,2,0,B|436:52|436:52|428:124,1,104.06250396967,10|0,0:0|0:0,0:0:0:0:
380,192,494025,6,0,P|312:208|256:172,1,138.750005292893,6|2,0:0|0:0,0:0:0:0:
168,120,494425,1,10,0:0:0:0:
72,156,494558,2,0,P|64:192|72:224,1,69.3750026464463,2|0,0:0|0:0,0:0:0:0:
188,304,494825,2,0,B|220:316|220:316|256:304|256:304|288:320|324:304,1,138.750005292893,10|2,0:0|0:0,0:0:0:0:
320,305,495358,2,0,L|312:373,1,69.3750026464463,2|0,0:0|0:0,0:0:0:0:
432,300,495625,6,0,L|416:162,1,138.750005292893,2|2,0:0|0:0,0:0:0:0:
404,60,496025,1,10,0:0:0:0:
304,92,496158,2,0,L|296:160,1,69.3750026464463,2|0,0:0|0:0,0:0:0:0:
172,96,496425,2,0,P|108:68|40:76,2,138.750005292893,10|2|10,0:0|0:0|0:0,0:0:0:0:
88,208,497225,6,0,B|76:248|76:248|104:344,1,138.750005292893,6|2,0:0|0:0,0:0:0:0:
208,352,497625,1,10,0:0:0:0:
292,288,497758,2,0,L|395:299,1,104.06250396967,2|0,0:0|0:0,0:0:0:0:
452,372,498025,2,0,P|484:312|468:244,1,138.750005292893,10|2,0:0|0:0,0:0:0:0:
388,132,498558,1,10,0:0:0:0:
508,64,498825,5,6,0:0:0:0:
508,64,498958,2,0,L|514:106,2,34.6875013232232,0|0|8,0:0|0:0|0:0,0:0:0:0:
408,36,499225,1,8,0:0:0:0:
408,36,499358,2,0,L|402:-6,2,34.6875013232232,2|0|2,0:0|0:0|0:0,0:0:0:0:
308,68,499625,2,0,L|240:56,1,69.3750026464463,2|0,0:0|0:0,0:0:0:0:
152,112,499891,2,0,L|84:100,1,69.3750026464463,2|0,0:0|0:0,0:0:0:0:
4,168,500158,2,0,B|-12:208|-12:208|4:272,1,104.06250396967,2|0,0:0|0:0,0:0:0:0:
68,324,500425,6,0,P|132:292|200:300,1,138.750005292893,6|0,0:0|0:0,0:0:0:0:
288,348,500825,2,0,P|328:292|316:224,1,138.750005292893,10|2,0:0|0:0,0:0:0:0:
256,140,501225,2,0,B|304:156|304:156|400:140,2,138.750005292893,10|2|2,0:0|0:0|0:0,0:0:0:0:
116,192,502025,6,0,L|44:216,2,69.3750026464463,2|0|2,0:0|0:0|0:0,0:0:0:0:
190,118,502425,2,0,L|262:142,2,69.3750026464463,10|0|2,0:0|0:0|0:0,0:0:0:0:
116,44,502825,2,0,L|214:11,1,104.06250396967,10|0,0:0|0:0,0:0:0:0:
284,52,503091,2,0,L|382:19,1,104.06250396967,2|0,0:0|0:0,0:0:0:0:
456,56,503358,2,0,B|472:92|472:92|452:164,1,104.06250396967,10|0,0:0|0:0,0:0:0:0:
376,192,503625,6,0,B|448:184|448:184|496:232,1,138.750005292893,6|2,0:0|0:0,0:0:0:0:
412,292,504025,2,0,L|392:358,1,69.3750026464463,10|0,0:0|0:0,0:0:0:0:
256,372,504425,2,0,L|275:305,1,69.3750026464463,10|0,0:0|0:0,0:0:0:0:
256,204,504691,2,0,P|208:188|152:192,1,104.06250396967,2|0,0:0|0:0,0:0:0:0:
84,220,504958,2,0,P|72:188|68:152,1,69.3750026464463,2|0,0:0|0:0,0:0:0:0:
140,32,505225,6,0,B|212:8|204:52|276:33,1,138.750005292893,2|2,0:0|0:0,0:0:0:0:
380,0,505625,2,0,P|384:64|336:124,1,138.750005292893,10|2,0:0|0:0,0:0:0:0:
256,180,506025,2,0,P|221:176|189:163,1,69.3750026464463,10|2,0:0|0:0,0:0:0:0:
96,116,506291,2,0,P|61:119|29:132,1,69.3750026464463,2|2,0:0|0:0,0:0:0:0:
0,232,506558,2,0,L|12:340,1,104.06250396967,10|0,0:0|0:0,0:0:0:0:
92,368,506825,6,0,B|156:340|156:340|228:356,1,138.750005292893,6|0,0:0|0:0,0:0:0:0:
324,328,507225,2,0,L|459:297,1,138.750005292893,10|2,0:0|0:0,0:0:0:0:
444,192,507625,2,0,L|376:176,1,69.3750026464463,10|0,0:0|0:0,0:0:0:0:
280,124,507891,2,0,B|260:160|260:160|276:224,1,104.06250396967,2|0,0:0|0:0,0:0:0:0:
340,260,508158,2,0,L|323:327,1,69.3750026464463,2|0,0:0|0:0,0:0:0:0:
200,260,508425,6,0,L|183:192,2,69.3750026464463,2|0|2,0:0|0:0|0:0,0:0:0:0:
100,224,508825,2,0,L|134:88,1,138.750005292893,10|2,0:0|0:0,0:0:0:0:
220,28,509225,2,0,B|148:44|148:44|92:8,2,138.750005292893,10|2|10,0:0|0:0|0:0,0:0:0:0:
316,128,510025,6,0,P|340:192|316:256,1,138.750005292893,6|2,0:0|0:0,0:0:0:0:
228,192,510425,2,0,P|164:172|96:192,1,138.750005292893,10|2,0:0|0:0,0:0:0:0:
160,280,510825,2,0,P|225:300|291:280,1,138.750005292893,10|2,0:0|0:0,0:0:0:0:
372,168,511358,1,2,0:0:0:0:
296,52,511625,6,0,B|256:44|256:44|200:64|200:64|160:56,1,138.750005292893,2|2,0:0|0:0,0:0:0:0:
68,4,512025,2,0,B|88:44|88:44|60:136,1,138.750005292893,10|2,0:0|0:0,0:0:0:0:
16,228,512425,2,0,B|-4:268|-4:268|24:360,2,138.750005292893,10|2|10,0:0|0:0|0:0,0:0:0:0:
152,192,513225,6,0,B|228:164|220:216|286:192,1,138.750005292893,6|2,0:0|0:0,0:0:0:0:
364,120,513625,2,0,P|376:84|380:48,2,69.3750026464463,10|0|0,0:0|0:0|0:0,0:0:0:0:
287,192,514025,2,0,P|291:226|302:259,1,69.3750026464463,10|0,0:0|0:0,0:0:0:0:
356,348,514291,2,0,P|308:332|256:336,1,104.06250396967,2|0,0:0|0:0,0:0:0:0:
184,368,514558,2,0,P|148:364|112:352,1,69.3750026464463,2|0,0:0|0:0,0:0:0:0:
40,240,514825,6,0,B|20:192|20:192|44:104,1,138.750005292893,2|0,0:0|0:0,0:0:0:0:
140,152,515225,2,0,B|176:168|176:168|232:152|232:152|272:164,1,138.750005292893,10|2,0:0|0:0,0:0:0:0:
364,212,515625,2,0,P|436:216|484:172,2,138.750005292893,10|2|10,0:0|0:0|0:0,0:0:0:0:
256,124,516425,6,0,B|228:168|228:168|256:256,1,138.750005292893,6|2,0:0|0:0,0:0:0:0:
180,324,516825,2,0,L|137:189,1,138.750005292893,10|2,0:0|0:0,0:0:0:0:
40,160,517225,2,0,L|16:84,1,69.3750026464463,10|0,0:0|0:0,0:0:0:0:
76,8,517491,2,0,L|106:107,1,104.06250396967,2|0,0:0|0:0,0:0:0:0:
184,124,517758,2,0,L|204:190,1,69.3750026464463,2|0,0:0|0:0,0:0:0:0:
256,320,518025,6,0,B|288:328|288:328|320:316|320:316|352:328|392:316,1,138.750005292893,2|2,0:0|0:0,0:0:0:0:
464,244,518425,2,0,B|472:212|456:192|456:192|468:160|468:160|456:140|464:108,1,138.750005292893,10|2,0:0|0:0,0:0:0:0:
504,16,518825,2,0,P|468:28|436:32,1,69.3750026464463,10|0,0:0|0:0,0:0:0:0:
356,96,519091,2,0,P|319:85|291:70,1,69.3750026464463,2|0,0:0|0:0,0:0:0:0:
204,12,519358,2,0,L|100:20,1,104.06250396967,10|0,0:0|0:0,0:0:0:0:
40,84,519625,6,0,B|20:124|20:124|40:216,1,138.750005292893,10|2,0:0|0:0,0:0:0:0:
140,240,520025,2,0,B|160:280|160:280|140:371,1,138.750005292893,10|2,0:0|0:0,0:0:0:0:
244,360,520425,2,0,L|274:224,1,138.750005292893,10|2,0:0|0:0,0:0:0:0:
360,164,520825,1,2,0:0:0:0:
460,192,520958,2,0,L|476:124,1,69.3750026464463,2|0,0:0|0:0,0:0:0:0:
372,32,521225,6,0,B|303:8|311:56|235:36,1,138.750005292893,10|2,0:0|0:0,0:0:0:0:
140,4,521625,2,0,P|112:68|140:128,1,138.750005292893,10|2,0:0|0:0,0:0:0:0:
220,192,522025,2,0,P|248:256|220:316,1,138.750005292893,10|2,0:0|0:0,0:0:0:0:
92,368,522558,1,10,0:0:0:0:
221,314,522825,6,0,B|252:296|280:296|280:296|312:308|356:296,1,138.750005292893,6|2,0:0|0:0,0:0:0:0:
448,248,523225,2,0,P|484:192|460:124,1,138.750005292893,10|2,0:0|0:0,0:0:0:0:
372,76,523625,2,0,P|360:44|356:8,1,69.3750026464463,10|0,0:0|0:0,0:0:0:0:
256,40,523891,2,0,P|252:74|239:106,1,69.3750026464463,2|8,0:0|0:0,0:0:0:0:
140,136,524158,2,0,P|143:170|156:202,1,69.3750026464463,2|0,0:0|0:0,0:0:0:0:
256,300,524425,6,0,P|192:292|144:348,2,138.750005292893,6|2|10,0:0|0:0|0:0,0:0:0:0:
384,360,525225,2,0,B|424:372|424:372|488:360,1,104.06250396967,2|0,0:0|0:0,0:0:0:0:
512,288,525491,2,0,P|524:236|508:188,1,104.06250396967,10|0,0:0|0:0,0:0:0:0:
432,168,525758,2,0,P|419:118|435:68,1,104.06250396967,10|0,0:0|0:0,0:0:0:0:
504,16,526025,6,0,B|448:36|448:36|368:20,1,138.750005292893,12|0,0:0|0:0,0:0:0:0:
288,84,526425,2,0,L|151:57,1,138.750005292893,10|2,0:0|0:0,0:0:0:0:
56,96,526825,2,0,P|32:160|52:228,1,138.750005292893,10|2,0:0|0:0,0:0:0:0:
168,300,527358,1,8,0:0:0:0:
288,228,527625,6,0,P|348:200|420:212,1,138.750005292893,6|10,0:0|0:0,0:0:0:0:
504,264,528025,2,0,P|460:216|476:148,1,138.750005292893,2|10,0:0|0:0,0:0:0:0:
432,52,528425,2,0,L|360:40,1,69.3750026464463,2|8,0:0|0:0,0:0:0:0:
284,104,528691,1,8,0:0:0:0:
196,48,528825,2,0,L|124:36,1,69.3750026464463,6|0,0:0|0:0,0:0:0:0:
24,19,529091,1,10,0:0:0:0:
80,148,529225,6,0,B|96:180|96:180|84:208|84:208|100:240|80:280,1,138.750005292893,6|2,0:0|0:0,0:0:0:0:
8,340,529625,2,0,P|76:324|132:364,1,138.750005292893,10|2,0:0|0:0,0:0:0:0:
232,376,530025,2,0,B|256:336|256:336|236:244,1,138.750005292893,10|2,0:0|0:0,0:0:0:0:
208,144,530425,1,2,0:0:0:0:
256,52,530558,2,0,P|288:40|324:36,1,69.3750026464463,12|0,0:0|0:0,0:0:0:0:
448,96,530825,6,0,B|472:164|424:164|448:236,1,138.750005292893,10|2,0:0|0:0,0:0:0:0:
446,231,531358,2,0,P|456:296|400:332,1,138.750005292893,2|10,0:0|0:0,0:0:0:0:
312,276,531758,1,10,0:0:0:0:
212,296,531891,2,0,L|224:364,1,69.3750026464463,2|0,0:0|0:0,0:0:0:0:
124,336,532158,2,0,L|136:268,1,69.3750026464463,2|0,0:0|0:0,0:0:0:0:
208,148,532425,6,0,B|164:128|164:128|76:148,1,138.750005292893,6|2,0:0|0:0,0:0:0:0:
12,232,532825,2,0,B|56:252|56:252|144:232,1,138.750005292893,10|2,0:0|0:0,0:0:0:0:
208,148,533225,2,0,L|196:76,1,69.3750026464463,10|0,0:0|0:0,0:0:0:0:
93,45,533491,2,0,L|75:147,1,104.06250396967,2|0,0:0|0:0,0:0:0:0:
40,160,533758,2,0,L|33:125,3,34.6875013232232
74,147,534025,6,0,L|49:286,1,138.750005292893,6|2,0:0|0:0,0:0:0:0:
124,356,534425,2,0,P|188:324|256:336,1,138.750005292893,10|2,0:0|0:0,0:0:0:0:
348,376,534825,1,10,0:0:0:0:
480,332,535091,2,0,L|504:195,1,138.750005292893,0|2,0:0|0:0,0:0:0:0:
460,64,535625,6,0,B|416:40|416:40|328:52,1,138.750005292893,6|2,0:0|0:0,0:0:0:0:
256,120,536025,2,0,L|116:103,1,138.750005292893,10|2,0:0|0:0,0:0:0:0:
20,136,536425,2,0,L|8:68,1,69.3750026464463,10|0,0:0|0:0,0:0:0:0:
118,103,536691,2,0,L|106:171,1,69.3750026464463,2|0,0:0|0:0,0:0:0:0:
156,264,536958,2,0,B|188:284|188:284|256:272,1,104.06250396967,2|0,0:0|0:0,0:0:0:0:
328,320,537225,6,0,P|356:256|336:192,1,138.750005292893,6|2,0:0|0:0,0:0:0:0:
256,124,537625,2,0,L|220:120,4,34.6875013232232
324,44,538025,2,0,P|384:16|456:24,2,138.750005292893,10|2|10,0:0|0:0|0:0,0:0:0:0:
384,168,538825,6,0,B|404:212|404:212|376:300,1,138.750005292893,6|8,0:0|0:0,0:0:0:0:
300,228,539225,2,0,L|257:360,1,138.750005292893,6|2,0:0|0:0,0:0:0:0:
172,300,539625,2,0,B|136:280|136:280|40:296,1,138.750005292893,6|8,0:0|0:0,0:0:0:0:
0,192,540025,2,0,L|140:167,1,138.750005292893,6|0,0:0|0:0,0:0:0:0:
240,192,540425,6,0,L|256:120,1,69.3750026464463,6|0,0:0|0:0,0:0:0:0:
232,24,540691,1,10,0:0:0:0:
140,72,540825,2,0,P|68:76|8:40,1,138.750005292893,6|2,0:0|0:0,0:0:0:0:
40,144,541225,2,0,L|60:212,1,69.3750026464463,10|0,0:0|0:0,0:0:0:0:
164,224,541491,2,0,L|184:292,1,69.3750026464463,2|0,0:0|0:0,0:0:0:0:
288,304,541758,2,0,P|332:288|380:280,1,92.5000035285951,10|0,0:0|0:0,0:0:0:0:
476,308,542025,6,0,L|456:376,2,69.3750026464463,6|0|2,0:0|0:0|0:0,0:0:0:0:
436,212,542425,2,0,P|416:148|436:80,1,138.750005292893,10|2,0:0|0:0,0:0:0:0:
336,108,542825,2,0,P|269:91|200:104,1,138.750005292893,10|2,0:0|0:0,0:0:0:0:
108,152,543225,2,0,P|92:120|84:88,2,69.3750026464463,8|2|0,0:0|0:0|0:0,0:0:0:0:
204,252,543625,6,0,P|136:244|88:292,2,138.750005292893,10|2|10,0:0|0:0|0:0,0:0:0:0:
324,320,544425,1,10,0:0:0:0:
380,192,544691,2,0,P|400:128|376:60,1,138.750005292893,2|8,0:0|0:0,0:0:0:0:
244,20,545225,6,0,L|172:8,2,69.3750026464463,6|0|0,0:0|0:0|0:0,0:0:0:0:
192,108,545625,2,0,L|121:127,2,69.3750026464463,6|0|0,0:0|0:0|0:0,0:0:0:0:
182,209,546025,2,0,L|126:256,2,69.3750026464463,6|0|0,0:0|0:0|0:0,0:0:0:0:
215,304,546425,2,0,L|184:370,2,69.3750026464463,6|0|0,0:0|0:0|0:0,0:0:0:0:
300,244,546825,6,0,P|332:228|368:220,2,69.3750026464463,6|0|0,0:0|0:0|0:0,0:0:0:0:
232,164,547225,2,0,P|251:134|278:109,2,69.3750026464463,6|0|0,0:0|0:0|0:0,0:0:0:0:
133,128,547625,2,0,P|135:92|146:57,2,69.3750026464463,6|0|0,0:0|0:0|0:0,0:0:0:0:
29,146,548025,2,0,P|13:113|5:78,2,69.3750026464463,6|0|0,0:0|0:0|0:0,0:0:0:0:
120,248,548425,6,0,B|192:272|184:224|260:248,1,138.750005292893,6|2,0:0|0:0,0:0:0:0:
348,292,548825,1,10,0:0:0:0:
448,260,548958,2,0,P|464:224|472:192,1,69.3750026464463,2|0,0:0|0:0,0:0:0:0:
460,92,549225,1,10,0:0:0:0:
336,28,549491,5,2,0:0:0:0:
256,92,549625,1,2,0:0:0:0:
168,40,549758,2,0,L|96:32,1,69.3750026464463,10|0,0:0|0:0,0:0:0:0:
136,168,550025,6,0,L|170:172,2,34.6875013232232,10|0|0,0:0|0:0|0:0,0:0:0:0:
88,260,550291,1,10,0:0:0:0:
160,336,550425,2,0,L|152:376,2,34.6875013232232,2|0|2,0:0|0:0|0:0,0:0:0:0:
256,300,550691,1,2,0:0:0:0:
352,336,550825,1,2,0:0:0:0:
448,300,550958,1,2,0:0:0:0:
350,203,551091,2,0,B|338:250|338:250|358:298|358:298|352:336,1,138.750005292893,2|2,0:0|0:0,0:0:0:0:
256,224,551625,6,0,L|289:90,1,138.750005292893,12|2,0:0|0:0,0:0:0:0:
224,8,552025,1,10,0:0:0:0:
124,36,552158,2,0,L|107:103,1,69.3750026464463,2|2,0:0|0:0,0:0:0:0:
24,164,552425,2,0,L|57:298,1,138.750005292893,12|2,0:0|0:0,0:0:0:0:
152,344,552825,1,10,0:0:0:0:
248,304,552958,2,0,P|284:292|324:288,1,69.3750026464463,2|0,0:0|0:0,0:0:0:0:
448,336,553225,6,0,P|420:276|440:208,1,138.750005292893,6|2,0:0|0:0,0:0:0:0:
508,128,553625,1,10,0:0:0:0:
436,52,553758,2,0,P|368:36|300:48,1,138.750005292893,2|2,0:0|0:0,0:0:0:0:
184,124,554291,2,0,P|187:161|200:192,1,69.3750026464463,12|0,0:0|0:0,0:0:0:0:
292,240,554558,2,0,P|288:277|276:308,1,69.3750026464463,12|0,0:0|0:0,0:0:0:0:
152,364,554825,6,0,B|76:384|84:340|8:364,1,138.750005292893,6|2,0:0|0:0,0:0:0:0:
80,280,555225,2,0,B|104:244|104:244|88:149,1,138.750005292893,10|2,0:0|0:0,0:0:0:0:
20,76,555625,2,0,P|64:52|120:56,1,104.06250396967,10|0,0:0|0:0,0:0:0:0:
176,104,555891,2,0,L|248:92,1,69.3750026464463,2|0,0:0|0:0,0:0:0:0:
336,140,556158,2,0,L|408:128,1,69.3750026464463,10|0,0:0|0:0,0:0:0:0:
332,248,556425,6,0,B|288:268|288:268|192:256,1,138.750005292893,6|2,0:0|0:0,0:0:0:0:
96,240,556825,1,2,0:0:0:0:
176,352,556958,2,0,L|246:362,1,69.3750026464463,6|0,0:0|0:0,0:0:0:0:
344,324,557225,2,0,L|378:330,3,34.6875013232232
316,296,557491,2,0,P|300:252|316:196,1,104.06250396967,6|0,0:0|0:0,0:0:0:0:
388,168,557758,2,0,P|404:124|388:68,1,104.06250396967,2|0,0:0|0:0,0:0:0:0:
316,116,558025,6,0,P|248:128|184:104,1,138.750005292893,6|8,0:0|0:0,0:0:0:0:
96,52,558425,2,0,B|64:84|64:84|80:180,1,138.750005292893,6|2,0:0|0:0,0:0:0:0:
184,192,558825,2,0,L|196:260,1,69.3750026464463,2|0,0:0|0:0,0:0:0:0:
296,292,559091,2,0,L|308:224,1,69.3750026464463,2|0,0:0|0:0,0:0:0:0:
392,160,559358,1,2,0:0:0:0:
432,252,559491,1,10,0:0:0:0:
344,360,559625,6,0,B|300:376|300:376|204:356,1,138.750005292893,2|8,0:0|0:0,0:0:0:0:
108,376,560025,2,0,L|92:236,1,138.750005292893,2|0,0:0|0:0,0:0:0:0:
132,148,560425,2,0,B|88:140|88:140|40:160|40:160|0:148,2,138.750005292893,10|10|12,0:0|0:0|0:0,0:0:0:0:
256,200,561225,6,0,P|328:196|372:148,1,138.750005292893,6|2,0:0|0:0,0:0:0:0:
280,100,561625,1,10,0:0:0:0:
368,48,561758,2,0,B|408:36|408:36|472:52,1,104.06250396967,2|0,0:0|0:0,0:0:0:0:
512,116,562025,2,0,L|496:224,1,104.06250396967,10|0,0:0|0:0,0:0:0:0:
412,232,562291,2,0,L|391:369,1,138.750005292893,6|8,0:0|0:0,0:0:0:0:
256,324,562825,6,0,L|235:186,1,138.750005292893,6|2,0:0|0:0,0:0:0:0:
156,116,563225,2,0,L|167:45,2,69.3750026464463,10|0|2,0:0|0:0|0:0,0:0:0:0:
56,144,563625,2,0,L|72:252,1,104.06250396967,10|0,0:0|0:0,0:0:0:0:
44,316,563891,2,0,P|88:288|140:284,1,104.06250396967,2|0,0:0|0:0,0:0:0:0:
212,316,564158,2,0,B|256:328|256:328|320:316,1,104.06250396967,12|0,0:0|0:0,0:0:0:0:
368,248,564425,6,0,L|436:260,2,69.3750026464463,6|0|0,0:0|0:0|0:0,0:0:0:0:
315,151,564825,2,0,L|246:163,1,69.3750026464463,6|0,0:0|0:0,0:0:0:0:
163,183,565025,2,0,L|128:176,2,34.6875013232232,0|2|0,0:0|0:0|0:0,0:0:0:0:
223,247,565225,2,0,L|211:319,2,69.3750026464463,2|8|0,0:0|0:0|0:0,0:0:0:0:
120,264,565625,2,0,L|108:336,2,69.3750026464463,6|8|0,0:0|0:0|0:0,0:0:0:0:
44,192,566025,6,0,L|37:157,5,34.6875013232232,6|0|0|0|0|0,0:0|0:0|0:0|0:0|0:0|0:0,0:0:0:0:
72,216,566425,2,0,B|120:236|120:236|212:212,1,138.750005292893,2|2,0:0|0:0,0:0:0:0:
256,124,566825,2,0,L|295:133,3,34.6875013232232,2|0|0|0,0:0|0:0|0:0|0:0,0:0:0:0:
300,100,567091,2,0,L|327:131,3,34.6875013232232,2|0|0|0,0:0|0:0|0:0|0:0,0:0:0:0:
349,105,567358,2,0,L|353:145,3,34.6875013232232,2|0|0|0,0:0|0:0|0:0|0:0,0:0:0:0:
386,137,567625,6,0,P|452:132|496:80,1,138.750005292893,6|6,0:0|0:0,0:0:0:0:
372,8,568158,2,0,L|296:0,1,69.3750026464463,2|0,0:0|0:0,0:0:0:0:
220,64,568425,2,0,L|144:56,1,69.3750026464463,10|0,0:0|0:0,0:0:0:0:
20,16,568691,2,0,B|48:56|48:56|20:148,1,138.750005292893,2|8,0:0|0:0,0:0:0:0:
21,142,569225,5,6,0:0:0:0:
112,192,569358,1,0,0:0:0:0:
212,160,569491,2,0,L|288:152,2,69.3750026464463,2|0|2,0:0|0:0|0:0,0:0:0:0:
188,260,569891,1,0,0:0:0:0:
256,340,570025,2,0,L|332:332,1,69.3750026464463,6|0,0:0|0:0,0:0:0:0:
404,268,570291,2,0,P|424:200|404:136,1,138.750005292893,2|2,0:0|0:0,0:0:0:0:
292,56,570825,6,0,B|256:44|256:44|224:56|224:56|192:44|152:56,1,138.750005292893,6|2,0:0|0:0,0:0:0:0:
72,116,571225,2,0,L|84:256,1,138.750005292893,10|2,0:0|0:0,0:0:0:0:
160,324,571625,2,0,B|92:304|92:304|32:336,2,138.750005292893,10|2|2,0:0|0:0|0:0,0:0:0:0:
284,264,572425,6,0,L|417:303,1,138.750005292893,12|2,0:0|0:0,0:0:0:0:
492,228,572825,1,10,0:0:0:0:
452,132,572958,2,0,L|352:102,1,104.06250396967,2|0,0:0|0:0,0:0:0:0:
280,132,573225,2,0,B|256:100|256:100|272:0,2,138.750005292893,10|2|10,0:0|0:0|0:0,0:0:0:0:
384,224,574025,6,0,P|360:284|288:296,1,138.750005292893,6|2,0:0|0:0,0:0:0:0:
204,240,574425,1,10,0:0:0:0:
100,252,574558,2,0,P|88:219|84:184,1,69.3750026464463,2|0,0:0|0:0,0:0:0:0:
128,88,574825,1,2,0:0:0:0:
224,124,574958,1,10,0:0:0:0:
308,64,575091,2,0,P|372:44|444:52,1,138.750005292893,2|10,0:0|0:0,0:0:0:0:
512,172,575625,6,0,L|504:240,1,69.3750026464463,2|0,0:0|0:0,0:0:0:0:
412,292,575891,2,0,L|404:224,1,69.3750026464463,2|0,0:0|0:0,0:0:0:0:
312,172,576158,2,0,L|304:240,1,69.3750026464463,2|10,0:0|0:0,0:0:0:0:
192,328,576425,2,0,B|148:344|148:344|56:328,1,138.750005292893,6|8,0:0|0:0,0:0:0:0:
12,236,576825,1,8,0:0:0:0:
57,144,576958,1,8,0:0:0:0:
12,52,577091,1,8,0:0:0:0:
160,132,577225,6,0,L|244:124,1,83.2499974594117,6|0,0:0|0:0,0:0:0:0:
300,12,577491,2,0,L|216:4,1,83.2499974594117,10|0,0:0|0:0,0:0:0:0:
242,124,577758,2,0,L|326:116,1,83.2499974594117,2|0,0:0|0:0,0:0:0:0:
440,164,578025,2,0,B|464:220|464:220|436:324,2,166.499994918823,10|2|10,0:0|0:0|0:0,0:0:0:0:
296,244,578825,6,0,P|256:232|212:228,1,83.2499974594117,2|0,0:0|0:0,0:0:0:0:
100,276,579091,2,0,P|76:236|64:200,1,83.2499974594117,10|0,0:0|0:0,0:0:0:0:
108,84,579358,2,0,P|147:72|189:67,1,83.2499974594117,2|0,0:0|0:0,0:0:0:0:
308,112,579625,2,0,P|388:120|440:56,2,166.499994918823,10|2|10,0:0|0:0|0:0,0:0:0:0:
184,224,580425,6,0,L|192:316,1,83.2499974594117,6|0,0:0|0:0,0:0:0:0:
312,340,580691,2,0,L|319:257,1,83.2499974594117,10|0,0:0|0:0,0:0:0:0:
440,224,580958,2,0,L|448:316,1,83.2499974594117,2|0,0:0|0:0,0:0:0:0:
319,257,581225,2,0,L|335:85,1,166.499994918823,10|2,0:0|0:0,0:0:0:0:
436,20,581625,1,2,0:0:0:0:
334,91,581758,2,0,B|288:108|288:108|212:96,1,124.874996189118,10|0,0:0|0:0,0:0:0:0:
152,40,582025,6,0,L|111:47,3,41.6249987297059,6|0|0|0,0:0|0:0|0:0|0:0,0:0:0:0:
213,96,582291,2,0,L|253:103,3,41.6249987297059,2|0|0|0,0:0|0:0|0:0|0:0,0:0:0:0:
152,152,582558,2,0,L|111:159,3,41.6249987297059,2|0|0|0,0:0|0:0|0:0|0:0,0:0:0:0:
213,208,582825,2,0,B|300:240|288:176|376:212,1,166.499994918823,6|2,0:0|0:0,0:0:0:0:
452,308,583225,1,6,0:0:0:0:
336,367,583358,2,0,P|324:328|332:288,1,83.2499974594117,2|0,0:0|0:0,0:0:0:0:
412,136,583625,6,0,P|420:56|340:20,1,166.499994918823,6|8,0:0|0:0,0:0:0:0:
256,96,584025,1,2,0:0:0:0:
140,48,584158,2,0,P|100:40|56:36,1,83.2499974594117,2|0,0:0|0:0,0:0:0:0:
9,147,584425,2,0,B|61:171|61:171|168:148,1,166.499994918823,10|2,0:0|0:0,0:0:0:0:
284,192,584825,1,2,0:0:0:0:
404,160,584958,1,10,0:0:0:0:
320,304,585091,6,0,B|236:328|244:272|152:304,1,166.499994918823,2|2,0:0|0:0,0:0:0:0:
40,360,585491,2,0,P|24:308|16:252,2,110.999996612549,10|2|2,0:0|0:0|0:0,0:0:0:0:
180,192,586025,2,0,L|308:180,1,124.874996189118,10|0,0:0|0:0,0:0:0:0:
364,124,586291,2,0,P|452:116|504:168,1,166.499994918823,2|8,0:0|0:0,0:0:0:0:
352,332,586825,6,0,B|300:348|300:348|204:328,1,148,6|2,0:0|0:0,0:0:0:0:
104,364,587225,2,0,B|76:328|76:328|96:220,1,148,6|2,0:0|0:0,0:0:0:0:
176,128,587625,6,0,P|112:136|52:100,1,129.499996047974,6|2,0:0|0:0,0:0:0:0:
140,12,588158,1,0,0:0:0:0:
292,76,588425,6,0,L|352:68,2,55.4999983062745,10|0|8,0:0|0:0|0:0,0:0:0:0:
260,152,588825,1,10,0:0:0:0:
364,224,589025,2,0,L|356:260,2,27.7499991531372
400,204,589225,2,0,L|411:258,1,55.4999983062745,10|8,0:0|0:0,0:0:0:0:
340,320,589491,6,0,L|328:374,1,55.4999983062745,2|2,0:0|0:0,0:0:0:0:
256,288,589758,2,0,L|244:233,1,55.4999983062745,2|2,0:0|0:0,0:0:0:0:
172,320,590025,6,0,B|128:336|128:336|36:320,1,138.75,6|0,0:0|0:0,0:0:0:0:
0,236,590558,2,0,L|94:251,1,92.5,2|10,0:0|0:0,0:0:0:0:
228,224,591091,1,2,0:0:0:0:
228,224,591358,1,2,0:0:0:0:
148,180,591491,1,0,0:0:0:0:
156,172,591558,1,0,0:0:0:0:
164,164,591625,6,0,P|200:144|252:140,1,92.5,2|0,0:0|0:0,0:0:0:0:
328,192,592025,1,2,0:0:0:0:
416,164,592158,2,0,L|428:68,1,92.5,2|10,0:0|0:0,0:0:0:0:
328,192,592691,2,0,L|316:283,1,92.5,2|10,0:0|0:0,0:0:0:0:
240,164,593225,6,0,P|200:144|152:148,1,92.5,6|0,0:0|0:0,0:0:0:0:
72,192,593625,1,2,0:0:0:0:
4,132,593758,2,0,P|-8:84|4:32,1,92.5,2|10,0:0|0:0,0:0:0:0:
136,20,594291,1,2,0:0:0:0:
136,20,594558,1,2,0:0:0:0:
200,88,594691,1,0,0:0:0:0:
212,84,594758,1,0,0:0:0:0:
224,80,594825,6,0,L|324:48,1,92.5,2|2,0:0|0:0,0:0:0:0:
400,92,595225,2,0,L|440:80,2,23.125,0|0|2,0:0|0:0|0:0,0:0:0:0:
468,192,595625,2,0,B|480:224|480:224|464:288,2,92.5,10|2|10,0:0|0:0|0:0,0:0:0:0:
384,228,596291,1,2,0:0:0:0:
300,264,596425,6,0,B|268:276|268:276|208:264,1,92.5,6|2,0:0|0:0,0:0:0:0:
120,240,596825,1,2,0:0:0:0:
32,272,596958,2,0,L|40:364,1,92.5,2|10,0:0|0:0,0:0:0:0:
120,240,597491,2,0,L|116:194,1,46.25,2|2,0:0|0:0,0:0:0:0:
200,160,597758,2,0,L|204:206,1,46.25,2|0,0:0|0:0,0:0:0:0:
296,224,598025,6,0,L|300:270,1,46.25,2|0,0:0|0:0,0:0:0:0:
384,308,598291,2,0,L|388:262,1,46.25,2|2,0:0|0:0,0:0:0:0:
472,224,598558,2,0,L|468:178,1,46.25,2|0,0:0|0:0,0:0:0:0:
384,140,598825,2,0,L|392:44,1,92.5,2|2,0:0|0:0,0:0:0:0:
480,24,599225,2,0,L|476:-20,2,23.125,0|0|2,0:0|0:0|0:0,0:0:0:0:
384,140,599625,6,0,P|340:148|292:140,1,92.5,6|2,0:0|0:0,0:0:0:0:
184,56,600158,2,0,P|138:48|93:56,1,92.5,2|10,0:0|0:0,0:0:0:0:
8,168,600691,2,0,P|0:216|8:260,1,92.5,2|2,0:0|0:0,0:0:0:0:
120,344,601225,5,2,0:0:0:0:
256,344,601491,1,2,0:0:0:0:
392,344,601758,1,2,0:0:0:0:
256,192,602025,5,10,0:0:0:0:
120,344,602291,1,2,0:0:0:0:
392,344,602558,1,2,0:0:0:0:
256,192,602825,5,6,0:0:0:0:
256,192,602891,12,0,617225,0:0:0:0:
