osu file format v14

[General]
AudioFilename: audio.mp3
AudioLeadIn: 0
PreviewTime: 173392
Countdown: 0
SampleSet: Normal
StackLeniency: 0.7
Mode: 1
LetterboxInBreaks: 0
WidescreenStoryboard: 0

[Editor]
Bookmarks: 10039,58189,77389,192592,229642,235642
DistanceSpacing: 1.5
BeatDivisor: 4
GridSize: 32
TimelineZoom: 2.999999

[Metadata]
Title:Kaze no Jukan ~ Wind Tour
TitleUnicode:風の循環 ~ Wind Tour
Artist:Demetori
ArtistUnicode:Demetori
Creator:GoldenWolf
Version:Inner Oni
Source:東方文花帖 ~ Shoot the Bullet.
Tags:StB Photo theme 1 Circulation 如臨深遠 ~雨縒煙柳~ Sinen ni Nozomu ga Gotoshi Hard Rock Metal C71 ZUN woof
BeatmapID:1555072
BeatmapSetID:736876

[Difficulty]
HPDrainRate:6
CircleSize:2
OverallDifficulty:6
ApproachRate:10
SliderMultiplier:1.42
SliderTickRate:1

[Events]
//Background and Video events
0,0,"orz203.jpg",0,0
//Break Periods
//Storyboard Layer 0 (Background)
//Storyboard Layer 1 (Fail)
//Storyboard Layer 2 (Pass)
//Storyboard Layer 3 (Foreground)
//Storyboard Sound Samples

[TimingPoints]
442,300,4,1,0,80,1,0
29242,300,4,1,0,80,1,8
29392,300,4,1,0,80,1,0
115792,-100,4,1,0,80,0,1
134992,-100,4,1,0,80,0,0
154192,300,4,1,0,80,1,8
154208,300,4,1,0,80,1,0
154508,-105.263157894737,4,1,0,60,0,0
155108,-111.111111111111,4,1,0,60,0,0
155408,-114.285714285714,4,1,0,60,0,0
155708,-117.647058823529,4,1,0,60,0,0
156308,-125,4,1,0,60,0,0
156608,-129.032258064516,4,1,0,60,0,0
156758,-130.548302872063,4,1,0,60,0,0
156908,-133.333333333333,4,1,0,60,0,0
157508,-142.857142857143,4,1,0,60,0,0
157808,-148.148148148148,4,1,0,60,0,0
158108,-153.846153846154,4,1,0,60,0,0
170401,291.26213592233,4,1,0,80,1,8
170401,-158.730158730159,4,1,0,80,0,8
170692,300,4,1,0,80,1,8
170692,-153.846153846154,4,1,0,80,0,0
170992,300,4,1,0,80,1,0
173392,-100,4,1,0,80,0,1
211792,-100,4,1,0,80,0,0

[HitObjects]
256,192,442,5,0,0:0:0:0:
256,192,592,1,0,0:0:0:0:
256,192,742,1,12,0:0:0:0:
256,192,1492,1,0,0:0:0:0:
256,192,1642,1,12,0:0:0:0:
256,192,1942,1,0,0:0:0:0:
256,192,2092,1,12,0:0:0:0:
256,192,2542,1,12,0:0:0:0:
256,192,2842,1,0,0:0:0:0:
256,192,2992,1,0,0:0:0:0:
256,192,3142,1,12,0:0:0:0:
256,192,3442,1,0,0:0:0:0:
256,192,3592,1,0,0:0:0:0:
256,192,3742,1,0,0:0:0:0:
256,192,3892,1,0,0:0:0:0:
256,192,4042,1,8,0:0:0:0:
256,192,4192,1,0,0:0:0:0:
256,192,4242,1,0,0:0:0:0:
256,192,4342,1,0,0:0:0:0:
256,192,4492,1,8,0:0:0:0:
256,192,4642,1,0,0:0:0:0:
256,192,4692,1,0,0:0:0:0:
256,192,4792,1,0,0:0:0:0:
256,192,4942,1,0,0:0:0:0:
256,192,5092,1,8,0:0:0:0:
256,192,5242,1,12,0:0:0:0:
256,192,5392,1,0,0:0:0:0:
256,192,5542,1,8,0:0:0:0:
256,192,5692,1,0,0:0:0:0:
256,192,5842,1,0,0:0:0:0:
256,192,5992,1,12,0:0:0:0:
256,192,6292,1,0,0:0:0:0:
256,192,6442,1,12,0:0:0:0:
256,192,6592,1,0,0:0:0:0:
256,192,6667,1,0,0:0:0:0:
256,192,6742,1,0,0:0:0:0:
256,192,6892,1,8,0:0:0:0:
256,192,6967,1,8,0:0:0:0:
256,192,7042,1,0,0:0:0:0:
256,192,7117,1,0,0:0:0:0:
256,192,7192,1,8,0:0:0:0:
256,192,7342,1,0,0:0:0:0:
256,192,7492,1,12,0:0:0:0:
256,192,7642,1,8,0:0:0:0:
256,192,7717,1,0,0:0:0:0:
256,192,7792,1,0,0:0:0:0:
256,192,7867,1,0,0:0:0:0:
256,192,7942,1,8,0:0:0:0:
256,192,8092,1,0,0:0:0:0:
256,192,8167,1,0,0:0:0:0:
256,192,8242,1,8,0:0:0:0:
256,192,8317,1,0,0:0:0:0:
256,192,8392,1,8,0:0:0:0:
256,192,8467,1,8,0:0:0:0:
256,192,8542,1,0,0:0:0:0:
256,192,8617,1,0,0:0:0:0:
256,192,8692,1,8,0:0:0:0:
256,192,8767,1,0,0:0:0:0:
256,192,8842,1,8,0:0:0:0:
256,192,8917,1,8,0:0:0:0:
256,192,8992,1,0,0:0:0:0:
256,192,9067,1,0,0:0:0:0:
256,192,9142,1,8,0:0:0:0:
256,192,9217,1,0,0:0:0:0:
256,192,9292,1,0,0:0:0:0:
256,192,9367,1,0,0:0:0:0:
256,192,9442,1,8,0:0:0:0:
256,192,9517,1,8,0:0:0:0:
256,192,9592,1,8,0:0:0:0:
256,192,9742,1,8,0:0:0:0:
256,192,9892,1,8,0:0:0:0:
256,192,10042,1,12,0:0:0:0:
256,192,10192,1,0,0:0:0:0:
256,192,10342,1,8,0:0:0:0:
256,192,10417,1,0,0:0:0:0:
256,192,10492,1,0,0:0:0:0:
256,192,10642,1,0,0:0:0:0:
256,192,10792,1,8,0:0:0:0:
256,192,10942,1,8,0:0:0:0:
256,192,11092,1,0,0:0:0:0:
256,192,11242,1,8,0:0:0:0:
256,192,11392,1,0,0:0:0:0:
256,192,11467,1,0,0:0:0:0:
256,192,11542,1,8,0:0:0:0:
256,192,11692,1,8,0:0:0:0:
256,192,11842,1,0,0:0:0:0:
256,192,11917,1,0,0:0:0:0:
256,192,11992,1,8,0:0:0:0:
256,192,12142,1,8,0:0:0:0:
256,192,12442,1,0,0:0:0:0:
256,192,12592,1,0,0:0:0:0:
256,192,12742,1,8,0:0:0:0:
256,192,12817,1,0,0:0:0:0:
256,192,12892,1,0,0:0:0:0:
256,192,13042,1,0,0:0:0:0:
256,192,13192,1,8,0:0:0:0:
256,192,13342,1,8,0:0:0:0:
256,192,13492,1,0,0:0:0:0:
256,192,13642,1,8,0:0:0:0:
256,192,13792,1,0,0:0:0:0:
256,192,13942,1,8,0:0:0:0:
256,192,14092,1,8,0:0:0:0:
256,192,14167,1,8,0:0:0:0:
256,192,14242,1,0,0:0:0:0:
256,192,14317,1,0,0:0:0:0:
256,192,14392,1,8,0:0:0:0:
256,192,14542,1,8,0:0:0:0:
256,192,14842,1,12,0:0:0:0:
256,192,14992,1,0,0:0:0:0:
256,192,15142,1,8,0:0:0:0:
256,192,15217,1,0,0:0:0:0:
256,192,15292,1,0,0:0:0:0:
256,192,15442,1,0,0:0:0:0:
256,192,15592,1,8,0:0:0:0:
256,192,15742,1,8,0:0:0:0:
256,192,15892,1,0,0:0:0:0:
256,192,16042,1,8,0:0:0:0:
256,192,16192,1,0,0:0:0:0:
256,192,16342,1,8,0:0:0:0:
256,192,16492,1,0,0:0:0:0:
256,192,16567,1,8,0:0:0:0:
256,192,16642,1,8,0:0:0:0:
256,192,16717,1,8,0:0:0:0:
256,192,16792,1,0,0:0:0:0:
256,192,16942,1,12,0:0:0:0:
256,192,17092,1,0,0:0:0:0:
256,192,17242,1,8,0:0:0:0:
256,192,17317,1,8,0:0:0:0:
256,192,17392,1,8,0:0:0:0:
256,192,17467,1,8,0:0:0:0:
256,192,17542,1,0,0:0:0:0:
256,192,17617,1,0,0:0:0:0:
256,192,17692,1,8,0:0:0:0:
256,192,17767,1,8,0:0:0:0:
256,192,17842,1,8,0:0:0:0:
256,192,17917,1,0,0:0:0:0:
256,192,17992,1,8,0:0:0:0:
256,192,18067,1,0,0:0:0:0:
256,192,18142,1,8,0:0:0:0:
256,192,18217,1,8,0:0:0:0:
256,192,18292,1,8,0:0:0:0:
256,192,18367,1,0,0:0:0:0:
256,192,18442,1,8,0:0:0:0:
256,192,18517,1,8,0:0:0:0:
256,192,18592,1,8,0:0:0:0:
256,192,18667,1,8,0:0:0:0:
256,192,18742,1,0,0:0:0:0:
256,192,18817,1,0,0:0:0:0:
256,192,18892,1,0,0:0:0:0:
256,192,18967,1,0,0:0:0:0:
256,192,19042,1,8,0:0:0:0:
256,192,19117,1,8,0:0:0:0:
256,192,19192,1,8,0:0:0:0:
256,192,19267,1,8,0:0:0:0:
256,192,19342,1,8,0:0:0:0:
256,192,19492,1,8,0:0:0:0:
256,192,19642,1,12,0:0:0:0:
256,192,19792,1,0,0:0:0:0:
256,192,19942,1,8,0:0:0:0:
256,192,20092,1,0,0:0:0:0:
256,192,20242,1,0,0:0:0:0:
256,192,20317,1,0,0:0:0:0:
256,192,20392,1,8,0:0:0:0:
256,192,20542,1,8,0:0:0:0:
256,192,20692,1,0,0:0:0:0:
256,192,20842,1,8,0:0:0:0:
256,192,20917,1,8,0:0:0:0:
256,192,20992,1,0,0:0:0:0:
256,192,21142,1,8,0:0:0:0:
256,192,21292,1,8,0:0:0:0:
256,192,21367,1,8,0:0:0:0:
256,192,21442,1,8,0:0:0:0:
256,192,21517,1,0,0:0:0:0:
256,192,21592,1,8,0:0:0:0:
256,192,21742,1,8,0:0:0:0:
256,192,22042,1,0,0:0:0:0:
256,192,22192,1,0,0:0:0:0:
256,192,22342,1,8,0:0:0:0:
256,192,22492,1,0,0:0:0:0:
256,192,22642,1,0,0:0:0:0:
256,192,22717,1,0,0:0:0:0:
256,192,22792,1,8,0:0:0:0:
256,192,22942,1,8,0:0:0:0:
256,192,23092,1,0,0:0:0:0:
256,192,23242,1,8,0:0:0:0:
256,192,23317,1,8,0:0:0:0:
256,192,23392,1,0,0:0:0:0:
256,192,23467,1,0,0:0:0:0:
256,192,23542,1,8,0:0:0:0:
256,192,23692,1,8,0:0:0:0:
256,192,23767,1,0,0:0:0:0:
256,192,23842,1,0,0:0:0:0:
256,192,23917,1,0,0:0:0:0:
256,192,23992,1,8,0:0:0:0:
256,192,24142,1,8,0:0:0:0:
256,192,24442,1,12,0:0:0:0:
256,192,24592,1,0,0:0:0:0:
256,192,24742,1,8,0:0:0:0:
256,192,24892,1,0,0:0:0:0:
256,192,25042,1,0,0:0:0:0:
256,192,25117,1,0,0:0:0:0:
256,192,25192,1,8,0:0:0:0:
256,192,25342,1,8,0:0:0:0:
256,192,25492,1,0,0:0:0:0:
256,192,25642,1,8,0:0:0:0:
256,192,25717,1,8,0:0:0:0:
256,192,25792,1,0,0:0:0:0:
256,192,25942,1,8,0:0:0:0:
256,192,26092,1,0,0:0:0:0:
256,192,26167,1,8,0:0:0:0:
256,192,26242,1,8,0:0:0:0:
256,192,26317,1,8,0:0:0:0:
256,192,26392,1,0,0:0:0:0:
256,192,26542,1,12,0:0:0:0:
256,192,26692,1,0,0:0:0:0:
256,192,26842,1,8,0:0:0:0:
256,192,26917,1,8,0:0:0:0:
256,192,26992,1,0,0:0:0:0:
256,192,27067,1,0,0:0:0:0:
256,192,27142,1,8,0:0:0:0:
256,192,27292,1,0,0:0:0:0:
256,192,27367,1,0,0:0:0:0:
256,192,27442,1,8,0:0:0:0:
256,192,27517,1,8,0:0:0:0:
256,192,27592,1,0,0:0:0:0:
256,192,27742,1,8,0:0:0:0:
256,192,27892,1,4,0:0:0:0:
256,192,28642,2,0,L|256:256,8,35
256,192,29392,1,12,0:0:0:0:
256,192,29692,1,8,0:0:0:0:
256,192,29992,1,0,0:0:0:0:
256,192,30142,1,0,0:0:0:0:
256,192,30292,1,8,0:0:0:0:
256,192,30442,1,8,0:0:0:0:
256,192,30742,1,0,0:0:0:0:
256,192,30817,1,0,0:0:0:0:
256,192,30892,1,8,0:0:0:0:
256,192,31192,1,0,0:0:0:0:
256,192,31342,1,8,0:0:0:0:
256,192,31492,1,8,0:0:0:0:
256,192,31567,1,0,0:0:0:0:
256,192,31642,1,0,0:0:0:0:
256,192,31942,1,0,0:0:0:0:
256,192,32092,1,8,0:0:0:0:
256,192,32242,1,0,0:0:0:0:
256,192,32317,1,0,0:0:0:0:
256,192,32392,1,8,0:0:0:0:
256,192,32542,1,0,0:0:0:0:
256,192,32692,1,8,0:0:0:0:
256,192,32842,1,8,0:0:0:0:
256,192,33142,1,0,0:0:0:0:
256,192,33292,1,8,0:0:0:0:
256,192,33592,1,0,0:0:0:0:
256,192,33742,1,0,0:0:0:0:
256,192,33817,1,0,0:0:0:0:
256,192,33892,1,8,0:0:0:0:
256,192,34192,1,12,0:0:0:0:
256,192,34492,1,8,0:0:0:0:
256,192,34792,1,0,0:0:0:0:
256,192,34942,1,0,0:0:0:0:
256,192,35092,1,8,0:0:0:0:
256,192,35242,1,8,0:0:0:0:
256,192,35542,1,0,0:0:0:0:
256,192,35617,1,0,0:0:0:0:
256,192,35692,1,8,0:0:0:0:
256,192,35992,1,0,0:0:0:0:
256,192,36142,1,8,0:0:0:0:
256,192,36292,1,8,0:0:0:0:
256,192,36367,1,0,0:0:0:0:
256,192,36442,1,0,0:0:0:0:
256,192,36742,1,0,0:0:0:0:
256,192,36892,1,8,0:0:0:0:
256,192,37042,1,0,0:0:0:0:
256,192,37192,1,8,0:0:0:0:
256,192,37267,1,0,0:0:0:0:
256,192,37342,1,0,0:0:0:0:
256,192,37417,1,0,0:0:0:0:
256,192,37492,1,8,0:0:0:0:
256,192,37642,1,0,0:0:0:0:
256,192,37792,1,8,0:0:0:0:
256,192,37867,1,8,0:0:0:0:
256,192,37942,1,0,0:0:0:0:
256,192,38017,1,0,0:0:0:0:
256,192,38092,1,0,0:0:0:0:
256,192,38167,1,0,0:0:0:0:
256,192,38242,1,8,0:0:0:0:
256,192,38317,1,8,0:0:0:0:
256,192,38392,1,0,0:0:0:0:
256,192,38467,1,0,0:0:0:0:
256,192,38542,1,0,0:0:0:0:
256,192,38617,1,0,0:0:0:0:
256,192,38692,1,12,0:0:0:0:
256,192,38992,1,12,0:0:0:0:
256,192,39292,1,8,0:0:0:0:
256,192,39442,1,0,0:0:0:0:
256,192,39592,1,8,0:0:0:0:
256,192,39742,1,0,0:0:0:0:
256,192,39817,1,0,0:0:0:0:
256,192,39892,1,8,0:0:0:0:
256,192,40042,1,8,0:0:0:0:
256,192,40342,1,0,0:0:0:0:
256,192,40492,1,8,0:0:0:0:
256,192,40792,1,0,0:0:0:0:
256,192,40942,1,0,0:0:0:0:
256,192,41092,1,8,0:0:0:0:
256,192,41167,1,0,0:0:0:0:
256,192,41242,1,8,0:0:0:0:
256,192,41542,1,8,0:0:0:0:
256,192,41692,1,8,0:0:0:0:
256,192,41842,1,0,0:0:0:0:
256,192,41917,1,0,0:0:0:0:
256,192,41992,1,8,0:0:0:0:
256,192,42142,1,0,0:0:0:0:
256,192,42292,1,8,0:0:0:0:
256,192,42442,1,8,0:0:0:0:
256,192,42742,1,0,0:0:0:0:
256,192,42892,1,8,0:0:0:0:
256,192,42967,1,8,0:0:0:0:
256,192,43042,1,0,0:0:0:0:
256,192,43117,1,0,0:0:0:0:
256,192,43192,1,8,0:0:0:0:
256,192,43342,1,0,0:0:0:0:
256,192,43417,1,0,0:0:0:0:
256,192,43492,1,8,0:0:0:0:
256,192,43567,1,8,0:0:0:0:
256,192,43642,1,0,0:0:0:0:
256,192,43792,1,12,0:0:0:0:
256,192,44092,1,8,0:0:0:0:
256,192,44242,1,0,0:0:0:0:
256,192,44392,1,8,0:0:0:0:
256,192,44542,1,0,0:0:0:0:
256,192,44692,1,8,0:0:0:0:
256,192,44767,1,0,0:0:0:0:
256,192,44842,1,8,0:0:0:0:
256,192,45142,1,0,0:0:0:0:
256,192,45292,1,8,0:0:0:0:
256,192,45592,1,0,0:0:0:0:
256,192,45742,1,0,0:0:0:0:
256,192,45892,1,8,0:0:0:0:
256,192,46042,1,8,0:0:0:0:
256,192,46117,1,0,0:0:0:0:
256,192,46192,1,0,0:0:0:0:
256,192,46342,1,8,0:0:0:0:
256,192,46492,1,8,0:0:0:0:
256,192,46642,1,0,0:0:0:0:
256,192,46717,1,0,0:0:0:0:
256,192,46792,1,8,0:0:0:0:
256,192,46942,1,0,0:0:0:0:
256,192,47092,1,8,0:0:0:0:
256,192,47242,1,4,0:0:0:0:
256,192,47542,1,0,0:0:0:0:
256,192,47617,1,0,0:0:0:0:
256,192,47692,1,8,0:0:0:0:
256,192,47842,1,8,0:0:0:0:
256,192,47917,1,8,0:0:0:0:
256,192,47992,1,0,0:0:0:0:
256,192,48067,1,0,0:0:0:0:
256,192,48142,1,8,0:0:0:0:
256,192,48292,1,8,0:0:0:0:
256,192,48442,1,0,0:0:0:0:
256,192,48592,1,12,0:0:0:0:
256,192,48892,1,8,0:0:0:0:
256,192,49042,1,0,0:0:0:0:
256,192,49192,1,8,0:0:0:0:
256,192,49342,1,0,0:0:0:0:
256,192,49417,1,0,0:0:0:0:
256,192,49492,1,8,0:0:0:0:
256,192,49642,1,8,0:0:0:0:
256,192,49717,1,0,0:0:0:0:
256,192,49792,1,0,0:0:0:0:
256,192,49942,1,0,0:0:0:0:
256,192,50092,1,8,0:0:0:0:
256,192,50392,1,0,0:0:0:0:
256,192,50542,1,0,0:0:0:0:
256,192,50692,1,8,0:0:0:0:
256,192,50842,1,8,0:0:0:0:
256,192,50917,1,0,0:0:0:0:
256,192,50992,1,0,0:0:0:0:
256,192,51142,1,8,0:0:0:0:
256,192,51292,1,8,0:0:0:0:
256,192,51442,1,0,0:0:0:0:
256,192,51517,1,0,0:0:0:0:
256,192,51592,1,8,0:0:0:0:
256,192,51742,1,0,0:0:0:0:
256,192,51892,1,8,0:0:0:0:
256,192,52042,1,8,0:0:0:0:
256,192,52192,1,0,0:0:0:0:
256,192,52342,1,0,0:0:0:0:
256,192,52492,1,8,0:0:0:0:
256,192,52642,1,0,0:0:0:0:
256,192,52792,1,8,0:0:0:0:
256,192,52942,1,0,0:0:0:0:
256,192,53017,1,0,0:0:0:0:
256,192,53092,1,8,0:0:0:0:
256,192,53167,1,8,0:0:0:0:
256,192,53242,1,0,0:0:0:0:
256,192,53392,1,12,0:0:0:0:
256,192,53692,1,8,0:0:0:0:
256,192,53842,1,0,0:0:0:0:
256,192,53992,1,8,0:0:0:0:
256,192,54067,1,0,0:0:0:0:
256,192,54142,1,0,0:0:0:0:
256,192,54292,1,8,0:0:0:0:
256,192,54442,1,8,0:0:0:0:
256,192,54592,1,0,0:0:0:0:
256,192,54742,1,0,0:0:0:0:
256,192,54817,1,0,0:0:0:0:
256,192,54892,1,8,0:0:0:0:
256,192,55192,1,0,0:0:0:0:
256,192,55342,1,0,0:0:0:0:
256,192,55492,1,8,0:0:0:0:
256,192,55642,1,8,0:0:0:0:
256,192,55717,1,0,0:0:0:0:
256,192,55792,1,0,0:0:0:0:
256,192,55942,1,8,0:0:0:0:
256,192,56092,1,8,0:0:0:0:
256,192,56242,1,0,0:0:0:0:
256,192,56317,1,0,0:0:0:0:
256,192,56392,1,8,0:0:0:0:
256,192,56467,1,8,0:0:0:0:
256,192,56542,1,0,0:0:0:0:
256,192,56692,1,8,0:0:0:0:
256,192,56842,1,8,0:0:0:0:
256,192,56917,1,0,0:0:0:0:
256,192,56992,1,0,0:0:0:0:
256,192,57142,1,8,0:0:0:0:
256,192,57217,1,8,0:0:0:0:
256,192,57292,1,0,0:0:0:0:
256,192,57442,1,0,0:0:0:0:
256,192,57517,1,8,0:0:0:0:
256,192,57592,1,8,0:0:0:0:
256,192,57742,1,8,0:0:0:0:
256,192,57892,1,0,0:0:0:0:
256,192,57967,1,0,0:0:0:0:
256,192,58042,1,0,0:0:0:0:
256,192,58192,1,12,0:0:0:0:
256,192,58342,1,0,0:0:0:0:
256,192,58417,1,0,0:0:0:0:
256,192,58492,1,8,0:0:0:0:
256,192,58642,1,0,0:0:0:0:
256,192,58792,1,0,0:0:0:0:
256,192,58942,1,8,0:0:0:0:
256,192,59092,1,8,0:0:0:0:
256,192,59242,1,0,0:0:0:0:
256,192,59392,1,8,0:0:0:0:
256,192,59542,1,0,0:0:0:0:
256,192,59617,1,0,0:0:0:0:
256,192,59692,1,8,0:0:0:0:
256,192,59842,1,8,0:0:0:0:
256,192,59992,1,0,0:0:0:0:
256,192,60067,1,0,0:0:0:0:
256,192,60142,1,8,0:0:0:0:
256,192,60292,1,8,0:0:0:0:
256,192,60592,1,0,0:0:0:0:
256,192,60742,1,0,0:0:0:0:
256,192,60817,1,0,0:0:0:0:
256,192,60892,1,8,0:0:0:0:
256,192,61042,1,0,0:0:0:0:
256,192,61192,1,0,0:0:0:0:
256,192,61342,1,8,0:0:0:0:
256,192,61492,1,8,0:0:0:0:
256,192,61642,1,0,0:0:0:0:
256,192,61792,1,8,0:0:0:0:
256,192,61942,1,0,0:0:0:0:
256,192,62017,1,0,0:0:0:0:
256,192,62092,1,8,0:0:0:0:
256,192,62242,1,8,0:0:0:0:
256,192,62317,1,0,0:0:0:0:
256,192,62392,1,0,0:0:0:0:
256,192,62467,1,0,0:0:0:0:
256,192,62542,1,8,0:0:0:0:
256,192,62692,1,8,0:0:0:0:
256,192,62992,1,12,0:0:0:0:
256,192,63142,1,0,0:0:0:0:
256,192,63217,1,0,0:0:0:0:
256,192,63292,1,8,0:0:0:0:
256,192,63442,1,0,0:0:0:0:
256,192,63592,1,0,0:0:0:0:
256,192,63742,1,8,0:0:0:0:
256,192,63892,1,8,0:0:0:0:
256,192,64042,1,0,0:0:0:0:
256,192,64192,1,8,0:0:0:0:
256,192,64342,1,0,0:0:0:0:
256,192,64417,1,0,0:0:0:0:
256,192,64492,1,8,0:0:0:0:
256,192,64642,1,8,0:0:0:0:
256,192,64792,1,0,0:0:0:0:
256,192,64867,1,0,0:0:0:0:
256,192,64942,1,8,0:0:0:0:
256,192,65092,1,8,0:0:0:0:
256,192,65392,1,0,0:0:0:0:
256,192,65542,1,0,0:0:0:0:
256,192,65617,1,0,0:0:0:0:
256,192,65692,1,8,0:0:0:0:
256,192,65842,1,0,0:0:0:0:
256,192,65992,1,0,0:0:0:0:
256,192,66142,1,8,0:0:0:0:
256,192,66292,1,8,0:0:0:0:
256,192,66442,1,0,0:0:0:0:
256,192,66592,1,8,0:0:0:0:
256,192,66742,1,0,0:0:0:0:
256,192,66817,1,0,0:0:0:0:
256,192,66892,1,8,0:0:0:0:
256,192,67042,1,8,0:0:0:0:
256,192,67342,1,8,0:0:0:0:
256,192,67492,1,4,0:0:0:0:
256,192,67792,1,12,0:0:0:0:
256,192,67942,1,0,0:0:0:0:
256,192,68017,1,0,0:0:0:0:
256,192,68092,1,8,0:0:0:0:
256,192,68167,1,8,0:0:0:0:
256,192,68242,1,0,0:0:0:0:
256,192,68392,1,8,0:0:0:0:
256,192,68542,1,0,0:0:0:0:
256,192,68617,1,0,0:0:0:0:
256,192,68692,1,8,0:0:0:0:
256,192,68842,1,0,0:0:0:0:
256,192,68992,1,8,0:0:0:0:
256,192,69142,1,0,0:0:0:0:
256,192,69217,1,0,0:0:0:0:
256,192,69292,1,8,0:0:0:0:
256,192,69367,1,8,0:0:0:0:
256,192,69442,1,0,0:0:0:0:
256,192,69592,1,8,0:0:0:0:
256,192,69742,1,0,0:0:0:0:
256,192,69817,1,0,0:0:0:0:
256,192,69892,1,8,0:0:0:0:
256,192,70042,1,0,0:0:0:0:
256,192,70117,1,0,0:0:0:0:
256,192,70192,1,8,0:0:0:0:
256,192,70267,1,8,0:0:0:0:
256,192,70342,1,0,0:0:0:0:
256,192,70417,1,0,0:0:0:0:
256,192,70492,1,8,0:0:0:0:
256,192,70642,1,0,0:0:0:0:
256,192,70792,1,8,0:0:0:0:
256,192,70942,1,0,0:0:0:0:
256,192,71017,1,0,0:0:0:0:
256,192,71092,1,8,0:0:0:0:
256,192,71242,1,0,0:0:0:0:
256,192,71392,1,8,0:0:0:0:
256,192,71542,1,0,0:0:0:0:
256,192,71617,1,0,0:0:0:0:
256,192,71692,1,8,0:0:0:0:
256,192,71767,1,8,0:0:0:0:
256,192,71842,1,0,0:0:0:0:
256,192,71992,1,8,0:0:0:0:
256,192,72142,1,0,0:0:0:0:
256,192,72217,1,0,0:0:0:0:
256,192,72292,1,8,0:0:0:0:
256,192,72442,1,0,0:0:0:0:
256,192,72517,1,0,0:0:0:0:
256,192,72592,1,8,0:0:0:0:
256,192,72667,1,8,0:0:0:0:
256,192,72742,1,0,0:0:0:0:
256,192,72817,1,0,0:0:0:0:
256,192,72892,1,8,0:0:0:0:
256,192,73042,1,0,0:0:0:0:
256,192,73117,1,0,0:0:0:0:
256,192,73192,1,8,0:0:0:0:
256,192,73267,1,8,0:0:0:0:
256,192,73342,1,0,0:0:0:0:
256,192,73492,1,8,0:0:0:0:
256,192,73642,1,0,0:0:0:0:
256,192,73717,1,0,0:0:0:0:
256,192,73792,1,8,0:0:0:0:
256,192,73942,1,0,0:0:0:0:
256,192,74017,1,0,0:0:0:0:
256,192,74092,1,8,0:0:0:0:
256,192,74242,1,0,0:0:0:0:
256,192,74317,1,0,0:0:0:0:
256,192,74392,1,8,0:0:0:0:
256,192,74467,1,8,0:0:0:0:
256,192,74542,1,0,0:0:0:0:
256,192,74692,1,12,0:0:0:0:
256,192,74992,1,8,0:0:0:0:
256,192,75067,1,0,0:0:0:0:
256,192,75142,1,0,0:0:0:0:
256,192,75217,1,8,0:0:0:0:
256,192,75292,1,0,0:0:0:0:
256,192,75367,1,0,0:0:0:0:
256,192,75442,1,8,0:0:0:0:
256,192,75517,1,0,0:0:0:0:
256,192,75592,1,0,0:0:0:0:
256,192,75667,1,8,0:0:0:0:
256,192,75742,1,0,0:0:0:0:
256,192,75817,1,0,0:0:0:0:
256,192,75892,1,8,0:0:0:0:
256,192,75967,1,8,0:0:0:0:
256,192,76042,1,0,0:0:0:0:
256,192,76117,1,0,0:0:0:0:
256,192,76192,1,8,0:0:0:0:
256,192,76392,1,0,0:0:0:0:
256,192,76592,1,0,0:0:0:0:
256,192,76792,1,0,0:0:0:0:
256,192,77092,1,4,0:0:0:0:
256,192,77392,1,12,0:0:0:0:
256,192,77692,1,8,0:0:0:0:
256,192,77992,1,0,0:0:0:0:
256,192,78142,1,0,0:0:0:0:
256,192,78292,1,8,0:0:0:0:
256,192,78442,1,8,0:0:0:0:
256,192,78742,1,0,0:0:0:0:
256,192,78817,1,0,0:0:0:0:
256,192,78892,1,8,0:0:0:0:
256,192,79192,1,0,0:0:0:0:
256,192,79342,1,8,0:0:0:0:
256,192,79492,1,8,0:0:0:0:
256,192,79567,1,0,0:0:0:0:
256,192,79642,1,0,0:0:0:0:
256,192,79942,1,0,0:0:0:0:
256,192,80092,1,8,0:0:0:0:
256,192,80242,1,0,0:0:0:0:
256,192,80317,1,0,0:0:0:0:
256,192,80392,1,8,0:0:0:0:
256,192,80542,1,0,0:0:0:0:
256,192,80692,1,8,0:0:0:0:
256,192,80842,1,8,0:0:0:0:
256,192,81142,1,0,0:0:0:0:
256,192,81292,1,8,0:0:0:0:
256,192,81592,1,0,0:0:0:0:
256,192,81742,1,0,0:0:0:0:
256,192,81817,1,0,0:0:0:0:
256,192,81892,1,8,0:0:0:0:
256,192,82192,1,12,0:0:0:0:
256,192,82492,1,8,0:0:0:0:
256,192,82792,1,0,0:0:0:0:
256,192,82942,1,0,0:0:0:0:
256,192,83092,1,8,0:0:0:0:
256,192,83242,1,8,0:0:0:0:
256,192,83542,1,0,0:0:0:0:
256,192,83617,1,0,0:0:0:0:
256,192,83692,1,8,0:0:0:0:
256,192,83992,1,0,0:0:0:0:
256,192,84142,1,8,0:0:0:0:
256,192,84292,1,8,0:0:0:0:
256,192,84367,1,0,0:0:0:0:
256,192,84442,1,0,0:0:0:0:
256,192,84742,1,0,0:0:0:0:
256,192,84892,1,8,0:0:0:0:
256,192,85042,1,0,0:0:0:0:
256,192,85192,1,8,0:0:0:0:
256,192,85267,1,0,0:0:0:0:
256,192,85342,1,8,0:0:0:0:
256,192,85417,1,0,0:0:0:0:
256,192,85492,1,8,0:0:0:0:
256,192,85642,1,0,0:0:0:0:
256,192,85792,1,8,0:0:0:0:
256,192,85867,1,8,0:0:0:0:
256,192,85942,1,0,0:0:0:0:
256,192,86092,1,0,0:0:0:0:
256,192,86242,1,8,0:0:0:0:
256,192,86317,1,8,0:0:0:0:
256,192,86392,1,0,0:0:0:0:
256,192,86467,1,0,0:0:0:0:
256,192,86542,1,8,0:0:0:0:
256,192,86692,1,0,0:0:0:0:
256,192,86767,1,0,0:0:0:0:
256,192,86842,1,0,0:0:0:0:
256,192,86917,1,0,0:0:0:0:
256,192,86992,1,12,0:0:0:0:
256,192,87292,1,8,0:0:0:0:
256,192,87442,1,0,0:0:0:0:
256,192,87592,1,8,0:0:0:0:
256,192,87742,1,0,0:0:0:0:
256,192,87892,1,8,0:0:0:0:
256,192,87967,1,0,0:0:0:0:
256,192,88042,1,8,0:0:0:0:
256,192,88342,1,0,0:0:0:0:
256,192,88492,1,8,0:0:0:0:
256,192,88792,1,0,0:0:0:0:
256,192,88942,1,0,0:0:0:0:
256,192,89017,1,0,0:0:0:0:
256,192,89092,1,8,0:0:0:0:
256,192,89242,1,8,0:0:0:0:
256,192,89317,1,8,0:0:0:0:
256,192,89392,1,0,0:0:0:0:
256,192,89542,1,8,0:0:0:0:
256,192,89692,1,8,0:0:0:0:
256,192,89842,1,0,0:0:0:0:
256,192,89992,1,8,0:0:0:0:
256,192,90142,1,0,0:0:0:0:
256,192,90292,1,8,0:0:0:0:
256,192,90442,1,8,0:0:0:0:
256,192,90742,1,0,0:0:0:0:
256,192,90892,1,8,0:0:0:0:
256,192,91042,1,0,0:0:0:0:
256,192,91192,1,8,0:0:0:0:
256,192,91267,1,8,0:0:0:0:
256,192,91342,1,0,0:0:0:0:
256,192,91417,1,0,0:0:0:0:
256,192,91492,1,8,0:0:0:0:
256,192,91792,1,12,0:0:0:0:
256,192,92092,1,8,0:0:0:0:
256,192,92242,1,0,0:0:0:0:
256,192,92392,1,8,0:0:0:0:
256,192,92542,1,0,0:0:0:0:
256,192,92692,1,8,0:0:0:0:
256,192,92767,1,0,0:0:0:0:
256,192,92842,1,8,0:0:0:0:
256,192,92992,1,0,0:0:0:0:
256,192,93142,1,0,0:0:0:0:
256,192,93292,1,8,0:0:0:0:
256,192,93442,1,8,0:0:0:0:
256,192,93517,1,0,0:0:0:0:
256,192,93592,1,0,0:0:0:0:
256,192,93742,1,0,0:0:0:0:
256,192,93892,1,8,0:0:0:0:
256,192,94042,1,12,0:0:0:0:
256,192,94342,1,8,0:0:0:0:
256,192,94492,1,8,0:0:0:0:
256,192,94642,1,0,0:0:0:0:
256,192,94792,1,8,0:0:0:0:
256,192,94942,1,0,0:0:0:0:
256,192,95092,1,8,0:0:0:0:
256,192,95242,1,12,0:0:0:0:
256,192,95542,1,0,0:0:0:0:
256,192,95617,1,0,0:0:0:0:
256,192,95692,1,8,0:0:0:0:
256,192,95842,1,8,0:0:0:0:
256,192,95917,1,8,0:0:0:0:
256,192,95992,1,0,0:0:0:0:
256,192,96067,1,0,0:0:0:0:
256,192,96142,1,8,0:0:0:0:
256,192,96217,1,0,0:0:0:0:
256,192,96292,1,8,0:0:0:0:
256,192,96367,1,8,0:0:0:0:
256,192,96442,1,0,0:0:0:0:
256,192,96592,1,12,0:0:0:0:
256,192,96892,1,8,0:0:0:0:
256,192,97042,1,0,0:0:0:0:
256,192,97192,1,8,0:0:0:0:
256,192,97342,1,0,0:0:0:0:
256,192,97417,1,0,0:0:0:0:
256,192,97492,1,8,0:0:0:0:
256,192,97642,1,8,0:0:0:0:
256,192,97792,1,0,0:0:0:0:
256,192,97942,1,0,0:0:0:0:
256,192,98092,1,8,0:0:0:0:
256,192,98392,1,0,0:0:0:0:
256,192,98542,1,0,0:0:0:0:
256,192,98692,1,8,0:0:0:0:
256,192,98767,1,0,0:0:0:0:
256,192,98842,1,8,0:0:0:0:
256,192,98992,1,0,0:0:0:0:
256,192,99142,1,8,0:0:0:0:
256,192,99292,1,8,0:0:0:0:
256,192,99442,1,0,0:0:0:0:
256,192,99592,1,8,0:0:0:0:
256,192,99742,1,0,0:0:0:0:
256,192,99892,1,8,0:0:0:0:
256,192,100042,1,8,0:0:0:0:
256,192,100117,1,0,0:0:0:0:
256,192,100192,1,0,0:0:0:0:
256,192,100342,1,0,0:0:0:0:
256,192,100492,1,8,0:0:0:0:
256,192,100567,1,8,0:0:0:0:
256,192,100642,1,0,0:0:0:0:
256,192,100792,1,8,0:0:0:0:
256,192,100867,1,8,0:0:0:0:
256,192,100942,1,0,0:0:0:0:
256,192,101242,1,0,0:0:0:0:
256,192,101392,1,12,0:0:0:0:
256,192,101692,1,8,0:0:0:0:
256,192,101842,1,0,0:0:0:0:
256,192,101992,1,8,0:0:0:0:
256,192,102142,1,0,0:0:0:0:
256,192,102217,1,0,0:0:0:0:
256,192,102292,1,8,0:0:0:0:
256,192,102442,1,8,0:0:0:0:
256,192,102592,1,0,0:0:0:0:
256,192,102742,1,0,0:0:0:0:
256,192,102892,1,8,0:0:0:0:
256,192,103192,1,8,0:0:0:0:
256,192,103342,1,0,0:0:0:0:
256,192,103417,1,0,0:0:0:0:
256,192,103492,1,8,0:0:0:0:
256,192,103642,1,0,0:0:0:0:
256,192,103792,1,8,0:0:0:0:
256,192,103942,1,0,0:0:0:0:
256,192,104092,1,8,0:0:0:0:
256,192,104242,1,0,0:0:0:0:
256,192,104317,1,0,0:0:0:0:
256,192,104392,1,8,0:0:0:0:
256,192,104467,1,8,0:0:0:0:
256,192,104542,1,0,0:0:0:0:
256,192,104617,1,0,0:0:0:0:
256,192,104692,1,8,0:0:0:0:
256,192,104842,1,12,0:0:0:0:
256,192,104992,1,0,0:0:0:0:
256,192,105092,1,0,0:0:0:0:
256,192,105192,1,0,0:0:0:0:
256,192,105292,1,8,0:0:0:0:
256,192,105392,1,8,0:0:0:0:
256,192,105492,1,8,0:0:0:0:
256,192,105592,1,0,0:0:0:0:
256,192,105692,1,0,0:0:0:0:
256,192,105792,1,0,0:0:0:0:
256,192,105892,1,8,0:0:0:0:
256,192,105992,1,8,0:0:0:0:
256,192,106092,1,8,0:0:0:0:
256,192,106192,1,4,0:0:0:0:
256,192,106492,1,8,0:0:0:0:
256,192,106642,1,0,0:0:0:0:
256,192,106792,1,8,0:0:0:0:
256,192,106867,1,0,0:0:0:0:
256,192,106942,1,0,0:0:0:0:
256,192,107092,1,8,0:0:0:0:
256,192,107167,1,0,0:0:0:0:
256,192,107242,1,8,0:0:0:0:
256,192,107392,1,0,0:0:0:0:
256,192,107542,1,0,0:0:0:0:
256,192,107692,1,8,0:0:0:0:
256,192,107842,1,8,0:0:0:0:
256,192,107992,1,0,0:0:0:0:
256,192,108142,1,0,0:0:0:0:
256,192,108217,1,0,0:0:0:0:
256,192,108292,1,8,0:0:0:0:
256,192,108442,1,8,0:0:0:0:
256,192,108742,1,8,0:0:0:0:
256,192,108892,1,8,0:0:0:0:
256,192,109042,1,0,0:0:0:0:
256,192,109117,1,0,0:0:0:0:
256,192,109192,1,8,0:0:0:0:
256,192,109342,1,0,0:0:0:0:
256,192,109417,1,0,0:0:0:0:
256,192,109492,1,8,0:0:0:0:
256,192,109642,1,8,0:0:0:0:
256,192,109942,1,0,0:0:0:0:
256,192,110017,1,0,0:0:0:0:
256,192,110092,1,8,0:0:0:0:
256,192,110242,1,8,0:0:0:0:
256,192,110317,1,0,0:0:0:0:
256,192,110392,1,8,0:0:0:0:
256,192,110542,1,0,0:0:0:0:
256,192,110617,1,0,0:0:0:0:
256,192,110692,1,8,0:0:0:0:
256,192,110767,1,8,0:0:0:0:
256,192,110842,1,0,0:0:0:0:
256,192,110917,1,0,0:0:0:0:
256,192,110992,1,12,0:0:0:0:
256,192,111292,1,8,0:0:0:0:
256,192,111442,1,0,0:0:0:0:
256,192,111592,1,8,0:0:0:0:
256,192,111667,1,0,0:0:0:0:
256,192,111742,1,0,0:0:0:0:
256,192,111892,1,8,0:0:0:0:
256,192,111967,1,0,0:0:0:0:
256,192,112042,1,8,0:0:0:0:
256,192,112117,1,8,0:0:0:0:
256,192,112192,1,0,0:0:0:0:
256,192,112342,1,0,0:0:0:0:
256,192,112492,1,8,0:0:0:0:
256,192,112642,1,8,0:0:0:0:
256,192,112792,1,0,0:0:0:0:
256,192,112867,1,0,0:0:0:0:
256,192,112942,1,8,0:0:0:0:
256,192,113092,1,8,0:0:0:0:
256,192,113242,1,8,0:0:0:0:
256,192,113317,1,8,0:0:0:0:
256,192,113392,1,0,0:0:0:0:
256,192,113467,1,0,0:0:0:0:
256,192,113542,1,8,0:0:0:0:
256,192,113617,1,0,0:0:0:0:
256,192,113692,1,8,0:0:0:0:
256,192,113767,1,8,0:0:0:0:
256,192,113842,1,0,0:0:0:0:
256,192,113917,1,0,0:0:0:0:
256,192,113992,1,8,0:0:0:0:
256,192,114067,1,8,0:0:0:0:
256,192,114142,1,0,0:0:0:0:
256,192,114217,1,0,0:0:0:0:
256,192,114292,1,8,0:0:0:0:
256,192,114367,1,0,0:0:0:0:
256,192,114442,1,8,0:0:0:0:
256,192,114592,1,0,0:0:0:0:
256,192,114667,1,0,0:0:0:0:
256,192,114742,1,8,0:0:0:0:
256,192,114817,1,8,0:0:0:0:
256,192,114892,1,8,0:0:0:0:
256,192,115042,1,8,0:0:0:0:
256,192,115192,1,8,0:0:0:0:
256,192,115342,1,4,0:0:0:0:
256,192,115492,1,0,0:0:0:0:
256,192,115567,1,0,0:0:0:0:
256,192,115642,1,0,0:0:0:0:
256,192,115717,1,0,0:0:0:0:
256,192,115792,1,12,0:0:0:0:
256,192,115942,1,0,0:0:0:0:
256,192,116092,1,8,0:0:0:0:
256,192,116242,1,0,0:0:0:0:
256,192,116392,1,8,0:0:0:0:
256,192,116467,1,8,0:0:0:0:
256,192,116542,1,0,0:0:0:0:
256,192,116617,1,8,0:0:0:0:
256,192,116692,1,8,0:0:0:0:
256,192,116767,1,0,0:0:0:0:
256,192,116842,1,8,0:0:0:0:
256,192,116992,1,8,0:0:0:0:
256,192,117142,1,0,0:0:0:0:
256,192,117292,1,8,0:0:0:0:
256,192,117442,1,0,0:0:0:0:
256,192,117592,1,8,0:0:0:0:
256,192,117667,1,0,0:0:0:0:
256,192,117742,1,0,0:0:0:0:
256,192,117817,1,8,0:0:0:0:
256,192,117892,1,0,0:0:0:0:
256,192,117967,1,0,0:0:0:0:
256,192,118042,1,8,0:0:0:0:
256,192,118192,1,8,0:0:0:0:
256,192,118342,1,0,0:0:0:0:
256,192,118417,1,0,0:0:0:0:
256,192,118492,1,8,0:0:0:0:
256,192,118642,1,8,0:0:0:0:
256,192,118792,1,0,0:0:0:0:
256,192,118942,1,0,0:0:0:0:
256,192,119017,1,0,0:0:0:0:
256,192,119092,1,8,0:0:0:0:
256,192,119242,1,8,0:0:0:0:
256,192,119392,1,0,0:0:0:0:
256,192,119542,1,0,0:0:0:0:
256,192,119617,1,0,0:0:0:0:
256,192,119692,1,8,0:0:0:0:
256,192,119842,1,0,0:0:0:0:
256,192,119992,1,8,0:0:0:0:
256,192,120067,1,8,0:0:0:0:
256,192,120142,1,0,0:0:0:0:
256,192,120292,1,8,0:0:0:0:
256,192,120442,1,0,0:0:0:0:
256,192,120592,1,12,0:0:0:0:
256,192,120742,1,0,0:0:0:0:
256,192,120892,1,8,0:0:0:0:
256,192,121042,1,0,0:0:0:0:
256,192,121192,1,8,0:0:0:0:
256,192,121267,1,8,0:0:0:0:
256,192,121342,1,0,0:0:0:0:
256,192,121417,1,8,0:0:0:0:
256,192,121492,1,8,0:0:0:0:
256,192,121567,1,0,0:0:0:0:
256,192,121642,1,8,0:0:0:0:
256,192,121792,1,8,0:0:0:0:
256,192,121942,1,0,0:0:0:0:
256,192,122017,1,8,0:0:0:0:
256,192,122092,1,0,0:0:0:0:
256,192,122167,1,0,0:0:0:0:
256,192,122242,1,8,0:0:0:0:
256,192,122392,1,8,0:0:0:0:
256,192,122542,1,0,0:0:0:0:
256,192,122617,1,8,0:0:0:0:
256,192,122692,1,8,0:0:0:0:
256,192,122767,1,0,0:0:0:0:
256,192,122842,1,8,0:0:0:0:
256,192,122992,1,8,0:0:0:0:
256,192,123067,1,8,0:0:0:0:
256,192,123142,1,0,0:0:0:0:
256,192,123217,1,0,0:0:0:0:
256,192,123292,1,8,0:0:0:0:
256,192,123442,1,0,0:0:0:0:
256,192,123517,1,0,0:0:0:0:
256,192,123592,1,8,0:0:0:0:
256,192,123742,1,0,0:0:0:0:
256,192,123892,1,0,0:0:0:0:
256,192,123967,1,0,0:0:0:0:
256,192,124042,1,8,0:0:0:0:
256,192,124117,1,8,0:0:0:0:
256,192,124192,1,0,0:0:0:0:
256,192,124342,1,8,0:0:0:0:
256,192,124417,1,0,0:0:0:0:
256,192,124492,1,8,0:0:0:0:
256,192,124642,1,0,0:0:0:0:
256,192,124717,1,0,0:0:0:0:
256,192,124792,1,8,0:0:0:0:
256,192,124867,1,8,0:0:0:0:
256,192,124942,1,0,0:0:0:0:
256,192,125017,1,0,0:0:0:0:
256,192,125092,1,8,0:0:0:0:
256,192,125167,1,8,0:0:0:0:
256,192,125242,1,0,0:0:0:0:
256,192,125392,1,12,0:0:0:0:
256,192,125542,1,0,0:0:0:0:
256,192,125692,1,8,0:0:0:0:
256,192,125842,1,0,0:0:0:0:
256,192,125992,1,8,0:0:0:0:
256,192,126067,1,8,0:0:0:0:
256,192,126142,1,0,0:0:0:0:
256,192,126217,1,8,0:0:0:0:
256,192,126292,1,8,0:0:0:0:
256,192,126367,1,0,0:0:0:0:
256,192,126442,1,8,0:0:0:0:
256,192,126592,1,8,0:0:0:0:
256,192,126742,1,0,0:0:0:0:
256,192,126892,1,8,0:0:0:0:
256,192,127042,1,0,0:0:0:0:
256,192,127192,1,8,0:0:0:0:
256,192,127267,1,0,0:0:0:0:
256,192,127342,1,0,0:0:0:0:
256,192,127417,1,8,0:0:0:0:
256,192,127492,1,0,0:0:0:0:
256,192,127567,1,0,0:0:0:0:
256,192,127642,1,8,0:0:0:0:
256,192,127792,1,8,0:0:0:0:
256,192,127942,1,0,0:0:0:0:
256,192,128092,1,8,0:0:0:0:
256,192,128242,1,8,0:0:0:0:
256,192,128392,1,0,0:0:0:0:
256,192,128542,1,0,0:0:0:0:
256,192,128617,1,0,0:0:0:0:
256,192,128692,1,8,0:0:0:0:
256,192,128842,1,8,0:0:0:0:
256,192,128992,1,0,0:0:0:0:
256,192,129142,1,0,0:0:0:0:
256,192,129217,1,0,0:0:0:0:
256,192,129292,1,8,0:0:0:0:
256,192,129442,1,8,0:0:0:0:
256,192,129592,1,0,0:0:0:0:
256,192,129667,1,0,0:0:0:0:
256,192,129742,1,0,0:0:0:0:
256,192,129817,1,0,0:0:0:0:
256,192,129892,1,8,0:0:0:0:
256,192,130192,1,12,0:0:0:0:
256,192,130342,1,0,0:0:0:0:
256,192,130492,1,8,0:0:0:0:
256,192,130642,1,0,0:0:0:0:
256,192,130792,1,8,0:0:0:0:
256,192,130867,1,8,0:0:0:0:
256,192,130942,1,0,0:0:0:0:
256,192,131017,1,8,0:0:0:0:
256,192,131092,1,8,0:0:0:0:
256,192,131167,1,0,0:0:0:0:
256,192,131242,1,8,0:0:0:0:
256,192,131392,1,8,0:0:0:0:
256,192,131542,1,0,0:0:0:0:
256,192,131617,1,8,0:0:0:0:
256,192,131692,1,0,0:0:0:0:
256,192,131767,1,0,0:0:0:0:
256,192,131842,1,8,0:0:0:0:
256,192,131992,1,8,0:0:0:0:
256,192,132142,1,0,0:0:0:0:
256,192,132217,1,8,0:0:0:0:
256,192,132292,1,8,0:0:0:0:
256,192,132367,1,0,0:0:0:0:
256,192,132442,1,8,0:0:0:0:
256,192,132592,1,8,0:0:0:0:
256,192,132667,1,8,0:0:0:0:
256,192,132742,1,0,0:0:0:0:
256,192,132892,1,0,0:0:0:0:
256,192,133042,1,0,0:0:0:0:
256,192,133117,1,0,0:0:0:0:
256,192,133192,1,8,0:0:0:0:
256,192,133267,1,8,0:0:0:0:
256,192,133342,1,0,0:0:0:0:
256,192,133492,1,0,0:0:0:0:
256,192,133642,1,8,0:0:0:0:
256,192,133792,1,8,0:0:0:0:
256,192,133867,1,8,0:0:0:0:
256,192,133942,1,0,0:0:0:0:
256,192,134017,1,8,0:0:0:0:
256,192,134092,1,8,0:0:0:0:
256,192,134167,1,0,0:0:0:0:
256,192,134242,1,0,0:0:0:0:
256,192,134317,1,0,0:0:0:0:
256,192,134392,1,8,0:0:0:0:
256,192,134592,1,4,0:0:0:0:
256,192,134792,1,4,0:0:0:0:
256,192,134992,1,12,0:0:0:0:
256,192,135292,1,8,0:0:0:0:
256,192,135442,1,0,0:0:0:0:
256,192,135592,1,0,0:0:0:0:
256,192,135742,1,0,0:0:0:0:
256,192,135892,1,8,0:0:0:0:
256,192,136042,1,8,0:0:0:0:
256,192,136117,1,8,0:0:0:0:
256,192,136192,1,0,0:0:0:0:
256,192,136342,1,0,0:0:0:0:
256,192,136492,1,8,0:0:0:0:
256,192,136642,1,0,0:0:0:0:
256,192,136792,1,0,0:0:0:0:
256,192,136942,1,0,0:0:0:0:
256,192,137092,1,8,0:0:0:0:
256,192,137242,1,8,0:0:0:0:
256,192,137317,1,8,0:0:0:0:
256,192,137392,1,0,0:0:0:0:
256,192,137542,1,0,0:0:0:0:
256,192,137692,1,8,0:0:0:0:
256,192,137842,1,0,0:0:0:0:
256,192,137992,1,0,0:0:0:0:
256,192,138142,1,0,0:0:0:0:
256,192,138217,1,0,0:0:0:0:
256,192,138292,1,8,0:0:0:0:
256,192,138442,1,12,0:0:0:0:
256,192,138742,1,0,0:0:0:0:
256,192,138817,1,0,0:0:0:0:
256,192,138892,1,8,0:0:0:0:
256,192,139042,1,4,0:0:0:0:
256,192,139342,1,0,0:0:0:0:
256,192,139417,1,0,0:0:0:0:
256,192,139492,1,8,0:0:0:0:
256,192,139642,1,12,0:0:0:0:
256,192,139942,1,0,0:0:0:0:
256,192,140092,1,8,0:0:0:0:
256,192,140242,1,0,0:0:0:0:
256,192,140392,1,0,0:0:0:0:
256,192,140467,1,8,0:0:0:0:
256,192,140542,1,8,0:0:0:0:
256,192,140617,1,8,0:0:0:0:
256,192,140692,1,0,0:0:0:0:
256,192,140742,1,8,0:0:0:0:
256,192,140792,1,8,0:0:0:0:
256,192,140842,1,0,0:0:0:0:
256,192,140992,1,8,0:0:0:0:
256,192,141042,1,0,0:0:0:0:
256,192,141092,1,0,0:0:0:0:
256,192,141142,1,8,0:0:0:0:
256,192,141292,1,8,0:0:0:0:
256,192,141367,1,0,0:0:0:0:
256,192,141442,1,8,0:0:0:0:
256,192,141517,1,8,0:0:0:0:
256,192,141592,1,0,0:0:0:0:
256,192,141667,1,8,0:0:0:0:
256,192,141742,1,8,0:0:0:0:
256,192,141817,1,0,0:0:0:0:
256,192,141892,1,8,0:0:0:0:
256,192,142042,1,8,0:0:0:0:
256,192,142342,1,0,0:0:0:0:
256,192,142492,1,8,0:0:0:0:
256,192,142567,1,0,0:0:0:0:
256,192,142642,1,0,0:0:0:0:
256,192,142717,1,0,0:0:0:0:
256,192,142792,1,8,0:0:0:0:
256,192,142942,1,0,0:0:0:0:
256,192,143017,1,0,0:0:0:0:
256,192,143092,1,8,0:0:0:0:
256,192,143242,1,12,0:0:0:0:
256,192,143542,1,0,0:0:0:0:
256,192,143617,1,0,0:0:0:0:
256,192,143692,1,8,0:0:0:0:
256,192,143842,1,4,0:0:0:0:
256,192,143992,1,8,0:0:0:0:
256,192,144142,1,0,0:0:0:0:
256,192,144217,1,0,0:0:0:0:
256,192,144292,1,8,0:0:0:0:
256,192,144442,1,0,0:0:0:0:
256,192,144592,1,12,0:0:0:0:
256,192,144892,1,8,0:0:0:0:
256,192,145042,1,0,0:0:0:0:
256,192,145192,1,0,0:0:0:0:
256,192,145342,1,0,0:0:0:0:
256,192,145492,1,8,0:0:0:0:
256,192,145642,1,8,0:0:0:0:
256,192,145942,1,0,0:0:0:0:
256,192,146017,1,0,0:0:0:0:
256,192,146092,1,8,0:0:0:0:
256,192,146242,1,0,0:0:0:0:
256,192,146392,1,0,0:0:0:0:
256,192,146542,1,0,0:0:0:0:
256,192,146692,1,8,0:0:0:0:
256,192,146767,1,0,0:0:0:0:
256,192,146842,1,8,0:0:0:0:
256,192,147142,1,0,0:0:0:0:
256,192,147292,1,8,0:0:0:0:
256,192,147367,1,8,0:0:0:0:
256,192,147442,1,0,0:0:0:0:
256,192,147517,1,0,0:0:0:0:
256,192,147592,1,8,0:0:0:0:
256,192,147742,1,0,0:0:0:0:
256,192,147892,1,8,0:0:0:0:
256,192,148042,1,12,0:0:0:0:
256,192,148342,1,0,0:0:0:0:
256,192,148417,1,0,0:0:0:0:
256,192,148492,1,8,0:0:0:0:
256,192,148642,1,4,0:0:0:0:
256,192,148792,1,0,0:0:0:0:
256,192,148867,1,8,0:0:0:0:
256,192,148942,1,0,0:0:0:0:
256,192,149017,1,8,0:0:0:0:
256,192,149092,1,8,0:0:0:0:
256,192,149167,1,8,0:0:0:0:
256,192,149242,1,0,0:0:0:0:
256,192,149392,1,8,0:0:0:0:
256,192,149467,1,8,0:0:0:0:
256,192,149542,1,0,0:0:0:0:
256,192,149617,1,0,0:0:0:0:
256,192,149692,1,8,0:0:0:0:
256,192,149767,1,8,0:0:0:0:
256,192,149842,1,0,0:0:0:0:
256,192,149917,1,0,0:0:0:0:
256,192,149992,1,8,0:0:0:0:
256,192,150067,1,0,0:0:0:0:
256,192,150142,1,0,0:0:0:0:
256,192,150217,1,0,0:0:0:0:
256,192,150292,1,8,0:0:0:0:
256,192,150367,1,0,0:0:0:0:
256,192,150442,1,8,0:0:0:0:
256,192,150517,1,8,0:0:0:0:
256,192,150592,1,0,0:0:0:0:
256,192,150667,1,0,0:0:0:0:
256,192,150742,1,8,0:0:0:0:
256,192,150817,1,8,0:0:0:0:
256,192,150892,1,0,0:0:0:0:
256,192,150967,1,0,0:0:0:0:
256,192,151042,1,8,0:0:0:0:
256,192,151117,1,8,0:0:0:0:
256,192,151192,1,0,0:0:0:0:
256,192,151267,1,0,0:0:0:0:
256,192,151342,1,8,0:0:0:0:
256,192,151417,1,0,0:0:0:0:
256,192,151492,1,0,0:0:0:0:
256,192,151567,1,0,0:0:0:0:
256,192,151642,1,8,0:0:0:0:
256,192,151717,1,8,0:0:0:0:
256,192,151792,1,0,0:0:0:0:
256,192,151867,1,0,0:0:0:0:
256,192,151942,1,8,0:0:0:0:
256,192,152017,1,8,0:0:0:0:
256,192,152092,1,0,0:0:0:0:
256,192,152167,1,0,0:0:0:0:
256,192,152242,1,8,0:0:0:0:
256,192,152317,1,8,0:0:0:0:
256,192,152392,1,8,0:0:0:0:
256,192,152467,1,8,0:0:0:0:
256,192,152542,1,0,0:0:0:0:
256,192,152617,1,0,0:0:0:0:
256,192,152692,1,8,0:0:0:0:
256,192,152842,1,4,0:0:0:0:
256,192,153142,1,4,0:0:0:0:
256,192,153442,1,4,0:0:0:0:
256,192,153742,1,0,0:0:0:0:
256,192,153817,1,8,0:0:0:0:
256,192,153892,1,8,0:0:0:0:
256,192,153967,1,8,0:0:0:0:
256,192,154042,1,0,0:0:0:0:
256,192,154208,1,12,0:0:0:0:
256,192,154508,1,0,0:0:0:0:
256,192,155108,1,0,0:0:0:0:
256,192,155708,1,0,0:0:0:0:
256,192,156308,1,0,0:0:0:0:
256,192,156458,1,0,0:0:0:0:
256,192,156758,1,0,0:0:0:0:
256,192,156908,1,0,0:0:0:0:
256,192,157508,1,0,0:0:0:0:
256,192,157808,1,0,0:0:0:0:
256,192,158108,1,0,0:0:0:0:
256,192,158708,1,0,0:0:0:0:
256,192,158858,1,0,0:0:0:0:
256,192,159158,1,0,0:0:0:0:
256,192,159308,1,0,0:0:0:0:
256,192,159908,1,0,0:0:0:0:
256,192,160508,1,0,0:0:0:0:
256,192,160958,1,0,0:0:0:0:
256,192,161108,1,0,0:0:0:0:
256,192,161258,1,0,0:0:0:0:
256,192,161558,1,0,0:0:0:0:
256,192,161708,1,0,0:0:0:0:
256,192,162308,1,0,0:0:0:0:
256,192,162608,1,0,0:0:0:0:
256,192,162908,1,0,0:0:0:0:
256,192,163208,1,8,0:0:0:0:
256,192,163358,1,8,0:0:0:0:
256,192,163508,1,0,0:0:0:0:
256,192,163658,1,0,0:0:0:0:
256,192,163958,1,0,0:0:0:0:
256,192,164108,1,0,0:0:0:0:
256,192,164708,1,0,0:0:0:0:
256,192,165308,1,0,0:0:0:0:
256,192,165908,1,0,0:0:0:0:
256,192,166058,1,0,0:0:0:0:
256,192,166358,1,0,0:0:0:0:
256,192,166508,1,0,0:0:0:0:
256,192,166958,1,0,0:0:0:0:
256,192,167108,1,0,0:0:0:0:
256,192,167408,1,0,0:0:0:0:
256,192,167558,1,0,0:0:0:0:
256,192,167708,1,0,0:0:0:0:
256,192,168308,1,0,0:0:0:0:
256,192,168458,1,0,0:0:0:0:
256,192,168758,1,0,0:0:0:0:
256,192,168908,1,0,0:0:0:0:
256,192,169358,1,0,0:0:0:0:
256,192,169508,1,0,0:0:0:0:
256,192,169958,1,0,0:0:0:0:
256,192,170108,1,8,0:0:0:0:
256,192,170401,1,0,0:0:0:0:
256,192,170546,1,0,0:0:0:0:
256,192,170692,1,4,0:0:0:0:
256,192,170992,1,8,0:0:0:0:
256,192,171067,1,0,0:0:0:0:
256,192,171142,1,8,0:0:0:0:
256,192,171217,1,0,0:0:0:0:
256,192,171292,1,8,0:0:0:0:
256,192,171367,1,0,0:0:0:0:
256,192,171442,1,0,0:0:0:0:
256,192,171517,1,0,0:0:0:0:
256,192,171592,1,8,0:0:0:0:
256,192,171667,1,0,0:0:0:0:
256,192,171742,1,8,0:0:0:0:
256,192,171817,1,8,0:0:0:0:
256,192,171892,1,0,0:0:0:0:
256,192,171967,1,0,0:0:0:0:
256,192,172042,1,8,0:0:0:0:
256,192,172117,1,0,0:0:0:0:
256,192,172192,1,8,0:0:0:0:
256,192,172267,1,8,0:0:0:0:
256,192,172342,1,0,0:0:0:0:
256,192,172417,1,0,0:0:0:0:
256,192,172492,1,8,0:0:0:0:
256,192,172567,1,8,0:0:0:0:
256,192,172642,1,8,0:0:0:0:
256,192,172717,1,8,0:0:0:0:
256,192,172792,1,8,0:0:0:0:
256,192,172892,1,8,0:0:0:0:
256,192,172992,1,8,0:0:0:0:
256,192,173092,1,0,0:0:0:0:
256,192,173192,1,0,0:0:0:0:
256,192,173292,1,0,0:0:0:0:
256,192,173392,1,12,0:0:0:0:
256,192,173542,1,0,0:0:0:0:
256,192,173692,1,8,0:0:0:0:
256,192,173842,1,0,0:0:0:0:
256,192,173992,1,8,0:0:0:0:
256,192,174067,1,8,0:0:0:0:
256,192,174142,1,0,0:0:0:0:
256,192,174217,1,8,0:0:0:0:
256,192,174292,1,8,0:0:0:0:
256,192,174367,1,0,0:0:0:0:
256,192,174442,1,8,0:0:0:0:
256,192,174592,1,8,0:0:0:0:
256,192,174742,1,0,0:0:0:0:
256,192,174892,1,8,0:0:0:0:
256,192,175042,1,0,0:0:0:0:
256,192,175192,1,8,0:0:0:0:
256,192,175267,1,0,0:0:0:0:
256,192,175342,1,0,0:0:0:0:
256,192,175417,1,8,0:0:0:0:
256,192,175492,1,0,0:0:0:0:
256,192,175567,1,0,0:0:0:0:
256,192,175642,1,8,0:0:0:0:
256,192,175792,1,8,0:0:0:0:
256,192,175942,1,0,0:0:0:0:
256,192,176017,1,0,0:0:0:0:
256,192,176092,1,8,0:0:0:0:
256,192,176242,1,8,0:0:0:0:
256,192,176392,1,0,0:0:0:0:
256,192,176542,1,0,0:0:0:0:
256,192,176617,1,0,0:0:0:0:
256,192,176692,1,8,0:0:0:0:
256,192,176842,1,8,0:0:0:0:
256,192,176992,1,0,0:0:0:0:
256,192,177142,1,0,0:0:0:0:
256,192,177292,1,8,0:0:0:0:
256,192,177442,1,0,0:0:0:0:
256,192,177592,1,8,0:0:0:0:
256,192,177667,1,0,0:0:0:0:
256,192,177742,1,0,0:0:0:0:
256,192,177817,1,0,0:0:0:0:
256,192,177892,1,8,0:0:0:0:
256,192,178042,1,0,0:0:0:0:
256,192,178192,1,12,0:0:0:0:
256,192,178342,1,0,0:0:0:0:
256,192,178492,1,8,0:0:0:0:
256,192,178642,1,0,0:0:0:0:
256,192,178792,1,8,0:0:0:0:
256,192,178867,1,8,0:0:0:0:
256,192,178942,1,0,0:0:0:0:
256,192,179017,1,8,0:0:0:0:
256,192,179092,1,8,0:0:0:0:
256,192,179167,1,0,0:0:0:0:
256,192,179242,1,8,0:0:0:0:
256,192,179392,1,8,0:0:0:0:
256,192,179542,1,0,0:0:0:0:
256,192,179617,1,8,0:0:0:0:
256,192,179692,1,0,0:0:0:0:
256,192,179767,1,0,0:0:0:0:
256,192,179842,1,8,0:0:0:0:
256,192,179992,1,8,0:0:0:0:
256,192,180142,1,0,0:0:0:0:
256,192,180217,1,8,0:0:0:0:
256,192,180292,1,8,0:0:0:0:
256,192,180367,1,0,0:0:0:0:
256,192,180442,1,8,0:0:0:0:
256,192,180592,1,8,0:0:0:0:
256,192,180667,1,8,0:0:0:0:
256,192,180742,1,0,0:0:0:0:
256,192,180817,1,0,0:0:0:0:
256,192,180892,1,8,0:0:0:0:
256,192,181042,1,0,0:0:0:0:
256,192,181117,1,0,0:0:0:0:
256,192,181192,1,8,0:0:0:0:
256,192,181267,1,8,0:0:0:0:
256,192,181342,1,0,0:0:0:0:
256,192,181492,1,8,0:0:0:0:
256,192,181642,1,8,0:0:0:0:
256,192,181717,1,8,0:0:0:0:
256,192,181792,1,8,0:0:0:0:
256,192,181867,1,8,0:0:0:0:
256,192,181942,1,0,0:0:0:0:
256,192,182092,1,8,0:0:0:0:
256,192,182167,1,8,0:0:0:0:
256,192,182242,1,8,0:0:0:0:
256,192,182317,1,0,0:0:0:0:
256,192,182392,1,8,0:0:0:0:
256,192,182467,1,8,0:0:0:0:
256,192,182542,1,8,0:0:0:0:
256,192,182617,1,0,0:0:0:0:
256,192,182692,1,8,0:0:0:0:
256,192,182992,1,12,0:0:0:0:
256,192,183142,1,0,0:0:0:0:
256,192,183292,1,8,0:0:0:0:
256,192,183442,1,0,0:0:0:0:
256,192,183592,1,8,0:0:0:0:
256,192,183667,1,8,0:0:0:0:
256,192,183742,1,0,0:0:0:0:
256,192,183817,1,8,0:0:0:0:
256,192,183892,1,8,0:0:0:0:
256,192,183967,1,0,0:0:0:0:
256,192,184042,1,8,0:0:0:0:
256,192,184192,1,8,0:0:0:0:
256,192,184342,1,0,0:0:0:0:
256,192,184492,1,8,0:0:0:0:
256,192,184642,1,0,0:0:0:0:
256,192,184792,1,8,0:0:0:0:
256,192,184867,1,0,0:0:0:0:
256,192,184942,1,0,0:0:0:0:
256,192,185017,1,8,0:0:0:0:
256,192,185092,1,0,0:0:0:0:
256,192,185167,1,0,0:0:0:0:
256,192,185242,1,8,0:0:0:0:
256,192,185392,1,8,0:0:0:0:
256,192,185542,1,0,0:0:0:0:
256,192,185617,1,0,0:0:0:0:
256,192,185692,1,8,0:0:0:0:
256,192,185842,1,8,0:0:0:0:
256,192,185992,1,0,0:0:0:0:
256,192,186142,1,0,0:0:0:0:
256,192,186217,1,0,0:0:0:0:
256,192,186292,1,8,0:0:0:0:
256,192,186442,1,8,0:0:0:0:
256,192,186592,1,0,0:0:0:0:
256,192,186742,1,0,0:0:0:0:
256,192,186892,1,8,0:0:0:0:
256,192,187042,1,8,0:0:0:0:
256,192,187192,1,0,0:0:0:0:
256,192,187292,1,0,0:0:0:0:
256,192,187392,1,0,0:0:0:0:
256,192,187492,1,12,0:0:0:0:
256,192,187792,1,12,0:0:0:0:
256,192,187942,1,0,0:0:0:0:
256,192,188092,1,8,0:0:0:0:
256,192,188242,1,0,0:0:0:0:
256,192,188392,1,8,0:0:0:0:
256,192,188467,1,8,0:0:0:0:
256,192,188542,1,0,0:0:0:0:
256,192,188617,1,8,0:0:0:0:
256,192,188692,1,8,0:0:0:0:
256,192,188767,1,0,0:0:0:0:
256,192,188842,1,8,0:0:0:0:
256,192,188992,1,8,0:0:0:0:
256,192,189142,1,0,0:0:0:0:
256,192,189217,1,8,0:0:0:0:
256,192,189292,1,0,0:0:0:0:
256,192,189367,1,0,0:0:0:0:
256,192,189442,1,8,0:0:0:0:
256,192,189592,1,8,0:0:0:0:
256,192,189742,1,0,0:0:0:0:
256,192,189817,1,8,0:0:0:0:
256,192,189892,1,8,0:0:0:0:
256,192,189967,1,0,0:0:0:0:
256,192,190042,1,8,0:0:0:0:
256,192,190192,1,8,0:0:0:0:
256,192,190292,1,8,0:0:0:0:
256,192,190392,1,8,0:0:0:0:
256,192,190492,1,0,0:0:0:0:
256,192,190592,1,0,0:0:0:0:
256,192,190692,1,0,0:0:0:0:
256,192,190792,1,8,0:0:0:0:
256,192,190892,1,8,0:0:0:0:
256,192,190992,1,8,0:0:0:0:
256,192,191092,1,0,0:0:0:0:
256,192,191242,1,12,0:0:0:0:
256,192,191542,1,4,0:0:0:0:
256,192,191842,1,12,0:0:0:0:
256,192,192142,1,0,0:0:0:0:
256,192,192192,1,0,0:0:0:0:
256,192,192242,1,0,0:0:0:0:
256,192,192292,1,8,0:0:0:0:
256,192,192592,1,12,0:0:0:0:
256,192,192742,1,0,0:0:0:0:
256,192,192892,1,8,0:0:0:0:
256,192,193042,1,0,0:0:0:0:
256,192,193192,1,8,0:0:0:0:
256,192,193267,1,8,0:0:0:0:
256,192,193342,1,0,0:0:0:0:
256,192,193417,1,8,0:0:0:0:
256,192,193492,1,8,0:0:0:0:
256,192,193567,1,0,0:0:0:0:
256,192,193642,1,8,0:0:0:0:
256,192,193792,1,8,0:0:0:0:
256,192,193942,1,0,0:0:0:0:
256,192,194092,1,8,0:0:0:0:
256,192,194242,1,0,0:0:0:0:
256,192,194392,1,8,0:0:0:0:
256,192,194467,1,0,0:0:0:0:
256,192,194542,1,0,0:0:0:0:
256,192,194617,1,8,0:0:0:0:
256,192,194692,1,0,0:0:0:0:
256,192,194767,1,0,0:0:0:0:
256,192,194842,1,8,0:0:0:0:
256,192,194992,1,8,0:0:0:0:
256,192,195142,1,0,0:0:0:0:
256,192,195217,1,0,0:0:0:0:
256,192,195292,1,8,0:0:0:0:
256,192,195442,1,8,0:0:0:0:
256,192,195592,1,0,0:0:0:0:
256,192,195742,1,0,0:0:0:0:
256,192,195817,1,0,0:0:0:0:
256,192,195892,1,8,0:0:0:0:
256,192,196042,1,8,0:0:0:0:
256,192,196192,1,0,0:0:0:0:
256,192,196342,1,0,0:0:0:0:
256,192,196492,1,8,0:0:0:0:
256,192,196642,1,0,0:0:0:0:
256,192,196792,1,8,0:0:0:0:
256,192,196867,1,8,0:0:0:0:
256,192,196942,1,0,0:0:0:0:
256,192,197017,1,0,0:0:0:0:
256,192,197092,1,8,0:0:0:0:
256,192,197242,1,0,0:0:0:0:
256,192,197392,1,12,0:0:0:0:
256,192,197542,1,0,0:0:0:0:
256,192,197692,1,8,0:0:0:0:
256,192,197842,1,0,0:0:0:0:
256,192,197992,1,8,0:0:0:0:
256,192,198067,1,8,0:0:0:0:
256,192,198142,1,0,0:0:0:0:
256,192,198217,1,8,0:0:0:0:
256,192,198292,1,8,0:0:0:0:
256,192,198367,1,0,0:0:0:0:
256,192,198442,1,8,0:0:0:0:
256,192,198592,1,8,0:0:0:0:
256,192,198742,1,0,0:0:0:0:
256,192,198817,1,8,0:0:0:0:
256,192,198892,1,0,0:0:0:0:
256,192,198967,1,0,0:0:0:0:
256,192,199042,1,8,0:0:0:0:
256,192,199192,1,8,0:0:0:0:
256,192,199342,1,0,0:0:0:0:
256,192,199417,1,8,0:0:0:0:
256,192,199492,1,8,0:0:0:0:
256,192,199567,1,0,0:0:0:0:
256,192,199642,1,8,0:0:0:0:
256,192,199792,1,8,0:0:0:0:
256,192,199867,1,8,0:0:0:0:
256,192,199942,1,0,0:0:0:0:
256,192,200017,1,0,0:0:0:0:
256,192,200092,1,8,0:0:0:0:
256,192,200242,1,0,0:0:0:0:
256,192,200317,1,0,0:0:0:0:
256,192,200392,1,0,0:0:0:0:
256,192,200467,1,0,0:0:0:0:
256,192,200542,1,8,0:0:0:0:
256,192,200692,1,0,0:0:0:0:
256,192,200767,1,0,0:0:0:0:
256,192,200842,1,8,0:0:0:0:
256,192,200917,1,8,0:0:0:0:
256,192,200992,1,0,0:0:0:0:
256,192,201067,1,0,0:0:0:0:
256,192,201142,1,8,0:0:0:0:
256,192,201292,1,0,0:0:0:0:
256,192,201367,1,0,0:0:0:0:
256,192,201442,1,8,0:0:0:0:
256,192,201592,1,0,0:0:0:0:
256,192,201667,1,0,0:0:0:0:
256,192,201742,1,8,0:0:0:0:
256,192,201892,1,0,0:0:0:0:
256,192,202042,1,8,0:0:0:0:
256,192,202192,1,12,0:0:0:0:
256,192,202342,1,0,0:0:0:0:
256,192,202492,1,8,0:0:0:0:
256,192,202642,1,0,0:0:0:0:
256,192,202792,1,8,0:0:0:0:
256,192,202867,1,8,0:0:0:0:
256,192,202942,1,0,0:0:0:0:
256,192,203017,1,8,0:0:0:0:
256,192,203092,1,8,0:0:0:0:
256,192,203167,1,0,0:0:0:0:
256,192,203242,1,8,0:0:0:0:
256,192,203392,1,8,0:0:0:0:
256,192,203542,1,0,0:0:0:0:
256,192,203692,1,8,0:0:0:0:
256,192,203842,1,0,0:0:0:0:
256,192,203992,1,8,0:0:0:0:
256,192,204067,1,0,0:0:0:0:
256,192,204142,1,0,0:0:0:0:
256,192,204217,1,8,0:0:0:0:
256,192,204292,1,0,0:0:0:0:
256,192,204367,1,0,0:0:0:0:
256,192,204442,1,8,0:0:0:0:
256,192,204592,1,8,0:0:0:0:
256,192,204742,1,0,0:0:0:0:
256,192,204817,1,0,0:0:0:0:
256,192,204892,1,8,0:0:0:0:
256,192,205042,1,8,0:0:0:0:
256,192,205192,1,0,0:0:0:0:
256,192,205342,1,0,0:0:0:0:
256,192,205417,1,0,0:0:0:0:
256,192,205492,1,8,0:0:0:0:
256,192,205642,1,8,0:0:0:0:
256,192,205792,1,0,0:0:0:0:
256,192,205942,1,0,0:0:0:0:
256,192,206092,1,8,0:0:0:0:
256,192,206242,1,0,0:0:0:0:
256,192,206317,1,0,0:0:0:0:
256,192,206392,1,8,0:0:0:0:
256,192,206542,1,4,0:0:0:0:
256,192,206692,1,8,0:0:0:0:
256,192,206842,1,4,0:0:0:0:
256,192,206992,1,12,0:0:0:0:
256,192,207142,1,0,0:0:0:0:
256,192,207292,1,8,0:0:0:0:
256,192,207442,1,0,0:0:0:0:
256,192,207592,1,8,0:0:0:0:
256,192,207667,1,8,0:0:0:0:
256,192,207742,1,0,0:0:0:0:
256,192,207817,1,8,0:0:0:0:
256,192,207892,1,8,0:0:0:0:
256,192,207967,1,0,0:0:0:0:
256,192,208042,1,8,0:0:0:0:
256,192,208192,1,8,0:0:0:0:
256,192,208342,1,0,0:0:0:0:
256,192,208417,1,8,0:0:0:0:
256,192,208492,1,0,0:0:0:0:
256,192,208567,1,0,0:0:0:0:
256,192,208642,1,8,0:0:0:0:
256,192,208792,1,8,0:0:0:0:
256,192,208867,1,0,0:0:0:0:
256,192,208942,1,0,0:0:0:0:
256,192,209017,1,8,0:0:0:0:
256,192,209092,1,8,0:0:0:0:
256,192,209242,1,0,0:0:0:0:
256,192,209392,1,12,0:0:0:0:
256,192,209542,1,8,0:0:0:0:
256,192,209617,1,0,0:0:0:0:
256,192,209692,1,0,0:0:0:0:
256,192,209767,1,0,0:0:0:0:
256,192,209842,1,8,0:0:0:0:
256,192,209992,1,8,0:0:0:0:
256,192,210067,1,0,0:0:0:0:
256,192,210142,1,0,0:0:0:0:
256,192,210217,1,0,0:0:0:0:
256,192,210292,1,8,0:0:0:0:
256,192,210442,1,0,0:0:0:0:
256,192,210517,1,8,0:0:0:0:
256,192,210592,1,8,0:0:0:0:
256,192,210667,1,8,0:0:0:0:
256,192,210742,1,0,0:0:0:0:
256,192,210817,1,0,0:0:0:0:
256,192,210892,1,8,0:0:0:0:
256,192,210967,1,8,0:0:0:0:
256,192,211042,1,0,0:0:0:0:
256,192,211117,1,0,0:0:0:0:
256,192,211192,1,8,0:0:0:0:
256,192,211342,1,8,0:0:0:0:
256,192,211492,1,0,0:0:0:0:
256,192,211642,1,0,0:0:0:0:
256,192,211792,1,12,0:0:0:0:
256,192,211942,1,0,0:0:0:0:
256,192,212092,1,8,0:0:0:0:
256,192,212167,1,0,0:0:0:0:
256,192,212242,1,0,0:0:0:0:
256,192,212392,1,0,0:0:0:0:
256,192,212542,1,8,0:0:0:0:
256,192,212692,1,8,0:0:0:0:
256,192,212842,1,0,0:0:0:0:
256,192,212992,1,8,0:0:0:0:
256,192,213067,1,0,0:0:0:0:
256,192,213142,1,0,0:0:0:0:
256,192,213292,1,8,0:0:0:0:
256,192,213442,1,8,0:0:0:0:
256,192,213592,1,0,0:0:0:0:
256,192,213667,1,0,0:0:0:0:
256,192,213742,1,8,0:0:0:0:
256,192,213892,1,8,0:0:0:0:
256,192,213967,1,8,0:0:0:0:
256,192,214042,1,0,0:0:0:0:
256,192,214192,1,0,0:0:0:0:
256,192,214342,1,0,0:0:0:0:
256,192,214492,1,8,0:0:0:0:
256,192,214567,1,0,0:0:0:0:
256,192,214642,1,0,0:0:0:0:
256,192,214792,1,0,0:0:0:0:
256,192,214942,1,8,0:0:0:0:
256,192,215092,1,8,0:0:0:0:
256,192,215242,1,0,0:0:0:0:
256,192,215392,1,8,0:0:0:0:
256,192,215467,1,0,0:0:0:0:
256,192,215542,1,0,0:0:0:0:
256,192,215692,1,8,0:0:0:0:
256,192,215842,1,8,0:0:0:0:
256,192,215917,1,8,0:0:0:0:
256,192,215992,1,0,0:0:0:0:
256,192,216067,1,0,0:0:0:0:
256,192,216142,1,8,0:0:0:0:
256,192,216292,1,8,0:0:0:0:
256,192,216592,1,12,0:0:0:0:
256,192,216742,1,0,0:0:0:0:
256,192,216892,1,8,0:0:0:0:
256,192,216967,1,0,0:0:0:0:
256,192,217042,1,0,0:0:0:0:
256,192,217192,1,0,0:0:0:0:
256,192,217342,1,8,0:0:0:0:
256,192,217492,1,8,0:0:0:0:
256,192,217642,1,0,0:0:0:0:
256,192,217792,1,8,0:0:0:0:
256,192,217867,1,0,0:0:0:0:
256,192,217942,1,0,0:0:0:0:
256,192,218092,1,8,0:0:0:0:
256,192,218242,1,0,0:0:0:0:
256,192,218317,1,8,0:0:0:0:
256,192,218392,1,8,0:0:0:0:
256,192,218467,1,8,0:0:0:0:
256,192,218542,1,0,0:0:0:0:
256,192,218692,1,8,0:0:0:0:
256,192,218842,1,8,0:0:0:0:
256,192,218992,1,0,0:0:0:0:
256,192,219142,1,0,0:0:0:0:
256,192,219292,1,8,0:0:0:0:
256,192,219367,1,0,0:0:0:0:
256,192,219442,1,0,0:0:0:0:
256,192,219592,1,0,0:0:0:0:
256,192,219742,1,8,0:0:0:0:
256,192,219892,1,8,0:0:0:0:
256,192,220042,1,0,0:0:0:0:
256,192,220192,1,8,0:0:0:0:
256,192,220267,1,0,0:0:0:0:
256,192,220342,1,0,0:0:0:0:
256,192,220492,1,8,0:0:0:0:
256,192,220642,1,8,0:0:0:0:
256,192,220717,1,8,0:0:0:0:
256,192,220792,1,0,0:0:0:0:
256,192,220942,1,0,0:0:0:0:
256,192,220992,1,0,0:0:0:0:
256,192,221042,1,0,0:0:0:0:
256,192,221092,1,8,0:0:0:0:
256,192,221392,1,8,0:0:0:0:
256,192,221492,1,0,0:0:0:0:
256,192,221592,1,0,0:0:0:0:
256,192,221692,1,8,0:0:0:0:
256,192,221792,1,8,0:0:0:0:
256,192,221892,1,0,0:0:0:0:
256,192,221992,1,8,0:0:0:0:
256,192,222092,1,0,0:0:0:0:
256,192,222192,1,8,0:0:0:0:
256,192,222292,1,8,0:0:0:0:
256,192,222392,1,0,0:0:0:0:
256,192,222492,1,0,0:0:0:0:
256,192,222592,1,8,0:0:0:0:
256,192,222692,1,8,0:0:0:0:
256,192,222792,1,0,0:0:0:0:
256,192,222892,1,8,0:0:0:0:
256,192,222992,1,0,0:0:0:0:
256,192,223092,1,8,0:0:0:0:
256,192,223192,1,8,0:0:0:0:
256,192,223292,1,8,0:0:0:0:
256,192,223392,1,8,0:0:0:0:
256,192,223492,1,0,0:0:0:0:
256,192,223592,1,0,0:0:0:0:
256,192,223692,1,0,0:0:0:0:
256,192,223792,1,12,0:0:0:0:
256,192,223992,1,0,0:0:0:0:
256,192,224092,1,8,0:0:0:0:
256,192,224192,1,8,0:0:0:0:
256,192,224292,1,0,0:0:0:0:
256,192,224392,1,8,0:0:0:0:
256,192,224492,1,0,0:0:0:0:
256,192,224592,1,8,0:0:0:0:
256,192,224692,1,8,0:0:0:0:
256,192,224792,1,0,0:0:0:0:
256,192,224892,1,0,0:0:0:0:
256,192,224992,1,8,0:0:0:0:
256,192,225092,1,8,0:0:0:0:
256,192,225192,1,0,0:0:0:0:
256,192,225292,1,8,0:0:0:0:
256,192,225392,1,0,0:0:0:0:
256,192,225492,1,0,0:0:0:0:
256,192,225592,1,8,0:0:0:0:
256,192,225742,1,0,0:0:0:0:
256,192,225892,1,0,0:0:0:0:
256,192,226042,1,8,0:0:0:0:
256,192,226192,1,12,0:0:0:0:
256,192,226342,1,0,0:0:0:0:
256,192,226492,1,8,0:0:0:0:
256,192,226567,1,8,0:0:0:0:
256,192,226642,1,0,0:0:0:0:
256,192,226792,1,0,0:0:0:0:
256,192,226942,1,8,0:0:0:0:
256,192,227017,1,0,0:0:0:0:
256,192,227092,1,8,0:0:0:0:
256,192,227242,1,0,0:0:0:0:
256,192,227392,1,8,0:0:0:0:
256,192,227467,1,8,0:0:0:0:
256,192,227542,1,0,0:0:0:0:
256,192,227692,1,8,0:0:0:0:
256,192,227842,1,8,0:0:0:0:
256,192,227917,1,8,0:0:0:0:
256,192,227992,1,8,0:0:0:0:
256,192,228067,1,8,0:0:0:0:
256,192,228142,1,0,0:0:0:0:
256,192,228292,1,12,0:0:0:0:
256,192,228442,1,0,0:0:0:0:
256,192,228592,1,8,0:0:0:0:
256,192,228667,1,0,0:0:0:0:
256,192,228742,1,0,0:0:0:0:
256,192,228817,1,0,0:0:0:0:
256,192,228892,1,8,0:0:0:0:
256,192,228967,1,8,0:0:0:0:
256,192,229042,1,0,0:0:0:0:
256,192,229117,1,0,0:0:0:0:
256,192,229192,1,8,0:0:0:0:
256,192,229267,1,0,0:0:0:0:
256,192,229342,1,8,0:0:0:0:
256,192,229417,1,8,0:0:0:0:
256,192,229492,1,0,0:0:0:0:
256,192,229642,1,4,0:0:0:0:
256,192,229942,1,8,0:0:0:0:
256,192,230017,1,8,0:0:0:0:
256,192,230092,1,0,0:0:0:0:
256,192,230242,1,8,0:0:0:0:
256,192,230392,1,8,0:0:0:0:
256,192,230542,1,0,0:0:0:0:
256,192,230692,1,0,0:0:0:0:
256,192,230842,1,0,0:0:0:0:
256,192,230992,1,8,0:0:0:0:
256,192,231067,1,0,0:0:0:0:
256,192,231142,1,8,0:0:0:0:
256,192,231292,1,8,0:0:0:0:
256,192,231442,1,0,0:0:0:0:
256,192,231517,1,0,0:0:0:0:
256,192,231592,1,0,0:0:0:0:
256,192,231742,1,0,0:0:0:0:
256,192,231892,1,4,0:0:0:0:
256,192,232042,1,4,0:0:0:0:
256,192,232192,1,12,0:0:0:0:
256,192,232492,1,0,0:0:0:0:
256,192,232792,1,0,0:0:0:0:
256,192,233092,1,0,0:0:0:0:
256,192,233392,1,0,0:0:0:0:
256,192,233542,1,8,0:0:0:0:
256,192,233692,1,0,0:0:0:0:
256,192,233842,1,8,0:0:0:0:
256,192,233992,1,0,0:0:0:0:
256,192,234067,1,0,0:0:0:0:
256,192,234142,1,0,0:0:0:0:
256,192,234217,1,0,0:0:0:0:
256,192,234292,1,8,0:0:0:0:
256,192,234592,1,8,0:0:0:0:
256,192,234667,1,8,0:0:0:0:
256,192,234742,1,0,0:0:0:0:
256,192,234817,1,0,0:0:0:0:
256,192,234892,1,0,0:0:0:0:
256,192,234967,1,0,0:0:0:0:
256,192,235042,1,8,0:0:0:0:
256,192,235117,1,8,0:0:0:0:
256,192,235192,1,0,0:0:0:0:
256,192,235267,1,0,0:0:0:0:
256,192,235342,1,0,0:0:0:0:
256,192,235417,1,0,0:0:0:0:
256,192,235492,1,8,0:0:0:0:
256,192,235642,1,12,0:0:0:0:
