osu file format v14

[General]
AudioFilename: audio.mp3
AudioLeadIn: 0
PreviewTime: 289992
Countdown: 0
SampleSet: Drum
StackLeniency: 0.4
Mode: 0
LetterboxInBreaks: 0
EpilepsyWarning: 1
WidescreenStoryboard: 1

[Editor]
DistanceSpacing: 0.6
BeatDivisor: 4
GridSize: 4
TimelineZoom: 3.299999

[Metadata]
Title:Kanjou no Matenrou ~ World's End
TitleUnicode:感情の魔天楼 ~ World's End
Artist:Demetori
ArtistUnicode:Demetori
Creator:Sayuka
Version:Marathon
Source:東方星蓮船 ~ Undefined Fantastic Object.
Tags:東方Project Touhou Emotional Skyscraper Cosmic Mind 曼衍珠汝華 Manenjushaka Nada Upasana Pundarika Byakuren Hijiri instrumental metal japanese video game ZUN Team Shanghai Alice doujin julie werhakon gloryhammer joestarrr69
BeatmapID:3849893
BeatmapSetID:1871215

[Difficulty]
HPDrainRate:5
CircleSize:4
OverallDifficulty:9.3
ApproachRate:9.3
SliderMultiplier:2
SliderTickRate:1

[Events]
//Background and Video events
0,0,"worldend.jpg",0,0
//Break Periods
//Storyboard Layer 0 (Background)
//Storyboard Layer 1 (Fail)
//Storyboard Layer 2 (Pass)
//Storyboard Layer 3 (Foreground)
//Storyboard Layer 4 (Overlay)
//Storyboard Sound Samples

[TimingPoints]
52352,337.078651685393,4,3,1,70,1,0
72576,-100,4,3,10,70,0,0
72660,-100,4,3,7,70,0,0
72745,-100,4,3,8,70,0,0
72829,-100,4,3,9,70,0,0
72913,-100,4,3,10,70,0,0
72998,-100,4,3,1,70,0,0
73082,-100,4,3,7,70,0,0
73166,-100,4,3,8,70,0,0
73250,-100,4,3,9,70,0,0
73335,-100,4,3,10,70,0,0
73419,-100,4,3,1,70,0,0
73503,-100,4,3,7,70,0,0
73587,-100,4,3,8,70,0,0
73672,-100,4,3,9,70,0,0
73756,-100,4,3,10,70,0,0
73841,-100,4,3,1,70,0,0
73925,-100,4,3,1,70,0,0
74037,-100,4,3,1,70,0,0
74149,-100,4,3,8,70,0,0
74262,-100,4,3,8,70,0,0
74374,-100,4,3,9,70,0,0
74486,-100,4,3,9,70,0,0
74767,-100,4,3,1,70,0,0
74936,-285.714285714286,4,3,1,70,0,0
75273,-90.9090909090909,4,3,1,70,0,0
85554,-222.222222222222,4,3,1,70,0,0
85891,-222.222222222222,4,3,1,70,0,0
86059,-90.9090909090909,4,3,1,70,0,0
96003,-90.9090909090909,4,3,1,70,0,0
96172,-90.9090909090909,4,3,7,70,0,0
96340,-90.9090909090909,4,3,8,70,0,0
96509,-90.9090909090909,4,3,9,70,0,0
96677,-90.9090909090909,4,3,1,70,0,0
96846,-100,4,3,1,70,0,0
117155,-100,4,3,7,70,0,0
117239,-100,4,3,8,70,0,0
117323,-100,4,3,9,70,0,0
117408,-100,4,3,7,70,0,0
117520,-100,4,3,8,70,0,0
117632,-100,4,3,1,70,0,0
117829,-100,4,3,8,70,0,0
117913,-100,4,3,1,70,0,0
117998,-100,4,3,8,70,0,0
118082,-100,4,3,1,70,0,0
118419,-90.9090909090909,4,3,1,70,0,0
128700,-285.714285714286,4,3,1,70,0,0
129205,-90.9090909090909,4,3,1,70,0,0
137464,-100,4,3,1,70,0,0
139037,-100,4,3,7,70,0,0
139093,-100,4,3,8,70,0,0
139149,-100,4,3,9,70,0,0
139318,-100,4,3,1,70,0,0
139655,-100,4,3,7,70,0,0
139823,-100,4,3,8,70,0,0
139992,-111.111111111111,4,3,1,70,0,0
147913,-111.111111111111,4,3,1,70,0,0
147998,-111.111111111111,4,3,1,70,0,0
148082,-111.111111111111,4,3,1,70,0,0
157689,-111.111111111111,4,3,7,70,0,0
157857,-111.111111111111,4,3,8,70,0,0
158026,-111.111111111111,4,3,1,70,0,0
158194,-111.111111111111,4,3,7,70,0,0
158362,-111.111111111111,4,3,8,70,0,0
158531,-111.111111111111,4,3,1,70,0,0
158700,-111.111111111111,4,3,7,70,0,0
158868,-111.111111111111,4,3,1,70,0,0
160891,337.078651685393,4,3,1,70,1,0
160891,-100,4,3,1,70,0,1
179767,-100,4,3,1,70,0,0
181116,-100,4,3,1,70,0,0
181200,-100,4,3,1,70,0,0
181453,-100,4,3,1,70,0,0
181537,-100,4,3,7,70,0,0
181789,-100,4,3,8,70,0,0
182127,-100,4,3,10,70,0,0
182464,-90.9090909090909,4,3,1,70,0,1
202688,-90.9090909090909,4,3,1,70,0,1
203026,-90.9090909090909,4,3,1,70,0,1
203363,-90.9090909090909,4,3,1,70,0,1
203531,-90.9090909090909,4,3,8,70,0,1
203699,-90.9090909090909,4,3,9,70,0,1
203868,-90.9090909090909,4,3,10,70,0,1
204037,-125,4,3,1,70,0,0
209430,-125,4,3,1,70,0,0
214149,-125,4,3,1,70,0,0
214317,-125,4,3,7,70,0,0
214486,-125,4,3,8,70,0,0
214655,-125,4,3,9,70,0,0
214823,-125,4,3,1,70,0,0
224346,-125,4,3,7,70,0,0
224430,-125,4,3,8,70,0,0
224514,-125,4,3,1,70,0,0
224598,-125,4,3,8,70,0,0
224682,-125,4,3,9,70,0,0
224766,-125,4,3,1,70,0,0
224935,-125,4,3,7,70,0,0
225048,-125,4,3,8,70,0,0
225160,-125,4,3,9,70,0,0
225273,-125,4,3,1,70,0,0
225610,-83.3333333333333,4,3,1,70,0,0
245835,-83.3333333333333,4,3,1,70,0,0
246172,-83.3333333333333,4,3,1,70,0,0
246424,-83.3333333333333,4,3,7,70,0,0
246509,-83.3333333333333,4,3,7,70,0,0
246593,-83.3333333333333,4,3,8,70,0,0
246762,-83.3333333333333,4,3,9,70,0,0
246846,-83.3333333333333,4,3,9,70,0,0
247014,-83.3333333333333,4,3,10,70,0,0
247183,-83.3333333333333,4,3,1,70,0,1
256621,-83.3333333333333,4,3,1,70,0,1
256705,-83.3333333333333,4,3,7,70,0,1
256958,-83.3333333333333,4,3,8,70,0,1
257295,-83.3333333333333,4,3,9,70,0,1
257632,-83.3333333333333,4,3,10,70,0,1
257969,-83.3333333333333,4,3,1,70,0,1
268756,-125,4,3,1,70,0,0
273475,-125,4,3,7,70,0,0
273812,-125,4,3,8,70,0,0
274149,-125,4,3,1,70,0,0
283924,-125,4,3,7,70,0,0
284093,-125,4,3,8,70,0,0
284261,-125,4,3,1,70,0,0
288307,337.078651685393,5,3,1,70,1,0
289992,337.078651685393,4,2,1,70,1,0
289992,-133.333333333333,4,2,1,70,0,0
290076,-133.333333333333,4,2,1,5,0,0
291003,-133.333333333333,4,2,1,70,0,0
291424,-133.333333333333,4,2,1,5,0,0
292351,-133.333333333333,4,2,10,70,0,0
292688,-133.333333333333,4,2,1,70,0,0
292772,-133.333333333333,4,2,1,5,0,0
293868,-133.333333333333,4,2,1,5,0,0
294036,-133.333333333333,4,3,1,70,0,0
294121,-133.333333333333,4,3,7,70,0,0
294205,-133.333333333333,4,3,1,70,0,0
294374,-133.333333333333,4,3,8,70,0,0
294542,-133.333333333333,4,3,1,70,0,0
294711,-133.333333333333,4,3,1,70,0,0
295048,-133.333333333333,4,3,1,70,0,0
297744,-133.333333333333,4,3,8,70,0,0
297913,-133.333333333333,4,3,9,70,0,0
298081,-133.333333333333,4,3,1,70,0,0
298756,-133.333333333333,4,3,10,70,0,0
299261,-133.333333333333,4,3,1,70,0,0
300778,-100,4,3,1,70,0,1
319654,-100,4,3,1,70,0,0
321003,-100,4,3,1,70,0,0
321340,-100,4,3,1,70,0,0
321677,-100,4,3,7,70,0,0
321845,-100,4,3,8,70,0,0
322014,-100,4,3,9,70,0,0
322351,-90.9090909090909,4,3,1,70,0,1
341227,-90.9090909090909,4,3,1,70,0,0
342913,-90.9090909090909,4,3,7,70,0,0
342997,-90.9090909090909,4,3,1,70,0,0
343334,-90.9090909090909,4,3,8,70,0,0
343587,-90.9090909090909,4,3,9,70,0,0
343756,-90.9090909090909,4,3,1,70,0,0
343924,-90.9090909090909,4,3,1,70,0,1
363812,-90.9090909090909,4,3,1,70,0,1
364149,-90.9090909090909,4,3,1,70,0,1
364317,-90.9090909090909,4,3,7,70,0,1
364486,-90.9090909090909,4,3,8,70,0,1
364654,-90.9090909090909,4,3,1,70,0,1
364823,-90.9090909090909,4,3,1,70,0,1
364991,-90.9090909090909,4,3,10,70,0,1
365160,-333.333333333333,4,3,1,70,0,1
365413,-333.333333333333,4,3,1,5,0,1
365497,-100,4,3,1,70,0,0
373250,-100,4,3,1,70,0,0
373587,-100,4,3,1,70,0,0
374935,-100,4,3,7,70,0,0
375104,-100,4,3,8,70,0,0
375272,-100,4,3,1,70,0,0
375357,-100,4,3,8,70,0,0
375834,-100,4,3,7,70,0,0
376059,-100,4,3,8,70,0,0
376284,-133.333333333333,4,3,1,70,0,0
376368,-133.333333333333,4,3,1,5,0,0
377295,-133.333333333333,4,3,1,70,0,0
377716,-133.333333333333,4,3,1,5,0,0
378306,-133.333333333333,4,3,1,70,0,0
379486,-133.333333333333,4,3,7,70,0,0
379991,-133.333333333333,4,3,8,70,0,0
380497,-133.333333333333,4,3,9,70,0,0
381003,-133.333333333333,4,3,1,70,0,0
381340,-133.333333333333,4,3,10,70,0,0
381677,-100,4,3,1,70,0,0
402576,-100,4,3,9,70,0,0
402913,-100,4,3,1,70,0,0
403250,-100,4,3,1,70,0,0
421452,-100,4,3,1,70,0,0
421536,-100,4,3,9,70,0,0
421789,-100,4,3,1,70,0,0
422126,-100,4,3,1,70,0,0
424823,-100,4,3,10,70,0,0
424907,-100,4,3,7,70,0,0
424991,-100,4,3,8,70,0,0
425076,-100,4,3,9,70,0,0
425160,-100,4,3,10,70,0,0
425244,-100,4,3,1,70,0,0
425329,-100,4,3,10,70,0,0
425413,-100,4,3,7,70,0,0
425497,-100,4,3,8,70,0,0
425582,-100,4,3,9,70,0,0
425666,-100,4,3,10,70,0,0
425750,-100,4,3,1,70,0,0
425834,-100,4,3,10,70,0,0
425918,-100,4,3,7,70,0,0
426003,-100,4,3,8,70,0,0
426087,-100,4,3,9,70,0,0
426171,-100,4,3,10,70,0,0
426256,-100,4,3,7,70,0,0
426340,-100,4,3,8,70,0,0
426424,-100,4,3,9,70,0,0
426508,-100,4,3,10,70,0,0
426593,-100,4,3,1,70,0,0
426677,-100,4,3,10,70,0,0
426761,-100,4,3,7,70,0,0
426845,-100,4,3,8,70,0,0
426930,-100,4,3,9,70,0,0
427014,-100,4,3,10,70,0,0
427098,-100,4,3,1,70,0,0
427183,-100,4,3,10,70,0,0
427267,-100,4,3,7,70,0,0
427351,-100,4,3,8,70,0,0
427436,-100,4,3,9,70,0,0
427520,-100,4,3,10,70,0,0

[Colours]
Combo1 : 155,52,92
Combo2 : 235,146,125

[HitObjects]
304,256,52352,6,0,B|331:240|331:240|429:261,1,100,4|10,0:0|0:0,0:0:0:0:
419,242,52604,1,0,0:0:0:0:
419,242,52689,1,0,0:0:0:0:
467,154,52857,1,10,0:0:0:0:
323,114,53026,5,0,0:0:0:0:
283,119,53110,1,0,0:0:0:0:
243,124,53194,1,10,0:0:0:0:
203,129,53278,1,0,0:0:0:0:
163,134,53363,2,0,L|105:121,1,50
0,34,53531,5,10,0:0:0:0:
34,14,53616,1,0,0:0:0:0:
74,20,53700,1,0,0:0:0:0:
99,51,53784,1,0,0:0:0:0:
99,91,53869,1,10,0:0:0:0:
74,122,53953,1,0,0:0:0:0:
34,129,54037,1,0,0:0:0:0:
9,160,54121,1,0,0:0:0:0:
9,200,54206,1,10,0:0:0:0:
34,231,54290,1,0,0:0:0:0:
74,237,54374,1,0,0:0:0:0:
108,217,54459,1,0,0:0:0:0:
123,180,54543,6,0,L|114:125,1,50,10|0,0:0|0:0,0:0:0:0:
271,204,54711,2,0,L|263:254,1,50,2|0,0:0|0:0,0:0:0:0:
152,351,54880,2,0,L|144:302,1,50,10|0,0:0|0:0,0:0:0:0:
241,127,55048,5,0,0:0:0:0:
255,124,55132,1,0,0:0:0:0:
269,121,55217,1,10,0:0:0:0:
283,118,55301,1,0,0:0:0:0:
313,126,55385,5,0,0:0:0:0:
327,123,55469,1,0,0:0:0:0:
341,120,55554,1,10,0:0:0:0:
355,117,55638,1,0,0:0:0:0:
385,125,55723,5,0,0:0:0:0:
404,96,55807,1,0,0:0:0:0:
398,62,55891,1,10,0:0:0:0:
371,39,55975,1,0,0:0:0:0:
336,39,56060,1,0,0:0:0:0:
309,62,56144,1,0,0:0:0:0:
298,95,56228,6,0,L|304:170,3,50,10|0|0|0,0:0|0:0|0:0|0:0,0:0:0:0:
351,220,56565,2,0,L|354:269,3,50,10|0|0|0,0:0|0:0|0:0|0:0,0:0:0:0:
220,355,56902,5,10,0:0:0:0:
171,342,56987,1,0,0:0:0:0:
143,301,57071,1,0,0:0:0:0:
147,251,57155,1,0,0:0:0:0:
182,215,57239,1,10,0:0:0:0:
232,211,57324,1,0,0:0:0:0:
273,240,57408,5,2,0:2:0:0:
266,250,57492,1,2,0:2:0:0:
262,262,57576,1,2,0:2:0:0:
259,274,57660,1,2,0:2:0:0:
258,287,57745,6,0,P|306:270|366:250,1,100,4|10,0:0|0:0,0:0:0:0:
388,248,57998,1,0,0:0:0:0:
388,248,58082,1,0,0:0:0:0:
476,162,58250,1,10,0:0:0:0:
466,337,58419,5,0,0:0:0:0:
430,365,58503,1,0,0:0:0:0:
387,373,58587,1,10,0:0:0:0:
344,358,58672,1,0,0:0:0:0:
315,323,58756,1,0,0:0:0:0:
307,279,58840,1,0,0:0:0:0:
323,237,58925,6,0,P|330:209|319:178,3,50,10|0|0|0,0:0|0:0|0:0|0:0,0:0:0:0:
223,123,59262,2,0,P|220:98|227:74,3,50,10|0|0|0,0:0|0:0|0:0|0:0,0:0:0:0:
307,16,59599,5,10,0:0:0:0:
321,14,59683,1,0,0:0:0:0:
336,13,59767,1,0,0:0:0:0:
351,12,59851,1,0,0:0:0:0:
366,11,59936,2,0,L|360:72,1,50,10|0,0:0|0:0,0:0:0:0:
302,122,60104,2,0,L|308:183,1,50,2|0,0:0|0:0,0:0:0:0:
371,225,60273,2,0,L|365:286,1,50,10|0,0:0|0:0,0:0:0:0:
254,309,60441,5,2,0:0:0:0:
245,304,60526,1,0,0:0:0:0:
236,299,60610,1,8,0:0:0:0:
227,294,60694,1,0,0:0:0:0:
218,290,60778,2,0,L|213:240,3,50,2|0|10|0,0:0|0:0|0:0|0:0,0:0:0:0:
102,186,61116,5,2,0:0:0:0:
56,191,61200,1,0,0:0:0:0:
20,216,61284,1,10,0:0:0:0:
0,257,61369,1,0,0:0:0:0:
5,302,61453,1,2,0:0:0:0:
30,339,61537,1,0,0:0:0:0:
71,357,61622,6,0,L|61:294,1,50,8|0,0:0|0:0,0:0:0:0:
88,338,61790,2,0,L|78:275,1,50,2|0,0:0|0:0,0:0:0:0:
196,162,61958,6,0,L|206:99,1,50,8|0,0:0|0:0,0:0:0:0:
175,171,62126,2,0,L|185:108,1,50,2|0,0:0|0:0,0:0:0:0:
39,13,62295,5,10,0:0:0:0:
153,245,62464,1,2,0:0:0:0:
245,8,62632,1,12,0:0:0:0:
0,145,62801,1,2,0:0:0:0:
218,290,62969,1,12,0:0:0:0:
332,13,63138,6,0,P|392:6|439:42,1,100,4|10,0:0|0:0,0:0:0:0:
447,27,63391,1,0,0:0:0:0:
447,27,63475,1,0,0:0:0:0:
350,166,63644,1,10,0:0:0:0:
489,299,63812,5,0,0:0:0:0:
492,259,63896,1,0,0:0:0:0:
495,219,63981,1,10,0:0:0:0:
498,179,64064,1,0,0:0:0:0:
501,139,64149,2,0,L|495:74,1,50
350,166,64318,5,10,0:0:0:0:
336,203,64402,1,0,0:0:0:0:
301,223,64486,1,0,0:0:0:0:
262,216,64571,1,0,0:0:0:0:
237,186,64655,1,10,0:0:0:0:
237,146,64739,1,0,0:0:0:0:
262,114,64823,1,0,0:0:0:0:
262,74,64908,1,0,0:0:0:0:
237,44,64992,1,10,0:0:0:0:
198,37,65077,1,0,0:0:0:0:
163,57,65161,1,0,0:0:0:0:
149,94,65245,1,0,0:0:0:0:
163,132,65329,6,0,L|220:161,1,50,10|0,0:0|0:0,0:0:0:0:
140,209,65498,2,0,L|159:269,1,50,2|0,0:0|0:0,0:0:0:0:
69,247,65666,2,0,L|39:304,1,50,10|0,0:0|0:0,0:0:0:0:
0,200,65835,5,0,0:0:0:0:
2,185,65919,1,0,0:0:0:0:
4,170,66003,1,10,0:0:0:0:
6,155,66088,1,0,0:0:0:0:
29,136,66172,5,0,0:0:0:0:
31,121,66256,1,0,0:0:0:0:
33,106,66340,1,10,0:0:0:0:
35,91,66425,1,0,0:0:0:0:
58,72,66509,5,0,0:0:0:0:
92,79,66593,1,0,0:0:0:0:
126,86,66677,1,10,0:0:0:0:
160,93,66762,1,0,0:0:0:0:
194,100,66846,1,0,0:0:0:0:
228,107,66930,1,0,0:0:0:0:
262,114,67014,2,0,P|291:118|315:103,3,50,10|0|0|0,0:0|0:0|0:0|0:0,0:0:0:0:
293,0,67351,2,0,P|275:23|276:51,3,50,10|0|0|0,0:0|0:0|0:0|0:0,0:0:0:0:
446,203,67689,5,10,0:0:0:0:
473,174,67773,1,0,0:0:0:0:
483,136,67857,1,0,0:0:0:0:
473,96,67941,1,0,0:0:0:0:
445,70,68026,2,0,L|392:65,1,50,10|0,0:0|0:0,0:0:0:0:
262,114,68194,5,2,0:2:0:0:
258,123,68278,1,2,0:2:0:0:
254,132,68363,1,2,0:2:0:0:
250,141,68446,1,2,0:2:0:0:
246,150,68531,6,0,P|300:147|368:145,1,100,4|10,0:0|0:0,0:0:0:0:
381,150,68784,1,0,0:0:0:0:
381,150,68868,1,0,0:0:0:0:
479,64,69037,1,10,0:0:0:0:
424,242,69205,5,0,0:0:0:0:
399,267,69290,1,0,0:0:0:0:
366,276,69374,1,10,0:0:0:0:
332,267,69458,1,0,0:0:0:0:
307,242,69543,1,0,0:0:0:0:
298,208,69627,1,0,0:0:0:0:
307,174,69711,5,10,0:0:0:0:
510,306,69880,1,2,0:0:0:0:
271,384,70048,1,10,0:0:0:0:
462,164,70217,5,2,0:0:0:0:
393,361,70385,1,10,0:0:0:0:
221,159,70554,1,2,0:0:0:0:
160,353,70722,1,12,0:0:0:0:
160,353,70807,1,0,0:0:0:0:
160,353,70891,2,0,P|154:303|115:266,1,100,12|0,0:0|0:0,0:0:0:0:
23,231,71228,5,14,0:0:0:0:
17,192,71312,1,0,0:0:0:0:
36,157,71396,1,0,0:0:0:0:
74,142,71481,1,0,0:0:0:0:
111,157,71565,5,10,0:0:0:0:
118,164,71649,1,0,0:0:0:0:
125,171,71734,1,0,0:0:0:0:
132,178,71817,1,0,0:0:0:0:
139,185,71902,5,10,0:0:0:0:
176,200,71986,1,0,0:0:0:0:
214,185,72071,1,0,0:0:0:0:
233,150,72155,1,0,0:0:0:0:
227,111,72239,6,0,L|222:56,3,50,14|0|0|0,0:0|0:0|0:0|0:0,0:0:0:0:
106,0,72576,5,8,0:0:0:0:
107,9,72660,1,0,0:0:0:0:
109,19,72745,1,0,0:0:0:0:
110,29,72828,1,0,0:0:0:0:
112,38,72913,2,0,L|118:99,1,50,8|0,0:0|0:0,0:0:0:0:
36,157,73082,5,8,0:0:0:0:
35,166,73166,1,0,0:0:0:0:
33,176,73251,1,0,0:0:0:0:
32,186,73334,1,0,0:0:0:0:
30,195,73419,2,0,L|24:256,1,50,8|0,0:0|0:0,0:0:0:0:
112,277,73587,5,8,0:0:0:0:
113,286,73671,1,0,0:0:0:0:
115,296,73756,1,0,0:0:0:0:
116,306,73839,1,0,0:0:0:0:
118,315,73925,6,0,B|90:332|90:332|23:328,1,66.6666666666667,12|0,0:0|2:0,0:0:0:0:
207,251,74149,6,0,L|213:184,1,66.6666666666667
279,335,74374,6,0,B|303:356|303:356|337:360,1,66.6666666666667
123,172,74767,5,0,0:0:0:0:
123,172,74851,1,0,0:0:0:0:
123,172,74936,6,0,P|122:145|115:116,1,52.4999983978272,8|0,0:0|0:0,0:0:0:0:
25,36,75273,6,0,B|47:54|47:54|154:30,1,110.000003356934,4|10,0:0|0:0,0:0:0:0:
141,42,75526,1,0,0:0:0:0:
150,46,75610,1,0,0:0:0:0:
159,50,75694,1,0,0:0:0:0:
168,54,75778,1,10,0:0:0:0:
212,184,75947,1,0,0:0:0:0:
374,97,76116,6,0,P|339:42|276:38,1,110.000003356934,10|0,0:0|0:0,0:0:0:0:
123,172,76453,1,10,0:0:0:0:
123,172,76537,1,0,0:0:0:0:
123,172,76621,6,0,B|69:159|69:159|7:201,1,110.000003356934,0|10,0:0|0:0,0:0:0:0:
7,211,76874,1,0,0:0:0:0:
11,221,76958,1,0,0:0:0:0:
15,231,77043,1,0,0:0:0:0:
19,241,77126,1,10,0:0:0:0:
90,304,77295,1,0,0:0:0:0:
212,184,77464,6,0,P|278:182|320:229,1,110.000003356934,10|0,0:0|0:0,0:0:0:0:
256,384,77801,2,0,L|235:264,1,110.000003356934,10|0,0:0|0:0,0:0:0:0:
374,380,78138,1,10,0:0:0:0:
384,376,78222,1,0,0:0:0:0:
394,372,78307,1,0,0:0:0:0:
404,368,78390,1,0,0:0:0:0:
414,364,78475,1,10,0:0:0:0:
512,208,78644,5,0,0:0:0:0:
329,303,78812,1,10,0:0:0:0:
512,384,78981,1,0,0:0:0:0:
403,152,79149,6,0,B|418:-5|418:-5|411:34|366:62,1,220.000006713867,10|10,0:0|0:0,0:0:0:0:
364,49,79571,1,0,0:0:0:0:
353,47,79655,1,0,0:0:0:0:
342,45,79739,1,0,0:0:0:0:
331,43,79824,5,10,0:0:0:0:
257,180,79992,1,0,0:0:0:0:
257,180,80076,1,0,0:0:0:0:
257,180,80160,2,0,P|248:121|199:91,1,110.000003356934,10|0,0:0|0:0,0:0:0:0:
69,62,80498,1,10,0:0:0:0:
103,384,80666,6,0,B|138:290|138:290|132:260|132:260|163:175,1,220.000006713867,4|0,0:0|0:0,0:0:0:0:
155,143,81087,1,0,0:0:0:0:
155,143,81172,1,10,0:0:0:0:
251,264,81340,1,0,0:0:0:0:
38,326,81509,1,10,0:0:0:0:
38,326,81593,1,0,0:0:0:0:
38,326,81677,1,0,0:0:0:0:
249,177,81846,6,0,B|298:151|298:151|467:211,1,220.000006713867,10|10,0:0|0:0,0:0:0:0:
478,207,82267,1,0,0:0:0:0:
479,196,82351,1,0,0:0:0:0:
480,185,82436,1,0,0:0:0:0:
481,174,82520,1,10,0:0:0:0:
328,245,82689,1,0,0:0:0:0:
442,384,82857,6,0,L|431:264,1,110.000003356934,10|0,0:0|0:0,0:0:0:0:
424,69,83194,1,10,0:0:0:0:
424,69,83278,1,0,0:0:0:0:
424,69,83363,5,0,0:0:0:0:
328,245,83531,1,10,0:0:0:0:
499,178,83700,5,0,0:0:0:0:
252,37,83868,1,10,0:0:0:0:
254,296,84037,5,0,0:0:0:0:
324,104,84205,1,10,0:0:0:0:
432,275,84374,1,0,0:0:0:0:
207,160,84543,6,0,B|110:178|110:178|95:198|95:198|-9:215,1,220.000006713867,10|10,0:0|0:0,0:0:0:0:
26,106,85048,1,0,0:0:0:0:
26,106,85132,1,0,0:0:0:0:
26,106,85217,1,10,0:0:0:0:
174,255,85385,1,0,0:0:0:0:
174,255,85469,1,0,0:0:0:0:
174,255,85554,6,0,L|167:326,1,67.4999979400635,12|0,0:0|0:0,0:0:0:0:
104,384,85891,1,12,0:0:0:0:
265,209,86059,6,0,L|379:198,1,110.000003356934,4|10,0:0|0:0,0:0:0:0:
391,174,86312,1,0,0:0:0:0:
387,163,86396,1,0,0:0:0:0:
383,152,86481,1,0,0:0:0:0:
380,141,86565,1,10,0:0:0:0:
419,0,86734,1,0,0:0:0:0:
488,136,86902,6,0,L|479:257,1,110.000003356934,10|0,0:0|0:0,0:0:0:0:
398,336,87239,2,0,P|383:293|318:281,1,110.000003356934,10|0,0:0|0:0,0:0:0:0:
129,328,87576,5,10,0:0:0:0:
297,152,87745,1,0,0:0:0:0:
243,366,87913,1,10,0:0:0:0:
85,245,88082,1,0,0:0:0:0:
85,245,88166,1,0,0:0:0:0:
85,245,88250,2,0,P|97:146|110:15,1,220.000006713867,10|10,0:0|0:0,0:0:0:0:
32,0,88756,5,0,0:0:0:0:
237,178,88925,1,10,0:0:0:0:
0,227,89093,1,0,0:0:0:0:
201,32,89262,1,10,0:0:0:0:
223,278,89430,5,0,0:0:0:0:
71,109,89599,1,10,0:0:0:0:
326,96,89767,1,0,0:0:0:0:
326,96,89851,1,0,0:0:0:0:
326,96,89936,1,10,0:0:0:0:
147,315,90104,6,0,B|-9:301|-9:301|35:305|64:273,1,220.000006713867
73,254,90526,1,0,0:0:0:0:
73,254,90610,1,10,0:0:0:0:
213,380,90778,1,0,0:0:0:0:
213,380,90863,1,0,0:0:0:0:
213,380,90947,2,0,L|324:371,1,110.000003356934,10|0,0:0|0:0,0:0:0:0:
392,324,91284,1,10,0:0:0:0:
211,87,91453,6,0,B|156:119|156:119|183:299,1,220.000006713867,4|0,0:0|0:0,0:0:0:0:
187,300,91874,1,0,0:0:0:0:
187,300,91958,1,10,0:0:0:0:
297,224,92127,1,0,0:0:0:0:
428,384,92295,2,0,L|448:265,1,110.000003356934,10|0,0:0|0:0,0:0:0:0:
511,191,92632,6,0,B|410:202|410:202|399:212|399:212|275:226,1,220.000006713867,10|10,0:0|0:0,0:0:0:0:
269,209,93054,1,0,0:0:0:0:
269,209,93138,1,0,0:0:0:0:
386,99,93307,1,10,0:0:0:0:
336,323,93475,5,0,0:0:0:0:
195,178,93644,2,0,L|65:168,1,110.000003356934,10|0,0:0|0:0,0:0:0:0:
60,168,93896,1,0,0:0:0:0:
60,168,93981,1,10,0:0:0:0:
224,66,94149,1,4,0:0:0:0:
2,276,94318,5,10,0:0:0:0:
8,289,94402,1,0,0:0:0:0:
14,302,94486,1,0,0:0:0:0:
22,314,94570,1,0,0:0:0:0:
30,326,94655,5,10,0:0:0:0:
62,356,94739,1,0,0:0:0:0:
106,358,94823,1,0,0:0:0:0:
142,333,94907,1,0,0:0:0:0:
153,290,94992,6,0,L|118:234,1,55.0000016784668,10|0,0:0|0:0,0:0:0:0:
47,221,95160,2,0,L|62:156,1,55.0000016784668
6,104,95329,5,12,0:0:0:0:
37,72,95414,1,0,0:0:0:0:
79,61,95498,1,0,0:0:0:0:
122,72,95582,1,0,0:0:0:0:
153,104,95666,1,10,0:0:0:0:
184,136,95751,1,0,0:0:0:0:
226,147,95835,1,0,0:0:0:0:
269,136,95919,1,0,0:0:0:0:
300,104,96003,6,0,P|304:75|316:49,3,55.0000016784668,8|8|0|0,0:0|0:0|0:0|0:0,0:0:0:0:
406,0,96340,1,0,0:0:0:0:
434,0,96425,1,0,0:0:0:0:
457,13,96509,1,0,0:0:0:0:
471,37,96593,1,0,0:0:0:0:
471,65,96677,2,0,P|442:44|409:38,1,55.0000016784668
384,156,96846,6,0,P|371:207|389:271,1,100,4|10,0:0|0:2,0:0:0:0:
375,280,97099,1,0,0:0:0:0:
375,280,97183,1,2,0:2:0:0:
484,208,97351,1,10,0:2:0:0:
300,104,97520,5,2,0:2:0:0:
260,106,97604,1,0,0:0:0:0:
220,108,97689,1,10,0:2:0:0:
180,110,97772,1,0,0:0:0:0:
140,112,97857,2,0,L|76:115,1,50,2|0,0:2|0:0,0:0:0:0:
12,188,98026,5,10,0:2:0:0:
31,222,98110,1,0,0:0:0:0:
65,241,98194,1,2,0:2:0:0:
106,242,98278,1,0,0:0:0:0:
140,221,98363,1,10,0:2:0:0:
174,200,98448,1,0,0:0:0:0:
215,201,98532,1,2,0:2:0:0:
249,220,98616,1,0,0:0:0:0:
268,254,98700,1,10,0:2:0:0:
269,295,98785,1,0,0:0:0:0:
250,329,98869,1,2,0:2:0:0:
216,348,98953,1,0,0:0:0:0:
176,346,99037,6,0,P|143:316|136:299,1,50,10|0,0:2|0:0,0:0:0:0:
140,221,99205,2,0,P|149:177|160:162,1,50,2|0,0:2|0:0,0:0:0:0:
230,127,99374,2,0,P|272:113|290:115,1,50,10|0,0:2|0:0,0:0:0:0:
362,186,99543,5,2,0:2:0:0:
371,184,99627,1,0,0:0:0:0:
381,183,99711,1,10,0:2:0:0:
391,182,99796,1,0,0:0:0:0:
417,197,99880,5,2,0:2:0:0:
426,195,99964,1,0,0:0:0:0:
436,194,100048,1,10,0:2:0:0:
446,193,100133,1,0,0:0:0:0:
472,208,100217,5,2,0:2:0:0:
496,183,100300,1,0,0:0:0:0:
505,149,100384,1,10,0:2:0:0:
496,115,100469,1,0,0:0:0:0:
472,90,100553,1,2,0:2:0:0:
438,81,100637,1,0,0:0:0:0:
404,90,100722,6,0,L|412:147,3,50,10|0|2|0,0:2|0:0|0:2|0:0,0:0:0:0:
354,220,101059,2,0,L|346:277,3,50,10|0|2|0,0:2|0:0|0:2|0:0,0:0:0:0:
388,360,101396,5,10,0:2:0:0:
431,384,101481,1,0,0:0:0:0:
480,376,101565,1,2,0:2:0:0:
512,338,101649,1,0,0:0:0:0:
512,288,101734,1,10,0:2:0:0:
480,249,101818,1,0,0:0:0:0:
431,241,101902,5,2,0:2:0:0:
438,251,101986,1,2,0:2:0:0:
442,263,102071,1,10,0:2:0:0:
445,275,102154,1,2,0:2:0:0:
446,288,102239,6,0,L|335:268,1,100,4|10,0:2|0:2,0:0:0:0:
320,280,102492,1,0,0:0:0:0:
320,280,102576,1,2,0:2:0:0:
410,139,102745,1,10,0:2:0:0:
263,24,102913,5,2,0:2:0:0:
228,44,102998,1,0,0:0:0:0:
214,81,103082,1,10,0:2:0:0:
228,119,103166,1,0,0:0:0:0:
263,139,103250,1,2,0:2:0:0:
302,132,103335,1,0,0:0:0:0:
328,101,103419,6,0,L|336:50,3,50,10|0|2|0,0:2|0:0|0:2|0:0,0:0:0:0:
450,11,103756,2,0,L|457:60,3,50,10|0|2|0,0:2|0:0|0:2|0:0,0:0:0:0:
416,167,104093,5,10,0:2:0:0:
406,169,104177,1,0,0:0:0:0:
396,171,104262,1,2,0:2:0:0:
386,173,104345,1,0,0:0:0:0:
376,175,104430,2,0,L|386:223,1,50,10|0,0:2|0:0,0:0:0:0:
330,328,104599,2,0,L|320:280,1,50,2|0,0:2|0:0,0:0:0:0:
227,202,104767,2,0,L|237:250,1,50,10|0,0:2|0:0,0:0:0:0:
189,353,104936,5,2,0:2:0:0:
179,351,105020,1,0,0:0:0:0:
169,349,105104,1,10,0:2:0:0:
159,347,105189,1,0,0:0:0:0:
149,345,105273,2,0,L|79:363,3,50,2|0|10|0,0:2|0:0|0:2|0:0,0:0:0:0:
10,270,105610,5,2,0:2:0:0:
34,264,105694,1,0,0:0:0:0:
58,258,105778,1,10,0:2:0:0:
82,252,105863,1,0,0:0:0:0:
106,246,105947,1,2,0:2:0:0:
130,240,106032,1,0,0:0:0:0:
154,234,106116,5,10,0:2:0:0:
188,89,106284,1,2,0:2:0:0:
61,60,106453,5,10,0:2:0:0:
227,202,106621,1,2,0:2:0:0:
263,0,106790,5,10,0:2:0:0:
36,173,106958,1,8,0:2:0:0:
31,223,107043,1,8,0:2:0:0:
26,273,107127,1,8,0:2:0:0:
21,323,107211,1,8,0:2:0:0:
16,373,107295,6,0,L|63:354,3,50,4|2|2|2,0:2|0:2|0:2|0:2,0:0:0:0:
227,202,107632,6,0,L|235:317,1,100,4|10,0:2|0:2,0:0:0:0:
255,326,107885,1,0,0:0:0:0:
255,326,107969,1,2,0:2:0:0:
128,219,108138,1,10,0:2:0:0:
307,140,108307,5,2,0:2:0:0:
346,148,108391,1,0,0:0:0:0:
385,156,108475,1,10,0:2:0:0:
424,164,108560,1,0,0:0:0:0:
463,172,108644,2,0,P|490:172|511:163,1,50,2|0,0:2|0:0,0:0:0:0:
512,10,108812,5,10,0:2:0:0:
474,0,108896,1,0,0:0:0:0:
435,10,108981,1,2,0:2:0:0:
407,39,109065,1,0,0:0:0:0:
396,77,109149,1,10,0:2:0:0:
407,116,109233,1,0,0:0:0:0:
435,144,109318,1,2,0:2:0:0:
463,172,109402,1,0,0:0:0:0:
474,211,109486,1,10,0:2:0:0:
463,249,109570,1,0,0:0:0:0:
435,278,109655,1,2,0:2:0:0:
396,288,109739,1,0,0:0:0:0:
358,278,109823,6,0,L|363:223,1,50,10|0,0:2|0:0,0:0:0:0:
222,152,109992,2,0,L|226:201,1,50,2|0,0:2|0:0,0:0:0:0:
323,113,110160,2,0,L|327:63,1,50,10|0,0:2|0:0,0:0:0:0:
205,11,110329,5,2,0:2:0:0:
195,12,110413,1,0,0:0:0:0:
185,13,110498,1,10,0:2:0:0:
175,14,110581,1,0,0:0:0:0:
159,42,110666,5,2,0:2:0:0:
149,43,110750,1,0,0:0:0:0:
139,44,110835,1,10,0:2:0:0:
129,45,110918,1,0,0:0:0:0:
113,73,111003,5,2,0:2:0:0:
100,111,111087,1,0,0:0:0:0:
65,131,111172,1,10,0:2:0:0:
25,124,111256,1,0,0:0:0:0:
0,93,111340,1,2,0:2:0:0:
0,53,111425,1,0,0:0:0:0:
25,22,111509,6,0,L|81:31,3,50,10|0|2|0,0:2|0:0|0:2|0:0,0:0:0:0:
188,122,111846,2,0,L|237:114,3,50,10|0|2|0,0:2|0:0|0:2|0:0,0:0:0:0:
331,20,112183,5,10,0:2:0:0:
381,20,112267,1,0,0:0:0:0:
424,45,112351,1,2,0:2:0:0:
449,88,112436,1,0,0:0:0:0:
449,138,112520,2,0,P|402:152|392:156,1,50,12|0,0:2|0:0,0:0:0:0:
292,225,112689,5,2,0:2:0:0:
290,234,112773,1,0,0:0:0:0:
288,244,112857,1,12,0:2:0:0:
287,254,112942,1,0,0:0:0:0:
285,263,113026,6,0,P|328:235|394:238,1,100,4|10,0:2|0:2,0:0:0:0:
400,246,113278,1,0,0:0:0:0:
400,246,113363,1,2,0:2:0:0:
292,384,113531,1,10,0:2:0:0:
185,203,113700,5,2,0:2:0:0:
187,163,113784,1,0,0:0:0:0:
188,122,113868,1,10,0:2:0:0:
190,82,113953,1,0,0:0:0:0:
191,41,114037,2,0,P|185:14|167:-4,1,50,2|0,0:2|0:0,0:0:0:0:
55,123,114205,5,10,0:2:0:0:
83,151,114290,1,0,0:0:0:0:
121,161,114374,1,2,0:2:0:0:
160,151,114458,1,0,0:0:0:0:
188,122,114543,1,10,0:2:0:0:
216,94,114627,1,0,0:0:0:0:
254,84,114711,1,2,0:2:0:0:
293,94,114795,1,0,0:0:0:0:
321,123,114880,1,10,0:2:0:0:
331,160,114963,1,0,0:0:0:0:
321,199,115047,1,2,0:2:0:0:
292,227,115132,1,0,0:0:0:0:
252,233,115217,6,0,L|255:172,1,50,12|0,0:2|0:0,0:0:0:0:
328,87,115385,2,0,L|325:26,3,50,8|8|8|8,0:0|0:0|0:0|0:0,0:0:0:0:
453,0,115722,5,4,0:2:0:0:
496,24,115807,1,0,0:0:0:0:
512,71,115891,1,0,0:0:0:0:
495,118,115975,1,0,0:0:0:0:
452,143,116059,1,12,0:0:0:0:
409,168,116143,1,0,0:0:0:0:
392,215,116227,1,0,0:0:0:0:
408,262,116311,1,0,0:0:0:0:
451,286,116396,5,4,0:2:0:0:
468,230,116482,1,0,0:0:0:0:
449,175,116566,1,0,0:0:0:0:
399,146,116650,1,0,0:0:0:0:
342,156,116734,1,12,0:0:0:0:
285,165,116818,1,0,0:0:0:0:
238,134,116902,1,0,0:0:0:0:
217,81,116986,1,0,0:0:0:0:
240,29,117071,6,0,L|307:38,3,50,8|0|0|0,0:0|0:0|0:0|0:0,0:0:0:0:
252,233,117408,6,0,L|200:241,5,33.3333333333333
309,318,117745,1,8,0:0:0:0:
309,318,117829,1,0,0:0:0:0:
309,318,117913,2,0,L|366:326,1,50,8|0,0:0|0:0,0:0:0:0:
227,378,118082,5,0,0:0:0:0:
227,378,118166,1,0,0:0:0:0:
227,378,118250,1,12,0:2:0:0:
8,291,118419,6,0,B|23:264|23:264|125:253,1,110.000003356934,4|10,0:0|0:0,0:0:0:0:
130,247,118672,1,0,0:0:0:0:
128,237,118756,1,0,0:0:0:0:
126,227,118840,1,0,0:0:0:0:
124,217,118925,1,10,0:0:0:0:
16,172,119093,1,0,0:0:0:0:
133,74,119262,2,0,L|260:64,1,110.000003356934,10|0,0:0|0:0,0:0:0:0:
413,11,119599,6,0,P|393:63|425:113,1,110.000003356934,10|0,0:0|0:0,0:0:0:0:
449,132,119851,1,0,0:0:0:0:
449,132,119936,1,10,0:0:0:0:
501,55,120104,1,0,0:0:0:0:
322,139,120273,1,10,0:0:0:0:
477,232,120441,1,0,0:0:0:0:
481,242,120526,1,0,0:0:0:0:
485,252,120610,6,0,B|404:237|404:237|374:259,1,110.000003356934,10|0,0:0|0:0,0:0:0:0:
353,354,120947,6,0,B|344:257|344:257|332:243|332:243|322:133,1,220.000006713867,10|10,0:0|0:0,0:0:0:0:
221,199,121453,1,0,0:0:0:0:
221,199,121537,1,0,0:0:0:0:
221,199,121621,1,10,0:0:0:0:
421,77,121790,5,0,0:0:0:0:
303,224,121958,1,10,0:0:0:0:
219,61,122127,1,0,0:0:0:0:
219,61,122211,1,0,0:0:0:0:
219,61,122295,6,0,B|163:65|163:65|121:248,1,220.000006713867,10|10,0:0|0:0,0:0:0:0:
120,255,122717,1,0,0:0:0:0:
110,250,122801,1,0,0:0:0:0:
100,245,122885,1,0,0:0:0:0:
90,240,122969,1,10,0:0:0:0:
34,174,123138,1,0,0:0:0:0:
219,61,123307,6,0,L|227:174,1,110.000003356934,10|0,0:0|0:0,0:0:0:0:
246,189,123559,1,0,0:0:0:0:
246,189,123644,1,10,0:0:0:0:
389,279,123812,6,0,P|459:254|472:203,1,110.000003356934,4|10,0:0|0:0,0:0:0:0:
393,204,124149,1,0,0:0:0:0:
393,204,124234,1,0,0:0:0:0:
393,204,124318,1,10,0:0:0:0:
361,100,124486,6,0,P|419:90|479:113,1,110.000003356934,0|10,0:0|0:0,0:0:0:0:
489,124,124739,1,0,0:0:0:0:
489,124,124823,1,0,0:0:0:0:
299,19,124992,6,0,B|239:-11|191:19|212:40|145:76|76:26,1,220.000006713867,10|10,0:0|0:0,0:0:0:0:
69,18,125413,1,0,0:0:0:0:
69,29,125498,1,0,0:0:0:0:
69,40,125582,1,0,0:0:0:0:
69,51,125666,1,10,0:0:0:0:
210,123,125835,1,0,0:0:0:0:
111,349,126003,6,0,B|119:256|119:256|112:239|112:239|122:121,1,220.000006713867,10|10,0:0|0:0,0:0:0:0:
173,43,126509,1,0,0:0:0:0:
220,247,126677,1,10,0:0:0:0:
0,205,126846,1,0,0:0:0:0:
92,15,127014,1,10,0:0:0:0:
118,254,127183,5,0,0:0:0:0:
0,71,127351,1,10,0:0:0:0:
290,106,127520,1,0,0:0:0:0:
290,106,127604,1,0,0:0:0:0:
290,106,127689,6,0,B|331:140|331:140|290:313,1,220.000006713867,10|10,0:0|0:0,0:0:0:0:
396,271,128194,1,0,0:0:0:0:
396,271,128278,1,0,0:0:0:0:
396,271,128363,1,10,0:0:0:0:
201,347,128531,1,0,0:0:0:0:
201,347,128616,1,0,0:0:0:0:
201,347,128700,6,0,L|203:289,1,52.4999983978272,12|0,0:0|0:0,0:0:0:0:
208,217,129037,1,12,0:0:0:0:
54,93,129205,6,0,B|61:176|61:176|86:198,1,110.000003356934,4|10,0:0|0:0,0:0:0:0:
107,207,129458,1,0,0:0:0:0:
112,197,129543,1,0,0:0:0:0:
117,187,129627,1,0,0:0:0:0:
122,177,129711,1,10,0:0:0:0:
208,217,129880,1,0,0:0:0:0:
279,85,130048,6,0,B|374:70|374:70|401:82|401:82|511:64,1,220.000006713867,10|10,0:0|0:0,0:0:0:0:
505,45,130469,1,0,0:0:0:0:
505,45,130554,1,0,0:0:0:0:
287,0,130722,1,10,0:0:0:0:
359,212,130891,1,0,0:0:0:0:
359,212,130975,1,0,0:0:0:0:
359,212,131059,1,10,0:0:0:0:
250,283,131228,5,0,0:0:0:0:
375,105,131396,2,0,B|430:116|430:116|477:281,1,220.000006713867,10|10,0:0|0:0,0:0:0:0:
482,298,131818,1,0,0:0:0:0:
482,298,131902,5,0,0:0:0:0:
359,212,132071,1,10,0:0:0:0:
494,66,132239,1,0,0:0:0:0:
385,298,132408,1,10,0:0:0:0:
277,95,132576,5,0,0:0:0:0:
209,229,132745,1,10,0:0:0:0:
389,118,132913,1,0,0:0:0:0:
389,118,132998,1,0,0:0:0:0:
389,118,133082,1,10,0:0:0:0:
230,8,133250,6,0,B|136:15|136:15|125:32|125:32|7:44,1,220.000006713867
1,39,133672,1,0,0:0:0:0:
1,39,133756,1,10,0:0:0:0:
201,107,133925,1,0,0:0:0:0:
201,107,134009,1,0,0:0:0:0:
201,107,134093,2,0,L|208:225,1,110.000003356934,10|0,0:0|0:0,0:0:0:0:
154,308,134430,1,10,0:0:0:0:
3,214,134599,6,0,B|57:173|114:205|96:228|155:262|220:206,1,220.000006713867,4|0,0:0|0:0,0:0:0:0:
210,189,135020,1,0,0:0:0:0:
210,189,135104,1,10,0:0:0:0:
51,277,135273,1,0,0:0:0:0:
205,376,135441,2,0,L|331:354,1,110.000003356934,10|0,0:0|0:0,0:0:0:0:
342,355,135694,1,0,0:0:0:0:
342,355,135778,1,10,0:0:0:0:
285,197,135947,5,0,0:0:0:0:
441,372,136116,1,10,0:0:0:0:
510,159,136284,1,0,0:0:0:0:
266,285,136453,1,10,0:0:0:0:
128,83,136621,1,0,0:0:0:0:
128,83,136705,1,0,0:0:0:0:
128,83,136790,2,0,B|180:52|244:86|224:104|283:148|356:93,1,220.000006713867,10|10,0:0|0:0,0:0:0:0:
499,60,137295,5,4,0:0:0:0:
413,0,137464,1,10,0:0:0:0:
413,0,137548,1,0,0:0:0:0:
413,0,137632,2,0,L|407:61,1,50
259,191,137801,5,10,0:0:0:0:
234,193,137885,1,0,0:0:0:0:
209,195,137969,1,0,0:0:0:0:
184,197,138054,1,0,0:0:0:0:
159,200,138138,1,10,0:0:0:0:
134,202,138223,1,0,0:0:0:0:
109,204,138307,2,0,L|55:208,1,50
1,68,138475,5,12,0:0:0:0:
29,39,138559,1,0,0:0:0:0:
67,29,138644,1,0,0:0:0:0:
106,39,138728,1,0,0:0:0:0:
134,68,138812,1,10,0:0:0:0:
162,97,138896,1,0,0:0:0:0:
201,107,138981,2,0,L|247:100,4,33.3333333333333
298,4,139318,5,8,0:0:0:0:
306,26,139402,1,8,0:0:0:0:
314,48,139486,1,8,0:0:0:0:
322,71,139571,1,8,0:0:0:0:
330,93,139655,2,0,L|347:147,3,50
408,279,139992,6,0,P|415:230|468:194,1,89.9999972534181,4|10,0:2|0:2,0:2:0:0:
490,197,140245,1,0,0:2:0:0:
490,197,140329,1,2,0:2:0:0:
435,112,140498,1,10,0:2:0:0:
335,214,140666,2,0,L|233:210,1,89.9999972534181,2|10,0:2|0:2,0:2:0:0:
208,127,141003,2,0,L|310:131,1,89.9999972534181,2|10,0:2|0:2,0:2:0:0:
134,25,141340,6,0,P|62:25|67:124,1,179.999994506836,2|2,0:2|0:2,0:2:0:0:
82,135,141762,1,0,0:2:0:0:
82,135,141846,1,10,0:2:0:0:
109,241,142015,1,2,0:2:0:0:
109,241,142099,1,0,0:2:0:0:
109,241,142184,1,10,0:2:0:0:
4,329,142352,5,2,0:2:0:0:
7,306,142435,1,0,0:2:0:0:
11,284,142520,1,10,0:2:0:0:
15,262,142603,1,0,0:2:0:0:
19,240,142689,6,0,B|58:206|58:206|204:219,1,179.999994506836,4|2,0:2|0:2,0:2:0:0:
254,278,143194,1,10,0:2:0:0:
341,249,143363,2,0,L|324:102,1,134.999995880127,2|0,0:2|0:2,0:2:0:0:
336,79,143700,2,0,P|376:53|442:66,1,89.9999972534181,2|10,0:2|0:2,0:0:0:0:
428,186,144037,5,2,0:2:0:0:
428,193,144121,1,0,0:2:0:0:
429,202,144205,1,10,0:2:0:0:
430,211,144290,1,0,0:2:0:0:
431,220,144374,2,0,L|436:288,3,44.999998626709,2|0|10|0,0:2|0:2|0:2|0:2,0:2:0:0:
436,384,144711,5,2,0:2:0:0:
458,379,144795,1,0,0:2:0:0:
475,364,144880,2,0,L|458:174,1,179.999994506836,12|12,0:2|0:2,0:2:0:0:
339,30,145385,5,12,0:0:0:0:
339,30,145469,1,0,0:0:0:0:
339,30,145554,2,0,L|326:94,1,44.999998626709
266,158,145722,5,10,0:0:0:0:
266,158,145806,1,0,0:0:0:0:
266,158,145891,2,0,L|253:94,1,44.999998626709
379,201,146059,5,10,0:0:0:0:
379,201,146143,1,0,0:0:0:0:
379,201,146228,2,0,L|366:265,1,44.999998626709
283,328,146396,5,10,0:0:0:0:
273,326,146481,1,0,0:0:0:0:
264,325,146565,1,0,0:0:0:0:
255,324,146649,1,0,0:0:0:0:
245,323,146734,5,10,0:0:0:0:
219,316,146818,1,0,0:0:0:0:
200,296,146902,1,0,0:0:0:0:
193,270,146986,1,0,0:0:0:0:
200,244,147070,1,10,0:0:0:0:
219,225,147155,1,0,0:0:0:0:
245,218,147239,1,0,0:0:0:0:
271,225,147323,1,0,0:0:0:0:
291,244,147408,6,0,L|283:295,3,44.999998626709,10|0|0|0,0:0|0:0|0:0|0:0,0:0:0:0:
149,372,147745,5,8,0:0:0:0:
114,364,147829,1,8,0:0:0:0:
79,356,147913,1,8,0:0:0:0:
44,348,147998,1,0,0:0:0:0:
9,340,148082,5,4,0:0:0:0:
99,133,148250,1,0,0:0:0:0:
142,341,148419,1,12,0:0:0:0:
0,187,148587,1,2,0:0:0:0:
228,145,148756,1,2,0:0:0:0:
130,234,148925,1,12,0:0:0:0:
236,367,149262,5,0,0:0:0:0:
236,367,149346,1,0,0:0:0:0:
236,367,149430,1,2,0:0:0:0:
113,156,149599,1,0,0:0:0:0:
366,202,149767,1,12,0:0:0:0:
115,363,149936,1,2,0:0:0:0:
196,78,150104,1,2,0:0:0:0:
360,304,150273,1,12,0:0:0:0:
404,129,150610,5,12,0:0:0:0:
404,129,150694,1,0,0:0:0:0:
404,129,150778,1,4,0:0:0:0:
251,270,150947,1,0,0:0:0:0:
466,366,151116,1,12,0:0:0:0:
487,129,151284,1,2,0:0:0:0:
360,304,151453,1,2,0:0:0:0:
275,190,151621,1,12,0:0:0:0:
449,252,151958,5,0,0:0:0:0:
449,252,152043,1,0,0:0:0:0:
449,252,152127,1,2,0:0:0:0:
268,367,152295,1,0,0:0:0:0:
268,72,152464,1,12,0:0:0:0:
512,204,152632,1,2,0:0:0:0:
250,277,152801,1,8,0:0:0:0:
250,277,152885,1,8,0:0:0:0:
250,277,152969,1,8,0:0:0:0:
144,123,153138,5,8,0:0:0:0:
123,115,153222,1,8,0:0:0:0:
101,112,153306,1,8,0:0:0:0:
79,114,153390,1,8,0:0:0:0:
57,121,153475,6,0,L|69:175,1,44.999998626709,4|0,0:0|0:0,0:0:0:0:
181,226,153644,2,0,L|190:182,1,44.999998626709,10|0,0:0|0:0,0:0:0:0:
296,86,153812,2,0,L|305:129,1,44.999998626709
406,200,153981,2,0,L|415:156,1,44.999998626709,10|0,0:0|0:0,0:0:0:0:
466,90,154149,5,2,0:0:0:0:
319,211,154318,1,10,0:0:0:0:
326,219,154655,1,10,0:0:0:0:
326,219,154739,1,0,0:0:0:0:
326,219,154823,6,0,L|336:271,1,44.999998626709,4|0,0:0|0:0,0:0:0:0:
181,226,154992,2,0,L|189:181,1,44.999998626709,10|0,0:0|0:0,0:0:0:0:
296,86,155160,2,0,L|304:130,1,44.999998626709,2|0,0:0|0:0,0:0:0:0:
199,72,155329,2,0,L|207:27,1,44.999998626709,10|0,0:0|0:0,0:0:0:0:
283,0,155498,5,2,0:0:0:0:
107,120,155666,1,12,0:0:0:0:
327,219,156003,1,10,0:0:0:0:
327,219,156087,1,0,0:0:0:0:
327,219,156172,5,4,0:0:0:0:
189,181,156340,1,10,0:0:0:0:
334,347,156509,1,0,0:0:0:0:
415,155,156677,1,10,0:0:0:0:
246,90,156846,5,0,0:0:0:0:
439,267,157014,1,10,0:0:0:0:
512,41,157183,1,10,0:0:0:0:
512,41,157267,1,0,0:0:0:0:
512,41,157351,2,0,L|500:106,1,44.999998626709
415,155,157520,5,12,0:0:0:0:
390,137,157604,1,0,0:0:0:0:
364,123,157688,1,0,0:0:0:0:
335,115,157772,1,0,0:0:0:0:
305,112,157857,2,0,P|274:115|254:123,1,44.999998626709
209,254,158026,5,12,0:0:0:0:
233,236,158110,1,0,0:0:0:0:
259,222,158194,1,0,0:0:0:0:
288,214,158278,1,0,0:0:0:0:
319,211,158363,2,0,P|350:214|370:222,1,44.999998626709
429,338,158531,5,12,0:0:0:0:
405,320,158615,1,0,0:0:0:0:
379,306,158699,1,0,0:0:0:0:
350,298,158783,1,0,0:0:0:0:
319,295,158868,5,8,0:0:0:0:
149,357,159037,1,8,0:0:0:0:
86,177,159205,1,8,0:0:0:0:
261,119,159374,1,10,0:0:0:0:
11,20,160891,6,0,B|14:112|14:112|23:132|23:132|27:258,1,200,4|0,0:0|0:0,0:0:0:0:
17,244,161312,1,0,0:0:0:0:
17,244,161396,1,10,0:0:0:0:
133,78,161565,2,0,B|164:72|164:72|242:101,1,100,0|10,0:0|0:0,0:0:0:0:
334,166,161902,1,0,0:0:0:0:
458,0,162071,1,10,0:0:0:0:
458,0,162155,1,0,0:0:0:0:
458,0,162239,6,0,B|425:34|425:34|464:193,1,200
444,316,162745,1,10,0:0:0:0:
308,379,162913,2,0,L|315:270,1,100,0|10,0:0|0:0,0:0:0:0:
180,160,163250,1,0,0:0:0:0:
180,160,163335,1,0,0:0:0:0:
180,160,163419,1,10,0:0:0:0:
89,361,163587,6,0,P|66:298|165:329,1,200
308,379,164093,1,10,0:0:0:0:
308,379,164177,1,0,0:0:0:0:
308,379,164261,6,0,L|289:317,1,50
325,253,164430,2,0,L|343:191,1,50,10|0,0:0|0:0,0:0:0:0:
268,11,164598,5,0,0:0:0:0:
241,42,164682,1,0,0:0:0:0:
238,82,164766,1,10,0:0:0:0:
259,117,164850,1,0,0:0:0:0:
297,132,164935,1,0,0:0:0:0:
337,122,165019,1,0,0:0:0:0:
363,90,165104,2,0,P|399:62|456:74,1,100,10|0,0:0|0:0,0:0:0:0:
502,320,165441,1,10,0:0:0:0:
502,320,165526,1,0,0:0:0:0:
502,320,165610,6,0,B|477:288|477:288|380:297,1,100,0|10,0:0|0:0,0:0:0:0:
280,315,165947,1,0,0:0:0:0:
280,315,166031,1,0,0:0:0:0:
280,315,166116,1,10,0:0:0:0:
132,179,166284,6,0,B|150:32|150:32|144:66|116:87,1,200,4|0,0:0|0:0,0:0:0:0:
0,68,166705,1,0,0:0:0:0:
0,68,166790,2,0,P|37:23|94:32,1,100,10|0,0:0|0:0,0:0:0:0:
234,199,167127,1,10,0:0:0:0:
372,128,167295,1,0,0:0:0:0:
372,128,167380,1,0,0:0:0:0:
372,128,167464,1,10,0:0:0:0:
215,0,167632,6,0,L|235:208,1,200
263,278,168053,1,0,0:0:0:0:
263,278,168138,2,0,P|313:247|369:275,1,100,10|0,0:0|0:0,0:0:0:0:
449,384,168475,1,10,0:0:0:0:
512,251,168644,1,0,0:0:0:0:
512,251,168728,1,0,0:0:0:0:
512,251,168812,1,10,0:0:0:0:
321,169,168981,6,0,B|228:175|228:175|214:187|214:187|125:192,1,200
91,181,169402,1,0,0:0:0:0:
91,181,169486,1,10,0:0:0:0:
190,275,169655,6,0,L|205:322,1,50
321,384,169823,2,0,L|336:336,1,50,10|0,0:0|0:0,0:0:0:0:
451,122,169992,5,0,0:0:0:0:
445,83,170076,1,0,0:0:0:0:
427,48,170160,1,10,0:0:0:0:
397,21,170244,1,0,0:0:0:0:
360,6,170329,1,0,0:0:0:0:
321,4,170413,1,0,0:0:0:0:
285,15,170498,2,0,L|275:128,1,100,10|0,0:0|0:0,0:0:0:0:
355,195,170835,1,10,0:0:0:0:
110,21,171003,6,0,P|53:19|16:61,1,100,0|10,0:0|0:0,0:0:0:0:
49,136,171256,1,0,0:0:0:0:
49,136,171340,2,0,P|97:140|136:110,1,100,0|10,0:0|0:0,0:0:0:0:
319,8,171677,6,0,B|368:3|368:3|500:87,1,200,4|0,0:0|0:0,0:0:0:0:
512,111,172099,1,0,0:0:0:0:
512,111,172183,1,10,0:0:0:0:
412,162,172351,2,0,L|398:275,1,100,0|10,0:0|0:0,0:0:0:0:
223,182,172689,6,0,P|265:198|326:226,1,100,0|10,0:0|0:0,0:0:0:0:
487,318,173026,2,0,P|500:259|476:207,1,100,0|10,0:0|0:0,0:0:0:0:
341,347,173362,1,0,0:0:0:0:
341,347,173447,1,0,0:0:0:0:
341,347,173531,2,0,B|298:373|298:373|134:359,1,200,10|10,0:0|0:0,0:0:0:0:
68,307,174037,1,0,0:0:0:0:
68,307,174121,1,0,0:0:0:0:
68,307,174205,1,10,0:0:0:0:
81,56,174374,5,0,0:0:0:0:
203,268,174543,1,10,0:0:0:0:
308,52,174711,1,0,0:0:0:0:
308,52,174795,1,0,0:0:0:0:
308,52,174880,1,10,0:0:0:0:
83,201,175048,5,0,0:0:0:0:
199,0,175217,1,10,0:0:0:0:
199,0,175301,1,0,0:0:0:0:
199,0,175385,1,0,0:0:0:0:
309,201,175554,6,0,B|361:236|417:202|397:182|447:148|520:196,1,200,10|10,0:0|0:0,0:0:0:0:
350,135,176059,1,0,0:0:0:0:
350,135,176144,1,0,0:0:0:0:
350,135,176228,1,10,0:0:0:0:
456,252,176396,1,0,0:0:0:0:
504,40,176565,1,10,0:0:0:0:
504,40,176649,1,0,0:0:0:0:
504,40,176734,2,0,L|513:7,3,33.3333333333333,0|0|0|10,0:0|0:0|0:0|0:0,0:0:0:0:
204,161,177071,6,0,B|194:207|194:207|254:361,1,200,4|0,0:0|0:0,0:0:0:0:
352,378,177576,1,10,0:0:0:0:
456,252,177745,2,0,L|328:271,1,100,0|10,0:0|0:0,0:0:0:0:
193,300,178082,1,0,0:0:0:0:
193,300,178166,1,0,0:0:0:0:
193,300,178250,1,10,0:0:0:0:
0,102,178419,6,0,B|80:89|80:89|110:101|110:101|202:88,1,200
229,88,178840,1,0,0:0:0:0:
229,88,178925,1,10,0:0:0:0:
345,0,179093,2,0,P|374:32|368:96,1,100,0|10,0:0|0:0,0:0:0:0:
456,165,179430,2,0,L|495:151,3,33.3333333333333,0|0|0|12,0:0|0:0|0:0|0:0,0:0:0:0:
380,319,179767,5,4,0:0:0:0:
338,319,179851,1,0,0:0:0:0:
300,297,179936,1,10,0:0:0:0:
280,261,180020,1,0,0:0:0:0:
280,219,180104,1,0,0:0:0:0:
300,182,180189,1,0,0:0:0:0:
338,161,180273,5,10,0:0:0:0:
342,170,180357,1,0,0:0:0:0:
345,179,180441,1,0,0:0:0:0:
346,188,180526,1,0,0:0:0:0:
345,197,180610,1,10,0:0:0:0:
342,206,180694,1,0,0:0:0:0:
340,215,180778,6,0,P|297:237|284:245,3,50,0|0|10|0,0:0|0:0|0:0|0:0,0:0:0:0:
182,357,181116,5,4,0:3:0:0:
180,303,181200,1,8,0:0:0:0:
154,259,181284,1,8,0:0:0:0:
109,233,181368,1,8,0:0:0:0:
57,233,181453,2,0,L|-13:265,3,50,8|0|0|0,0:0|0:0|0:0|0:0,0:0:0:0:
182,357,181790,2,0,L|236:332,3,50
372,293,182127,6,0,L|438:282,1,50
239,137,182295,2,0,L|173:126,1,50
414,14,182464,5,4,0:0:0:0:
459,24,182548,1,0,0:0:0:0:
487,64,182632,1,10,0:0:0:0:
485,113,182717,1,0,0:0:0:0:
450,147,182801,1,0,0:0:0:0:
403,152,182885,1,0,0:0:0:0:
362,125,182969,1,10,0:0:0:0:
321,97,183054,1,0,0:0:0:0:
274,103,183138,1,0,0:0:0:0:
239,137,183222,1,0,0:0:0:0:
236,185,183307,1,10,0:0:0:0:
265,225,183391,1,0,0:0:0:0:
310,236,183475,6,0,L|301:162,1,55.0000016784668
421,284,183644,2,0,L|414:338,1,55.0000016784668,10|0,0:0|0:0,0:0:0:0:
242,362,183812,5,0,0:0:0:0:
188,347,183896,1,0,0:0:0:0:
157,302,183981,1,10,0:0:0:0:
162,247,184065,1,0,0:0:0:0:
201,209,184149,1,0,0:0:0:0:
206,154,184233,1,0,0:0:0:0:
175,109,184318,1,10,0:0:0:0:
121,94,184402,1,0,0:0:0:0:
72,116,184487,1,0,0:0:0:0:
51,167,184571,1,0,0:0:0:0:
63,220,184654,1,10,0:0:0:0:
108,251,184738,1,0,0:0:0:0:
162,247,184823,6,0,P|186:231|202:207,1,55.0000016784668
254,43,184992,2,0,P|255:71|268:97,1,55.0000016784668,10|0,0:0|0:0,0:0:0:0:
366,222,185160,5,0,0:0:0:0:
372,195,185245,1,0,0:0:0:0:
378,168,185329,1,10,0:0:0:0:
384,141,185414,1,0,0:0:0:0:
390,114,185498,1,0,0:0:0:0:
396,87,185582,1,0,0:0:0:0:
402,60,185666,2,0,L|396:2,1,55.0000016784668,10|0,0:0|0:0,0:0:0:0:
512,107,185835,5,0,0:0:0:0:
476,141,185919,1,0,0:0:0:0:
430,153,186003,1,10,0:0:0:0:
383,141,186087,1,0,0:0:0:0:
349,107,186172,1,0,0:0:0:0:
313,72,186256,1,0,0:0:0:0:
267,60,186340,1,10,0:0:0:0:
220,72,186424,1,0,0:0:0:0:
186,107,186509,1,0,0:0:0:0:
174,154,186594,1,0,0:0:0:0:
186,200,186678,1,10,0:0:0:0:
198,246,186761,1,0,0:0:0:0:
186,294,186845,1,0,0:0:0:0:
152,328,186930,1,0,0:0:0:0:
104,340,187014,6,0,P|71:319|57:291,1,55.0000016784668,10|0,0:0|0:0,0:0:0:0:
14,233,187183,2,0,P|15:197|31:174,3,55.0000016784668,0|0|10|0,0:0|0:0|0:0|0:0,0:0:0:0:
90,121,187520,1,0,0:0:0:0:
94,111,187604,1,0,0:0:0:0:
96,100,187689,1,10,0:0:0:0:
96,89,187773,1,0,0:0:0:0:
94,78,187857,5,4,0:0:0:0:
43,97,187941,1,0,0:0:0:0:
15,144,188026,1,10,0:0:0:0:
25,198,188110,1,0,0:0:0:0:
67,234,188194,1,0,0:0:0:0:
122,234,188278,1,0,0:0:0:0:
164,198,188363,1,10,0:0:0:0:
173,144,188447,1,0,0:0:0:0:
215,108,188531,1,0,0:0:0:0:
270,108,188615,1,0,0:0:0:0:
312,144,188699,1,10,0:0:0:0:
322,198,188783,1,0,0:0:0:0:
294,245,188868,2,0,P|286:271|287:299,3,55.0000016784668,0|0|10|0,0:0|0:0|0:0|0:0,0:0:0:0:
352,384,189205,5,0,0:0:0:0:
379,378,189290,1,0,0:0:0:0:
406,372,189374,1,10,0:0:0:0:
433,366,189458,1,0,0:0:0:0:
460,360,189542,2,0,L|464:294,1,55.0000016784668
411,179,189711,5,10,0:0:0:0:
391,198,189795,1,0,0:0:0:0:
384,225,189880,1,0,0:0:0:0:
391,251,189964,1,0,0:0:0:0:
411,271,190048,1,10,0:0:0:0:
437,278,190132,1,0,0:0:0:0:
464,271,190217,2,0,P|433:242|404:242,3,55.0000016784668,0|0|10|0,0:0|0:0|0:0|0:0,0:0:0:0:
239,383,190554,5,0,0:0:0:0:
194,378,190638,1,0,0:0:0:0:
159,351,190722,1,10,0:0:0:0:
140,312,190807,1,0,0:0:0:0:
144,268,190891,1,0,0:0:0:0:
169,232,190975,1,0,0:0:0:0:
210,212,191059,1,10,0:0:0:0:
254,216,191144,1,0,0:0:0:0:
291,242,191228,1,0,0:0:0:0:
332,257,191312,1,0,0:0:0:0:
376,250,191397,1,10,0:0:0:0:
410,220,191481,1,0,0:0:0:0:
425,179,191565,1,0,0:0:0:0:
417,134,191649,1,0,0:0:0:0:
389,101,191734,1,10,0:0:0:0:
348,85,191818,1,0,0:0:0:0:
304,92,191902,1,0,0:0:0:0:
274,125,191986,1,0,0:0:0:0:
227,128,192071,1,10,0:0:0:0:
192,101,192155,1,0,0:0:0:0:
180,59,192239,1,0,0:0:0:0:
199,19,192323,1,0,0:0:0:0:
239,0,192408,1,10,0:0:0:0:
281,12,192492,1,0,0:0:0:0:
307,48,192576,6,0,L|303:105,3,55.0000016784668,0|0|10|0,0:0|0:0|0:0|0:0,0:0:0:0:
255,221,192913,2,0,L|259:278,3,55.0000016784668,0|0|10|0,0:0|0:0|0:0|0:0,0:0:0:0:
160,357,193250,5,4,0:0:0:0:
117,320,193335,1,0,0:0:0:0:
108,265,193419,1,10,0:0:0:0:
136,217,193503,1,0,0:0:0:0:
186,197,193587,1,0,0:0:0:0:
239,218,193672,1,0,0:0:0:0:
265,265,193756,1,10,0:0:0:0:
291,313,193840,1,0,0:0:0:0:
343,333,193925,1,0,0:0:0:0:
394,314,194009,1,0,0:0:0:0:
422,266,194093,1,10,0:0:0:0:
413,211,194177,1,0,0:0:0:0:
370,174,194262,6,0,L|302:182,3,55.0000016784668,0|0|10|0,0:0|0:0|0:0|0:0,0:0:0:0:
184,279,194599,5,0,0:0:0:0:
169,276,194683,1,0,0:0:0:0:
155,273,194767,1,10,0:0:0:0:
141,271,194852,1,0,0:0:0:0:
126,268,194936,2,0,L|49:248,1,55.0000016784668
143,178,195104,5,10,0:0:0:0:
132,176,195188,1,0,0:0:0:0:
121,174,195272,1,0,0:0:0:0:
110,172,195357,1,0,0:0:0:0:
99,170,195441,2,0,L|40:155,1,55.0000016784668,10|0,0:0|0:0,0:0:0:0:
0,78,195610,5,0,0:0:0:0:
11,76,195694,1,0,0:0:0:0:
22,74,195778,1,10,0:0:0:0:
33,72,195863,1,0,0:0:0:0:
44,70,195947,5,4,0:0:0:0:
201,234,196116,1,10,0:0:0:0:
310,51,196284,5,0,0:0:0:0:
99,170,196453,1,10,0:0:0:0:
291,313,196621,1,0,0:0:0:0:
343,153,196790,1,10,0:0:0:0:
343,153,196874,1,0,0:0:0:0:
343,153,196958,1,0,0:0:0:0:
199,40,197127,6,0,B|159:69|159:69|207:257,1,220.000006713867,10|10,0:0|0:0,0:0:0:0:
291,313,197632,1,0,0:0:0:0:
248,109,197801,1,10,0:0:0:0:
117,297,197969,1,0,0:0:0:0:
376,289,198138,1,12,0:0:0:0:
376,289,198222,1,0,0:0:0:0:
376,289,198307,1,0,0:0:0:0:
201,234,198475,1,12,0:0:0:0:
395,73,198644,5,4,0:0:0:0:
442,85,198728,1,0,0:0:0:0:
469,125,198812,1,10,0:0:0:0:
465,173,198896,1,0,0:0:0:0:
431,207,198981,1,0,0:0:0:0:
382,212,199065,1,0,0:0:0:0:
343,183,199149,1,10,0:0:0:0:
331,137,199234,1,0,0:0:0:0:
291,108,199318,1,0,0:0:0:0:
243,113,199402,1,0,0:0:0:0:
208,147,199487,1,10,0:0:0:0:
204,195,199571,1,0,0:0:0:0:
232,235,199655,6,0,P|265:236|294:221,1,55.0000016784668
382,212,199823,2,0,P|397:186|399:156,1,55.0000016784668,10|0,0:0|0:0,0:0:0:0:
334,10,199992,5,0,0:0:0:0:
307,16,200076,1,0,0:0:0:0:
280,22,200160,1,10,0:0:0:0:
253,28,200245,1,0,0:0:0:0:
226,34,200329,1,0,0:0:0:0:
199,40,200413,1,0,0:0:0:0:
172,46,200497,1,10,0:0:0:0:
145,52,200582,1,0,0:0:0:0:
118,58,200666,1,0,0:0:0:0:
91,64,200750,1,0,0:0:0:0:
64,70,200834,1,10,0:0:0:0:
37,76,200919,1,0,0:0:0:0:
10,82,201003,2,0,L|14:137,3,55.0000016784668,0|0|10|0,0:0|0:0|0:0|0:0,0:0:0:0:
110,189,201340,5,4,0:0:0:0:
113,216,201425,1,0,0:0:0:0:
117,243,201509,1,10,0:0:0:0:
120,271,201593,1,0,0:0:0:0:
124,298,201677,2,0,L|128:353,1,55.0000016784668
203,211,201846,5,10,0:0:0:0:
205,227,201931,1,0,0:0:0:0:
207,244,202015,1,0,0:0:0:0:
209,260,202099,1,0,0:0:0:0:
212,277,202183,2,0,L|216:332,1,55.0000016784668,10|0,0:0|0:0,0:0:0:0:
306,232,202351,2,0,L|311:176,3,55.0000016784668,0|0|10|0,0:0|0:0|0:0|0:0,0:0:0:0:
206,76,202688,5,4,0:0:0:0:
188,72,202773,1,0,0:0:0:0:
170,68,202857,1,8,0:0:0:0:
153,65,202941,1,8,0:0:0:0:
125,89,203025,5,8,0:0:0:0:
98,95,203110,1,8,0:0:0:0:
71,101,203194,1,8,0:0:0:0:
45,105,203278,1,8,0:0:0:0:
10,82,203363,5,8,0:0:0:0:
120,271,203531,1,0,0:0:0:0:
194,119,203700,1,0,0:0:0:0:
242,258,203868,1,0,0:0:0:0:
305,88,204037,6,0,B|374:79|374:79|392:86|392:86|478:76,1,160,12|0,0:0|0:0,0:0:0:0:
496,75,204458,1,0,0:0:0:0:
496,75,204542,5,12,0:0:0:0:
374,155,204711,1,0,0:0:0:0:
488,211,204880,1,0,0:0:0:0:
297,7,205048,6,0,P|242:27|242:138,1,160,12|0,0:0|0:0,0:0:0:0:
287,167,205469,1,0,0:0:0:0:
287,167,205554,2,0,B|334:155|334:155|417:261,1,160,12|0,3:3|0:0,0:0:0:0:
348,356,206059,5,12,3:3:0:0:
488,211,206228,1,0,3:3:0:0:
305,88,206396,1,8,3:3:0:0:
304,253,206565,1,0,3:3:0:0:
101,343,206734,6,0,B|111:268|111:268|99:251|99:251|113:162,1,160,12|0,0:0|0:0,0:0:0:0:
113,165,207155,1,0,0:0:0:0:
113,165,207239,1,12,0:0:0:0:
25,260,207408,1,0,0:0:0:0:
200,222,207576,1,0,0:0:0:0:
36,0,207745,6,0,B|3:31|3:31|20:173,1,160,12|0,0:0|0:0,0:0:0:0:
85,186,208166,1,0,0:0:0:0:
85,186,208250,2,0,P|97:131|201:117,1,160,12|0,0:0|0:0,0:0:0:0:
200,222,208756,5,12,0:0:0:0:
238,51,208925,1,0,0:0:0:0:
343,133,209093,1,8,0:0:0:0:
319,240,209262,1,0,0:0:0:0:
512,283,209430,6,0,L|496:110,1,160,12|0,0:0|0:0,0:0:0:0:
494,94,209851,1,0,0:0:0:0:
494,94,209936,1,12,0:0:0:0:
419,147,210104,1,0,0:0:0:0:
361,61,210273,1,0,0:0:0:0:
190,159,210441,6,0,L|27:140,1,160,12|0,0:0|0:0,0:0:0:0:
0,78,210862,1,0,0:0:0:0:
0,78,210947,2,0,P|41:27|150:44,1,160,12|0,0:0|0:0,0:0:0:0:
304,259,211453,5,12,0:0:0:0:
301,129,211621,1,0,0:0:0:0:
190,159,211790,1,8,0:0:0:0:
217,244,211958,1,0,0:0:0:0:
105,361,212127,6,0,P|131:306|43:266,1,160,12|0,0:0|0:0,0:0:0:0:
30,278,212548,1,0,0:0:0:0:
30,278,212632,1,12,0:0:0:0:
162,308,212801,1,0,0:0:0:0:
217,244,212969,1,0,0:0:0:0:
363,190,213138,6,4,B|356:267|356:267|345:277|345:277|337:357,1,160,12|12,0:0|0:0,0:0:0:0:
353,369,213559,1,0,0:0:0:0:
353,369,213644,1,0,0:0:0:0:
217,244,213812,1,10,0:0:0:0:
217,244,213896,1,0,0:0:0:0:
217,244,213981,1,0,0:0:0:0:
416,115,214149,5,8,0:0:0:0:
313,273,214318,1,0,0:0:0:0:
205,96,214486,1,0,0:0:0:0:
141,185,214655,1,0,0:0:0:0:
0,50,214823,6,0,L|108:39,1,80,12|0,0:0|0:0,0:0:0:0:
106,27,215076,1,0,0:0:0:0:
106,27,215160,1,10,0:0:0:0:
205,96,215329,5,0,0:0:0:0:
224,90,215413,1,0,0:0:0:0:
243,84,215498,1,10,0:0:0:0:
262,78,215581,1,0,0:0:0:0:
281,72,215666,2,0,L|276:125,1,40
396,221,215835,6,0,P|454:220|483:176,1,80,10|0,0:0|0:0,0:0:0:0:
479,184,216087,1,0,0:0:0:0:
479,184,216172,1,10,0:0:0:0:
312,186,216340,5,0,0:0:0:0:
305,205,216425,1,0,0:0:0:0:
298,224,216509,1,10,0:0:0:0:
291,243,216593,1,0,0:0:0:0:
284,262,216677,2,0,L|289:315,1,40
357,380,216846,5,10,0:0:0:0:
396,221,217014,1,0,0:0:0:0:
204,235,217183,1,10,0:0:0:0:
220,321,217351,1,0,0:0:0:0:
77,384,217520,6,0,L|89:293,1,80,10|0,0:0|0:0,0:0:0:0:
114,288,217773,1,0,0:0:0:0:
114,288,217857,1,10,0:0:0:0:
72,170,218026,5,0,0:0:0:0:
51,164,218110,1,0,0:0:0:0:
32,169,218194,1,10,0:0:0:0:
18,183,218278,1,0,0:0:0:0:
13,203,218363,2,0,P|33:210|71:206,1,40
202,108,218531,6,0,B|241:96|241:96|294:118,1,80,10|0,0:0|0:0,0:0:0:0:
301,135,218784,1,0,0:0:0:0:
301,135,218868,1,10,0:0:0:0:
396,221,219037,1,0,0:0:0:0:
402,202,219121,1,0,0:0:0:0:
408,183,219205,1,10,0:0:0:0:
414,164,219290,1,0,0:0:0:0:
420,145,219374,2,0,L|402:102,1,40
453,23,219542,5,10,0:0:0:0:
512,190,219711,1,0,0:0:0:0:
310,215,219880,1,10,0:0:0:0:
277,111,220048,1,0,0:0:0:0:
204,235,220217,6,0,L|222:332,1,80,12|0,0:0|0:0,0:0:0:0:
231,344,220469,1,0,0:0:0:0:
231,344,220554,1,10,0:0:0:0:
360,381,220722,1,0,0:0:0:0:
362,361,220807,1,0,0:0:0:0:
364,341,220891,1,10,0:0:0:0:
366,321,220975,1,0,0:0:0:0:
368,301,221059,2,0,L|359:244,1,40
420,169,221228,6,0,P|466:178|491:216,1,80,10|0,0:0|0:0,0:0:0:0:
499,234,221481,1,0,0:0:0:0:
499,234,221565,1,10,0:0:0:0:
310,215,221734,1,0,0:0:0:0:
302,194,221818,1,0,0:0:0:0:
296,175,221902,1,10,0:0:0:0:
290,157,221986,1,0,0:0:0:0:
284,137,222070,2,0,L|293:80,1,40
334,7,222239,5,10,0:0:0:0:
359,124,222408,1,0,0:0:0:0:
206,121,222576,1,10,0:0:0:0:
189,39,222745,1,0,0:0:0:0:
93,158,222913,6,0,B|106:216|106:216|101:261,1,80,12|0,0:0|0:0,0:0:0:0:
95,269,223166,1,0,0:0:0:0:
95,269,223250,1,10,0:0:0:0:
166,353,223419,1,0,0:0:0:0:
185,347,223503,1,0,0:0:0:0:
204,341,223587,1,10,0:0:0:0:
223,335,223672,1,0,0:0:0:0:
242,329,223756,2,0,L|288:315,1,40
318,226,223925,6,0,P|273:206|235:214,1,80,12|0,0:0|0:0,0:0:0:0:
236,226,224177,1,0,0:0:0:0:
236,226,224262,6,0,P|233:204|224:184,2,40,10|0|0,0:0|0:0|0:0,0:0:0:0:
184,93,224514,2,0,P|204:101|226:103,2,40,10|0|0,0:0|0:0|0:0,0:0:0:0:
325,115,224767,1,10,0:0:0:0:
325,115,224851,1,8,0:0:0:0:
325,115,224935,6,0,P|355:114|364:110,4,26.6666666666667
490,44,225273,1,8,0:0:0:0:
462,42,225357,1,8,0:0:0:0:
434,40,225441,1,8,0:0:0:0:
406,38,225526,1,8,0:0:0:0:
378,36,225610,6,0,L|396:226,1,179.999994506836,4|0,0:0|0:0,0:0:0:0:
491,322,225947,5,0,0:0:0:0:
488,289,226031,1,0,0:0:0:0:
485,256,226115,2,0,L|479:189,1,59.9999981689454,10|0,0:0|0:0,0:0:0:0:
406,340,226284,5,0,0:0:0:0:
403,307,226368,1,0,0:0:0:0:
400,274,226452,2,0,L|394:207,1,59.9999981689454,10|0,0:0|0:0,0:0:0:0:
321,358,226622,5,0,0:0:0:0:
318,325,226706,1,0,0:0:0:0:
315,292,226790,2,0,L|309:225,1,59.9999981689454,10|0,0:0|0:0,0:0:0:0:
177,124,226958,5,0,0:0:0:0:
135,121,227042,1,0,0:0:0:0:
101,146,227127,2,0,P|79:186|81:210,1,59.9999981689454,10|0,0:0|0:0,0:0:0:0:
237,177,227295,5,0,0:0:0:0:
261,142,227379,1,0,0:0:0:0:
256,100,227464,2,0,P|228:62|211:52,1,59.9999981689454,10|0,0:0|0:0,0:0:0:0:
161,202,227632,5,0,0:0:0:0:
179,240,227716,1,0,0:0:0:0:
218,257,227801,2,0,P|261:253|285:237,1,59.9999981689454,10|0,0:0|0:0,0:0:0:0:
358,79,227969,5,0,0:0:0:0:
392,55,228053,1,0,0:0:0:0:
434,59,228138,2,0,P|469:83|482:109,1,59.9999981689454,10|0,0:0|0:0,0:0:0:0:
458,189,228307,6,0,B|400:227|339:190|361:168|298:126|225:183,1,239.999992675781
128,302,228812,2,0,P|65:266|166:207,1,239.999992675781,10|10,0:0|0:0,0:0:0:0:
258,375,229318,1,0,0:0:0:0:
258,375,229402,1,0,0:0:0:0:
258,375,229486,6,0,B|311:354|311:354|344:146,1,239.999992675781,10|10,0:0|0:0,0:0:0:0:
176,58,229992,1,0,0:0:0:0:
176,58,230076,1,0,0:0:0:0:
176,58,230160,1,10,0:0:0:0:
43,172,230329,6,0,L|31:45,1,119.999996337891,0|10,0:0|0:0,0:0:0:0:
39,29,230582,1,0,0:0:0:0:
39,29,230666,1,0,0:0:0:0:
161,176,230835,1,10,0:0:0:0:
256,8,231003,6,0,B|358:16|358:16|371:25|371:25|496:36,1,239.999992675781,4|0,0:0|0:0,0:0:0:0:
512,63,231425,1,0,0:0:0:0:
512,63,231509,1,10,0:0:0:0:
512,148,231677,6,0,B|409:139|409:139|396:130|396:130|271:119,1,239.999992675781
245,116,232099,1,0,0:0:0:0:
245,116,232183,1,10,0:0:0:0:
178,177,232351,1,0,0:0:0:0:
380,317,232520,6,0,L|370:192,1,119.999996337891,10|0,0:0|0:0,0:0:0:0:
390,174,232773,1,0,0:0:0:0:
390,174,232858,1,10,0:0:0:0:
481,148,233026,6,0,B|490:251|490:251|499:264|499:264|510:389,1,239.999992675781
269,359,233531,6,0,P|301:257|378:325,1,239.999992675781,10|10,0:0|0:0,0:0:0:0:
481,148,234037,1,0,0:0:0:0:
481,148,234121,1,0,0:0:0:0:
481,148,234205,1,10,0:0:0:0:
321,113,234374,6,0,B|259:118|259:118|231:183,1,119.999996337891,0|10,0:0|0:0,0:0:0:0:
234,199,234627,1,0,0:0:0:0:
234,199,234711,1,0,0:0:0:0:
163,365,234880,1,10,0:0:0:0:
163,365,234964,1,0,0:0:0:0:
163,365,235048,6,0,B|121:337|121:337|107:130,1,239.999992675781
169,75,235554,2,0,P|108:50|43:78,1,119.999996337891,10|0,0:0|0:0,0:0:0:0:
42,89,235807,1,0,0:0:0:0:
42,89,235891,1,10,0:0:0:0:
234,199,236059,2,0,P|273:146|263:76,1,119.999996337891,0|10,0:0|0:0,0:0:0:0:
199,326,236396,6,0,B|307:312|307:312|330:298|330:298|433:287,1,239.999992675781,4|0,0:0|0:0,0:0:0:0:
481,286,236818,1,0,0:0:0:0:
481,286,236902,1,10,0:0:0:0:
374,374,237071,6,0,P|290:333|384:226,1,239.999992675781,0|0,0:0|0:0,3:0:0:0:
458,145,237576,2,0,P|407:100|340:99,1,119.999996337891,10|0,0:0|0:0,0:0:0:0:
192,147,237913,5,10,0:0:0:0:
168,146,237998,1,0,0:0:0:0:
146,134,238082,1,0,0:0:0:0:
135,113,238166,1,0,0:0:0:0:
134,89,238250,1,10,0:0:0:0:
147,68,238335,1,0,0:0:0:0:
167,56,238419,6,0,L|231:70,3,59.9999981689454,0|0|10|0,0:0|0:0|0:0|0:0,0:0:0:0:
375,174,238756,1,0,0:0:0:0:
381,197,238840,1,0,0:0:0:0:
387,220,238925,1,10,0:0:0:0:
393,243,239008,1,0,0:0:0:0:
399,266,239093,6,0,P|386:326|309:358,1,119.999996337891,0|10,0:0|0:0,0:0:0:0:
315,340,239346,1,0,0:0:0:0:
315,340,239430,2,0,P|273:294|191:305,1,119.999996337891,0|10,0:0|0:0,0:0:0:0:
38,379,239767,6,0,P|48:270|59:130,1,239.999992675781
59,105,240188,1,0,0:0:0:0:
59,105,240273,2,0,P|113:66|175:87,1,119.999996337891,10|0,0:0|0:0,0:0:0:0:
187,201,240610,2,0,P|253:207|297:158,1,119.999996337891,10|0,0:0|0:0,0:0:0:0:
302,136,240863,1,0,0:0:0:0:
302,136,240947,1,10,0:0:0:0:
468,216,241115,6,0,P|476:236|486:261,3,39.9999987792969,0|0|0|12,0:0|0:0|0:0|0:0,0:0:0:0:
240,78,241452,6,0,P|232:98|221:123,3,39.9999987792969,0|0|0|10,0:0|0:0|0:0|0:0,0:0:0:0:
455,0,241790,6,0,B|499:36|499:36|467:228,1,239.999992675781,4|0,0:0|0:0,0:0:0:0:
483,253,242211,1,0,0:0:0:0:
483,253,242295,1,10,0:0:0:0:
319,100,242464,6,0,B|211:90|211:90|197:99|197:99|52:86,1,239.999992675781
18,2,242969,5,10,0:0:0:0:
41,4,243053,1,0,0:0:0:0:
64,6,243138,1,0,0:0:0:0:
87,8,243222,1,0,0:0:0:0:
110,10,243307,1,10,0:0:0:0:
133,12,243391,1,0,0:0:0:0:
156,14,243475,1,0,0:0:0:0:
179,16,243559,1,0,0:0:0:0:
202,18,243643,1,10,0:0:0:0:
225,20,243728,1,0,0:0:0:0:
248,22,243812,6,0,L|326:29,3,59.9999981689454,0|0|10|0,0:0|0:0|0:0|0:0,0:0:0:0:
349,97,244149,6,0,L|389:92,3,39.9999987792969,0|0|0|10,0:0|0:0|0:0|0:0,0:0:0:0:
282,196,244486,5,4,0:0:0:0:
257,222,244571,1,0,0:0:0:0:
222,231,244655,1,10,0:0:0:0:
187,221,244739,1,0,0:0:0:0:
161,196,244823,1,0,0:0:0:0:
136,170,244908,1,0,0:0:0:0:
101,161,244992,1,10,0:0:0:0:
66,171,245076,1,0,0:0:0:0:
40,196,245160,6,0,L|32:273,3,59.9999981689454,0|0|10|0,0:0|0:0|0:0|0:0,0:0:0:0:
127,300,245498,2,0,L|135:377,3,59.9999981689454,0|0|10|0,0:0|0:0|0:0|0:0,0:0:0:0:
359,360,245835,5,8,0:2:0:0:
386,309,245919,1,8,0:2:0:0:
377,254,246003,1,8,0:2:0:0:
335,216,246087,1,8,0:2:0:0:
299,173,246172,1,8,0:2:0:0:
299,118,246256,1,8,0:2:0:0:
335,74,246340,1,8,0:2:0:0:
392,64,246424,1,0,0:2:0:0:
443,96,246509,1,0,0:2:0:0:
461,146,246593,1,0,0:2:0:0:
446,191,246677,1,0,0:2:0:0:
410,214,246762,1,0,0:2:0:0:
374,213,246846,2,0,L|330:162,3,59.9999981689454
157,16,247183,5,4,0:2:0:0:
90,8,247267,1,0,0:2:0:0:
34,40,247351,1,10,0:2:0:0:
8,101,247436,1,0,0:2:0:0:
22,164,247520,1,2,0:2:0:0:
70,207,247604,1,0,0:2:0:0:
135,214,247689,1,10,0:2:0:0:
191,181,247773,1,0,0:2:0:0:
218,122,247857,1,2,0:2:0:0:
259,71,247941,1,0,0:2:0:0:
322,53,248025,1,10,0:2:0:0:
383,77,248110,1,0,0:2:0:0:
418,131,248194,1,2,0:2:0:0:
416,195,248278,1,2,0:2:0:0:
374,247,248363,1,10,0:2:0:0:
312,264,248447,1,2,0:2:0:0:
250,240,248531,5,2,0:2:0:0:
299,199,248615,1,0,0:2:0:0:
365,202,248699,1,10,0:2:0:0:
412,246,248783,1,0,0:2:0:0:
420,311,248868,1,2,0:2:0:0:
384,366,248952,1,0,0:2:0:0:
321,384,249036,1,10,0:2:0:0:
263,359,249120,1,0,0:2:0:0:
232,301,249205,2,0,P|209:245|192:227,3,59.9999981689454,2|0|10|0,0:2|0:2|0:2|0:2,0:2:0:0:
183,161,249542,2,0,P|128:153|106:158,3,59.9999981689454,2|2|10|2,0:2|0:2|0:2|0:2,0:2:0:0:
0,363,249879,5,4,0:2:0:0:
63,380,249964,1,0,0:0:0:0:
123,351,250048,1,10,0:2:0:0:
150,291,250132,1,0,0:0:0:0:
133,227,250216,1,2,0:2:0:0:
80,190,250301,1,0,0:0:0:0:
38,139,250385,1,10,0:2:0:0:
38,73,250469,1,0,0:0:0:0:
80,23,250553,1,2,0:2:0:0:
145,11,250637,1,0,0:0:0:0:
203,44,250722,1,10,0:2:0:0:
225,106,250806,1,0,0:0:0:0:
267,156,250890,2,0,P|313:152|342:129,3,59.9999981689454,2|2|10|2,0:2|0:2|0:2|0:2,0:2:0:0:
99,102,251228,5,4,0:2:0:0:
64,150,251312,1,0,0:2:0:0:
59,209,251396,1,10,0:2:0:0:
84,264,251480,1,0,0:2:0:0:
132,298,251565,1,2,0:2:0:0:
192,303,251649,1,0,0:2:0:0:
247,278,251733,1,10,0:2:0:0:
281,229,251817,1,0,0:2:0:0:
316,180,251902,1,2,0:2:0:0:
369,154,251986,1,0,0:2:0:0:
429,159,252070,1,10,0:2:0:0:
478,194,252155,1,0,0:2:0:0:
503,248,252239,2,0,L|491:319,3,59.9999981689454,2|2|10|2,0:2|0:2|0:2|0:2,0:2:0:0:
444,384,252576,5,4,0:2:0:0:
376,382,252660,1,0,0:2:0:0:
320,348,252745,1,10,0:2:0:0:
286,292,252829,1,0,0:2:0:0:
287,226,252913,1,2,0:2:0:0:
319,169,252998,1,0,0:2:0:0:
320,104,253082,1,10,0:2:0:0:
287,47,253166,1,0,0:2:0:0:
231,14,253250,1,2,0:2:0:0:
165,14,253335,1,0,0:2:0:0:
108,47,253419,1,10,0:2:0:0:
75,104,253503,1,0,0:2:0:0:
75,170,253587,2,0,L|101:253,3,59.9999981689454,2|2|10|2,0:2|0:2|0:2|0:2,0:2:0:0:
199,271,253925,5,4,0:2:0:0:
259,236,254009,1,0,0:2:0:0:
293,175,254094,1,10,0:2:0:0:
294,107,254178,1,0,0:2:0:0:
315,43,254262,1,2,0:2:0:0:
373,3,254345,1,0,0:2:0:0:
442,10,254430,1,10,0:2:0:0:
489,61,254514,1,0,0:2:0:0:
494,130,254598,1,2,0:2:0:0:
453,186,254682,1,0,0:2:0:0:
411,242,254767,1,10,0:2:0:0:
418,311,254851,1,0,0:2:0:0:
466,363,254936,2,0,P|505:332|516:303,3,59.9999981689454,4|2|10|2,0:2|0:2|0:2|0:2,0:2:0:0:
414,103,255273,5,4,0:2:0:0:
354,105,255357,1,0,0:2:0:0:
294,107,255441,1,10,0:2:0:0:
234,109,255526,1,0,0:2:0:0:
174,111,255610,1,2,0:2:0:0:
114,121,255694,1,0,0:2:0:0:
76,167,255778,1,10,0:2:0:0:
76,227,255862,1,0,0:2:0:0:
114,273,255947,1,2,0:2:0:0:
174,283,256031,1,0,0:2:0:0:
226,253,256115,1,10,0:2:0:0:
278,223,256200,1,0,0:2:0:0:
338,233,256284,2,0,P|374:257|392:288,3,59.9999981689454,2|2|10|2,0:2|0:2|0:2|0:2,0:2:0:0:
259,381,256621,5,4,0:2:0:0:
247,379,256705,1,0,0:2:0:0:
235,377,256790,1,0,0:2:0:0:
223,375,256873,1,0,0:2:0:0:
211,373,256958,1,0,0:2:0:0:
199,371,257042,1,0,0:2:0:0:
187,369,257127,1,0,0:2:0:0:
175,367,257210,1,0,0:2:0:0:
163,365,257295,2,0,L|95:342,3,59.9999981689454,0|0|0|0,0:2|0:2|0:2|0:2,0:2:0:0:
200,247,257632,2,0,L|268:224,3,59.9999981689454,0|0|0|0,0:2|0:2|0:2|0:2,0:2:0:0:
60,42,257969,5,4,0:2:0:0:
17,84,258054,1,0,0:2:0:0:
2,142,258138,1,10,0:2:0:0:
17,200,258222,1,0,0:2:0:0:
60,242,258307,1,2,0:2:0:0:
117,258,258391,1,0,0:2:0:0:
175,242,258475,1,10,0:2:0:0:
218,200,258559,1,0,0:2:0:0:
233,142,258644,1,2,0:2:0:0:
248,84,258728,1,0,0:2:0:0:
291,42,258812,1,10,0:2:0:0:
349,26,258896,1,0,0:2:0:0:
406,42,258980,1,2,0:2:0:0:
449,84,259065,1,0,0:2:0:0:
464,142,259149,1,10,0:2:0:0:
449,200,259233,1,0,0:2:0:0:
406,242,259318,6,0,L|323:231,3,59.9999981689454,2|2|10|2,0:2|0:2|0:2|0:2,0:2:0:0:
292,134,259655,2,0,L|232:141,3,59.9999981689454,2|0|10|0,0:2|0:2|0:2|0:2,0:2:0:0:
175,242,259992,2,0,L|115:234,3,59.9999981689454,2|0|10|0,0:2|0:2|0:2|0:2,0:2:0:0:
61,134,260329,2,0,L|1:141,3,59.9999981689454,2|0|10|0,0:2|0:2|0:2|0:2,0:2:0:0:
25,354,260666,5,6,0:2:0:0:
76,384,260750,1,0,0:2:0:0:
136,373,260835,1,10,0:2:0:0:
174,327,260919,1,0,0:2:0:0:
174,267,261003,1,2,0:2:0:0:
195,211,261087,1,0,0:2:0:0:
246,181,261172,1,10,0:2:0:0:
306,191,261256,1,0,0:2:0:0:
344,237,261340,1,2,0:2:0:0:
344,297,261425,1,0,0:2:0:0:
365,353,261509,1,10,0:2:0:0:
416,383,261594,1,0,0:2:0:0:
474,373,261677,1,2,0:2:0:0:
512,327,261761,1,0,0:2:0:0:
512,267,261845,1,10,0:2:0:0:
474,221,261930,1,0,0:2:0:0:
414,211,262014,6,0,P|362:241|349:257,3,59.9999981689454,2|2|10|2,0:2|0:2|0:2|0:2,0:2:0:0:
269,269,262351,2,0,P|268:329|276:348,3,59.9999981689454,2|0|2|0,0:2|0:2|0:2|0:2,0:2:0:0:
167,365,262689,6,0,P|176:308|168:275,3,59.9999981689454,2|0|12|0,0:2|0:2|0:2|0:2,0:2:0:0:
174,218,263026,2,0,P|129:181|96:172,3,59.9999981689454,2|0|12|0,0:2|0:2|0:2|0:2,0:2:0:0:
0,116,263363,5,4,0:2:0:0:
14,58,263447,1,0,0:2:0:0:
64,23,263531,1,10,0:2:0:0:
123,29,263616,1,0,0:2:0:0:
166,71,263700,1,2,0:2:0:0:
196,122,263784,1,0,0:2:0:0:
252,143,263868,1,10,0:2:0:0:
309,122,263953,1,0,0:2:0:0:
337,70,264037,6,0,L|331:6,3,59.9999981689454,2|2|10|2,0:2|0:2|0:2|0:2,0:2:0:0:
479,112,264374,2,0,L|473:171,3,59.9999981689454,2|0|10|0,0:2|0:2|0:2|0:2,0:2:0:0:
488,300,264711,5,2,0:2:0:0:
454,357,264795,1,2,0:2:0:0:
391,379,264880,1,10,0:2:0:0:
330,356,264964,1,0,0:2:0:0:
297,299,265048,1,2,0:2:0:0:
308,235,265132,1,0,0:2:0:0:
358,192,265217,1,10,0:2:0:0:
370,127,265301,1,0,0:2:0:0:
335,72,265385,5,2,0:2:0:0:
267,90,265469,1,0,0:2:0:0:
232,152,265554,1,10,0:2:0:0:
244,224,265638,1,0,0:2:0:0:
300,270,265722,1,2,0:2:0:0:
372,270,265807,1,0,0:2:0:0:
427,224,265891,1,10,0:2:0:0:
439,152,265975,1,0,0:2:0:0:
403,91,266059,6,0,B|340:73|340:73|132:175,1,239.999992675781,4|0,0:2|0:0,0:2:0:0:
159,179,266481,1,0,0:0:0:0:
159,179,266565,2,0,L|96:173,1,59.9999981689454,10|0,0:0|0:0,0:0:0:0:
248,228,266733,2,0,L|310:223,1,59.9999981689454
176,295,266902,2,0,L|114:290,1,59.9999981689454,10|0,0:0|0:0,0:0:0:0:
252,352,267070,1,0,0:0:0:0:
263,355,267155,1,0,0:0:0:0:
275,358,267239,1,10,0:0:0:0:
286,361,267323,1,0,0:0:0:0:
297,365,267407,6,0,P|331:309|291:231,1,119.999996337891,4|0,0:0|0:0,0:0:0:0:
276,189,267659,1,8,0:0:0:0:
276,189,267744,2,0,P|350:217|403:184,1,119.999996337891,8|0,0:0|0:0,0:0:0:0:
512,46,268082,6,0,L|472:40,1,39.9999987792969,8|8,0:0|0:0,0:0:0:0:
176,6,268250,5,4,0:0:0:0:
184,14,268587,1,0,0:0:0:0:
184,14,268671,1,0,0:0:0:0:
184,14,268756,6,0,P|196:79|199:191,1,160,4|0,0:0|0:0,0:0:0:0:
209,320,269262,2,0,P|260:310|304:330,1,80,10|0,0:0|0:2,0:0:0:0:
357,378,269599,1,10,0:0:0:0:
472,252,269767,1,0,0:0:0:0:
472,252,269851,1,0,0:0:0:0:
472,252,269936,1,10,0:0:0:0:
342,161,270104,6,0,P|327:96|410:104,1,160
429,112,270526,1,0,0:0:0:0:
429,112,270610,1,10,0:0:0:0:
300,236,270778,1,0,0:0:0:0:
300,236,270863,1,0,0:0:0:0:
300,236,270947,1,10,0:0:0:0:
193,103,271116,5,0,0:0:0:0:
185,101,271200,1,0,0:0:0:0:
177,99,271284,1,10,0:0:0:0:
169,97,271368,1,0,0:0:0:0:
161,96,271453,6,0,B|107:103|107:103|75:217,1,160,4|0,0:0|0:0,0:0:0:0:
77,312,271958,1,10,0:0:0:0:
77,312,272042,1,0,0:0:0:0:
77,312,272127,2,0,B|116:299|116:299|203:336,1,120
201,362,272465,2,0,B|240:375|240:375|292:358,1,80,0|10,0:0|0:0,0:0:0:0:
436,253,272802,6,0,B|397:236|397:236|268:277,1,160
255,290,273222,1,0,0:0:0:0:
255,290,273307,1,10,0:0:0:0:
213,206,273475,5,0,0:0:0:0:
213,198,273559,1,0,0:0:0:0:
212,190,273644,1,0,0:0:0:0:
211,182,273727,1,0,0:0:0:0:
211,174,273812,2,0,L|159:194,3,40
20,162,274149,5,12,0:2:0:0:
0,128,274233,1,0,0:2:0:0:
0,88,274317,1,0,0:2:0:0:
20,53,274402,1,0,0:2:0:0:
55,33,274486,1,10,0:2:0:0:
95,33,274570,1,0,0:2:0:0:
129,53,274654,1,0,0:2:0:0:
147,87,274739,1,0,0:2:0:0:
182,106,274823,1,10,0:2:0:0:
223,107,274907,1,0,0:2:0:0:
257,86,274992,1,0,0:2:0:0:
278,51,275076,1,0,0:2:0:0:
277,12,275160,6,0,L|220:-1,3,40,10|0|0|0,0:2|0:2|0:2|0:2,0:2:0:0:
77,120,275498,5,12,0:2:0:0:
65,158,275582,1,0,0:2:0:0:
53,196,275666,2,0,L|40:249,1,40,0|0,0:2|0:2,0:2:0:0:
123,346,275835,5,12,0:2:0:0:
135,308,275919,1,0,0:2:0:0:
147,270,276003,2,0,L|160:217,1,40,0|0,0:2|0:2,0:2:0:0:
277,158,276172,5,8,0:0:0:0:
317,157,276256,1,8,0:0:0:0:
351,177,276340,1,8,0:0:0:0:
371,211,276425,1,8,0:0:0:0:
371,252,276509,5,8,0:0:0:0:
387,280,276593,1,8,0:0:0:0:
414,296,276678,1,8,0:0:0:0:
446,296,276762,1,8,0:0:0:0:
474,280,276846,6,0,L|459:220,1,40,4|0,0:0|0:0,0:0:0:0:
484,265,277014,2,0,L|469:205,1,40,10|0,0:0|0:0,0:0:0:0:
357,143,277183,6,0,L|372:83,1,40
347,128,277351,2,0,L|362:68,1,40,10|0,0:0|0:0,0:0:0:0:
467,76,277520,6,0,L|452:16,1,40
477,61,277688,2,0,L|462:1,1,40,10|0,0:0|0:0,0:0:0:0:
326,25,277857,5,0,0:0:0:0:
286,57,277941,1,0,0:0:0:0:
267,106,278026,1,10,0:0:0:0:
277,158,278110,1,0,0:0:0:0:
310,197,278194,6,0,L|353:235,1,40
314,216,278363,2,0,L|357:254,1,40,10|0,0:0|0:0,0:0:0:0:
237,277,278531,6,0,L|194:315,1,40
233,296,278700,2,0,L|190:334,1,40,10|0,0:0|0:0,0:0:0:0:
329,339,278868,6,0,L|372:377,1,40
333,358,279037,2,0,L|376:396,1,40,12|0,0:0|0:0,0:0:0:0:
224,205,279205,5,0,0:0:0:0:
173,192,279290,1,0,0:0:0:0:
122,179,279373,1,12,0:0:0:0:
71,166,279458,1,0,0:0:0:0:
20,153,279542,6,0,L|36:93,1,40,4|0,0:0|0:0,0:0:0:0:
6,137,279711,2,0,L|22:77,1,40,10|0,0:0|0:0,0:0:0:0:
101,261,279880,6,0,L|85:201,1,40
115,245,280049,2,0,L|99:185,1,40,10|0,0:0|0:0,0:0:0:0:
14,345,280217,6,0,L|30:285,1,40
0,329,280386,2,0,L|16:269,1,40,10|0,0:0|0:0,0:0:0:0:
182,117,280554,5,0,0:0:0:0:
232,102,280639,1,0,0:0:0:0:
283,88,280722,1,10,0:0:0:0:
334,74,280807,1,0,0:0:0:0:
384,60,280891,6,0,L|400:119,1,40
397,76,281059,2,0,L|413:135,1,40,10|0,0:0|0:0,0:0:0:0:
308,221,281228,6,0,L|313:160,1,40,10|0,0:0|0:0,0:0:0:0:
301,201,281396,2,0,L|306:140,1,40
203,38,281565,6,0,L|208:98,1,40,12|0,0:0|0:0,0:0:0:0:
196,58,281733,2,0,L|201:118,1,40,12|0,0:0|0:0,0:0:0:0:
105,203,281902,5,12,0:0:0:0:
53,195,281986,1,0,0:0:0:0:
20,153,282071,1,0,0:0:0:0:
13,101,282155,1,0,0:0:0:0:
45,60,282239,5,12,0:0:0:0:
84,70,282323,1,0,0:0:0:0:
112,99,282407,1,0,0:0:0:0:
123,137,282492,1,0,0:0:0:0:
112,176,282576,1,10,0:0:0:0:
84,204,282660,1,0,0:0:0:0:
56,232,282745,1,0,0:0:0:0:
45,271,282829,1,0,0:0:0:0:
56,309,282913,6,0,L|118:330,1,40,10|0,0:0|0:0,0:0:0:0:
69,327,283082,2,0,L|131:348,1,40
252,230,283250,5,12,0:0:0:0:
304,238,283334,1,0,0:0:0:0:
337,280,283419,1,0,0:0:0:0:
344,332,283503,1,0,0:0:0:0:
312,373,283587,5,10,0:0:0:0:
273,363,283671,1,0,0:0:0:0:
245,334,283755,1,8,0:0:0:0:
234,296,283840,1,0,0:0:0:0:
245,257,283924,1,0,0:0:0:0:
273,229,284008,1,0,0:0:0:0:
301,201,284093,1,0,0:0:0:0:
312,162,284177,1,0,0:0:0:0:
301,124,284261,6,0,L|238:102,1,40,10|0,0:0|0:0,0:0:0:0:
146,29,284430,2,0,L|208:7,1,40,0|10,0:0|0:0,0:0:0:0:
397,76,284599,5,0,0:0:0:0:
403,114,284683,1,0,0:0:0:0:
410,153,284767,1,0,0:0:0:0:
416,192,284852,1,0,0:0:0:0:
423,230,284936,6,0,B|418:276|418:276|287:326,1,160,4|0,0:0|0:0,0:0:0:0:
117,315,285610,6,0,B|122:269|122:269|253:219,1,160,4|0,0:0|0:0,0:0:0:0:
452,160,286116,1,0,0:0:0:0:
452,160,286200,1,0,0:0:0:0:
452,160,286284,5,12,0:0:0:0:
269,120,286453,1,0,0:0:0:0:
311,316,286621,1,8,0:0:0:0:
455,60,286790,5,8,0:0:0:0:
157,135,286958,1,8,0:0:0:0:
311,343,287127,5,8,0:0:0:0:
313,21,287295,1,8,0:0:0:0:
75,197,287464,1,8,0:0:0:0:
433,309,287632,5,12,0:0:0:0:
186,25,287857,5,0,0:0:0:0:
54,368,288082,5,12,0:0:0:0:
492,57,289992,6,0,B|441:10|441:10|211:42|211:42|173:111,1,375.000014305115,4|0,3:0|0:0,0:0:0:0:
144,199,291003,1,0,0:0:0:0:
264,150,291171,1,0,0:0:0:0:
354,220,291340,6,0,B|433:252|427:387|283:409|232:312|267:250|267:250|267:250|267:250|289:255|304:272|307:292,1,375.000014305115
179,276,292351,5,0,3:0:0:0:
295,162,292520,1,0,3:0:0:0:
35,84,292688,6,0,B|11:81|-9:97|-9:97|-10:68|10:12|135:30|119:117|119:117|87:266|87:266|102:199|176:185,1,525.000020027161,4|0,3:0|0:0,0:0:0:0:
276,138,294036,1,10,0:0:0:0:
276,138,294121,1,0,0:0:0:0:
276,138,294205,2,0,L|269:72,1,37.5000014305115
358,121,294374,1,0,0:0:0:0:
358,121,294459,1,0,0:0:0:0:
358,121,294543,2,0,L|352:82,2,25.0000009536744
444,149,294711,5,10,0:0:0:0:
307,32,294879,1,4,0:0:0:0:
188,263,295048,2,0,L|177:369,1,75.0000028610231,4|0,0:0|0:0,0:0:0:0:
414,381,295385,6,0,B|432:336|432:336|404:220,1,150.000005722046,4|2,0:0|0:0,0:0:0:0:
276,138,295890,1,0,0:0:0:0:
276,138,296059,6,0,P|257:185|216:210,1,75.0000028610231,2|0,0:0|0:0,0:0:0:0:
72,185,296396,1,2,0:0:0:0:
189,131,296565,1,0,0:0:0:0:
58,64,296733,5,12,0:0:0:0:
170,261,296902,1,0,0:0:0:0:
268,45,297070,1,0,0:0:0:0:
60,296,297239,5,14,0:0:0:0:
160,16,297407,1,0,0:0:0:0:
301,275,297576,1,0,0:0:0:0:
72,185,297744,2,0,L|37:181,4,25.0000009536744
205,328,298081,5,12,0:0:0:0:
339,123,298250,1,0,0:0:0:0:
83,102,298419,1,0,0:0:0:0:
289,350,298587,1,0,0:0:0:0:
214,27,298756,5,0,0:0:0:0:
121,344,298924,1,0,0:0:0:0:
408,237,299093,1,0,0:0:0:0:
103,32,299261,5,12,0:0:0:0:
103,32,299598,5,10,0:0:0:0:
7,294,299767,1,10,0:0:0:0:
7,294,300778,6,0,P|48:239|180:296,1,200,4|0,0:0|0:0,0:0:0:0:
187,290,301199,1,0,0:0:0:0:
187,290,301284,1,10,0:0:0:0:
265,384,301452,2,0,P|269:325|334:293,1,100,0|10,0:0|0:0,0:0:0:0:
427,250,301789,5,0,0:0:0:0:
258,54,301958,1,10,0:0:0:0:
258,54,302042,1,0,0:0:0:0:
258,54,302126,6,0,B|221:82|221:82|237:239,1,200
346,371,302632,1,10,0:0:0:0:
459,149,302800,2,0,L|342:162,1,100,0|10,0:0|0:0,0:0:0:0:
236,234,303138,1,0,0:0:0:0:
236,234,303222,1,0,0:0:0:0:
236,234,303306,1,10,0:0:0:0:
97,0,303475,6,0,B|103:79|103:79|123:105|123:105|130:192,1,200
144,225,303896,1,0,0:0:0:0:
144,225,303980,1,10,0:0:0:0:
0,323,304149,6,0,P|22:276|80:265,1,100,0|10,0:0|0:0,0:0:0:0:
275,320,304486,1,0,0:0:0:0:
275,320,304570,1,0,0:0:0:0:
275,320,304654,1,10,0:0:0:0:
80,339,304823,5,0,0:0:0:0:
277,168,304992,1,10,0:0:0:0:
187,384,305160,1,0,0:0:0:0:
187,384,305244,1,0,0:0:0:0:
187,384,305329,1,10,0:0:0:0:
0,177,305497,6,0,L|14:68,1,100,0|10,0:0|0:0,0:0:0:0:
115,0,305750,1,0,0:0:0:0:
115,0,305834,2,0,L|128:99,1,100,0|10,0:0|0:0,0:0:0:0:
269,238,306171,6,0,B|249:88|249:88|298:54,1,200,4|0,0:0|0:0,0:0:0:0:
323,52,306593,1,0,0:0:0:0:
323,52,306677,1,10,0:0:0:0:
376,131,306845,2,0,P|438:127|481:77,1,100,0|10,0:0|0:0,0:0:0:0:
512,0,307183,1,0,0:0:0:0:
512,0,307267,1,0,0:0:0:0:
512,0,307351,1,10,0:0:0:0:
388,245,307520,6,0,B|292:230|292:230|274:241|274:241|168:227,1,200
413,341,308025,2,0,L|519:327,1,100,10|0,0:0|0:0,0:0:0:0:
271,369,308362,1,10,0:0:0:0:
271,369,308447,1,0,0:0:0:0:
271,369,308531,2,0,L|293:253,1,100,0|10,0:0|0:0,0:0:0:0:
236,112,308868,5,0,0:0:0:0:
192,87,308952,1,0,0:0:0:0:
143,95,309036,1,10,0:0:0:0:
111,133,309121,1,0,0:0:0:0:
111,183,309205,1,0,0:0:0:0:
143,222,309289,1,0,0:0:0:0:
192,230,309374,2,0,P|221:190|296:173,1,100,10|0,0:0|0:0,0:0:0:0:
375,211,309711,1,10,0:0:0:0:
478,112,309879,1,0,0:0:0:0:
478,112,309963,1,0,0:0:0:0:
478,112,310048,2,0,L|488:230,1,100,10|0,0:0|0:0,0:0:0:0:
242,383,310385,6,0,L|351:373,1,100,10|0,0:0|0:0,0:0:0:0:
432,261,310722,1,10,0:0:0:0:
290,261,310890,1,0,0:0:0:0:
290,261,310975,1,0,0:0:0:0:
290,261,311059,1,10,0:0:0:0:
430,384,311227,1,0,0:0:0:0:
430,384,311312,1,0,0:0:0:0:
430,384,311396,1,10,0:0:0:0:
225,193,311565,6,0,B|234:35|234:35|232:73|257:105,1,200,4|0,0:0|0:0,0:0:0:0:
406,100,312070,1,10,0:0:0:0:
406,100,312154,1,0,0:0:0:0:
406,100,312239,2,0,P|369:138|296:133,1,100,0|10,0:0|0:0,0:0:0:0:
326,40,312576,1,0,0:0:0:0:
326,40,312660,1,0,0:0:0:0:
326,40,312744,1,10,0:0:0:0:
125,37,312913,6,0,B|94:80|116:144|133:130|161:193|109:242,1,200
0,327,313418,2,0,B|52:307|52:307|232:361,1,200,10|10,0:0|0:0,0:0:0:0:
297,384,313924,5,0,0:0:0:0:
297,384,314008,1,0,0:0:0:0:
297,384,314093,1,10,0:0:0:0:
263,132,314261,5,0,0:0:0:0:
410,328,314430,1,10,0:0:0:0:
184,267,314598,1,0,0:0:0:0:
411,91,314767,1,10,0:0:0:0:
125,37,314935,5,0,0:0:0:0:
314,254,315104,1,10,0:0:0:0:
314,254,315188,1,0,0:0:0:0:
314,254,315272,1,0,0:0:0:0:
482,118,315441,6,0,B|478:73|478:73|303:35,1,200,10|10,0:0|0:0,0:0:0:0:
221,201,315947,1,0,0:0:0:0:
420,166,316115,1,10,0:0:0:0:
237,5,316284,1,0,0:0:0:0:
237,5,316368,1,0,0:0:0:0:
237,5,316452,2,0,L|231:118,1,100,10|0,0:0|0:0,0:0:0:0:
26,208,316789,1,10,0:0:0:0:
26,208,316874,1,0,0:0:0:0:
26,208,316958,6,0,P|25:143|112:193,1,200,4|0,0:0|0:0,0:0:0:0:
215,237,317463,1,10,0:0:0:0:
120,381,317632,2,0,P|112:304|132:245,1,100,0|10,0:0|0:0,0:0:0:0:
231,104,317969,1,0,0:0:0:0:
390,344,318138,1,10,0:0:0:0:
390,344,318222,1,0,0:0:0:0:
390,344,318306,6,0,B|398:251|398:251|403:238|403:238|412:132,1,200
467,88,318812,1,10,0:0:0:0:
394,1,318980,2,0,B|348:14|348:14|312:98,1,100,0|10,0:0|0:0,0:0:0:0:
297,164,319317,2,0,B|276:116|276:116|230:103,1,100,0|12,0:0|0:0,0:0:0:0:
75,192,319654,5,4,0:0:0:0:
28,178,319739,1,0,0:0:0:0:
0,139,319823,1,10,0:0:0:0:
4,92,319907,1,0,0:0:0:0:
39,57,319992,1,0,0:0:0:0:
87,54,320076,1,0,0:0:0:0:
125,81,320160,6,0,L|145:143,3,50,10|0|0|0,0:0|0:0|0:0|0:0,0:0:0:0:
224,287,320497,5,10,0:0:0:0:
258,307,320581,1,0,0:0:0:0:
298,300,320666,1,0,0:0:0:0:
323,269,320750,1,0,0:0:0:0:
323,229,320834,1,10,0:0:0:0:
298,198,320918,1,0,0:0:0:0:
254,188,321003,5,12,0:2:0:0:
270,240,321087,1,8,0:2:0:0:
311,276,321171,1,8,0:2:0:0:
366,283,321256,1,8,0:2:0:0:
415,261,321340,1,8,0:2:0:0:
445,215,321424,1,8,0:2:0:0:
445,160,321508,1,8,0:2:0:0:
415,113,321593,1,8,0:2:0:0:
366,91,321677,2,8,L|303:102,3,50,0|0|0|0,0:0|0:0|0:0|0:0,0:0:0:0:
115,160,322014,5,0,0:0:0:0:
105,160,322098,1,0,0:0:0:0:
95,160,322183,1,0,0:0:0:0:
85,160,322266,1,0,0:0:0:0:
74,160,322351,5,4,0:0:0:0:
113,122,322436,1,0,0:0:0:0:
167,107,322520,1,10,0:0:0:0:
220,122,322604,1,0,0:0:0:0:
259,160,322688,1,0,0:0:0:0:
298,198,322773,1,0,0:0:0:0:
352,213,322857,1,10,0:0:0:0:
405,198,322941,1,0,0:0:0:0:
444,160,323025,1,0,0:0:0:0:
458,106,323109,1,0,0:0:0:0:
444,53,323193,1,10,0:0:0:0:
405,14,323277,1,0,0:0:0:0:
351,0,323362,6,0,P|325:21|310:57,1,55.0000016784668
259,160,323531,2,0,P|240:136|216:120,1,55.0000016784668,10|0,0:0|0:0,0:0:0:0:
123,31,323699,5,0,0:0:0:0:
74,57,323784,1,0,0:0:0:0:
55,109,323868,1,10,0:0:0:0:
74,160,323952,1,0,0:0:0:0:
121,188,324036,1,0,0:0:0:0:
164,223,324120,1,0,0:0:0:0:
173,279,324205,1,10,0:0:0:0:
146,327,324289,1,0,0:0:0:0:
94,345,324373,1,0,0:0:0:0:
43,325,324457,1,0,0:0:0:0:
15,278,324542,1,10,0:0:0:0:
25,223,324626,1,0,0:0:0:0:
66,186,324711,6,0,L|128:188,1,55.0000016784668
197,252,324879,2,0,L|251:250,1,55.0000016784668,10|0,0:0|0:0,0:0:0:0:
382,229,325048,5,0,0:0:0:0:
429,241,325132,1,0,0:0:0:0:
457,282,325216,1,10,0:0:0:0:
453,331,325300,1,0,0:0:0:0:
418,365,325385,1,0,0:0:0:0:
369,370,325469,1,0,0:0:0:0:
328,342,325553,2,0,L|319:284,1,55.0000016784668,10|0,0:0|0:0,0:0:0:0:
225,95,325722,5,0,0:0:0:0:
172,114,325806,1,0,0:0:0:0:
145,162,325890,1,10,0:0:0:0:
154,216,325975,1,0,0:0:0:0:
197,252,326059,1,0,0:0:0:0:
252,251,326143,1,0,0:0:0:0:
293,215,326227,1,10,0:0:0:0:
303,161,326312,1,0,0:0:0:0:
312,107,326396,1,0,0:0:0:0:
355,71,326480,1,0,0:0:0:0:
410,72,326564,1,10,0:0:0:0:
451,108,326648,1,0,0:0:0:0:
461,162,326733,1,0,0:0:0:0:
433,210,326818,1,0,0:0:0:0:
382,229,326902,6,0,L|310:222,1,55.0000016784668,10|0,0:0|0:0,0:0:0:0:
221,172,327070,5,0,0:0:0:0:
210,170,327154,1,0,0:0:0:0:
198,168,327239,1,10,0:0:0:0:
187,167,327323,1,0,0:0:0:0:
163,144,327407,5,0,0:0:0:0:
152,142,327491,1,0,0:0:0:0:
140,140,327576,1,10,0:0:0:0:
129,139,327660,1,0,0:0:0:0:
103,119,327744,5,4,0:0:0:0:
59,126,327828,1,0,0:0:0:0:
30,160,327912,1,10,0:0:0:0:
30,204,327997,1,0,0:0:0:0:
59,237,328081,1,0,0:0:0:0:
102,245,328165,1,0,0:0:0:0:
140,223,328249,1,10,0:0:0:0:
183,231,328334,1,0,0:0:0:0:
212,264,328418,1,0,0:0:0:0:
212,308,328503,1,0,0:0:0:0:
183,342,328587,1,10,0:0:0:0:
139,349,328671,1,0,0:0:0:0:
100,327,328756,6,0,L|106:263,3,55.0000016784668,0|0|10|0,0:0|0:0|0:0|0:0,0:0:0:0:
222,165,329093,5,0,0:0:0:0:
219,148,329177,1,0,0:0:0:0:
216,132,329261,1,10,0:0:0:0:
213,115,329346,1,0,0:0:0:0:
210,99,329430,2,0,L|195:-6,1,55.0000016784668
309,189,329598,5,10,0:0:0:0:
306,175,329682,1,0,0:0:0:0:
304,161,329766,1,0,0:0:0:0:
301,147,329851,1,0,0:0:0:0:
299,134,329935,2,0,L|286:46,1,55.0000016784668,10|0,0:0|0:0,0:0:0:0:
397,216,330104,5,0,0:0:0:0:
395,205,330188,1,0,0:0:0:0:
393,194,330272,1,10,0:0:0:0:
391,183,330357,1,0,0:0:0:0:
389,172,330441,5,4,0:0:0:0:
433,171,330525,1,0,0:0:0:0:
471,193,330610,1,10,0:0:0:0:
493,231,330694,1,0,0:0:0:0:
492,275,330778,1,0,0:0:0:0:
471,313,330863,1,0,0:0:0:0:
432,336,330947,1,10,0:0:0:0:
389,336,331031,1,0,0:0:0:0:
350,313,331115,1,0,0:0:0:0:
328,275,331200,1,0,0:0:0:0:
306,237,331284,1,10,0:0:0:0:
267,214,331368,1,0,0:0:0:0:
224,214,331452,1,0,0:0:0:0:
185,237,331536,1,0,0:0:0:0:
164,275,331621,1,10,0:0:0:0:
163,319,331705,1,0,0:0:0:0:
185,357,331789,1,0,0:0:0:0:
223,379,331874,1,0,0:0:0:0:
267,378,331958,1,10,0:0:0:0:
305,358,332042,1,0,0:0:0:0:
327,320,332126,1,0,0:0:0:0:
326,276,332210,1,0,0:0:0:0:
305,238,332295,1,10,0:0:0:0:
267,214,332379,1,0,0:0:0:0:
246,176,332463,6,0,L|251:106,3,55.0000016784668,0|0|10|0,0:0|0:0|0:0|0:0,0:0:0:0:
347,23,332800,2,0,L|343:77,3,55.0000016784668,0|0|10|0,0:0|0:0|0:0|0:0,0:0:0:0:
113,166,333138,5,4,0:0:0:0:
59,151,333222,1,0,0:0:0:0:
28,106,333306,1,10,0:0:0:0:
33,51,333390,1,0,0:0:0:0:
72,13,333475,1,0,0:0:0:0:
126,8,333559,1,0,0:0:0:0:
171,39,333643,1,10,0:0:0:0:
186,92,333727,1,0,0:0:0:0:
201,145,333812,1,0,0:0:0:0:
246,176,333896,1,0,0:0:0:0:
300,171,333980,1,10,0:0:0:0:
339,133,334065,1,0,0:0:0:0:
343,77,334149,2,0,L|347:23,3,55.0000016784668,0|0|10|0,0:0|0:0|0:0|0:0,0:0:0:0:
481,0,334486,5,0,0:0:0:0:
479,10,334570,1,0,0:0:0:0:
478,20,334654,1,10,0:0:0:0:
477,30,334739,1,0,0:0:0:0:
476,40,334823,2,0,L|468:104,1,55.0000016784668
403,165,334992,5,10,0:0:0:0:
405,175,335076,1,0,0:0:0:0:
406,185,335160,1,0,0:0:0:0:
407,195,335245,1,0,0:0:0:0:
408,205,335329,2,0,L|416:269,1,55.0000016784668,10|0,0:0|0:0,0:0:0:0:
497,337,335497,1,0,0:0:0:0:
497,337,335581,1,0,0:0:0:0:
497,337,335666,1,10,0:0:0:0:
338,376,335834,5,4,0:0:0:0:
512,207,336003,1,10,0:0:0:0:
277,126,336171,1,0,0:0:0:0:
424,384,336340,1,10,0:0:0:0:
435,98,336508,5,0,0:0:0:0:
286,278,336677,1,10,0:0:0:0:
286,278,336761,1,0,0:0:0:0:
286,278,336845,2,0,L|269:214,1,55.0000016784668
186,92,337014,5,10,0:0:0:0:
138,64,337098,1,0,0:0:0:0:
84,74,337183,1,0,0:0:0:0:
48,116,337267,1,0,0:0:0:0:
48,171,337351,1,10,0:0:0:0:
201,295,337520,5,0,0:0:0:0:
127,145,337688,1,10,0:0:0:0:
45,350,337857,1,0,0:0:0:0:
45,350,337941,1,0,0:0:0:0:
45,350,338025,2,0,L|39:289,3,55.0000016784668,12|0|0|0,0:0|0:0|0:0|0:0,0:0:0:0:
127,145,338362,2,0,L|137:213,1,55.0000016784668,12|0,0:0|0:0,0:0:0:0:
201,295,338531,5,4,0:0:0:0:
245,327,338615,1,0,0:0:0:0:
300,327,338699,1,10,0:0:0:0:
344,295,338784,1,0,0:0:0:0:
361,242,338868,1,0,0:0:0:0:
344,190,338952,1,0,0:0:0:0:
300,158,339036,1,10,0:0:0:0:
283,105,339121,1,0,0:0:0:0:
300,53,339205,1,0,0:0:0:0:
344,21,339289,1,0,0:0:0:0:
399,21,339374,1,10,0:0:0:0:
444,53,339458,1,0,0:0:0:0:
461,106,339542,2,0,P|431:144|399:151,1,55.0000016784668
344,190,339711,2,0,P|296:183|274:158,1,55.0000016784668,10|0,0:0|0:0,0:0:0:0:
186,54,339879,5,0,0:0:0:0:
142,45,339963,1,0,0:0:0:0:
101,61,340048,1,10,0:0:0:0:
76,97,340132,1,0,0:0:0:0:
73,141,340216,1,0,0:0:0:0:
95,179,340300,1,0,0:0:0:0:
135,199,340385,1,10,0:0:0:0:
178,195,340469,1,0,0:0:0:0:
218,217,340554,1,0,0:0:0:0:
237,256,340638,1,0,0:0:0:0:
233,300,340722,1,10,0:0:0:0:
206,334,340806,1,0,0:0:0:0:
165,348,340890,2,0,L|96:331,3,55.0000016784668,0|0|10|0,0:0|0:0|0:0|0:0,0:0:0:0:
218,217,341227,5,4,0:0:0:0:
229,215,341312,1,0,0:0:0:0:
239,213,341396,1,10,0:0:0:0:
249,211,341480,1,0,0:0:0:0:
260,209,341565,2,0,L|327:196,1,55.0000016784668
304,285,341733,5,10,0:0:0:0:
315,283,341818,1,0,0:0:0:0:
325,281,341902,1,0,0:0:0:0:
335,279,341986,1,0,0:0:0:0:
346,277,342071,2,0,L|413:264,1,55.0000016784668,10|0,0:0|0:0,0:0:0:0:
395,349,342239,5,0,0:0:0:0:
406,347,342324,1,0,0:0:0:0:
416,345,342408,1,12,0:0:0:0:
426,343,342492,1,0,0:0:0:0:
437,341,342576,2,8,L|504:328,1,55.0000016784668,12|8,0:0|0:0,0:0:0:0:
456,200,342744,5,8,0:0:0:0:
413,156,342829,1,8,0:0:0:0:
354,141,342913,1,0,0:0:0:0:
297,162,342997,1,8,0:0:0:0:
260,209,343081,1,0,0:0:0:0:
217,253,343166,1,0,0:0:0:0:
158,268,343250,2,8,P|120:258|97:236,1,55.0000016784668,0|0,0:0|0:0,0:0:0:0:
15,175,343418,5,0,0:0:0:0:
16,163,343503,1,0,0:0:0:0:
17,152,343587,1,0,0:0:0:0:
18,141,343671,1,0,0:0:0:0:
19,130,343756,1,0,0:0:0:0:
20,119,343840,1,0,0:0:0:0:
21,108,343924,5,4,0:2:0:0:
60,69,344009,1,0,0:2:0:0:
113,54,344093,1,10,0:2:0:0:
166,69,344177,1,0,0:2:0:0:
205,108,344261,1,2,0:2:0:0:
224,160,344345,1,0,0:2:0:0:
271,187,344430,1,10,0:2:0:0:
325,177,344514,1,0,0:2:0:0:
361,135,344598,1,2,0:2:0:0:
361,80,344683,1,0,0:2:0:0:
325,38,344767,1,10,0:2:0:0:
271,29,344851,1,0,0:2:0:0:
223,56,344935,2,0,L|203:116,1,55.0000016784668,2|0,0:2|0:2,0:2:0:0:
271,187,345104,2,0,L|291:247,1,55.0000016784668,10|0,0:2|0:2,0:2:0:0:
159,366,345272,5,2,0:2:0:0:
115,362,345357,1,0,0:2:0:0:
79,336,345441,1,10,0:2:0:0:
64,295,345525,1,0,0:2:0:0:
73,252,345609,1,2,0:2:0:0:
104,221,345694,1,0,0:2:0:0:
147,211,345778,1,10,0:2:0:0:
185,190,345862,1,0,0:2:0:0:
207,152,345947,1,2,0:2:0:0:
205,108,346031,1,0,0:2:0:0:
180,72,346115,1,10,0:2:0:0:
138,56,346199,1,0,0:2:0:0:
95,64,346284,2,0,P|74:88|68:126,1,55.0000016784668,2|0,0:2|0:2,0:2:0:0:
51,183,346452,2,0,P|61:213|91:237,1,55.0000016784668,10|0,0:2|0:2,0:2:0:0:
185,290,346621,5,2,0:2:0:0:
232,283,346705,1,0,0:2:0:0:
280,277,346789,1,10,0:2:0:0:
328,272,346874,1,0,0:2:0:0:
376,266,346958,1,2,0:2:0:0:
423,261,347042,1,0,0:2:0:0:
472,255,347126,2,0,P|496:226|502:190,1,55.0000016784668,10|0,0:2|0:2,0:2:0:0:
464,93,347295,5,2,0:2:0:0:
408,71,347379,1,0,0:2:0:0:
357,90,347463,1,10,0:2:0:0:
329,136,347548,1,0,0:2:0:0:
339,191,347632,1,2,0:2:0:0:
381,227,347716,1,0,0:2:0:0:
423,261,347800,1,10,0:2:0:0:
434,318,347884,1,0,0:2:0:0:
404,363,347969,1,2,0:2:0:0:
353,383,348053,1,0,0:2:0:0:
300,363,348137,1,10,0:2:0:0:
270,318,348222,1,0,0:2:0:0:
281,261,348306,1,2,0:2:0:0:
251,216,348390,1,0,0:2:0:0:
200,196,348475,2,0,P|148:200|134:207,1,55.0000016784668,10|0,0:2|0:2,0:2:0:0:
68,206,348643,6,0,P|45:253|44:268,3,55.0000016784668,2|0|10|0,0:2|0:2|0:2|0:2,0:2:0:0:
10,325,348980,2,0,P|39:368|52:376,3,55.0000016784668,2|2|10|2,0:2|0:2|0:2|0:2,0:2:0:0:
175,370,349317,5,4,0:2:0:0:
183,312,349402,1,0,0:2:0:0:
191,254,349486,1,10,0:2:0:0:
200,196,349570,1,0,0:2:0:0:
208,139,349654,1,2,0:2:0:0:
188,87,349739,1,0,0:2:0:0:
139,52,349823,1,10,0:2:0:0:
81,51,349907,1,0,0:2:0:0:
32,80,349991,1,2,0:2:0:0:
6,132,350076,1,0,0:2:0:0:
12,190,350160,1,10,0:2:0:0:
48,234,350244,1,0,0:2:0:0:
102,251,350329,2,0,L|159:245,3,55.0000016784668,2|0|10|0,0:2|0:2|0:2|0:2,0:2:0:0:
284,135,350666,5,2,0:2:0:0:
284,124,350750,1,0,0:2:0:0:
285,114,350834,1,10,0:2:0:0:
285,103,350919,1,0,0:2:0:0:
286,92,351003,2,0,L|292:16,1,55.0000016784668,2|0,0:2|0:2,0:2:0:0:
369,178,351171,5,10,0:2:0:0:
369,167,351255,1,0,0:2:0:0:
370,156,351339,1,2,0:2:0:0:
370,145,351424,1,0,0:2:0:0:
370,134,351508,2,0,L|376:58,1,55.0000016784668,10|0,0:2|0:2,0:2:0:0:
476,18,351677,5,2,0:2:0:0:
476,29,351761,1,0,0:2:0:0:
475,40,351845,1,10,0:2:0:0:
475,51,351930,1,0,0:2:0:0:
475,62,352014,5,4,0:2:0:0:
432,96,352098,1,0,0:2:0:0:
377,106,352183,1,10,0:2:0:0:
326,87,352266,1,0,0:2:0:0:
290,45,352351,1,2,0:2:0:0:
247,11,352436,1,0,0:2:0:0:
192,1,352519,1,10,0:2:0:0:
141,20,352604,1,0,0:2:0:0:
105,62,352687,1,2,0:2:0:0:
96,117,352773,1,0,0:2:0:0:
114,168,352856,1,10,0:2:0:0:
157,204,352941,1,0,0:2:0:0:
211,213,353025,1,2,0:2:0:0:
245,255,353110,1,0,0:2:0:0:
247,311,353194,1,10,0:2:0:0:
211,353,353279,1,0,0:2:0:0:
157,362,353361,1,2,0:2:0:0:
109,335,353447,1,0,0:2:0:0:
91,283,353530,1,10,0:2:0:0:
109,232,353615,1,0,0:2:0:0:
157,204,353699,1,2,0:2:0:0:
211,213,353784,1,0,0:2:0:0:
245,255,353869,1,10,0:2:0:0:
279,297,353953,1,0,0:2:0:0:
333,306,354036,6,0,P|366:303|402:281,3,55.0000016784668,2|0|12|0,0:2|0:2|0:2|0:2,0:2:0:0:
466,289,354374,2,0,P|479:258|478:216,3,55.0000016784668,2|0|12|0,0:2|0:2|0:2|0:2,0:2:0:0:
307,86,354711,5,4,0:2:0:0:
279,133,354795,1,0,0:2:0:0:
289,187,354879,1,10,0:2:0:0:
331,223,354963,1,0,0:2:0:0:
386,223,355048,1,2,0:2:0:0:
428,187,355132,1,0,0:2:0:0:
437,133,355216,1,10,0:2:0:0:
410,85,355300,1,0,0:2:0:0:
358,67,355385,1,2,0:2:0:0:
307,86,355469,1,0,0:2:0:0:
279,133,355553,1,10,0:2:0:0:
228,152,355637,1,0,0:2:0:0:
176,134,355722,2,0,L|181:71,3,55.0000016784668,2|0|10|0,0:2|0:2|0:2|0:2,0:2:0:0:
51,3,356059,5,2,0:2:0:0:
53,13,356143,1,0,0:2:0:0:
55,24,356227,1,10,0:2:0:0:
57,34,356312,1,0,0:2:0:0:
59,45,356396,2,0,L|51:129,1,55.0000016784668,2|0,0:2|0:2,0:2:0:0:
103,173,356565,5,10,0:2:0:0:
101,183,356649,1,0,0:2:0:0:
99,194,356733,1,2,0:2:0:0:
97,204,356818,1,0,0:2:0:0:
95,215,356902,2,0,L|103:299,1,55.0000016784668,10|0,0:2|0:2,0:2:0:0:
173,352,357070,1,2,0:2:0:0:
173,352,357154,1,0,0:2:0:0:
173,352,357239,1,10,0:2:0:0:
280,187,357407,5,4,0:2:0:0:
72,364,357576,1,10,0:2:0:0:
312,384,357744,1,2,0:2:0:0:
195,162,357913,1,10,0:2:0:0:
410,85,358081,5,2,0:2:0:0:
253,313,358250,1,10,0:2:0:0:
253,313,358334,1,0,0:2:0:0:
253,313,358418,1,2,0:2:0:0:
459,384,358587,5,10,0:2:0:0:
487,367,358671,1,0,0:2:0:0:
504,338,358756,1,2,0:2:0:0:
504,305,358840,1,0,0:2:0:0:
487,277,358924,5,10,0:2:0:0:
280,187,359093,1,2,0:2:0:0:
422,318,359261,1,10,0:2:0:0:
472,138,359430,1,4,0:2:0:0:
333,310,359598,1,10,0:2:0:0:
333,310,359683,1,0,0:2:0:0:
333,310,359767,2,0,L|339:249,3,55.0000016784668,4|2|2|2,0:2|0:2|0:2|0:2,0:2:0:0:
277,84,360104,5,4,0:2:0:0:
238,62,360188,1,0,0:2:0:0:
195,69,360272,1,10,0:2:0:0:
167,103,360357,1,0,0:2:0:0:
167,147,360441,1,2,0:2:0:0:
195,181,360525,1,0,0:2:0:0:
238,188,360609,1,10,0:2:0:0:
266,222,360694,1,0,0:2:0:0:
266,266,360778,1,2,0:2:0:0:
238,300,360863,1,0,0:2:0:0:
195,307,360947,1,10,0:2:0:0:
156,285,361031,1,0,0:2:0:0:
137,245,361115,2,0,L|146:174,1,55.0000016784668,2|0,0:2|0:2,0:2:0:0:
236,96,361284,2,0,L|227:25,1,55.0000016784668,10|0,0:2|0:2,0:2:0:0:
54,3,361452,5,4,0:2:0:0:
15,25,361536,1,0,0:2:0:0:
0,66,361621,1,10,0:2:0:0:
15,107,361705,1,0,0:2:0:0:
53,129,361789,1,2,0:2:0:0:
97,122,361874,1,0,0:2:0:0:
125,87,361958,1,10,0:2:0:0:
161,60,362041,1,0,0:2:0:0:
205,65,362126,1,2,0:2:0:0:
236,96,362210,1,0,0:2:0:0:
240,139,362294,1,10,0:2:0:0:
215,175,362379,1,0,0:2:0:0:
171,186,362463,2,0,L|115:161,3,55.0000016784668,2|0|10|0,0:2|0:2|0:2|0:2,0:2:0:0:
229,41,362800,5,4,0:2:0:0:
252,36,362885,1,0,0:2:0:0:
275,32,362969,1,10,0:0:0:0:
298,28,363053,1,0,0:2:0:0:
321,24,363138,2,0,L|385:10,1,55.0000016784668,0|0,0:0|0:2,0:2:0:0:
310,108,363306,5,10,0:0:0:0:
323,105,363390,1,0,0:2:0:0:
336,103,363475,1,0,0:0:0:0:
349,100,363559,1,0,0:2:0:0:
362,98,363643,2,0,L|437:83,1,55.0000016784668,12|0,0:2|0:2,0:2:0:0:
484,158,363812,5,0,0:2:0:0:
473,160,363897,1,0,0:2:0:0:
462,162,363981,1,10,0:0:0:0:
451,164,364066,1,0,0:2:0:0:
440,166,364149,5,8,0:3:0:0:
393,196,364234,1,8,0:2:0:0:
379,250,364318,1,0,0:2:0:0:
402,299,364402,1,0,0:2:0:0:
453,322,364486,2,0,P|499:294|507:275,3,55.0000016784668,0|0|8|8,0:2|0:2|0:0|0:0,0:2:0:0:
362,98,364823,5,8,0:0:0:0:
307,106,364907,1,8,0:0:0:0:
253,116,364991,1,0,0:2:0:0:
197,127,365076,1,0,0:2:0:0:
143,136,365160,6,0,P|116:155|107:169,1,44.999998626709,12|0,0:0|0:0,0:0:0:0:
58,220,365497,5,12,0:0:0:0:
18,182,365581,1,0,0:0:0:0:
3,133,365666,1,0,0:0:0:0:
16,84,365750,1,0,0:0:0:0:
49,49,365834,1,10,0:0:0:0:
97,35,365918,1,0,0:0:0:0:
146,45,366003,1,0,0:0:0:0:
183,79,366087,1,0,0:0:0:0:
197,127,366171,1,10,0:0:0:0:
214,173,366255,1,0,0:0:0:0:
254,203,366339,1,0,0:0:0:0:
303,208,366424,1,0,0:0:0:0:
349,191,366508,2,0,L|352:125,3,50,10|0|0|0,0:0|0:0|0:0|0:0,0:0:0:0:
155,216,366845,5,10,0:0:0:0:
149,239,366929,1,0,0:0:0:0:
144,264,367013,1,0,0:0:0:0:
139,288,367097,1,0,0:0:0:0:
134,313,367182,1,10,0:0:0:0:
129,338,367266,1,0,0:0:0:0:
124,361,367350,5,0,0:0:0:0:
84,367,367436,1,0,0:0:0:0:
46,354,367520,1,10,0:0:0:0:
21,323,367604,1,0,0:0:0:0:
13,283,367688,1,0,0:0:0:0:
26,245,367773,1,0,0:0:0:0:
58,220,367857,2,0,L|115:240,3,50,10|0|0|0,0:0|0:0|0:0|0:0,0:0:0:0:
312,365,368194,5,12,0:0:0:0:
359,377,368279,1,0,0:0:0:0:
408,365,368363,1,0,0:0:0:0:
443,329,368447,1,0,0:0:0:0:
456,280,368531,1,10,0:0:0:0:
443,232,368616,1,0,0:0:0:0:
407,197,368700,1,0,0:0:0:0:
359,184,368784,1,0,0:0:0:0:
311,197,368868,1,10,0:0:0:0:
276,232,368953,1,0,0:0:0:0:
233,256,369037,1,0,0:0:0:0:
183,256,369121,1,0,0:0:0:0:
140,231,369205,1,10,0:0:0:0:
114,188,369289,1,0,0:0:0:0:
114,139,369374,1,0,0:0:0:0:
139,95,369458,1,0,0:0:0:0:
182,69,369542,1,10,0:0:0:0:
233,70,369626,1,0,0:0:0:0:
275,94,369711,1,0,0:0:0:0:
298,140,369795,1,0,0:0:0:0:
342,160,369879,1,10,0:0:0:0:
391,147,369963,1,0,0:0:0:0:
419,107,370048,1,0,0:0:0:0:
415,57,370132,1,0,0:0:0:0:
379,21,370216,6,0,L|328:45,3,50,12|0|0|0,0:0|0:0|0:0|0:0,0:0:0:0:
428,139,370553,2,0,L|479:163,3,50,10|0|0|0,0:0|0:0|0:0|0:0,0:0:0:0:
334,255,370890,5,12,0:0:0:0:
284,255,370974,1,0,0:0:0:0:
233,256,371058,1,0,0:0:0:0:
183,256,371142,1,0,0:0:0:0:
133,256,371227,1,10,0:0:0:0:
84,246,371312,1,0,0:0:0:0:
50,209,371396,1,0,0:0:0:0:
44,160,371481,1,0,0:0:0:0:
68,116,371565,1,10,0:0:0:0:
113,95,371649,1,0,0:0:0:0:
163,105,371733,1,0,0:0:0:0:
196,141,371818,1,0,0:0:0:0:
203,190,371902,2,0,L|200:259,3,50,10|0|0|0,0:0|0:0|0:0|0:0,0:0:0:0:
313,361,372239,5,10,0:0:0:0:
351,371,372323,1,0,0:0:0:0:
389,360,372407,1,0,0:0:0:0:
417,332,372491,1,0,0:0:0:0:
427,293,372576,1,10,0:0:0:0:
418,255,372660,1,0,0:0:0:0:
389,226,372744,2,0,L|316:208,1,50
203,190,372913,5,12,0:0:0:0:
193,136,372997,1,0,0:0:0:0:
219,94,373081,1,0,0:0:0:0:
264,79,373166,1,0,0:0:0:0:
312,96,373250,2,0,P|336:111|362:115,3,50,8|8|8|8,0:0|0:0|0:0|0:0,0:0:0:0:
457,13,373587,5,4,0:0:0:0:
492,48,373671,1,0,0:0:0:0:
505,96,373756,1,10,0:0:0:0:
492,144,373840,1,0,0:0:0:0:
456,180,373924,1,0,0:0:0:0:
408,193,374008,1,0,0:0:0:0:
360,180,374093,1,10,0:0:0:0:
325,144,374177,1,0,0:0:0:0:
312,96,374261,1,0,0:0:0:0:
301,49,374345,1,0,0:0:0:0:
266,13,374429,1,10,0:0:0:0:
218,0,374514,1,0,0:0:0:0:
170,13,374598,1,0,0:0:0:0:
134,49,374682,1,0,0:0:0:0:
121,97,374766,1,10,0:0:0:0:
134,145,374851,1,0,0:0:0:0:
169,180,374935,1,0,0:0:0:0:
193,222,375019,1,0,0:0:0:0:
193,272,375104,1,0,0:0:0:0:
168,315,375188,1,0,0:0:0:0:
124,341,375272,2,0,P|74:351|49:348,3,50,8|0|0|0,0:0|0:0|0:0|0:0,0:0:0:0:
20,283,375609,5,8,0:0:0:0:
169,180,375834,5,0,0:0:0:0:
268,313,376059,5,0,0:0:0:0:
408,253,376284,6,0,P|397:114|286:229,1,375.000014305115,4|0,0:0|2:0,2:0:0:0:
297,233,377295,2,0,P|334:195|371:187,1,75.0000028610231,0|0,2:0|2:0,2:0:0:0:
422,348,377632,6,0,P|285:331|112:343,1,300.000011444092,4|0,0:0|2:0,0:0:0:0:
98,193,378980,6,0,P|116:283|125:355,1,150.000005722046,4|0,0:0|2:0,0:0:0:0:
33,359,379486,5,0,0:0:0:0:
149,252,379654,1,0,0:0:0:0:
199,384,379823,1,0,0:0:0:0:
23,254,379991,5,0,0:0:0:0:
230,153,380160,1,0,0:0:0:0:
46,76,380329,1,0,0:0:0:0:
224,295,380497,5,0,0:0:0:0:
293,47,380666,1,0,0:0:0:0:
63,167,380834,1,0,0:0:0:0:
353,188,381003,5,8,0:0:0:0:
360,187,381087,1,8,0:0:0:0:
367,186,381171,1,0,0:0:0:0:
374,185,381256,1,0,0:0:0:0:
381,185,381340,5,0,0:0:0:0:
410,177,381424,1,0,0:0:0:0:
432,156,381508,1,0,0:0:0:0:
439,127,381592,1,0,0:0:0:0:
432,98,381677,6,0,B|370:112|370:112|333:270,1,200,4|0,0:0|0:0,0:0:0:0:
335,278,382098,1,0,0:0:0:0:
335,278,382183,1,10,0:0:0:0:
478,211,382351,5,0,0:0:0:0:
286,77,382520,1,10,0:0:0:0:
286,77,382604,1,0,0:0:0:0:
286,77,382688,1,0,0:0:0:0:
98,193,382857,6,0,P|23:149|117:103,1,200,10|10,0:0|0:0,0:0:0:0:
227,181,383362,1,0,0:0:0:0:
227,181,383447,1,0,0:0:0:0:
227,181,383531,2,0,L|216:303,1,100,10|0,0:0|0:0,0:0:0:0:
57,320,383868,2,0,P|89:277|143:286,1,100,10|0,0:0|0:0,0:0:0:0:
204,378,384205,1,10,0:0:0:0:
411,359,384374,6,0,B|433:327|433:327|381:154,1,200
375,146,384795,1,0,0:0:0:0:
375,146,384879,1,10,0:0:0:0:
457,34,385048,2,0,P|487:74|456:134,1,100,0|10,0:0|0:0,0:0:0:0:
356,42,385385,1,0,0:0:0:0:
227,181,385553,1,10,0:0:0:0:
227,181,385638,1,0,0:0:0:0:
227,181,385722,6,0,B|241:261|241:261|262:269|262:269|283:387,1,200
131,278,386227,1,10,0:0:0:0:
131,278,386312,1,0,0:0:0:0:
131,278,386396,2,0,L|147:171,1,100,0|10,0:0|0:0,0:0:0:0:
140,149,386649,1,0,0:0:0:0:
140,149,386733,1,0,0:0:0:0:
37,242,386902,1,10,0:0:0:0:
196,28,387070,6,0,B|244:-3|296:28|281:44|332:81|397:28,1,200,4|0,0:0|0:0,0:0:0:0:
402,19,387491,1,0,0:0:0:0:
402,19,387576,1,10,0:0:0:0:
236,106,387744,1,0,0:0:0:0:
362,269,387913,1,10,0:0:0:0:
370,245,387997,1,0,0:0:0:0:
378,221,388081,1,0,0:0:0:0:
386,197,388166,1,0,0:0:0:0:
394,173,388250,6,0,P|440:142|439:241,1,200,10|10,0:0|0:0,0:0:0:0:
348,369,388756,1,0,0:0:0:0:
348,369,388840,1,0,0:0:0:0:
348,369,388924,2,0,P|307:334|243:342,1,100,10|0,0:0|0:0,0:0:0:0:
170,369,389261,1,10,0:0:0:0:
41,298,389430,5,0,0:0:0:0:
41,249,389514,1,0,0:0:0:0:
75,214,389598,1,10,0:0:0:0:
123,212,389682,1,0,0:0:0:0:
159,245,389767,2,0,P|203:258|265:212,1,100,0|10,0:0|0:0,0:0:0:0:
269,212,390020,1,0,0:0:0:0:
269,212,390104,1,0,0:0:0:0:
174,0,390272,6,0,B|139:39|139:39|193:175,1,200,10|10,0:0|0:0,0:0:0:0:
312,121,390778,5,0,0:0:0:0:
347,102,390862,1,0,0:0:0:0:
387,105,390947,1,10,0:0:0:0:
420,125,391031,1,0,0:0:0:0:
437,160,391115,2,0,P|422:273|417:367,1,200
287,253,391621,1,10,0:0:0:0:
287,253,391705,1,0,0:0:0:0:
287,253,391789,5,0,0:0:0:0:
261,381,391958,1,12,0:0:0:0:
458,257,392126,1,0,0:0:0:0:
205,152,392295,1,12,0:0:0:0:
147,341,392463,5,4,0:0:0:0:
28,241,392632,1,10,0:0:0:0:
30,216,392716,1,0,0:0:0:0:
32,191,392800,1,0,0:0:0:0:
34,166,392885,1,0,0:0:0:0:
36,141,392969,2,0,P|76:107|136:122,1,100,10|0,0:0|0:0,0:0:0:0:
337,173,393306,5,10,0:0:0:0:
362,170,393390,1,0,0:0:0:0:
381,153,393474,1,0,0:0:0:0:
392,130,393558,1,0,0:0:0:0:
387,105,393643,2,0,P|334:119|273:118,1,100,10|0,0:0|0:0,0:0:0:0:
144,270,393980,5,10,0:0:0:0:
163,254,394064,1,0,0:0:0:0:
189,253,394148,1,0,0:0:0:0:
213,261,394232,1,0,0:0:0:0:
227,282,394317,2,0,P|183:306|147:340,1,100,10|0,0:0|0:0,0:0:0:0:
411,362,394654,5,10,0:0:0:0:
392,378,394738,1,0,0:0:0:0:
366,379,394822,1,0,0:0:0:0:
342,371,394906,1,0,0:0:0:0:
328,350,394991,2,0,P|372:326|408:292,1,100,10|0,0:0|0:0,0:0:0:0:
429,151,395329,1,10,0:0:0:0:
295,124,395497,1,0,0:0:0:0:
295,124,395581,1,0,0:0:0:0:
295,124,395666,2,0,P|311:177|322:237,1,100,10|0,0:0|0:0,0:0:0:0:
254,384,396003,5,10,0:0:0:0:
140,236,396171,2,0,P|178:204|238:209,1,100,0|10,0:0|0:0,0:0:0:0:
400,237,396508,6,0,P|461:232|385:71,1,300,0|10,0:0|0:0,0:0:0:0:
326,109,397183,1,0,0:0:0:0:
326,109,397267,1,0,0:0:0:0:
326,109,397351,1,10,0:0:0:0:
218,9,397520,2,0,P|222:59|224:130,1,100,0|10,0:0|0:0,0:0:0:0:
66,283,397857,6,0,B|35:258|35:258|49:87,1,200,4|0,0:0|0:0,0:0:0:0:
57,70,398278,1,0,0:0:0:0:
57,70,398362,1,10,0:0:0:0:
125,178,398531,1,0,0:0:0:0:
250,19,398699,2,0,P|305:28|335:78,1,100,10|0,0:0|0:0,0:0:0:0:
326,100,398952,1,0,0:0:0:0:
326,100,399036,1,10,0:0:0:0:
245,325,399205,6,0,B|231:244|231:244|240:227|240:227|226:123,1,200
390,0,399711,1,10,0:0:0:0:
464,122,399879,1,0,0:0:0:0:
464,122,399963,1,0,0:0:0:0:
464,122,400048,1,10,0:0:0:0:
396,212,400216,2,0,P|336:198|287:209,1,100,0|10,0:0|0:0,0:0:0:0:
132,338,400553,5,4,0:0:0:0:
92,337,400638,1,0,0:0:0:0:
57,317,400722,1,10,0:0:0:0:
37,283,400806,1,0,0:0:0:0:
33,242,400891,1,0,0:0:0:0:
49,204,400975,1,0,0:0:0:0:
82,182,401059,2,0,P|115:175|152:176,3,50,10|0|0|0,0:0|0:0|0:0|0:0,0:0:0:0:
251,314,401396,1,10,0:0:0:0:
251,314,401480,1,0,0:0:0:0:
251,314,401565,2,0,L|300:310,3,50,0|0|10|0,0:0|0:0|0:0|0:0,0:0:0:0:
368,243,401902,5,0,0:0:0:0:
167,330,402070,1,12,0:0:0:0:
381,384,402239,2,0,P|416:352|418:296,1,100,12|0,0:0|0:0,0:0:0:0:
344,150,402576,5,0,0:0:0:0:
334,151,402660,1,0,0:0:0:0:
324,152,402744,1,0,0:0:0:0:
314,153,402829,1,0,0:0:0:0:
304,154,402913,2,0,L|239:161,3,50,8|8|8|8,0:0|0:0|0:0|0:0,0:0:0:0:
128,228,403250,6,0,P|141:177|123:113,1,100,4|10,0:0|0:0,0:0:0:0:
137,104,403503,1,0,0:0:0:0:
137,104,403587,1,0,0:0:0:0:
28,176,403756,1,10,0:0:0:0:
212,280,403924,5,0,0:0:0:0:
252,278,404008,1,0,0:0:0:0:
292,276,404093,1,10,0:0:0:0:
332,274,404176,1,0,0:0:0:0:
372,272,404261,2,0,L|436:269,1,50
500,196,404430,5,10,0:0:0:0:
481,162,404514,1,0,0:0:0:0:
447,143,404598,1,0,0:0:0:0:
406,142,404682,1,0,0:0:0:0:
372,163,404767,1,10,0:0:0:0:
338,184,404852,1,0,0:0:0:0:
297,183,404936,1,0,0:0:0:0:
263,164,405020,1,0,0:0:0:0:
244,130,405104,1,10,0:0:0:0:
243,89,405189,1,0,0:0:0:0:
262,55,405273,1,0,0:0:0:0:
296,36,405357,1,0,0:0:0:0:
336,38,405441,6,0,P|369:68|376:85,1,50,10|0,0:0|0:0,0:0:0:0:
372,163,405609,2,0,P|363:207|352:222,1,50,2|0,0:0|0:0,0:0:0:0:
282,257,405778,2,0,P|240:271|222:269,1,50,10|0,0:0|0:0,0:0:0:0:
150,198,405947,5,0,0:0:0:0:
141,200,406031,1,0,0:0:0:0:
131,201,406115,1,10,0:0:0:0:
121,202,406200,1,0,0:0:0:0:
95,187,406284,5,0,0:0:0:0:
86,189,406368,1,0,0:0:0:0:
76,190,406452,1,10,0:0:0:0:
66,191,406537,1,0,0:0:0:0:
40,176,406621,5,0,0:0:0:0:
16,201,406704,1,0,0:0:0:0:
7,235,406789,1,10,0:0:0:0:
16,269,406874,1,0,0:0:0:0:
40,294,406958,1,0,0:0:0:0:
74,303,407042,1,0,0:0:0:0:
108,294,407126,6,0,L|100:237,3,50,10|0|0|0,0:0|0:0|0:0|0:0,0:0:0:0:
158,164,407463,2,0,L|166:107,3,50,10|0|0|0,0:0|0:0|0:0|0:0,0:0:0:0:
124,24,407800,5,10,0:0:0:0:
81,0,407885,1,0,0:0:0:0:
32,8,407969,1,0,0:0:0:0:
0,46,408053,1,0,0:0:0:0:
0,96,408138,1,10,0:0:0:0:
32,135,408222,1,0,0:0:0:0:
81,143,408306,5,2,0:2:0:0:
74,133,408390,1,2,0:2:0:0:
70,121,408474,1,2,0:2:0:0:
67,109,408558,1,2,0:2:0:0:
66,96,408643,6,0,L|177:116,1,100,4|10,0:0|0:0,0:0:0:0:
192,104,408896,1,0,0:0:0:0:
192,104,408980,1,0,0:0:0:0:
102,245,409149,1,10,0:0:0:0:
249,360,409317,5,0,0:0:0:0:
284,340,409402,1,0,0:0:0:0:
298,303,409486,1,10,0:0:0:0:
284,265,409570,1,0,0:0:0:0:
249,245,409654,1,0,0:0:0:0:
210,252,409739,1,0,0:0:0:0:
184,283,409823,6,0,L|176:334,3,50,10|0|0|0,0:0|0:0|0:0|0:0,0:0:0:0:
62,373,410160,2,0,L|55:324,3,50,10|0|0|0,0:0|0:0|0:0|0:0,0:0:0:0:
96,217,410497,5,10,0:0:0:0:
106,215,410581,1,0,0:0:0:0:
116,213,410666,1,0,0:0:0:0:
126,211,410749,1,0,0:0:0:0:
136,209,410834,2,0,L|126:161,1,50,10|0,0:0|0:0,0:0:0:0:
182,56,411003,2,0,L|192:104,1,50,2|0,0:0|0:0,0:0:0:0:
285,182,411171,2,0,L|275:134,1,50,10|0,0:0|0:0,0:0:0:0:
323,31,411340,5,4,0:0:0:0:
333,33,411424,1,0,0:0:0:0:
343,35,411508,1,8,0:0:0:0:
353,37,411593,1,0,0:0:0:0:
363,39,411677,2,0,L|433:21,3,50,2|0|8|0,0:0|0:0|0:0|0:0,0:0:0:0:
502,114,412014,5,2,0:0:0:0:
478,120,412098,1,0,0:0:0:0:
454,126,412182,1,10,0:0:0:0:
430,132,412267,1,0,0:0:0:0:
406,138,412351,1,2,0:0:0:0:
382,144,412436,1,0,0:0:0:0:
358,150,412520,5,10,0:0:0:0:
318,302,412688,1,4,0:0:0:0:
460,364,412857,5,10,0:0:0:0:
269,129,413025,1,0,0:0:0:0:
229,384,413194,5,12,0:0:0:0:
492,214,413362,1,2,0:0:0:0:
497,164,413447,1,0,0:0:0:0:
502,114,413531,1,12,0:0:0:0:
507,64,413615,1,0,0:0:0:0:
512,14,413699,6,0,L|465:33,3,50,8|8|10|8,0:0|0:0|0:0|0:0,0:0:0:0:
276,229,414036,6,0,L|268:114,1,100,4|10,0:0|0:0,0:0:0:0:
246,111,414289,1,0,0:0:0:0:
246,111,414373,1,0,0:0:0:0:
382,144,414542,1,10,0:0:0:0:
205,244,414711,5,0,0:0:0:0:
166,236,414795,1,0,0:0:0:0:
127,228,414879,1,10,0:0:0:0:
88,220,414964,1,0,0:0:0:0:
49,212,415048,2,0,P|22:212|1:221,1,50
0,374,415216,5,10,0:0:0:0:
38,384,415300,1,0,0:0:0:0:
77,374,415384,1,0,0:0:0:0:
105,345,415469,1,0,0:0:0:0:
116,307,415553,1,10,0:0:0:0:
105,268,415637,1,0,0:0:0:0:
77,240,415721,1,0,0:0:0:0:
49,212,415806,1,0,0:0:0:0:
38,173,415890,1,10,0:0:0:0:
49,135,415974,1,0,0:0:0:0:
77,106,416059,1,0,0:0:0:0:
116,96,416143,1,0,0:0:0:0:
154,106,416227,6,0,L|149:161,1,50,10|0,0:0|0:0,0:0:0:0:
290,232,416396,2,0,L|286:183,1,50,2|0,0:0|0:0,0:0:0:0:
189,271,416564,2,0,L|185:321,1,50,10|0,0:0|0:0,0:0:0:0:
307,373,416733,5,0,0:0:0:0:
317,372,416817,1,0,0:0:0:0:
327,371,416902,1,10,0:0:0:0:
337,370,416985,1,0,0:0:0:0:
353,342,417070,5,0,0:0:0:0:
363,341,417154,1,0,0:0:0:0:
373,340,417239,1,10,0:0:0:0:
383,339,417322,1,0,0:0:0:0:
399,311,417407,5,0,0:0:0:0:
412,273,417491,1,0,0:0:0:0:
447,253,417576,1,10,0:0:0:0:
487,260,417660,1,0,0:0:0:0:
512,291,417744,1,0,0:0:0:0:
512,331,417829,1,0,0:0:0:0:
487,362,417913,6,0,L|431:353,3,50,10|0|0|0,0:0|0:0|0:0|0:0,0:0:0:0:
324,262,418250,2,0,L|275:270,3,50,10|0|0|0,0:0|0:0|0:0|0:0,0:0:0:0:
179,345,418587,5,10,0:0:0:0:
144,310,418671,1,0,0:0:0:0:
131,262,418756,1,0,0:0:0:0:
144,213,418840,1,0,0:0:0:0:
179,178,418924,6,0,L|237:184,1,50,10|0,0:0|0:0,0:0:0:0:
77,106,419093,2,0,L|19:112,1,50,2|0,0:0|0:0,0:0:0:0:
159,36,419261,2,0,L|217:42,1,50,10|0,0:0|0:0,0:0:0:0:
42,201,419430,5,4,0:0:0:0:
40,210,419514,1,0,0:0:0:0:
38,220,419598,1,10,0:0:0:0:
37,230,419683,1,0,0:0:0:0:
57,263,419767,5,0,0:0:0:0:
58,272,419851,1,0,0:0:0:0:
60,282,419935,1,10,0:0:0:0:
61,292,420020,1,0,0:0:0:0:
44,325,420104,6,0,L|102:319,1,50,2|0,0:0|0:0,0:0:0:0:
165,359,420272,2,0,L|223:365,1,50,10|0,0:0|0:0,0:0:0:0:
279,310,420441,2,0,L|337:304,1,50,2|0,0:0|0:0,0:0:0:0:
217,174,420609,5,10,0:0:0:0:
207,175,420694,1,0,0:0:0:0:
198,176,420778,1,0,0:0:0:0:
189,177,420862,1,0,0:0:0:0:
179,178,420947,6,0,L|184:227,1,50,10|0,0:0|0:0,0:0:0:0:
259,97,421115,2,0,L|264:47,1,50,2|0,0:0|0:0,0:0:0:0:
348,175,421284,2,0,L|353:224,1,50,10|0,0:0|0:0,0:0:0:0:
454,328,421452,5,8,0:0:0:0:
464,326,421536,1,0,0:0:0:0:
473,320,421621,1,0,0:0:0:0:
480,312,421705,1,0,0:0:0:0:
482,302,421789,2,0,L|475:251,3,50,12|0|0|0,0:0|0:0|0:0|0:0,0:0:0:0:
436,41,422126,5,12,0:0:0:0:
411,37,422211,1,0,0:0:0:0:
386,41,422295,1,0,0:0:0:0:
366,55,422379,1,0,0:0:0:0:
352,76,422463,1,10,0:0:0:0:
347,101,422548,1,0,0:0:0:0:
352,125,422632,1,0,0:0:0:0:
366,146,422716,1,0,0:0:0:0:
386,160,422800,6,0,L|442:144,1,50,10|0,0:0|0:0,0:0:0:0:
350,301,422969,2,0,L|293:287,1,50
203,206,423138,1,10,0:0:0:0:
203,206,423222,1,0,0:0:0:0:
203,206,423306,1,0,0:0:0:0:
19,195,423475,5,12,0:0:0:0:
234,93,423643,1,0,0:0:0:0:
226,352,423812,1,0,0:0:0:0:
64,44,423980,5,12,0:0:0:0:
31,347,424149,1,0,0:0:0:0:
307,237,424317,1,0,0:0:0:0:
0,172,424486,1,12,0:0:0:0:
0,172,424570,1,0,0:0:0:0:
0,172,424654,1,0,0:0:0:0:
177,1,424823,5,8,0:0:0:0:
213,5,424907,1,0,0:0:0:0:
246,16,424991,1,0,0:0:0:0:
277,34,425075,1,0,0:0:0:0:
306,57,425160,2,0,P|328:85|339:108,1,50,8|0,0:0|0:0,0:0:0:0:
290,245,425329,5,8,0:0:0:0:
285,209,425413,1,0,0:0:0:0:
274,175,425497,1,0,0:0:0:0:
257,144,425581,1,0,0:0:0:0:
233,115,425666,2,0,P|202:91|180:80,1,50,8|0,0:0|0:0,0:0:0:0:
0,172,425834,5,8,0:0:0:0:
23,167,425918,1,0,0:0:0:0:
45,172,426003,2,0,P|64:186|80:213,1,50
62,354,426171,5,8,0:0:0:0:
72,325,426256,1,0,0:0:0:0:
90,302,426340,1,0,0:0:0:0:
114,285,426424,1,0,0:0:0:0:
144,274,426509,2,0,P|174:268|195:270,1,50,8|0,0:0|0:0,0:0:0:0:
291,371,426677,5,8,0:0:0:0:
303,343,426761,1,0,0:0:0:0:
309,314,426845,1,0,0:0:0:0:
309,284,426929,1,0,0:0:0:0:
305,253,427014,2,0,P|295:223|282:206,1,50,8|0,0:0|0:0,0:0:0:0:
132,126,427183,5,8,0:0:0:0:
115,108,427267,1,0,0:0:0:0:
108,84,427351,1,0,0:0:0:0:
115,60,427435,1,0,0:0:0:0:
132,42,427520,5,12,0:0:0:0:
