osu file format v14

[General]
AudioFilename: Suwa Foughten Field.mp3
AudioLeadIn: 0
PreviewTime: 119583
Countdown: 0
SampleSet: Normal
StackLeniency: 0.4
Mode: 1
LetterboxInBreaks: 0
WidescreenStoryboard: 1

[Editor]
Bookmarks: 9783,29283,59583,69183,88382,97982,105183,109983,165182,184382,191583,208983,218583,282183,300183
DistanceSpacing: 0.5
BeatDivisor: 4
GridSize: 32
TimelineZoom: 2.999999

[Metadata]
Title:Kamisabita Kosenjou ~ Suwa Foughten Field
TitleUnicode:神さびた古戦場 ~ Suwa Foughten Field
Artist:Demetori
ArtistUnicode:Demetori
Creator:GoldenWolf
Version:Inner Oni
Source:東方風神録 〜 Mountain of Faith.
Tags:八坂 神奈子 Kanako Yasaka Final Extra Stage 山坂と湖の権化 The Avatar of Mountains and Lakes The Venerable Ancient Battlefield Il Mondo dove e Finito il Tempo Power Speed Metal ZUN gowo woof
BeatmapID:1530713
BeatmapSetID:724902

[Difficulty]
HPDrainRate:4
CircleSize:2
OverallDifficulty:6.5
ApproachRate:10
SliderMultiplier:1.4
SliderTickRate:2

[Events]
//Background and Video events
0,0,"orz57.jpg",0,105
//Break Periods
//Storyboard Layer 0 (Background)
//Storyboard Layer 1 (Fail)
//Storyboard Layer 2 (Pass)
//Storyboard Layer 3 (Foreground)
//Storyboard Sound Samples

[TimingPoints]
200,300,4,1,0,70,1,0
39800,300,4,1,0,70,1,8
40400,300,4,1,0,70,1,0
119600,-100,4,1,0,70,0,1
158000,-100,4,1,0,70,0,0
200000,300,6,1,0,70,1,0
206600,300,4,1,0,70,1,0
229400,-100,4,1,0,70,0,1
265400,-100,4,1,0,70,0,0

[Colours]
Combo1 : 255,255,255
Combo2 : 0,0,0

[HitObjects]
256,192,50,5,0,0:0:0:0:
256,192,100,1,0,0:0:0:0:
256,192,150,1,0,0:0:0:0:
256,192,200,1,8,0:0:0:0:
256,192,350,1,8,0:0:0:0:
256,192,500,1,0,0:0:0:0:
256,192,1100,1,0,0:0:0:0:
256,192,1700,1,0,0:0:0:0:
256,192,2300,1,0,0:0:0:0:
256,192,2375,1,0,0:0:0:0:
256,192,2450,1,0,0:0:0:0:
256,192,2525,1,0,0:0:0:0:
256,192,2600,1,8,0:0:0:0:
256,192,2900,1,0,0:0:0:0:
256,192,3200,1,0,0:0:0:0:
256,192,3500,1,0,0:0:0:0:
256,192,3575,1,0,0:0:0:0:
256,192,3650,1,0,0:0:0:0:
256,192,3725,1,0,0:0:0:0:
256,192,3800,1,8,0:0:0:0:
256,192,3875,1,8,0:0:0:0:
256,192,3950,1,0,0:0:0:0:
256,192,4025,1,0,0:0:0:0:
256,192,4100,1,8,0:0:0:0:
256,192,4175,1,8,0:0:0:0:
256,192,4250,1,0,0:0:0:0:
256,192,4325,1,0,0:0:0:0:
256,192,4400,1,8,0:0:0:0:
256,192,4475,1,8,0:0:0:0:
256,192,4550,1,8,0:0:0:0:
256,192,4625,1,8,0:0:0:0:
256,192,4700,1,0,0:0:0:0:
256,192,4775,1,0,0:0:0:0:
256,192,4850,1,0,0:0:0:0:
256,192,4925,1,0,0:0:0:0:
256,192,5000,1,8,0:0:0:0:
256,192,5150,1,8,0:0:0:0:
256,192,5300,1,0,0:0:0:0:
256,192,5400,1,0,0:0:0:0:
256,192,5500,1,0,0:0:0:0:
256,192,5600,1,8,0:0:0:0:
256,192,5700,1,8,0:0:0:0:
256,192,5800,1,0,0:0:0:0:
256,192,5900,1,0,0:0:0:0:
256,192,6000,1,8,0:0:0:0:
256,192,6100,1,8,0:0:0:0:
256,192,6200,1,0,0:0:0:0:
256,192,6250,1,0,0:0:0:0:
256,192,6300,1,0,0:0:0:0:
256,192,6400,1,8,0:0:0:0:
256,192,6500,1,8,0:0:0:0:
256,192,6600,1,0,0:0:0:0:
256,192,6700,1,0,0:0:0:0:
256,192,6800,1,8,0:0:0:0:
256,192,6900,1,0,0:0:0:0:
256,192,7000,1,8,0:0:0:0:
256,192,7100,1,0,0:0:0:0:
256,192,7150,1,0,0:0:0:0:
256,192,7200,1,0,0:0:0:0:
256,192,7250,1,0,0:0:0:0:
256,192,7300,1,0,0:0:0:0:
256,192,7350,1,0,0:0:0:0:
256,192,7400,1,8,0:0:0:0:
256,192,7550,1,8,0:0:0:0:
256,192,8600,1,8,0:0:0:0:
256,192,8750,1,0,0:0:0:0:
256,192,8800,1,0,0:0:0:0:
256,192,8850,1,0,0:0:0:0:
256,192,8900,1,0,0:0:0:0:
256,192,8950,1,0,0:0:0:0:
256,192,9000,1,0,0:0:0:0:
256,192,9050,1,8,0:0:0:0:
256,192,9200,1,0,0:0:0:0:
256,192,9250,1,0,0:0:0:0:
256,192,9300,1,0,0:0:0:0:
256,192,9350,1,0,0:0:0:0:
256,192,9400,1,0,0:0:0:0:
256,192,9450,1,0,0:0:0:0:
256,192,9500,1,8,0:0:0:0:
256,192,9650,1,0,0:0:0:0:
256,192,9800,1,12,0:0:0:0:
256,192,9950,1,0,0:0:0:0:
256,192,10100,1,8,0:0:0:0:
256,192,10250,1,8,0:0:0:0:
256,192,10400,1,0,0:0:0:0:
256,192,10550,1,8,0:0:0:0:
256,192,10700,1,8,0:0:0:0:
256,192,10850,1,0,0:0:0:0:
256,192,10925,1,0,0:0:0:0:
256,192,11000,1,8,0:0:0:0:
256,192,11150,1,0,0:0:0:0:
256,192,11300,1,0,0:0:0:0:
256,192,11450,1,8,0:0:0:0:
256,192,11600,1,0,0:0:0:0:
256,192,11750,1,0,0:0:0:0:
256,192,11825,1,0,0:0:0:0:
256,192,11900,1,8,0:0:0:0:
256,192,12050,1,0,0:0:0:0:
256,192,12125,1,0,0:0:0:0:
256,192,12200,1,8,0:0:0:0:
256,192,12350,1,0,0:0:0:0:
256,192,12500,1,8,0:0:0:0:
256,192,12650,1,8,0:0:0:0:
256,192,12800,1,0,0:0:0:0:
256,192,12950,1,8,0:0:0:0:
256,192,13100,1,8,0:0:0:0:
256,192,13250,1,0,0:0:0:0:
256,192,13325,1,0,0:0:0:0:
256,192,13400,1,8,0:0:0:0:
256,192,13550,1,0,0:0:0:0:
256,192,13700,1,0,0:0:0:0:
256,192,13850,1,8,0:0:0:0:
256,192,14000,1,0,0:0:0:0:
256,192,14150,1,0,0:0:0:0:
256,192,14225,1,0,0:0:0:0:
256,192,14300,1,8,0:0:0:0:
256,192,14375,1,8,0:0:0:0:
256,192,14450,1,0,0:0:0:0:
256,192,14600,1,12,0:0:0:0:
256,192,14750,1,0,0:0:0:0:
256,192,14900,1,8,0:0:0:0:
256,192,15050,1,8,0:0:0:0:
256,192,15200,1,0,0:0:0:0:
256,192,15350,1,8,0:0:0:0:
256,192,15500,1,8,0:0:0:0:
256,192,15650,1,0,0:0:0:0:
256,192,15725,1,0,0:0:0:0:
256,192,15800,1,8,0:0:0:0:
256,192,15950,1,0,0:0:0:0:
256,192,16100,1,0,0:0:0:0:
256,192,16250,1,8,0:0:0:0:
256,192,16400,1,0,0:0:0:0:
256,192,16550,1,0,0:0:0:0:
256,192,16625,1,0,0:0:0:0:
256,192,16700,1,8,0:0:0:0:
256,192,16850,1,0,0:0:0:0:
256,192,16900,1,0,0:0:0:0:
256,192,16950,1,0,0:0:0:0:
256,192,17000,1,8,0:0:0:0:
256,192,17150,1,0,0:0:0:0:
256,192,17300,1,8,0:0:0:0:
256,192,17450,1,8,0:0:0:0:
256,192,17600,1,0,0:0:0:0:
256,192,17750,1,8,0:0:0:0:
256,192,17825,1,8,0:0:0:0:
256,192,17900,1,0,0:0:0:0:
256,192,18050,1,0,0:0:0:0:
256,192,18125,1,0,0:0:0:0:
256,192,18200,1,8,0:0:0:0:
256,192,18275,1,8,0:0:0:0:
256,192,18350,1,0,0:0:0:0:
256,192,18425,1,0,0:0:0:0:
256,192,18500,1,0,0:0:0:0:
256,192,18575,1,0,0:0:0:0:
256,192,18650,1,8,0:0:0:0:
256,192,18725,1,8,0:0:0:0:
256,192,18800,1,0,0:0:0:0:
256,192,18875,1,0,0:0:0:0:
256,192,18950,1,0,0:0:0:0:
256,192,19025,1,0,0:0:0:0:
256,192,19100,1,8,0:0:0:0:
256,192,19400,1,12,0:0:0:0:
256,192,19550,1,0,0:0:0:0:
256,192,19700,1,8,0:0:0:0:
256,192,19775,1,8,0:0:0:0:
256,192,19850,1,0,0:0:0:0:
256,192,20000,1,0,0:0:0:0:
256,192,20150,1,8,0:0:0:0:
256,192,20300,1,0,0:0:0:0:
256,192,20375,1,0,0:0:0:0:
256,192,20450,1,0,0:0:0:0:
256,192,20600,1,8,0:0:0:0:
256,192,20750,1,8,0:0:0:0:
256,192,20900,1,0,0:0:0:0:
256,192,20975,1,0,0:0:0:0:
256,192,21050,1,8,0:0:0:0:
256,192,21200,1,0,0:0:0:0:
256,192,21350,1,0,0:0:0:0:
256,192,21500,1,8,0:0:0:0:
256,192,21575,1,0,0:0:0:0:
256,192,21650,1,8,0:0:0:0:
256,192,21725,1,0,0:0:0:0:
256,192,21800,1,8,0:0:0:0:
256,192,21950,1,0,0:0:0:0:
256,192,22100,1,8,0:0:0:0:
256,192,22175,1,8,0:0:0:0:
256,192,22250,1,0,0:0:0:0:
256,192,22400,1,0,0:0:0:0:
256,192,22550,1,8,0:0:0:0:
256,192,22700,1,0,0:0:0:0:
256,192,22775,1,0,0:0:0:0:
256,192,22850,1,0,0:0:0:0:
256,192,23000,1,8,0:0:0:0:
256,192,23150,1,8,0:0:0:0:
256,192,23300,1,0,0:0:0:0:
256,192,23375,1,0,0:0:0:0:
256,192,23450,1,8,0:0:0:0:
256,192,23600,1,0,0:0:0:0:
256,192,23750,1,0,0:0:0:0:
256,192,23900,1,0,0:0:0:0:
256,192,23950,1,0,0:0:0:0:
256,192,24000,1,0,0:0:0:0:
256,192,24050,1,8,0:0:0:0:
256,192,24125,1,0,0:0:0:0:
256,192,24200,1,8,0:0:0:0:
256,192,24350,1,0,0:0:0:0:
256,192,24500,1,8,0:0:0:0:
256,192,24575,1,8,0:0:0:0:
256,192,24650,1,0,0:0:0:0:
256,192,24800,1,0,0:0:0:0:
256,192,24950,1,8,0:0:0:0:
256,192,25100,1,0,0:0:0:0:
256,192,25175,1,0,0:0:0:0:
256,192,25250,1,0,0:0:0:0:
256,192,25400,1,8,0:0:0:0:
256,192,25475,1,0,0:0:0:0:
256,192,25550,1,8,0:0:0:0:
256,192,25700,1,0,0:0:0:0:
256,192,25775,1,0,0:0:0:0:
256,192,25850,1,8,0:0:0:0:
256,192,26000,1,0,0:0:0:0:
256,192,26075,1,0,0:0:0:0:
256,192,26150,1,8,0:0:0:0:
256,192,26225,1,0,0:0:0:0:
256,192,26300,1,8,0:0:0:0:
256,192,26375,1,8,0:0:0:0:
256,192,26450,1,0,0:0:0:0:
256,192,26525,1,0,0:0:0:0:
256,192,26600,1,8,0:0:0:0:
256,192,26750,1,0,0:0:0:0:
256,192,26900,1,8,0:0:0:0:
256,192,26975,1,8,0:0:0:0:
256,192,27050,1,0,0:0:0:0:
256,192,27200,1,0,0:0:0:0:
256,192,27275,1,0,0:0:0:0:
256,192,27350,1,8,0:0:0:0:
256,192,27425,1,8,0:0:0:0:
256,192,27575,1,0,0:0:0:0:
256,192,27650,1,0,0:0:0:0:
256,192,27800,1,8,0:0:0:0:
256,192,27875,1,8,0:0:0:0:
256,192,27950,1,0,0:0:0:0:
256,192,28100,1,0,0:0:0:0:
256,192,28175,1,8,0:0:0:0:
256,192,28250,1,8,0:0:0:0:
256,192,28325,1,8,0:0:0:0:
256,192,28400,1,0,0:0:0:0:
256,192,28475,1,0,0:0:0:0:
256,192,28550,1,8,0:0:0:0:
256,192,28625,1,0,0:0:0:0:
256,192,28700,1,8,0:0:0:0:
256,192,28775,1,8,0:0:0:0:
256,192,28850,1,8,0:0:0:0:
256,192,28925,1,8,0:0:0:0:
256,192,29075,1,0,0:0:0:0:
256,192,29150,1,0,0:0:0:0:
256,192,29225,1,0,0:0:0:0:
256,192,29300,1,8,0:0:0:0:
256,192,29450,1,8,0:0:0:0:
256,192,29600,1,0,0:0:0:0:
256,192,29675,1,0,0:0:0:0:
256,192,29750,1,8,0:0:0:0:
256,192,29900,1,8,0:0:0:0:
256,192,30050,1,0,0:0:0:0:
256,192,30125,1,0,0:0:0:0:
256,192,30200,1,8,0:0:0:0:
256,192,30350,1,8,0:0:0:0:
256,192,30500,1,0,0:0:0:0:
256,192,30575,1,0,0:0:0:0:
256,192,30650,1,8,0:0:0:0:
256,192,30800,1,8,0:0:0:0:
256,192,30950,1,0,0:0:0:0:
256,192,31025,1,8,0:0:0:0:
256,192,31100,1,0,0:0:0:0:
256,192,31175,1,8,0:0:0:0:
256,192,31250,1,8,0:0:0:0:
256,192,31325,1,8,0:0:0:0:
256,192,31400,1,0,0:0:0:0:
256,192,31550,1,0,0:0:0:0:
256,192,31700,1,8,0:0:0:0:
256,192,31775,1,0,0:0:0:0:
256,192,31850,1,8,0:0:0:0:
256,192,32000,1,0,0:0:0:0:
256,192,32150,1,8,0:0:0:0:
256,192,32225,1,8,0:0:0:0:
256,192,32300,1,0,0:0:0:0:
256,192,32450,1,0,0:0:0:0:
256,192,32600,1,8,0:0:0:0:
256,192,32750,1,4,0:0:0:0:
256,192,33050,1,0,0:0:0:0:
256,192,33200,1,12,0:0:0:0:
256,192,33425,1,12,0:0:0:0:
256,192,33650,1,12,0:0:0:0:
256,192,33800,1,0,0:0:0:0:
256,192,33875,1,0,0:0:0:0:
256,192,33950,1,0,0:0:0:0:
256,192,34025,1,0,0:0:0:0:
256,192,34100,1,0,0:0:0:0:
256,192,34175,1,0,0:0:0:0:
256,192,34250,1,0,0:0:0:0:
256,192,34325,1,0,0:0:0:0:
256,192,34400,1,8,0:0:0:0:
256,192,34550,1,8,0:0:0:0:
256,192,34625,1,8,0:0:0:0:
256,192,34700,1,0,0:0:0:0:
256,192,34850,1,0,0:0:0:0:
256,192,35000,1,8,0:0:0:0:
256,192,35075,1,0,0:0:0:0:
256,192,35150,1,8,0:0:0:0:
256,192,35225,1,8,0:0:0:0:
256,192,35300,1,0,0:0:0:0:
256,192,35450,1,8,0:0:0:0:
256,192,35525,1,0,0:0:0:0:
256,192,35600,1,8,0:0:0:0:
256,192,35750,1,0,0:0:0:0:
256,192,35825,1,0,0:0:0:0:
256,192,35900,1,8,0:0:0:0:
256,192,35975,1,8,0:0:0:0:
256,192,36050,1,0,0:0:0:0:
256,192,36200,1,0,0:0:0:0:
256,192,36275,1,0,0:0:0:0:
256,192,36350,1,0,0:0:0:0:
256,192,36425,1,0,0:0:0:0:
256,192,36500,1,8,0:0:0:0:
256,192,36575,1,8,0:0:0:0:
256,192,36650,1,0,0:0:0:0:
256,192,36725,1,0,0:0:0:0:
256,192,36800,1,0,0:0:0:0:
256,192,36875,1,0,0:0:0:0:
256,192,36950,1,8,0:0:0:0:
256,192,37025,1,8,0:0:0:0:
256,192,37100,1,0,0:0:0:0:
256,192,37175,1,0,0:0:0:0:
256,192,37250,1,0,0:0:0:0:
256,192,37325,1,0,0:0:0:0:
256,192,37400,1,8,0:0:0:0:
256,192,37475,1,0,0:0:0:0:
256,192,37550,1,8,0:0:0:0:
256,192,37625,1,8,0:0:0:0:
256,192,37700,1,0,0:0:0:0:
256,192,37775,1,0,0:0:0:0:
256,192,37850,1,8,0:0:0:0:
256,192,37925,1,0,0:0:0:0:
256,192,38000,1,8,0:0:0:0:
256,192,38075,1,8,0:0:0:0:
256,192,38150,1,0,0:0:0:0:
256,192,38225,1,0,0:0:0:0:
256,192,38300,1,8,0:0:0:0:
256,192,38375,1,8,0:0:0:0:
256,192,38450,1,0,0:0:0:0:
256,192,38525,1,0,0:0:0:0:
256,192,38600,1,8,0:0:0:0:
256,192,38675,1,0,0:0:0:0:
256,192,38750,1,0,0:0:0:0:
256,192,38825,1,0,0:0:0:0:
256,192,38900,1,8,0:0:0:0:
256,192,38975,1,0,0:0:0:0:
256,192,39050,1,0,0:0:0:0:
256,192,39125,1,0,0:0:0:0:
256,192,39200,1,8,0:0:0:0:
256,192,39350,1,8,0:0:0:0:
256,192,39650,1,12,0:0:0:0:
256,192,39875,1,0,0:0:0:0:
256,192,39950,1,0,0:0:0:0:
256,192,40025,1,8,0:0:0:0:
256,192,40100,1,8,0:0:0:0:
256,192,40400,1,12,0:0:0:0:
256,192,40550,1,0,0:0:0:0:
256,192,40700,1,0,0:0:0:0:
256,192,40775,1,0,0:0:0:0:
256,192,40850,1,8,0:0:0:0:
256,192,41000,1,8,0:0:0:0:
256,192,41150,1,0,0:0:0:0:
256,192,41300,1,8,0:0:0:0:
256,192,41450,1,0,0:0:0:0:
256,192,41600,1,8,0:0:0:0:
256,192,41675,1,8,0:0:0:0:
256,192,41750,1,0,0:0:0:0:
256,192,41900,1,0,0:0:0:0:
256,192,42050,1,8,0:0:0:0:
256,192,42125,1,0,0:0:0:0:
256,192,42200,1,0,0:0:0:0:
256,192,42350,1,0,0:0:0:0:
256,192,42500,1,8,0:0:0:0:
256,192,42650,1,8,0:0:0:0:
256,192,42800,1,8,0:0:0:0:
256,192,42875,1,8,0:0:0:0:
256,192,42950,1,0,0:0:0:0:
256,192,43100,1,0,0:0:0:0:
256,192,43250,1,8,0:0:0:0:
256,192,43400,1,8,0:0:0:0:
256,192,43550,1,0,0:0:0:0:
256,192,43700,1,8,0:0:0:0:
256,192,43775,1,8,0:0:0:0:
256,192,43850,1,0,0:0:0:0:
256,192,44000,1,8,0:0:0:0:
256,192,44150,1,8,0:0:0:0:
256,192,44225,1,0,0:0:0:0:
256,192,44300,1,0,0:0:0:0:
256,192,44375,1,0,0:0:0:0:
256,192,44450,1,8,0:0:0:0:
256,192,44600,1,0,0:0:0:0:
256,192,44675,1,0,0:0:0:0:
256,192,44750,1,8,0:0:0:0:
256,192,44900,1,0,0:0:0:0:
256,192,44950,1,0,0:0:0:0:
256,192,45000,1,0,0:0:0:0:
256,192,45050,1,8,0:0:0:0:
256,192,45200,1,12,0:0:0:0:
256,192,45350,1,0,0:0:0:0:
256,192,45500,1,0,0:0:0:0:
256,192,45575,1,0,0:0:0:0:
256,192,45650,1,8,0:0:0:0:
256,192,45800,1,8,0:0:0:0:
256,192,45950,1,0,0:0:0:0:
256,192,46100,1,8,0:0:0:0:
256,192,46250,1,0,0:0:0:0:
256,192,46400,1,8,0:0:0:0:
256,192,46475,1,8,0:0:0:0:
256,192,46550,1,0,0:0:0:0:
256,192,46700,1,0,0:0:0:0:
256,192,46850,1,8,0:0:0:0:
256,192,46925,1,0,0:0:0:0:
256,192,47000,1,0,0:0:0:0:
256,192,47150,1,0,0:0:0:0:
256,192,47300,1,8,0:0:0:0:
256,192,47375,1,8,0:0:0:0:
256,192,47450,1,0,0:0:0:0:
256,192,47600,1,8,0:0:0:0:
256,192,47675,1,0,0:0:0:0:
256,192,47750,1,8,0:0:0:0:
256,192,47900,1,0,0:0:0:0:
256,192,48050,1,8,0:0:0:0:
256,192,48125,1,0,0:0:0:0:
256,192,48200,1,8,0:0:0:0:
256,192,48350,1,0,0:0:0:0:
256,192,48500,1,8,0:0:0:0:
256,192,48650,1,0,0:0:0:0:
256,192,48800,1,8,0:0:0:0:
256,192,48875,1,8,0:0:0:0:
256,192,48950,1,0,0:0:0:0:
256,192,49100,1,0,0:0:0:0:
256,192,49250,1,8,0:0:0:0:
256,192,49400,1,0,0:0:0:0:
256,192,49550,1,8,0:0:0:0:
256,192,49700,1,0,0:0:0:0:
256,192,49750,1,0,0:0:0:0:
256,192,49800,1,0,0:0:0:0:
256,192,49850,1,8,0:0:0:0:
256,192,50000,1,12,0:0:0:0:
256,192,50150,1,0,0:0:0:0:
256,192,50300,1,0,0:0:0:0:
256,192,50375,1,0,0:0:0:0:
256,192,50450,1,8,0:0:0:0:
256,192,50600,1,8,0:0:0:0:
256,192,50750,1,0,0:0:0:0:
256,192,50900,1,8,0:0:0:0:
256,192,51050,1,0,0:0:0:0:
256,192,51200,1,8,0:0:0:0:
256,192,51275,1,8,0:0:0:0:
256,192,51350,1,0,0:0:0:0:
256,192,51500,1,0,0:0:0:0:
256,192,51650,1,8,0:0:0:0:
256,192,51725,1,0,0:0:0:0:
256,192,51800,1,0,0:0:0:0:
256,192,51950,1,0,0:0:0:0:
256,192,52100,1,8,0:0:0:0:
256,192,52250,1,0,0:0:0:0:
256,192,52400,1,8,0:0:0:0:
256,192,52550,1,0,0:0:0:0:
256,192,52700,1,0,0:0:0:0:
256,192,52775,1,0,0:0:0:0:
256,192,52850,1,8,0:0:0:0:
256,192,53000,1,0,0:0:0:0:
256,192,53150,1,0,0:0:0:0:
256,192,53300,1,8,0:0:0:0:
256,192,53450,1,0,0:0:0:0:
256,192,53600,1,8,0:0:0:0:
256,192,53675,1,0,0:0:0:0:
256,192,53750,1,8,0:0:0:0:
256,192,53900,1,0,0:0:0:0:
256,192,54050,1,8,0:0:0:0:
256,192,54125,1,8,0:0:0:0:
256,192,54200,1,0,0:0:0:0:
256,192,54350,1,8,0:0:0:0:
256,192,54500,1,0,0:0:0:0:
256,192,54550,1,0,0:0:0:0:
256,192,54600,1,0,0:0:0:0:
256,192,54650,1,8,0:0:0:0:
256,192,54800,1,12,0:0:0:0:
256,192,54950,1,0,0:0:0:0:
256,192,55100,1,0,0:0:0:0:
256,192,55175,1,0,0:0:0:0:
256,192,55250,1,8,0:0:0:0:
256,192,55400,1,8,0:0:0:0:
256,192,55550,1,0,0:0:0:0:
256,192,55700,1,8,0:0:0:0:
256,192,55850,1,0,0:0:0:0:
256,192,56000,1,8,0:0:0:0:
256,192,56075,1,8,0:0:0:0:
256,192,56150,1,0,0:0:0:0:
256,192,56300,1,0,0:0:0:0:
256,192,56450,1,8,0:0:0:0:
256,192,56525,1,0,0:0:0:0:
256,192,56600,1,0,0:0:0:0:
256,192,56750,1,0,0:0:0:0:
256,192,56900,1,8,0:0:0:0:
256,192,57050,1,0,0:0:0:0:
256,192,57200,1,8,0:0:0:0:
256,192,57275,1,0,0:0:0:0:
256,192,57350,1,8,0:0:0:0:
256,192,57500,1,0,0:0:0:0:
256,192,57575,1,0,0:0:0:0:
256,192,57650,1,8,0:0:0:0:
256,192,57725,1,0,0:0:0:0:
256,192,57800,1,8,0:0:0:0:
256,192,57875,1,8,0:0:0:0:
256,192,57950,1,0,0:0:0:0:
256,192,58100,1,0,0:0:0:0:
256,192,58175,1,0,0:0:0:0:
256,192,58250,1,8,0:0:0:0:
256,192,58400,1,8,0:0:0:0:
256,192,58475,1,8,0:0:0:0:
256,192,58550,1,0,0:0:0:0:
256,192,58625,1,0,0:0:0:0:
256,192,58700,1,8,0:0:0:0:
256,192,58775,1,8,0:0:0:0:
256,192,58850,1,8,0:0:0:0:
256,192,58925,1,8,0:0:0:0:
256,192,59000,1,0,0:0:0:0:
256,192,59075,1,0,0:0:0:0:
256,192,59150,1,0,0:0:0:0:
256,192,59225,1,0,0:0:0:0:
256,192,59300,1,8,0:0:0:0:
256,192,59600,1,12,0:0:0:0:
256,192,59750,1,0,0:0:0:0:
256,192,59900,1,8,0:0:0:0:
256,192,59975,1,8,0:0:0:0:
256,192,60050,1,0,0:0:0:0:
256,192,60200,1,0,0:0:0:0:
256,192,60350,1,8,0:0:0:0:
256,192,60500,1,0,0:0:0:0:
256,192,60650,1,0,0:0:0:0:
256,192,60725,1,0,0:0:0:0:
256,192,60800,1,8,0:0:0:0:
256,192,60875,1,8,0:0:0:0:
256,192,60950,1,0,0:0:0:0:
256,192,61100,1,0,0:0:0:0:
256,192,61250,1,8,0:0:0:0:
256,192,61325,1,0,0:0:0:0:
256,192,61400,1,8,0:0:0:0:
256,192,61550,1,4,0:0:0:0:
256,192,61700,1,8,0:0:0:0:
256,192,61850,1,4,0:0:0:0:
256,192,62000,1,12,0:0:0:0:
256,192,62150,1,0,0:0:0:0:
256,192,62300,1,8,0:0:0:0:
256,192,62375,1,8,0:0:0:0:
256,192,62450,1,0,0:0:0:0:
256,192,62600,1,0,0:0:0:0:
256,192,62750,1,8,0:0:0:0:
256,192,62900,1,0,0:0:0:0:
256,192,63050,1,0,0:0:0:0:
256,192,63125,1,0,0:0:0:0:
256,192,63200,1,8,0:0:0:0:
256,192,63275,1,8,0:0:0:0:
256,192,63350,1,0,0:0:0:0:
256,192,63500,1,0,0:0:0:0:
256,192,63575,1,0,0:0:0:0:
256,192,63650,1,8,0:0:0:0:
256,192,63725,1,0,0:0:0:0:
256,192,63800,1,0,0:0:0:0:
256,192,63950,1,8,0:0:0:0:
256,192,64100,1,4,0:0:0:0:
256,192,64250,1,8,0:0:0:0:
256,192,64400,1,12,0:0:0:0:
256,192,64550,1,0,0:0:0:0:
256,192,64700,1,8,0:0:0:0:
256,192,64775,1,8,0:0:0:0:
256,192,64850,1,0,0:0:0:0:
256,192,65000,1,0,0:0:0:0:
256,192,65150,1,8,0:0:0:0:
256,192,65300,1,0,0:0:0:0:
256,192,65450,1,0,0:0:0:0:
256,192,65525,1,0,0:0:0:0:
256,192,65600,1,8,0:0:0:0:
256,192,65675,1,8,0:0:0:0:
256,192,65750,1,0,0:0:0:0:
256,192,65900,1,0,0:0:0:0:
256,192,66050,1,8,0:0:0:0:
256,192,66200,1,8,0:0:0:0:
256,192,66275,1,0,0:0:0:0:
256,192,66350,1,0,0:0:0:0:
256,192,66425,1,0,0:0:0:0:
256,192,66500,1,8,0:0:0:0:
256,192,66575,1,8,0:0:0:0:
256,192,66650,1,0,0:0:0:0:
256,192,66800,1,12,0:0:0:0:
256,192,66950,1,0,0:0:0:0:
256,192,67100,1,8,0:0:0:0:
256,192,67175,1,8,0:0:0:0:
256,192,67250,1,0,0:0:0:0:
256,192,67400,1,0,0:0:0:0:
256,192,67550,1,8,0:0:0:0:
256,192,67625,1,0,0:0:0:0:
256,192,67700,1,8,0:0:0:0:
256,192,67850,1,0,0:0:0:0:
256,192,67925,1,0,0:0:0:0:
256,192,68000,1,8,0:0:0:0:
256,192,68075,1,0,0:0:0:0:
256,192,68150,1,8,0:0:0:0:
256,192,68225,1,8,0:0:0:0:
256,192,68300,1,0,0:0:0:0:
256,192,68375,1,0,0:0:0:0:
256,192,68450,1,8,0:0:0:0:
256,192,68525,1,0,0:0:0:0:
256,192,68600,1,8,0:0:0:0:
256,192,68675,1,8,0:0:0:0:
256,192,68750,1,0,0:0:0:0:
256,192,68825,1,0,0:0:0:0:
256,192,68900,1,8,0:0:0:0:
256,192,69200,1,12,0:0:0:0:
256,192,69350,1,0,0:0:0:0:
256,192,69500,1,0,0:0:0:0:
256,192,69575,1,0,0:0:0:0:
256,192,69650,1,8,0:0:0:0:
256,192,69800,1,8,0:0:0:0:
256,192,69950,1,0,0:0:0:0:
256,192,70100,1,8,0:0:0:0:
256,192,70250,1,0,0:0:0:0:
256,192,70400,1,8,0:0:0:0:
256,192,70475,1,8,0:0:0:0:
256,192,70550,1,0,0:0:0:0:
256,192,70700,1,0,0:0:0:0:
256,192,70850,1,8,0:0:0:0:
256,192,70925,1,0,0:0:0:0:
256,192,71000,1,0,0:0:0:0:
256,192,71150,1,0,0:0:0:0:
256,192,71300,1,8,0:0:0:0:
256,192,71450,1,8,0:0:0:0:
256,192,71600,1,8,0:0:0:0:
256,192,71675,1,8,0:0:0:0:
256,192,71750,1,0,0:0:0:0:
256,192,71900,1,0,0:0:0:0:
256,192,72050,1,8,0:0:0:0:
256,192,72200,1,8,0:0:0:0:
256,192,72350,1,0,0:0:0:0:
256,192,72500,1,8,0:0:0:0:
256,192,72575,1,8,0:0:0:0:
256,192,72650,1,0,0:0:0:0:
256,192,72800,1,8,0:0:0:0:
256,192,72950,1,8,0:0:0:0:
256,192,73025,1,0,0:0:0:0:
256,192,73100,1,0,0:0:0:0:
256,192,73175,1,0,0:0:0:0:
256,192,73250,1,8,0:0:0:0:
256,192,73400,1,0,0:0:0:0:
256,192,73450,1,0,0:0:0:0:
256,192,73500,1,0,0:0:0:0:
256,192,73550,1,8,0:0:0:0:
256,192,73700,1,0,0:0:0:0:
256,192,73750,1,0,0:0:0:0:
256,192,73800,1,0,0:0:0:0:
256,192,73850,1,8,0:0:0:0:
256,192,74000,1,12,0:0:0:0:
256,192,74150,1,0,0:0:0:0:
256,192,74300,1,0,0:0:0:0:
256,192,74375,1,0,0:0:0:0:
256,192,74450,1,8,0:0:0:0:
256,192,74600,1,8,0:0:0:0:
256,192,74750,1,0,0:0:0:0:
256,192,74900,1,8,0:0:0:0:
256,192,75050,1,0,0:0:0:0:
256,192,75200,1,8,0:0:0:0:
256,192,75275,1,8,0:0:0:0:
256,192,75350,1,0,0:0:0:0:
256,192,75500,1,0,0:0:0:0:
256,192,75650,1,8,0:0:0:0:
256,192,75725,1,0,0:0:0:0:
256,192,75800,1,0,0:0:0:0:
256,192,75950,1,0,0:0:0:0:
256,192,76100,1,8,0:0:0:0:
256,192,76175,1,8,0:0:0:0:
256,192,76250,1,0,0:0:0:0:
256,192,76400,1,8,0:0:0:0:
256,192,76475,1,0,0:0:0:0:
256,192,76550,1,8,0:0:0:0:
256,192,76700,1,0,0:0:0:0:
256,192,76850,1,8,0:0:0:0:
256,192,76925,1,0,0:0:0:0:
256,192,77000,1,8,0:0:0:0:
256,192,77150,1,0,0:0:0:0:
256,192,77300,1,8,0:0:0:0:
256,192,77450,1,0,0:0:0:0:
256,192,77600,1,8,0:0:0:0:
256,192,77675,1,8,0:0:0:0:
256,192,77750,1,0,0:0:0:0:
256,192,77900,1,0,0:0:0:0:
256,192,78050,1,8,0:0:0:0:
256,192,78200,1,0,0:0:0:0:
256,192,78350,1,8,0:0:0:0:
256,192,78500,1,0,0:0:0:0:
256,192,78550,1,0,0:0:0:0:
256,192,78600,1,0,0:0:0:0:
256,192,78650,1,8,0:0:0:0:
256,192,78800,1,12,0:0:0:0:
256,192,78950,1,0,0:0:0:0:
256,192,79100,1,0,0:0:0:0:
256,192,79175,1,0,0:0:0:0:
256,192,79250,1,8,0:0:0:0:
256,192,79400,1,8,0:0:0:0:
256,192,79550,1,0,0:0:0:0:
256,192,79700,1,8,0:0:0:0:
256,192,79850,1,0,0:0:0:0:
256,192,80000,1,8,0:0:0:0:
256,192,80075,1,8,0:0:0:0:
256,192,80150,1,0,0:0:0:0:
256,192,80300,1,0,0:0:0:0:
256,192,80450,1,8,0:0:0:0:
256,192,80525,1,0,0:0:0:0:
256,192,80600,1,0,0:0:0:0:
256,192,80750,1,0,0:0:0:0:
256,192,80900,1,8,0:0:0:0:
256,192,81050,1,0,0:0:0:0:
256,192,81200,1,8,0:0:0:0:
256,192,81350,1,0,0:0:0:0:
256,192,81500,1,0,0:0:0:0:
256,192,81575,1,0,0:0:0:0:
256,192,81650,1,8,0:0:0:0:
256,192,81800,1,0,0:0:0:0:
256,192,81950,1,0,0:0:0:0:
256,192,82100,1,8,0:0:0:0:
256,192,82250,1,8,0:0:0:0:
256,192,82400,1,0,0:0:0:0:
256,192,82475,1,0,0:0:0:0:
256,192,82550,1,8,0:0:0:0:
256,192,82625,1,0,0:0:0:0:
256,192,82700,1,0,0:0:0:0:
256,192,82775,1,0,0:0:0:0:
256,192,82850,1,8,0:0:0:0:
256,192,82925,1,0,0:0:0:0:
256,192,83000,1,0,0:0:0:0:
256,192,83075,1,0,0:0:0:0:
256,192,83150,1,8,0:0:0:0:
256,192,83225,1,8,0:0:0:0:
256,192,83300,1,0,0:0:0:0:
256,192,83350,1,0,0:0:0:0:
256,192,83400,1,0,0:0:0:0:
256,192,83450,1,8,0:0:0:0:
256,192,83600,1,12,0:0:0:0:
256,192,83750,1,0,0:0:0:0:
256,192,83900,1,0,0:0:0:0:
256,192,83975,1,0,0:0:0:0:
256,192,84050,1,8,0:0:0:0:
256,192,84200,1,8,0:0:0:0:
256,192,84350,1,0,0:0:0:0:
256,192,84500,1,8,0:0:0:0:
256,192,84650,1,0,0:0:0:0:
256,192,84800,1,8,0:0:0:0:
256,192,84875,1,8,0:0:0:0:
256,192,84950,1,0,0:0:0:0:
256,192,85100,1,0,0:0:0:0:
256,192,85175,1,0,0:0:0:0:
256,192,85250,1,8,0:0:0:0:
256,192,85325,1,8,0:0:0:0:
256,192,85400,1,0,0:0:0:0:
256,192,85475,1,0,0:0:0:0:
256,192,85550,1,8,0:0:0:0:
256,192,85625,1,0,0:0:0:0:
256,192,85700,1,8,0:0:0:0:
256,192,85775,1,8,0:0:0:0:
256,192,85850,1,0,0:0:0:0:
256,192,85925,1,0,0:0:0:0:
256,192,86000,1,8,0:0:0:0:
256,192,86075,1,0,0:0:0:0:
256,192,86150,1,0,0:0:0:0:
256,192,86225,1,0,0:0:0:0:
256,192,86300,1,8,0:0:0:0:
256,192,86375,1,0,0:0:0:0:
256,192,86450,1,0,0:0:0:0:
256,192,86525,1,0,0:0:0:0:
256,192,86600,1,8,0:0:0:0:
256,192,86675,1,8,0:0:0:0:
256,192,86750,1,8,0:0:0:0:
256,192,86825,1,8,0:0:0:0:
256,192,86900,1,0,0:0:0:0:
256,192,86975,1,0,0:0:0:0:
256,192,87050,1,0,0:0:0:0:
256,192,87125,1,0,0:0:0:0:
256,192,87200,1,8,0:0:0:0:
256,192,87275,1,8,0:0:0:0:
256,192,87350,1,0,0:0:0:0:
256,192,87425,1,0,0:0:0:0:
256,192,87500,1,0,0:0:0:0:
256,192,87575,1,0,0:0:0:0:
256,192,87650,1,8,0:0:0:0:
256,192,87725,1,8,0:0:0:0:
256,192,87800,1,0,0:0:0:0:
256,192,87875,1,0,0:0:0:0:
256,192,87950,1,0,0:0:0:0:
256,192,88025,1,0,0:0:0:0:
256,192,88100,1,8,0:0:0:0:
256,192,88400,1,4,0:0:0:0:
256,192,88550,1,8,0:0:0:0:
256,192,88700,1,8,0:0:0:0:
256,192,88850,1,4,0:0:0:0:
256,192,89000,1,8,0:0:0:0:
256,192,89150,1,8,0:0:0:0:
256,192,89300,1,4,0:0:0:0:
256,192,89450,1,8,0:0:0:0:
256,192,89600,1,8,0:0:0:0:
256,192,89750,1,4,0:0:0:0:
256,192,89900,1,8,0:0:0:0:
256,192,90050,1,0,0:0:0:0:
256,192,90100,1,0,0:0:0:0:
256,192,90150,1,0,0:0:0:0:
256,192,90200,1,8,0:0:0:0:
256,192,90500,1,8,0:0:0:0:
256,192,90800,1,4,0:0:0:0:
256,192,90950,1,8,0:0:0:0:
256,192,91100,1,8,0:0:0:0:
256,192,91250,1,4,0:0:0:0:
256,192,91400,1,8,0:0:0:0:
256,192,91550,1,8,0:0:0:0:
256,192,91700,1,4,0:0:0:0:
256,192,91850,1,8,0:0:0:0:
256,192,92000,1,8,0:0:0:0:
256,192,92150,1,4,0:0:0:0:
256,192,92300,1,8,0:0:0:0:
256,192,92450,1,8,0:0:0:0:
256,192,92600,1,0,0:0:0:0:
256,192,92675,1,0,0:0:0:0:
256,192,92750,1,8,0:0:0:0:
256,192,92900,1,0,0:0:0:0:
256,192,92975,1,0,0:0:0:0:
256,192,93050,1,8,0:0:0:0:
256,192,93200,1,4,0:0:0:0:
256,192,93350,1,8,0:0:0:0:
256,192,93500,1,8,0:0:0:0:
256,192,93650,1,4,0:0:0:0:
256,192,93800,1,8,0:0:0:0:
256,192,93950,1,0,0:0:0:0:
256,192,94100,1,8,0:0:0:0:
256,192,94325,1,4,0:0:0:0:
256,192,94550,1,8,0:0:0:0:
256,192,94775,1,4,0:0:0:0:
256,192,95000,1,8,0:0:0:0:
256,192,95075,1,8,0:0:0:0:
256,192,95150,1,0,0:0:0:0:
256,192,95225,1,0,0:0:0:0:
256,192,95300,1,8,0:0:0:0:
256,192,95600,1,0,0:0:0:0:
256,192,95675,1,0,0:0:0:0:
256,192,95750,1,8,0:0:0:0:
256,192,95825,1,0,0:0:0:0:
256,192,95900,1,8,0:0:0:0:
256,192,95975,1,0,0:0:0:0:
256,192,96050,1,0,0:0:0:0:
256,192,96125,1,0,0:0:0:0:
256,192,96200,1,8,0:0:0:0:
256,192,96275,1,0,0:0:0:0:
256,192,96350,1,8,0:0:0:0:
256,192,96425,1,0,0:0:0:0:
256,192,96500,1,0,0:0:0:0:
256,192,96575,1,0,0:0:0:0:
256,192,96650,1,8,0:0:0:0:
256,192,96725,1,0,0:0:0:0:
256,192,96800,1,8,0:0:0:0:
256,192,96875,1,8,0:0:0:0:
256,192,96950,1,0,0:0:0:0:
256,192,97025,1,0,0:0:0:0:
256,192,97100,1,8,0:0:0:0:
256,192,97175,1,8,0:0:0:0:
256,192,97250,1,0,0:0:0:0:
256,192,97325,1,0,0:0:0:0:
256,192,97400,1,8,0:0:0:0:
256,192,97550,1,0,0:0:0:0:
256,192,97625,1,0,0:0:0:0:
256,192,97700,1,8,0:0:0:0:
256,192,97850,1,0,0:0:0:0:
256,192,98000,1,12,0:0:0:0:
256,192,98150,1,0,0:0:0:0:
256,192,98225,1,0,0:0:0:0:
256,192,98300,1,8,0:0:0:0:
256,192,98450,1,0,0:0:0:0:
256,192,98525,1,0,0:0:0:0:
256,192,98600,1,0,0:0:0:0:
256,192,98750,1,8,0:0:0:0:
256,192,98825,1,8,0:0:0:0:
256,192,98900,1,0,0:0:0:0:
256,192,98975,1,0,0:0:0:0:
256,192,99050,1,8,0:0:0:0:
256,192,99200,1,8,0:0:0:0:
256,192,99350,1,0,0:0:0:0:
256,192,99425,1,0,0:0:0:0:
256,192,99500,1,0,0:0:0:0:
256,192,99650,1,8,0:0:0:0:
256,192,99725,1,8,0:0:0:0:
256,192,99800,1,0,0:0:0:0:
256,192,99875,1,0,0:0:0:0:
256,192,99950,1,0,0:0:0:0:
256,192,100025,1,0,0:0:0:0:
256,192,100100,1,8,0:0:0:0:
256,192,100250,1,0,0:0:0:0:
256,192,100325,1,0,0:0:0:0:
256,192,100400,1,12,0:0:0:0:
256,192,100550,1,0,0:0:0:0:
256,192,100625,1,0,0:0:0:0:
256,192,100700,1,8,0:0:0:0:
256,192,100850,1,0,0:0:0:0:
256,192,100925,1,0,0:0:0:0:
256,192,101000,1,0,0:0:0:0:
256,192,101150,1,8,0:0:0:0:
256,192,101225,1,8,0:0:0:0:
256,192,101300,1,0,0:0:0:0:
256,192,101375,1,0,0:0:0:0:
256,192,101450,1,8,0:0:0:0:
256,192,101600,1,8,0:0:0:0:
256,192,101750,1,0,0:0:0:0:
256,192,101825,1,0,0:0:0:0:
256,192,101900,1,0,0:0:0:0:
256,192,102050,1,8,0:0:0:0:
256,192,102125,1,8,0:0:0:0:
256,192,102200,1,0,0:0:0:0:
256,192,102275,1,0,0:0:0:0:
256,192,102350,1,0,0:0:0:0:
256,192,102425,1,0,0:0:0:0:
256,192,102500,1,8,0:0:0:0:
256,192,102650,1,0,0:0:0:0:
256,192,102725,1,0,0:0:0:0:
256,192,102800,1,12,0:0:0:0:
256,192,102950,1,0,0:0:0:0:
256,192,103025,1,0,0:0:0:0:
256,192,103100,1,8,0:0:0:0:
256,192,103250,1,0,0:0:0:0:
256,192,103325,1,0,0:0:0:0:
256,192,103400,1,0,0:0:0:0:
256,192,103550,1,8,0:0:0:0:
256,192,103625,1,8,0:0:0:0:
256,192,103700,1,0,0:0:0:0:
256,192,103775,1,0,0:0:0:0:
256,192,103850,1,8,0:0:0:0:
256,192,104000,1,8,0:0:0:0:
256,192,104150,1,0,0:0:0:0:
256,192,104225,1,0,0:0:0:0:
256,192,104300,1,0,0:0:0:0:
256,192,104450,1,8,0:0:0:0:
256,192,104550,1,0,0:0:0:0:
256,192,104650,1,0,0:0:0:0:
256,192,104750,1,8,0:0:0:0:
256,192,104900,1,0,0:0:0:0:
256,192,105050,1,0,0:0:0:0:
256,192,105200,1,8,0:0:0:0:
256,192,105300,1,0,0:0:0:0:
256,192,105400,1,8,0:0:0:0:
256,192,105500,1,8,0:0:0:0:
256,192,105600,1,0,0:0:0:0:
256,192,105700,1,0,0:0:0:0:
256,192,105800,1,8,0:0:0:0:
256,192,105900,1,8,0:0:0:0:
256,192,106000,1,0,0:0:0:0:
256,192,106100,1,8,0:0:0:0:
256,192,106200,1,0,0:0:0:0:
256,192,106300,1,0,0:0:0:0:
256,192,106400,1,8,0:0:0:0:
256,192,106500,1,8,0:0:0:0:
256,192,106600,1,8,0:0:0:0:
256,192,106700,1,0,0:0:0:0:
256,192,106800,1,0,0:0:0:0:
256,192,106900,1,0,0:0:0:0:
256,192,107000,1,8,0:0:0:0:
256,192,107100,1,8,0:0:0:0:
256,192,107200,1,0,0:0:0:0:
256,192,107300,1,8,0:0:0:0:
256,192,107400,1,0,0:0:0:0:
256,192,107500,1,0,0:0:0:0:
256,192,107600,1,8,0:0:0:0:
256,192,107675,1,8,0:0:0:0:
256,192,107750,1,0,0:0:0:0:
256,192,107825,1,0,0:0:0:0:
256,192,107900,1,8,0:0:0:0:
256,192,107975,1,0,0:0:0:0:
256,192,108050,1,0,0:0:0:0:
256,192,108125,1,0,0:0:0:0:
256,192,108200,1,8,0:0:0:0:
256,192,108300,1,8,0:0:0:0:
256,192,108400,1,0,0:0:0:0:
256,192,108500,1,8,0:0:0:0:
256,192,108600,1,0,0:0:0:0:
256,192,108700,1,0,0:0:0:0:
256,192,108800,1,8,0:0:0:0:
256,192,108875,1,8,0:0:0:0:
256,192,108950,1,8,0:0:0:0:
256,192,109025,1,8,0:0:0:0:
256,192,109100,1,0,0:0:0:0:
256,192,109175,1,0,0:0:0:0:
256,192,109250,1,0,0:0:0:0:
256,192,109325,1,0,0:0:0:0:
256,192,109400,1,8,0:0:0:0:
256,192,109475,1,0,0:0:0:0:
256,192,109550,1,8,0:0:0:0:
256,192,109625,1,8,0:0:0:0:
256,192,109700,1,8,0:0:0:0:
256,192,109775,1,8,0:0:0:0:
256,192,109850,1,8,0:0:0:0:
256,192,110000,1,12,0:0:0:0:
256,192,110150,1,0,0:0:0:0:
256,192,110225,1,0,0:0:0:0:
256,192,110300,1,8,0:0:0:0:
256,192,110375,1,0,0:0:0:0:
256,192,110450,1,8,0:0:0:0:
256,192,110525,1,0,0:0:0:0:
256,192,110600,1,0,0:0:0:0:
256,192,110675,1,0,0:0:0:0:
256,192,110750,1,8,0:0:0:0:
256,192,110825,1,8,0:0:0:0:
256,192,110900,1,0,0:0:0:0:
256,192,110975,1,0,0:0:0:0:
256,192,111050,1,8,0:0:0:0:
256,192,111125,1,0,0:0:0:0:
256,192,111200,1,8,0:0:0:0:
256,192,111275,1,8,0:0:0:0:
256,192,111350,1,0,0:0:0:0:
256,192,111425,1,0,0:0:0:0:
256,192,111500,1,8,0:0:0:0:
256,192,111575,1,0,0:0:0:0:
256,192,111650,1,8,0:0:0:0:
256,192,111725,1,8,0:0:0:0:
256,192,111800,1,0,0:0:0:0:
256,192,111875,1,0,0:0:0:0:
256,192,111950,1,8,0:0:0:0:
256,192,112100,1,8,0:0:0:0:
256,192,112175,1,0,0:0:0:0:
256,192,112250,1,0,0:0:0:0:
256,192,112325,1,0,0:0:0:0:
256,192,112400,1,8,0:0:0:0:
256,192,112475,1,8,0:0:0:0:
256,192,112550,1,0,0:0:0:0:
256,192,112625,1,0,0:0:0:0:
256,192,112700,1,8,0:0:0:0:
256,192,112775,1,0,0:0:0:0:
256,192,112850,1,8,0:0:0:0:
256,192,112925,1,0,0:0:0:0:
256,192,113000,1,0,0:0:0:0:
256,192,113075,1,0,0:0:0:0:
256,192,113150,1,8,0:0:0:0:
256,192,113225,1,8,0:0:0:0:
256,192,113300,1,0,0:0:0:0:
256,192,113375,1,0,0:0:0:0:
256,192,113450,1,8,0:0:0:0:
256,192,113525,1,0,0:0:0:0:
256,192,113600,1,8,0:0:0:0:
256,192,113750,1,0,0:0:0:0:
256,192,113825,1,0,0:0:0:0:
256,192,113900,1,8,0:0:0:0:
256,192,113975,1,8,0:0:0:0:
256,192,114050,1,0,0:0:0:0:
256,192,114125,1,0,0:0:0:0:
256,192,114200,1,8,0:0:0:0:
256,192,114275,1,8,0:0:0:0:
256,192,114350,1,8,0:0:0:0:
256,192,114425,1,8,0:0:0:0:
256,192,114500,1,0,0:0:0:0:
256,192,114575,1,0,0:0:0:0:
256,192,114650,1,8,0:0:0:0:
256,192,114800,1,8,0:0:0:0:
256,192,114875,1,0,0:0:0:0:
256,192,114950,1,0,0:0:0:0:
256,192,115025,1,0,0:0:0:0:
256,192,115100,1,8,0:0:0:0:
256,192,115175,1,0,0:0:0:0:
256,192,115250,1,0,0:0:0:0:
256,192,115325,1,0,0:0:0:0:
256,192,115400,1,8,0:0:0:0:
256,192,115475,1,0,0:0:0:0:
256,192,115550,1,8,0:0:0:0:
256,192,115625,1,0,0:0:0:0:
256,192,115700,1,0,0:0:0:0:
256,192,115775,1,0,0:0:0:0:
256,192,115850,1,8,0:0:0:0:
256,192,115925,1,0,0:0:0:0:
256,192,116000,1,8,0:0:0:0:
256,192,116075,1,0,0:0:0:0:
256,192,116150,1,0,0:0:0:0:
256,192,116225,1,0,0:0:0:0:
256,192,116300,1,8,0:0:0:0:
256,192,116375,1,0,0:0:0:0:
256,192,116450,1,8,0:0:0:0:
256,192,116525,1,0,0:0:0:0:
256,192,116600,1,0,0:0:0:0:
256,192,116675,1,0,0:0:0:0:
256,192,116750,1,8,0:0:0:0:
256,192,116825,1,0,0:0:0:0:
256,192,116900,1,8,0:0:0:0:
256,192,116975,1,0,0:0:0:0:
256,192,117050,1,0,0:0:0:0:
256,192,117125,1,0,0:0:0:0:
256,192,117200,1,8,0:0:0:0:
256,192,117275,1,8,0:0:0:0:
256,192,117350,1,0,0:0:0:0:
256,192,117425,1,0,0:0:0:0:
256,192,117500,1,8,0:0:0:0:
256,192,117575,1,8,0:0:0:0:
256,192,117650,1,0,0:0:0:0:
256,192,117800,1,0,0:0:0:0:
256,192,117875,1,8,0:0:0:0:
256,192,117950,1,8,0:0:0:0:
256,192,118025,1,8,0:0:0:0:
256,192,118100,1,0,0:0:0:0:
256,192,118175,1,0,0:0:0:0:
256,192,118250,1,8,0:0:0:0:
256,192,118400,1,4,0:0:0:0:
256,192,118600,1,4,0:0:0:0:
256,192,118800,1,4,0:0:0:0:
256,192,119000,1,12,0:0:0:0:
256,192,119200,1,12,0:0:0:0:
256,192,119400,1,12,0:0:0:0:
256,192,119600,1,4,0:0:0:0:
256,192,119750,1,8,0:0:0:0:
256,192,119900,1,0,0:0:0:0:
256,192,119975,1,0,0:0:0:0:
256,192,120050,1,8,0:0:0:0:
256,192,120200,1,8,0:0:0:0:
256,192,120275,1,8,0:0:0:0:
256,192,120350,1,0,0:0:0:0:
256,192,120575,1,0,0:0:0:0:
256,192,120650,1,8,0:0:0:0:
256,192,120800,1,8,0:0:0:0:
256,192,120875,1,0,0:0:0:0:
256,192,120950,1,8,0:0:0:0:
256,192,121100,1,0,0:0:0:0:
256,192,121175,1,0,0:0:0:0:
256,192,121250,1,8,0:0:0:0:
256,192,121400,1,8,0:0:0:0:
256,192,121475,1,8,0:0:0:0:
256,192,121550,1,8,0:0:0:0:
256,192,121775,1,0,0:0:0:0:
256,192,121850,1,8,0:0:0:0:
256,192,122000,1,8,0:0:0:0:
256,192,122075,1,0,0:0:0:0:
256,192,122150,1,8,0:0:0:0:
256,192,122300,1,0,0:0:0:0:
256,192,122375,1,0,0:0:0:0:
256,192,122450,1,8,0:0:0:0:
256,192,122600,1,0,0:0:0:0:
256,192,122750,1,8,0:0:0:0:
256,192,122900,1,0,0:0:0:0:
256,192,122975,1,0,0:0:0:0:
256,192,123050,1,8,0:0:0:0:
256,192,123200,1,0,0:0:0:0:
256,192,123350,1,8,0:0:0:0:
256,192,123500,1,0,0:0:0:0:
256,192,123575,1,0,0:0:0:0:
256,192,123650,1,8,0:0:0:0:
256,192,123800,1,0,0:0:0:0:
256,192,123950,1,8,0:0:0:0:
256,192,124100,1,0,0:0:0:0:
256,192,124150,1,0,0:0:0:0:
256,192,124200,1,0,0:0:0:0:
256,192,124250,1,8,0:0:0:0:
256,192,124400,1,12,0:0:0:0:
256,192,124550,1,8,0:0:0:0:
256,192,124700,1,0,0:0:0:0:
256,192,124775,1,0,0:0:0:0:
256,192,124850,1,8,0:0:0:0:
256,192,125000,1,8,0:0:0:0:
256,192,125075,1,8,0:0:0:0:
256,192,125150,1,8,0:0:0:0:
256,192,125300,1,0,0:0:0:0:
256,192,125375,1,0,0:0:0:0:
256,192,125450,1,8,0:0:0:0:
256,192,125600,1,8,0:0:0:0:
256,192,125675,1,8,0:0:0:0:
256,192,125750,1,0,0:0:0:0:
256,192,125825,1,0,0:0:0:0:
256,192,125900,1,8,0:0:0:0:
256,192,125975,1,0,0:0:0:0:
256,192,126050,1,8,0:0:0:0:
256,192,126200,1,8,0:0:0:0:
256,192,126275,1,8,0:0:0:0:
256,192,126350,1,8,0:0:0:0:
256,192,126500,1,0,0:0:0:0:
256,192,126575,1,0,0:0:0:0:
256,192,126650,1,8,0:0:0:0:
256,192,126800,1,8,0:0:0:0:
256,192,126950,1,8,0:0:0:0:
256,192,127025,1,0,0:0:0:0:
256,192,127100,1,0,0:0:0:0:
256,192,127175,1,0,0:0:0:0:
256,192,127250,1,8,0:0:0:0:
256,192,127325,1,0,0:0:0:0:
256,192,127400,1,0,0:0:0:0:
256,192,127475,1,0,0:0:0:0:
256,192,127550,1,8,0:0:0:0:
256,192,127625,1,0,0:0:0:0:
256,192,127700,1,8,0:0:0:0:
256,192,127775,1,0,0:0:0:0:
256,192,127850,1,8,0:0:0:0:
256,192,127925,1,0,0:0:0:0:
256,192,128000,1,0,0:0:0:0:
256,192,128075,1,0,0:0:0:0:
256,192,128150,1,8,0:0:0:0:
256,192,128225,1,0,0:0:0:0:
256,192,128300,1,0,0:0:0:0:
256,192,128375,1,0,0:0:0:0:
256,192,128450,1,8,0:0:0:0:
256,192,128525,1,0,0:0:0:0:
256,192,128600,1,8,0:0:0:0:
256,192,128675,1,8,0:0:0:0:
256,192,128750,1,0,0:0:0:0:
256,192,128900,1,8,0:0:0:0:
256,192,128975,1,8,0:0:0:0:
256,192,129050,1,8,0:0:0:0:
256,192,129200,1,4,0:0:0:0:
256,192,129350,1,8,0:0:0:0:
256,192,129500,1,0,0:0:0:0:
256,192,129575,1,0,0:0:0:0:
256,192,129650,1,8,0:0:0:0:
256,192,129800,1,8,0:0:0:0:
256,192,129875,1,8,0:0:0:0:
256,192,129950,1,0,0:0:0:0:
256,192,130175,1,0,0:0:0:0:
256,192,130250,1,8,0:0:0:0:
256,192,130400,1,8,0:0:0:0:
256,192,130475,1,0,0:0:0:0:
256,192,130550,1,8,0:0:0:0:
256,192,130700,1,0,0:0:0:0:
256,192,130775,1,0,0:0:0:0:
256,192,130850,1,8,0:0:0:0:
256,192,131000,1,8,0:0:0:0:
256,192,131075,1,8,0:0:0:0:
256,192,131150,1,8,0:0:0:0:
256,192,131375,1,0,0:0:0:0:
256,192,131450,1,8,0:0:0:0:
256,192,131600,1,8,0:0:0:0:
256,192,131675,1,0,0:0:0:0:
256,192,131750,1,8,0:0:0:0:
256,192,131900,1,0,0:0:0:0:
256,192,131975,1,0,0:0:0:0:
256,192,132050,1,8,0:0:0:0:
256,192,132200,1,0,0:0:0:0:
256,192,132350,1,8,0:0:0:0:
256,192,132500,1,0,0:0:0:0:
256,192,132575,1,0,0:0:0:0:
256,192,132650,1,8,0:0:0:0:
256,192,132800,1,0,0:0:0:0:
256,192,132950,1,8,0:0:0:0:
256,192,133025,1,8,0:0:0:0:
256,192,133100,1,0,0:0:0:0:
256,192,133175,1,0,0:0:0:0:
256,192,133250,1,8,0:0:0:0:
256,192,133400,1,0,0:0:0:0:
256,192,133450,1,0,0:0:0:0:
256,192,133500,1,0,0:0:0:0:
256,192,133550,1,8,0:0:0:0:
256,192,133700,1,0,0:0:0:0:
256,192,133750,1,0,0:0:0:0:
256,192,133800,1,0,0:0:0:0:
256,192,133850,1,8,0:0:0:0:
256,192,134000,1,12,0:0:0:0:
256,192,134150,1,8,0:0:0:0:
256,192,134300,1,0,0:0:0:0:
256,192,134375,1,0,0:0:0:0:
256,192,134450,1,8,0:0:0:0:
256,192,134600,1,8,0:0:0:0:
256,192,134675,1,8,0:0:0:0:
256,192,134750,1,8,0:0:0:0:
256,192,134900,1,0,0:0:0:0:
256,192,134975,1,0,0:0:0:0:
256,192,135050,1,8,0:0:0:0:
256,192,135200,1,8,0:0:0:0:
256,192,135275,1,8,0:0:0:0:
256,192,135350,1,0,0:0:0:0:
256,192,135500,1,8,0:0:0:0:
256,192,135575,1,0,0:0:0:0:
256,192,135650,1,8,0:0:0:0:
256,192,135800,1,8,0:0:0:0:
256,192,135875,1,8,0:0:0:0:
256,192,135950,1,8,0:0:0:0:
256,192,136025,1,0,0:0:0:0:
256,192,136100,1,8,0:0:0:0:
256,192,136175,1,0,0:0:0:0:
256,192,136250,1,0,0:0:0:0:
256,192,136325,1,0,0:0:0:0:
256,192,136400,1,8,0:0:0:0:
256,192,136475,1,8,0:0:0:0:
256,192,136550,1,0,0:0:0:0:
256,192,136625,1,0,0:0:0:0:
256,192,136700,1,0,0:0:0:0:
256,192,136775,1,0,0:0:0:0:
256,192,136850,1,8,0:0:0:0:
256,192,136925,1,8,0:0:0:0:
256,192,137000,1,0,0:0:0:0:
256,192,137075,1,0,0:0:0:0:
256,192,137150,1,8,0:0:0:0:
256,192,137225,1,0,0:0:0:0:
256,192,137300,1,0,0:0:0:0:
256,192,137375,1,0,0:0:0:0:
256,192,137450,1,8,0:0:0:0:
256,192,137600,1,8,0:0:0:0:
256,192,137675,1,8,0:0:0:0:
256,192,137750,1,0,0:0:0:0:
256,192,137825,1,0,0:0:0:0:
256,192,137900,1,8,0:0:0:0:
256,192,137975,1,0,0:0:0:0:
256,192,138050,1,0,0:0:0:0:
256,192,138125,1,0,0:0:0:0:
256,192,138200,1,8,0:0:0:0:
256,192,138275,1,8,0:0:0:0:
256,192,138350,1,0,0:0:0:0:
256,192,138425,1,0,0:0:0:0:
256,192,138500,1,8,0:0:0:0:
256,192,138550,1,8,0:0:0:0:
256,192,138600,1,8,0:0:0:0:
256,192,138650,1,0,0:0:0:0:
256,192,138800,1,12,0:0:0:0:
256,192,138950,1,8,0:0:0:0:
256,192,139025,1,0,0:0:0:0:
256,192,139100,1,0,0:0:0:0:
256,192,139175,1,0,0:0:0:0:
256,192,139250,1,8,0:0:0:0:
256,192,139325,1,0,0:0:0:0:
256,192,139400,1,8,0:0:0:0:
256,192,139475,1,8,0:0:0:0:
256,192,139550,1,0,0:0:0:0:
256,192,139625,1,0,0:0:0:0:
256,192,139700,1,0,0:0:0:0:
256,192,139775,1,0,0:0:0:0:
256,192,139850,1,8,0:0:0:0:
256,192,139925,1,0,0:0:0:0:
256,192,140000,1,8,0:0:0:0:
256,192,140075,1,0,0:0:0:0:
256,192,140150,1,8,0:0:0:0:
256,192,140225,1,0,0:0:0:0:
256,192,140300,1,0,0:0:0:0:
256,192,140375,1,0,0:0:0:0:
256,192,140450,1,8,0:0:0:0:
256,192,140525,1,0,0:0:0:0:
256,192,140600,1,8,0:0:0:0:
256,192,140675,1,8,0:0:0:0:
256,192,140750,1,0,0:0:0:0:
256,192,140825,1,0,0:0:0:0:
256,192,140900,1,0,0:0:0:0:
256,192,140975,1,0,0:0:0:0:
256,192,141050,1,8,0:0:0:0:
256,192,141200,1,8,0:0:0:0:
256,192,141275,1,8,0:0:0:0:
256,192,141350,1,8,0:0:0:0:
256,192,141425,1,8,0:0:0:0:
256,192,141500,1,0,0:0:0:0:
256,192,141575,1,0,0:0:0:0:
256,192,141650,1,8,0:0:0:0:
256,192,141725,1,0,0:0:0:0:
256,192,141800,1,0,0:0:0:0:
256,192,141875,1,0,0:0:0:0:
256,192,141950,1,8,0:0:0:0:
256,192,142025,1,0,0:0:0:0:
256,192,142100,1,0,0:0:0:0:
256,192,142175,1,0,0:0:0:0:
256,192,142250,1,8,0:0:0:0:
256,192,142325,1,0,0:0:0:0:
256,192,142400,1,0,0:0:0:0:
256,192,142475,1,0,0:0:0:0:
256,192,142550,1,8,0:0:0:0:
256,192,142625,1,0,0:0:0:0:
256,192,142700,1,0,0:0:0:0:
256,192,142775,1,0,0:0:0:0:
256,192,142850,1,8,0:0:0:0:
256,192,143000,1,0,0:0:0:0:
256,192,143050,1,0,0:0:0:0:
256,192,143100,1,0,0:0:0:0:
256,192,143150,1,8,0:0:0:0:
256,192,143300,1,0,0:0:0:0:
256,192,143350,1,0,0:0:0:0:
256,192,143400,1,0,0:0:0:0:
256,192,143450,1,8,0:0:0:0:
256,192,143600,1,12,0:0:0:0:
256,192,143750,1,8,0:0:0:0:
256,192,143825,1,8,0:0:0:0:
256,192,143900,1,0,0:0:0:0:
256,192,143975,1,0,0:0:0:0:
256,192,144050,1,8,0:0:0:0:
256,192,144125,1,0,0:0:0:0:
256,192,144200,1,8,0:0:0:0:
256,192,144275,1,8,0:0:0:0:
256,192,144350,1,8,0:0:0:0:
256,192,144425,1,0,0:0:0:0:
256,192,144500,1,0,0:0:0:0:
256,192,144575,1,0,0:0:0:0:
256,192,144650,1,8,0:0:0:0:
256,192,144725,1,0,0:0:0:0:
256,192,144800,1,8,0:0:0:0:
256,192,144875,1,0,0:0:0:0:
256,192,144950,1,8,0:0:0:0:
256,192,145025,1,8,0:0:0:0:
256,192,145100,1,0,0:0:0:0:
256,192,145175,1,0,0:0:0:0:
256,192,145250,1,8,0:0:0:0:
256,192,145325,1,0,0:0:0:0:
256,192,145400,1,8,0:0:0:0:
256,192,145475,1,8,0:0:0:0:
256,192,145550,1,8,0:0:0:0:
256,192,145625,1,0,0:0:0:0:
256,192,145700,1,0,0:0:0:0:
256,192,145775,1,0,0:0:0:0:
256,192,145850,1,8,0:0:0:0:
256,192,146000,1,8,0:0:0:0:
256,192,146075,1,8,0:0:0:0:
256,192,146150,1,8,0:0:0:0:
256,192,146225,1,8,0:0:0:0:
256,192,146300,1,0,0:0:0:0:
256,192,146375,1,0,0:0:0:0:
256,192,146450,1,8,0:0:0:0:
256,192,146525,1,0,0:0:0:0:
256,192,146600,1,0,0:0:0:0:
256,192,146675,1,0,0:0:0:0:
256,192,146750,1,8,0:0:0:0:
256,192,146900,1,0,0:0:0:0:
256,192,146950,1,0,0:0:0:0:
256,192,147000,1,0,0:0:0:0:
256,192,147050,1,8,0:0:0:0:
256,192,147125,1,8,0:0:0:0:
256,192,147200,1,0,0:0:0:0:
256,192,147350,1,8,0:0:0:0:
256,192,147425,1,0,0:0:0:0:
256,192,147500,1,0,0:0:0:0:
256,192,147575,1,0,0:0:0:0:
256,192,147650,1,8,0:0:0:0:
256,192,147725,1,8,0:0:0:0:
256,192,147800,1,0,0:0:0:0:
256,192,147875,1,0,0:0:0:0:
256,192,147950,1,8,0:0:0:0:
256,192,148025,1,0,0:0:0:0:
256,192,148100,1,8,0:0:0:0:
256,192,148175,1,0,0:0:0:0:
256,192,148250,1,8,0:0:0:0:
256,192,148400,1,12,0:0:0:0:
256,192,148550,1,8,0:0:0:0:
256,192,148625,1,0,0:0:0:0:
256,192,148700,1,0,0:0:0:0:
256,192,148775,1,0,0:0:0:0:
256,192,148850,1,8,0:0:0:0:
256,192,148925,1,0,0:0:0:0:
256,192,149000,1,8,0:0:0:0:
256,192,149075,1,8,0:0:0:0:
256,192,149150,1,0,0:0:0:0:
256,192,149225,1,0,0:0:0:0:
256,192,149300,1,0,0:0:0:0:
256,192,149375,1,0,0:0:0:0:
256,192,149450,1,8,0:0:0:0:
256,192,149525,1,0,0:0:0:0:
256,192,149600,1,8,0:0:0:0:
256,192,149675,1,8,0:0:0:0:
256,192,149750,1,0,0:0:0:0:
256,192,149825,1,0,0:0:0:0:
256,192,149900,1,0,0:0:0:0:
256,192,149975,1,0,0:0:0:0:
256,192,150050,1,8,0:0:0:0:
256,192,150200,1,0,0:0:0:0:
256,192,150250,1,0,0:0:0:0:
256,192,150300,1,0,0:0:0:0:
256,192,150350,1,8,0:0:0:0:
256,192,150500,1,0,0:0:0:0:
256,192,150550,1,0,0:0:0:0:
256,192,150600,1,0,0:0:0:0:
256,192,150650,1,8,0:0:0:0:
256,192,150725,1,0,0:0:0:0:
256,192,150800,1,8,0:0:0:0:
256,192,150950,1,8,0:0:0:0:
256,192,151025,1,0,0:0:0:0:
256,192,151100,1,0,0:0:0:0:
256,192,151175,1,0,0:0:0:0:
256,192,151250,1,8,0:0:0:0:
256,192,151325,1,0,0:0:0:0:
256,192,151400,1,0,0:0:0:0:
256,192,151475,1,0,0:0:0:0:
256,192,151550,1,8,0:0:0:0:
256,192,151625,1,0,0:0:0:0:
256,192,151700,1,0,0:0:0:0:
256,192,151775,1,0,0:0:0:0:
256,192,151850,1,8,0:0:0:0:
256,192,151925,1,0,0:0:0:0:
256,192,152000,1,8,0:0:0:0:
256,192,152075,1,0,0:0:0:0:
256,192,152150,1,8,0:0:0:0:
256,192,152225,1,0,0:0:0:0:
256,192,152300,1,0,0:0:0:0:
256,192,152375,1,0,0:0:0:0:
256,192,152450,1,8,0:0:0:0:
256,192,152525,1,0,0:0:0:0:
256,192,152600,1,0,0:0:0:0:
256,192,152675,1,0,0:0:0:0:
256,192,152750,1,8,0:0:0:0:
256,192,152825,1,8,0:0:0:0:
256,192,152900,1,8,0:0:0:0:
256,192,152975,1,8,0:0:0:0:
256,192,153050,1,0,0:0:0:0:
256,192,153200,1,12,0:0:0:0:
256,192,153350,1,8,0:0:0:0:
256,192,153425,1,8,0:0:0:0:
256,192,153500,1,0,0:0:0:0:
256,192,153575,1,0,0:0:0:0:
256,192,153650,1,8,0:0:0:0:
256,192,153725,1,0,0:0:0:0:
256,192,153800,1,8,0:0:0:0:
256,192,153875,1,8,0:0:0:0:
256,192,153950,1,8,0:0:0:0:
256,192,154025,1,0,0:0:0:0:
256,192,154100,1,0,0:0:0:0:
256,192,154175,1,0,0:0:0:0:
256,192,154250,1,8,0:0:0:0:
256,192,154325,1,0,0:0:0:0:
256,192,154400,1,8,0:0:0:0:
256,192,154475,1,0,0:0:0:0:
256,192,154550,1,8,0:0:0:0:
256,192,154625,1,8,0:0:0:0:
256,192,154700,1,0,0:0:0:0:
256,192,154775,1,0,0:0:0:0:
256,192,154850,1,8,0:0:0:0:
256,192,154925,1,0,0:0:0:0:
256,192,155000,1,8,0:0:0:0:
256,192,155075,1,8,0:0:0:0:
256,192,155150,1,0,0:0:0:0:
256,192,155225,1,0,0:0:0:0:
256,192,155300,1,0,0:0:0:0:
256,192,155375,1,0,0:0:0:0:
256,192,155450,1,8,0:0:0:0:
256,192,155600,1,8,0:0:0:0:
256,192,155700,1,0,0:0:0:0:
256,192,155800,1,0,0:0:0:0:
256,192,155900,1,8,0:0:0:0:
256,192,156000,1,0,0:0:0:0:
256,192,156100,1,0,0:0:0:0:
256,192,156200,1,8,0:0:0:0:
256,192,156300,1,8,0:0:0:0:
256,192,156400,1,8,0:0:0:0:
256,192,156500,1,0,0:0:0:0:
256,192,156600,1,0,0:0:0:0:
256,192,156700,1,0,0:0:0:0:
256,192,156800,1,8,0:0:0:0:
256,192,156900,1,8,0:0:0:0:
256,192,157000,1,0,0:0:0:0:
256,192,157100,1,8,0:0:0:0:
256,192,157175,1,8,0:0:0:0:
256,192,157250,1,0,0:0:0:0:
256,192,157300,1,0,0:0:0:0:
256,192,157350,1,0,0:0:0:0:
256,192,157400,1,8,0:0:0:0:
256,192,157500,1,8,0:0:0:0:
256,192,157600,1,0,0:0:0:0:
256,192,157700,1,0,0:0:0:0:
256,192,157800,1,8,0:0:0:0:
256,192,157900,1,0,0:0:0:0:
256,192,158000,1,8,0:0:0:0:
256,192,158300,1,0,0:0:0:0:
256,192,158600,1,0,0:0:0:0:
256,192,158900,1,0,0:0:0:0:
256,192,159200,1,0,0:0:0:0:
256,192,159500,1,0,0:0:0:0:
256,192,159800,1,0,0:0:0:0:
256,192,160100,1,0,0:0:0:0:
256,192,160400,1,8,0:0:0:0:
256,192,160550,1,0,0:0:0:0:
256,192,160700,1,8,0:0:0:0:
256,192,160850,1,0,0:0:0:0:
256,192,160900,1,0,0:0:0:0:
256,192,160950,1,0,0:0:0:0:
256,192,161000,1,8,0:0:0:0:
256,192,161100,1,8,0:0:0:0:
256,192,161200,1,8,0:0:0:0:
256,192,161300,1,0,0:0:0:0:
256,192,161350,1,0,0:0:0:0:
256,192,161400,1,0,0:0:0:0:
256,192,161500,1,8,0:0:0:0:
256,192,161600,1,8,0:0:0:0:
256,192,161700,1,0,0:0:0:0:
256,192,161800,1,0,0:0:0:0:
256,192,161900,1,8,0:0:0:0:
256,192,162000,1,8,0:0:0:0:
256,192,162100,1,8,0:0:0:0:
256,192,162200,1,4,0:0:0:0:
256,192,162650,1,0,0:0:0:0:
256,192,162700,1,0,0:0:0:0:
256,192,162750,1,0,0:0:0:0:
256,192,162800,1,8,0:0:0:0:
256,192,163100,1,0,0:0:0:0:
256,192,163400,1,0,0:0:0:0:
256,192,163700,1,0,0:0:0:0:
256,192,164000,1,0,0:0:0:0:
256,192,164300,1,0,0:0:0:0:
256,192,164600,1,0,0:0:0:0:
256,192,164900,1,0,0:0:0:0:
256,192,165200,1,8,0:0:0:0:
256,192,165300,1,0,0:0:0:0:
256,192,165400,1,8,0:0:0:0:
256,192,165500,1,8,0:0:0:0:
256,192,165600,1,8,0:0:0:0:
256,192,165700,1,8,0:0:0:0:
256,192,165800,1,0,0:0:0:0:
256,192,165900,1,8,0:0:0:0:
256,192,166000,1,8,0:0:0:0:
256,192,166100,1,0,0:0:0:0:
256,192,166200,1,0,0:0:0:0:
256,192,166300,1,0,0:0:0:0:
256,192,166400,1,8,0:0:0:0:
256,192,166475,1,8,0:0:0:0:
256,192,166550,1,8,0:0:0:0:
256,192,166625,1,8,0:0:0:0:
256,192,166700,1,0,0:0:0:0:
256,192,166775,1,0,0:0:0:0:
256,192,166850,1,8,0:0:0:0:
256,192,166925,1,8,0:0:0:0:
256,192,167000,1,8,0:0:0:0:
256,192,167075,1,8,0:0:0:0:
256,192,167150,1,0,0:0:0:0:
256,192,167225,1,0,0:0:0:0:
256,192,167300,1,8,0:0:0:0:
256,192,167450,1,8,0:0:0:0:
256,192,167600,1,8,0:0:0:0:
256,192,167675,1,0,0:0:0:0:
256,192,167750,1,8,0:0:0:0:
256,192,167825,1,8,0:0:0:0:
256,192,167900,1,8,0:0:0:0:
256,192,167975,1,0,0:0:0:0:
256,192,168050,1,8,0:0:0:0:
256,192,168125,1,0,0:0:0:0:
256,192,168200,1,8,0:0:0:0:
256,192,168275,1,8,0:0:0:0:
256,192,168350,1,8,0:0:0:0:
256,192,168425,1,0,0:0:0:0:
256,192,168500,1,8,0:0:0:0:
256,192,168575,1,0,0:0:0:0:
256,192,168650,1,8,0:0:0:0:
256,192,168725,1,8,0:0:0:0:
256,192,168800,1,8,0:0:0:0:
256,192,168875,1,0,0:0:0:0:
256,192,168950,1,8,0:0:0:0:
256,192,169025,1,0,0:0:0:0:
256,192,169100,1,8,0:0:0:0:
256,192,169175,1,8,0:0:0:0:
256,192,169250,1,8,0:0:0:0:
256,192,169325,1,0,0:0:0:0:
256,192,169400,1,8,0:0:0:0:
256,192,169475,1,8,0:0:0:0:
256,192,169550,1,0,0:0:0:0:
256,192,169625,1,0,0:0:0:0:
256,192,169700,1,8,0:0:0:0:
256,192,169775,1,8,0:0:0:0:
256,192,169850,1,0,0:0:0:0:
256,192,169925,1,0,0:0:0:0:
256,192,170000,1,8,0:0:0:0:
256,192,170075,1,0,0:0:0:0:
256,192,170150,1,8,0:0:0:0:
256,192,170225,1,8,0:0:0:0:
256,192,170300,1,8,0:0:0:0:
256,192,170375,1,0,0:0:0:0:
256,192,170450,1,8,0:0:0:0:
256,192,170525,1,0,0:0:0:0:
256,192,170600,1,8,0:0:0:0:
256,192,170675,1,8,0:0:0:0:
256,192,170750,1,8,0:0:0:0:
256,192,170825,1,0,0:0:0:0:
256,192,170900,1,8,0:0:0:0:
256,192,170975,1,8,0:0:0:0:
256,192,171050,1,8,0:0:0:0:
256,192,171125,1,0,0:0:0:0:
256,192,171200,1,8,0:0:0:0:
256,192,171275,1,8,0:0:0:0:
256,192,171350,1,0,0:0:0:0:
256,192,171425,1,0,0:0:0:0:
256,192,171500,1,8,0:0:0:0:
256,192,171575,1,8,0:0:0:0:
256,192,171650,1,8,0:0:0:0:
256,192,171725,1,0,0:0:0:0:
256,192,171800,1,8,0:0:0:0:
256,192,171875,1,8,0:0:0:0:
256,192,171950,1,0,0:0:0:0:
256,192,172025,1,0,0:0:0:0:
256,192,172100,1,8,0:0:0:0:
256,192,172175,1,8,0:0:0:0:
256,192,172250,1,0,0:0:0:0:
256,192,172400,1,8,0:0:0:0:
256,192,172475,1,8,0:0:0:0:
256,192,172550,1,8,0:0:0:0:
256,192,172625,1,8,0:0:0:0:
256,192,172700,1,0,0:0:0:0:
256,192,172850,1,8,0:0:0:0:
256,192,172900,1,8,0:0:0:0:
256,192,172950,1,8,0:0:0:0:
256,192,173000,1,0,0:0:0:0:
256,192,173075,1,0,0:0:0:0:
256,192,173150,1,0,0:0:0:0:
256,192,173225,1,0,0:0:0:0:
256,192,173300,1,8,0:0:0:0:
256,192,173375,1,8,0:0:0:0:
256,192,173450,1,0,0:0:0:0:
256,192,173525,1,0,0:0:0:0:
256,192,173600,1,0,0:0:0:0:
256,192,173675,1,0,0:0:0:0:
256,192,173750,1,8,0:0:0:0:
256,192,173900,1,8,0:0:0:0:
256,192,174000,1,0,0:0:0:0:
256,192,174100,1,0,0:0:0:0:
256,192,174200,1,8,0:0:0:0:
256,192,174300,1,8,0:0:0:0:
256,192,174400,1,0,0:0:0:0:
256,192,174500,1,8,0:0:0:0:
256,192,174600,1,8,0:0:0:0:
256,192,174700,1,8,0:0:0:0:
256,192,174800,1,8,0:0:0:0:
256,192,174950,1,0,0:0:0:0:
256,192,175100,1,0,0:0:0:0:
256,192,175250,1,8,0:0:0:0:
256,192,175325,1,0,0:0:0:0:
256,192,175400,1,8,0:0:0:0:
256,192,175550,1,8,0:0:0:0:
256,192,175700,1,0,0:0:0:0:
256,192,175850,1,8,0:0:0:0:
256,192,175925,1,0,0:0:0:0:
256,192,176000,1,8,0:0:0:0:
256,192,176075,1,8,0:0:0:0:
256,192,176150,1,0,0:0:0:0:
256,192,176225,1,0,0:0:0:0:
256,192,176300,1,8,0:0:0:0:
256,192,176375,1,0,0:0:0:0:
256,192,176450,1,8,0:0:0:0:
256,192,176525,1,8,0:0:0:0:
256,192,176600,1,0,0:0:0:0:
256,192,176750,1,8,0:0:0:0:
256,192,176825,1,8,0:0:0:0:
256,192,176900,1,0,0:0:0:0:
256,192,176975,1,8,0:0:0:0:
256,192,177050,1,8,0:0:0:0:
256,192,177125,1,8,0:0:0:0:
256,192,177200,1,0,0:0:0:0:
256,192,177350,1,8,0:0:0:0:
256,192,177500,1,8,0:0:0:0:
256,192,177550,1,0,0:0:0:0:
256,192,177600,1,0,0:0:0:0:
256,192,177650,1,8,0:0:0:0:
256,192,177800,1,8,0:0:0:0:
256,192,177875,1,8,0:0:0:0:
256,192,177950,1,8,0:0:0:0:
256,192,178025,1,0,0:0:0:0:
256,192,178100,1,8,0:0:0:0:
256,192,178250,1,0,0:0:0:0:
256,192,178400,1,0,0:0:0:0:
256,192,178550,1,0,0:0:0:0:
256,192,178625,1,8,0:0:0:0:
256,192,178700,1,8,0:0:0:0:
256,192,178850,1,8,0:0:0:0:
256,192,178925,1,8,0:0:0:0:
256,192,179000,1,0,0:0:0:0:
256,192,179150,1,0,0:0:0:0:
256,192,179300,1,8,0:0:0:0:
256,192,179375,1,0,0:0:0:0:
256,192,179450,1,0,0:0:0:0:
256,192,179525,1,8,0:0:0:0:
256,192,179600,1,8,0:0:0:0:
256,192,179750,1,0,0:0:0:0:
256,192,179900,1,8,0:0:0:0:
256,192,179975,1,8,0:0:0:0:
256,192,180050,1,0,0:0:0:0:
256,192,180125,1,8,0:0:0:0:
256,192,180200,1,8,0:0:0:0:
256,192,180275,1,0,0:0:0:0:
256,192,180350,1,0,0:0:0:0:
256,192,180425,1,0,0:0:0:0:
256,192,180500,1,8,0:0:0:0:
256,192,180575,1,8,0:0:0:0:
256,192,180650,1,8,0:0:0:0:
256,192,180725,1,0,0:0:0:0:
256,192,180800,1,8,0:0:0:0:
256,192,180950,1,8,0:0:0:0:
256,192,181025,1,8,0:0:0:0:
256,192,181100,1,0,0:0:0:0:
256,192,181175,1,0,0:0:0:0:
256,192,181250,1,8,0:0:0:0:
256,192,181325,1,0,0:0:0:0:
256,192,181400,1,8,0:0:0:0:
256,192,181475,1,8,0:0:0:0:
256,192,181550,1,0,0:0:0:0:
256,192,181700,1,0,0:0:0:0:
256,192,181850,1,8,0:0:0:0:
256,192,182000,1,0,0:0:0:0:
256,192,182050,1,0,0:0:0:0:
256,192,182100,1,0,0:0:0:0:
256,192,182150,1,8,0:0:0:0:
256,192,182225,1,8,0:0:0:0:
256,192,182300,1,0,0:0:0:0:
256,192,182375,1,0,0:0:0:0:
256,192,182450,1,8,0:0:0:0:
256,192,182525,1,0,0:0:0:0:
256,192,182600,1,8,0:0:0:0:
256,192,182675,1,8,0:0:0:0:
256,192,182750,1,0,0:0:0:0:
256,192,182825,1,0,0:0:0:0:
256,192,182900,1,8,0:0:0:0:
256,192,182975,1,8,0:0:0:0:
256,192,183050,1,8,0:0:0:0:
256,192,183200,1,8,0:0:0:0:
256,192,183275,1,8,0:0:0:0:
256,192,183350,1,0,0:0:0:0:
256,192,183425,1,8,0:0:0:0:
256,192,183500,1,8,0:0:0:0:
256,192,183575,1,0,0:0:0:0:
256,192,183650,1,0,0:0:0:0:
256,192,183725,1,0,0:0:0:0:
256,192,183800,1,8,0:0:0:0:
256,192,183950,1,0,0:0:0:0:
256,192,184100,1,0,0:0:0:0:
256,192,184250,1,8,0:0:0:0:
256,192,184400,1,8,0:0:0:0:
256,192,184475,1,0,0:0:0:0:
256,192,184550,1,0,0:0:0:0:
256,192,184625,1,0,0:0:0:0:
256,192,184700,1,8,0:0:0:0:
256,192,184775,1,0,0:0:0:0:
256,192,184850,1,0,0:0:0:0:
256,192,184925,1,0,0:0:0:0:
256,192,185000,1,8,0:0:0:0:
256,192,185075,1,8,0:0:0:0:
256,192,185150,1,0,0:0:0:0:
256,192,185225,1,0,0:0:0:0:
256,192,185300,1,8,0:0:0:0:
256,192,185375,1,8,0:0:0:0:
256,192,185450,1,8,0:0:0:0:
256,192,185525,1,0,0:0:0:0:
256,192,185600,1,8,0:0:0:0:
256,192,185675,1,0,0:0:0:0:
256,192,185750,1,0,0:0:0:0:
256,192,185825,1,8,0:0:0:0:
256,192,185900,1,0,0:0:0:0:
256,192,185975,1,0,0:0:0:0:
256,192,186050,1,8,0:0:0:0:
256,192,186125,1,8,0:0:0:0:
256,192,186200,1,0,0:0:0:0:
256,192,186275,1,8,0:0:0:0:
256,192,186350,1,8,0:0:0:0:
256,192,186425,1,8,0:0:0:0:
256,192,186500,1,0,0:0:0:0:
256,192,186575,1,8,0:0:0:0:
256,192,186650,1,8,0:0:0:0:
256,192,186725,1,8,0:0:0:0:
256,192,186800,1,0,0:0:0:0:
256,192,186950,1,0,0:0:0:0:
256,192,187100,1,8,0:0:0:0:
256,192,187250,1,8,0:0:0:0:
256,192,187400,1,0,0:0:0:0:
256,192,187550,1,0,0:0:0:0:
256,192,187700,1,8,0:0:0:0:
256,192,187850,1,0,0:0:0:0:
256,192,188000,1,0,0:0:0:0:
256,192,188150,1,8,0:0:0:0:
256,192,188300,1,8,0:0:0:0:
256,192,188450,1,0,0:0:0:0:
256,192,188600,1,8,0:0:0:0:
256,192,188750,1,0,0:0:0:0:
256,192,188900,1,8,0:0:0:0:
256,192,189050,1,0,0:0:0:0:
256,192,189200,1,8,0:0:0:0:
256,192,189350,1,0,0:0:0:0:
256,192,189500,1,8,0:0:0:0:
256,192,189650,1,8,0:0:0:0:
256,192,189800,1,0,0:0:0:0:
256,192,189950,1,0,0:0:0:0:
256,192,190100,1,8,0:0:0:0:
256,192,190250,1,0,0:0:0:0:
256,192,190400,1,0,0:0:0:0:
256,192,190550,1,8,0:0:0:0:
256,192,190700,1,8,0:0:0:0:
256,192,190850,1,0,0:0:0:0:
256,192,190925,1,0,0:0:0:0:
256,192,191000,1,8,0:0:0:0:
256,192,191150,1,0,0:0:0:0:
256,192,191225,1,0,0:0:0:0:
256,192,191300,1,8,0:0:0:0:
256,192,191450,1,0,0:0:0:0:
256,192,191600,1,12,0:0:0:0:
256,192,191750,1,0,0:0:0:0:
256,192,191825,1,0,0:0:0:0:
256,192,191900,1,0,0:0:0:0:
256,192,192050,1,12,0:0:0:0:
256,192,192200,1,0,0:0:0:0:
256,192,192350,1,0,0:0:0:0:
256,192,192500,1,12,0:0:0:0:
256,192,192650,1,0,0:0:0:0:
256,192,192725,1,0,0:0:0:0:
256,192,192800,1,0,0:0:0:0:
256,192,192950,1,12,0:0:0:0:
256,192,193100,1,0,0:0:0:0:
256,192,193250,1,0,0:0:0:0:
256,192,193400,1,8,0:0:0:0:
256,192,193475,1,0,0:0:0:0:
256,192,193550,1,0,0:0:0:0:
256,192,193625,1,0,0:0:0:0:
256,192,193700,1,8,0:0:0:0:
256,192,193775,1,0,0:0:0:0:
256,192,193850,1,0,0:0:0:0:
256,192,193925,1,0,0:0:0:0:
256,192,194000,1,12,0:0:0:0:
256,192,194150,1,0,0:0:0:0:
256,192,194225,1,0,0:0:0:0:
256,192,194300,1,0,0:0:0:0:
256,192,194450,1,12,0:0:0:0:
256,192,194600,1,0,0:0:0:0:
256,192,194750,1,0,0:0:0:0:
256,192,194900,1,12,0:0:0:0:
256,192,195050,1,0,0:0:0:0:
256,192,195125,1,0,0:0:0:0:
256,192,195200,1,0,0:0:0:0:
256,192,195350,1,12,0:0:0:0:
256,192,195500,1,0,0:0:0:0:
256,192,195650,1,0,0:0:0:0:
256,192,195800,1,8,0:0:0:0:
256,192,195875,1,0,0:0:0:0:
256,192,195950,1,0,0:0:0:0:
256,192,196025,1,0,0:0:0:0:
256,192,196100,1,8,0:0:0:0:
256,192,196175,1,0,0:0:0:0:
256,192,196250,1,0,0:0:0:0:
256,192,196325,1,0,0:0:0:0:
256,192,196400,1,8,0:0:0:0:
256,192,196475,1,8,0:0:0:0:
256,192,196550,1,0,0:0:0:0:
256,192,196625,1,0,0:0:0:0:
256,192,196700,1,8,0:0:0:0:
256,192,196775,1,0,0:0:0:0:
256,192,196850,1,8,0:0:0:0:
256,192,196925,1,0,0:0:0:0:
256,192,197000,1,8,0:0:0:0:
256,192,197075,1,8,0:0:0:0:
256,192,197150,1,0,0:0:0:0:
256,192,197225,1,0,0:0:0:0:
256,192,197300,1,8,0:0:0:0:
256,192,197375,1,8,0:0:0:0:
256,192,197450,1,8,0:0:0:0:
256,192,197525,1,0,0:0:0:0:
256,192,197600,1,8,0:0:0:0:
256,192,197700,1,0,0:0:0:0:
256,192,197800,1,8,0:0:0:0:
256,192,197900,1,0,0:0:0:0:
256,192,198000,1,8,0:0:0:0:
256,192,198100,1,8,0:0:0:0:
256,192,198200,1,8,0:0:0:0:
256,192,198300,1,0,0:0:0:0:
256,192,198400,1,8,0:0:0:0:
256,192,198500,1,8,0:0:0:0:
256,192,198600,1,0,0:0:0:0:
256,192,198700,1,0,0:0:0:0:
256,192,198800,1,8,0:0:0:0:
256,192,198875,1,0,0:0:0:0:
256,192,198950,1,0,0:0:0:0:
256,192,199025,1,8,0:0:0:0:
256,192,199100,1,8,0:0:0:0:
256,192,199200,1,0,0:0:0:0:
256,192,199300,1,0,0:0:0:0:
256,192,199400,1,8,0:0:0:0:
256,192,199475,1,8,0:0:0:0:
256,192,199550,1,0,0:0:0:0:
256,192,199625,1,0,0:0:0:0:
256,192,199700,1,8,0:0:0:0:
256,192,199775,1,8,0:0:0:0:
256,192,199850,1,8,0:0:0:0:
256,192,199925,1,0,0:0:0:0:
256,192,200000,1,8,0:0:0:0:
256,192,200150,1,0,0:0:0:0:
256,192,200300,1,8,0:0:0:0:
256,192,200450,1,0,0:0:0:0:
256,192,200600,1,8,0:0:0:0:
256,192,200750,1,0,0:0:0:0:
256,192,200825,1,0,0:0:0:0:
256,192,200900,1,8,0:0:0:0:
256,192,201050,1,4,0:0:0:0:
256,192,201200,1,8,0:0:0:0:
256,192,201350,1,4,0:0:0:0:
256,192,201500,1,12,0:0:0:0:
256,192,201650,1,0,0:0:0:0:
256,192,201800,1,12,0:0:0:0:
256,192,201950,1,0,0:0:0:0:
256,192,202025,1,0,0:0:0:0:
256,192,202100,1,8,0:0:0:0:
256,192,202250,1,0,0:0:0:0:
256,192,202325,1,0,0:0:0:0:
256,192,202400,1,8,0:0:0:0:
256,192,202550,1,0,0:0:0:0:
256,192,202625,1,0,0:0:0:0:
256,192,202700,1,8,0:0:0:0:
256,192,202850,1,0,0:0:0:0:
256,192,203000,1,8,0:0:0:0:
256,192,203075,1,8,0:0:0:0:
256,192,203150,1,8,0:0:0:0:
256,192,203300,1,4,0:0:0:0:
256,192,203450,1,0,0:0:0:0:
256,192,203600,1,12,0:0:0:0:
256,192,203750,1,0,0:0:0:0:
256,192,203900,1,8,0:0:0:0:
256,192,204050,1,0,0:0:0:0:
256,192,204200,1,8,0:0:0:0:
256,192,204275,1,0,0:0:0:0:
256,192,204350,1,0,0:0:0:0:
256,192,204425,1,0,0:0:0:0:
256,192,204500,1,8,0:0:0:0:
256,192,204650,1,0,0:0:0:0:
256,192,204800,1,8,0:0:0:0:
256,192,204875,1,0,0:0:0:0:
256,192,204950,1,0,0:0:0:0:
256,192,205025,1,0,0:0:0:0:
256,192,205100,1,8,0:0:0:0:
256,192,205250,1,8,0:0:0:0:
256,192,205400,1,4,0:0:0:0:
256,192,205550,1,0,0:0:0:0:
256,192,205625,1,0,0:0:0:0:
256,192,205700,1,8,0:0:0:0:
256,192,205850,1,0,0:0:0:0:
256,192,205925,1,0,0:0:0:0:
256,192,206000,1,8,0:0:0:0:
256,192,206150,1,0,0:0:0:0:
256,192,206300,1,12,0:0:0:0:
256,192,206450,1,8,0:0:0:0:
256,192,206600,1,4,0:0:0:0:
256,192,206750,1,0,0:0:0:0:
256,192,206825,1,0,0:0:0:0:
256,192,206900,1,8,0:0:0:0:
256,192,207050,1,4,0:0:0:0:
256,192,207200,1,8,0:0:0:0:
256,192,207275,1,0,0:0:0:0:
256,192,207350,1,8,0:0:0:0:
256,192,207500,1,4,0:0:0:0:
256,192,207650,1,8,0:0:0:0:
256,192,207800,1,8,0:0:0:0:
256,192,207950,1,4,0:0:0:0:
256,192,208100,1,8,0:0:0:0:
256,192,208250,1,0,0:0:0:0:
256,192,208400,1,8,0:0:0:0:
256,192,208550,1,8,0:0:0:0:
256,192,208700,1,0,0:0:0:0:
256,192,208850,1,0,0:0:0:0:
256,192,209000,1,12,0:0:0:0:
256,192,209150,1,0,0:0:0:0:
256,192,209225,1,0,0:0:0:0:
256,192,209300,1,8,0:0:0:0:
256,192,209375,1,8,0:0:0:0:
256,192,209450,1,0,0:0:0:0:
256,192,209525,1,0,0:0:0:0:
256,192,209600,1,8,0:0:0:0:
256,192,209675,1,0,0:0:0:0:
256,192,209750,1,8,0:0:0:0:
256,192,209825,1,8,0:0:0:0:
256,192,209900,1,0,0:0:0:0:
256,192,209975,1,0,0:0:0:0:
256,192,210050,1,8,0:0:0:0:
256,192,210125,1,0,0:0:0:0:
256,192,210200,1,8,0:0:0:0:
256,192,210275,1,8,0:0:0:0:
256,192,210350,1,0,0:0:0:0:
256,192,210425,1,0,0:0:0:0:
256,192,210500,1,8,0:0:0:0:
256,192,210575,1,0,0:0:0:0:
256,192,210650,1,8,0:0:0:0:
256,192,210725,1,8,0:0:0:0:
256,192,210800,1,0,0:0:0:0:
256,192,210875,1,0,0:0:0:0:
256,192,210950,1,8,0:0:0:0:
256,192,211025,1,0,0:0:0:0:
256,192,211100,1,8,0:0:0:0:
256,192,211175,1,8,0:0:0:0:
256,192,211250,1,0,0:0:0:0:
256,192,211400,1,12,0:0:0:0:
256,192,211550,1,0,0:0:0:0:
256,192,211700,1,12,0:0:0:0:
256,192,211850,1,0,0:0:0:0:
256,192,211925,1,0,0:0:0:0:
256,192,212000,1,0,0:0:0:0:
256,192,212150,1,12,0:0:0:0:
256,192,212300,1,0,0:0:0:0:
256,192,212375,1,0,0:0:0:0:
256,192,212450,1,0,0:0:0:0:
256,192,212600,1,12,0:0:0:0:
256,192,212750,1,0,0:0:0:0:
256,192,212825,1,0,0:0:0:0:
256,192,212900,1,0,0:0:0:0:
256,192,213050,1,12,0:0:0:0:
256,192,213200,1,0,0:0:0:0:
256,192,213275,1,0,0:0:0:0:
256,192,213350,1,8,0:0:0:0:
256,192,213500,1,4,0:0:0:0:
256,192,213650,1,8,0:0:0:0:
256,192,213800,1,12,0:0:0:0:
256,192,213950,1,0,0:0:0:0:
256,192,214100,1,12,0:0:0:0:
256,192,214250,1,0,0:0:0:0:
256,192,214325,1,0,0:0:0:0:
256,192,214400,1,8,0:0:0:0:
256,192,214550,1,12,0:0:0:0:
256,192,214700,1,0,0:0:0:0:
256,192,214775,1,0,0:0:0:0:
256,192,214850,1,8,0:0:0:0:
256,192,215000,1,12,0:0:0:0:
256,192,215150,1,0,0:0:0:0:
256,192,215225,1,0,0:0:0:0:
256,192,215300,1,8,0:0:0:0:
256,192,215450,1,12,0:0:0:0:
256,192,215600,1,0,0:0:0:0:
256,192,215675,1,0,0:0:0:0:
256,192,215750,1,8,0:0:0:0:
256,192,215900,1,12,0:0:0:0:
256,192,216050,1,8,0:0:0:0:
256,192,216200,1,4,0:0:0:0:
256,192,216350,1,8,0:0:0:0:
256,192,216500,1,12,0:0:0:0:
256,192,216650,1,0,0:0:0:0:
256,192,216725,1,0,0:0:0:0:
256,192,216800,1,8,0:0:0:0:
256,192,216950,1,12,0:0:0:0:
256,192,217100,1,0,0:0:0:0:
256,192,217250,1,8,0:0:0:0:
256,192,217400,1,8,0:0:0:0:
256,192,217500,1,0,0:0:0:0:
256,192,217600,1,8,0:0:0:0:
256,192,217700,1,8,0:0:0:0:
256,192,217800,1,8,0:0:0:0:
256,192,217900,1,8,0:0:0:0:
256,192,218000,1,0,0:0:0:0:
256,192,218100,1,0,0:0:0:0:
256,192,218200,1,8,0:0:0:0:
256,192,218300,1,0,0:0:0:0:
256,192,218400,1,8,0:0:0:0:
256,192,218600,1,8,0:0:0:0:
256,192,218750,1,0,0:0:0:0:
256,192,218825,1,0,0:0:0:0:
256,192,218900,1,8,0:0:0:0:
256,192,219050,1,0,0:0:0:0:
256,192,219125,1,0,0:0:0:0:
256,192,219200,1,8,0:0:0:0:
256,192,219350,1,8,0:0:0:0:
256,192,219425,1,0,0:0:0:0:
256,192,219500,1,8,0:0:0:0:
256,192,219575,1,8,0:0:0:0:
256,192,219650,1,0,0:0:0:0:
256,192,219800,1,12,0:0:0:0:
256,192,219950,1,0,0:0:0:0:
256,192,220025,1,0,0:0:0:0:
256,192,220100,1,8,0:0:0:0:
256,192,220250,1,8,0:0:0:0:
256,192,220325,1,0,0:0:0:0:
256,192,220400,1,8,0:0:0:0:
256,192,220475,1,0,0:0:0:0:
256,192,220550,1,0,0:0:0:0:
256,192,220625,1,0,0:0:0:0:
256,192,220700,1,8,0:0:0:0:
256,192,220850,1,0,0:0:0:0:
256,192,220925,1,0,0:0:0:0:
256,192,221000,1,8,0:0:0:0:
256,192,221150,1,0,0:0:0:0:
256,192,221225,1,0,0:0:0:0:
256,192,221300,1,8,0:0:0:0:
256,192,221450,1,0,0:0:0:0:
256,192,221525,1,0,0:0:0:0:
256,192,221600,1,8,0:0:0:0:
256,192,221675,1,0,0:0:0:0:
256,192,221750,1,8,0:0:0:0:
256,192,221900,1,0,0:0:0:0:
256,192,221950,1,0,0:0:0:0:
256,192,222000,1,0,0:0:0:0:
256,192,222050,1,8,0:0:0:0:
256,192,222200,1,12,0:0:0:0:
256,192,222350,1,0,0:0:0:0:
256,192,222425,1,0,0:0:0:0:
256,192,222500,1,8,0:0:0:0:
256,192,222650,1,8,0:0:0:0:
256,192,222725,1,8,0:0:0:0:
256,192,222800,1,0,0:0:0:0:
256,192,222875,1,0,0:0:0:0:
256,192,222950,1,0,0:0:0:0:
256,192,223025,1,0,0:0:0:0:
256,192,223100,1,8,0:0:0:0:
256,192,223175,1,8,0:0:0:0:
256,192,223250,1,8,0:0:0:0:
256,192,223400,1,12,0:0:0:0:
256,192,223550,1,0,0:0:0:0:
256,192,223700,1,8,0:0:0:0:
256,192,223775,1,0,0:0:0:0:
256,192,223850,1,8,0:0:0:0:
256,192,224000,1,0,0:0:0:0:
256,192,224150,1,8,0:0:0:0:
256,192,224225,1,0,0:0:0:0:
256,192,224300,1,8,0:0:0:0:
256,192,224375,1,8,0:0:0:0:
256,192,224450,1,0,0:0:0:0:
256,192,224600,1,8,0:0:0:0:
256,192,224675,1,0,0:0:0:0:
256,192,224750,1,8,0:0:0:0:
256,192,224900,1,0,0:0:0:0:
256,192,225050,1,8,0:0:0:0:
256,192,225125,1,0,0:0:0:0:
256,192,225200,1,8,0:0:0:0:
256,192,225350,1,0,0:0:0:0:
256,192,225425,1,0,0:0:0:0:
256,192,225500,1,8,0:0:0:0:
256,192,225575,1,8,0:0:0:0:
256,192,225650,1,0,0:0:0:0:
256,192,225800,1,12,0:0:0:0:
256,192,225950,1,0,0:0:0:0:
256,192,226025,1,0,0:0:0:0:
256,192,226100,1,12,0:0:0:0:
256,192,226250,1,0,0:0:0:0:
256,192,226325,1,0,0:0:0:0:
256,192,226400,1,0,0:0:0:0:
256,192,226475,1,0,0:0:0:0:
256,192,226550,1,12,0:0:0:0:
256,192,226700,1,0,0:0:0:0:
256,192,226775,1,0,0:0:0:0:
256,192,226850,1,0,0:0:0:0:
256,192,226925,1,0,0:0:0:0:
256,192,227000,1,12,0:0:0:0:
256,192,227150,1,8,0:0:0:0:
256,192,227225,1,0,0:0:0:0:
256,192,227300,1,0,0:0:0:0:
256,192,227375,1,0,0:0:0:0:
256,192,227450,1,12,0:0:0:0:
256,192,227600,1,8,0:0:0:0:
256,192,227675,1,0,0:0:0:0:
256,192,227750,1,0,0:0:0:0:
256,192,227825,1,0,0:0:0:0:
256,192,227900,1,12,0:0:0:0:
256,192,228050,1,8,0:0:0:0:
256,192,228125,1,8,0:0:0:0:
256,192,228200,1,0,0:0:0:0:
256,192,228275,1,0,0:0:0:0:
256,192,228350,1,12,0:0:0:0:
256,192,228500,1,8,0:0:0:0:
256,192,228575,1,8,0:0:0:0:
256,192,228650,1,8,0:0:0:0:
256,192,228725,1,8,0:0:0:0:
256,192,228800,1,0,0:0:0:0:
256,192,229400,1,4,0:0:0:0:
256,192,229550,1,8,0:0:0:0:
256,192,229700,1,0,0:0:0:0:
256,192,229775,1,0,0:0:0:0:
256,192,229850,1,8,0:0:0:0:
256,192,230000,1,8,0:0:0:0:
256,192,230075,1,8,0:0:0:0:
256,192,230150,1,0,0:0:0:0:
256,192,230300,1,0,0:0:0:0:
256,192,230450,1,8,0:0:0:0:
256,192,230600,1,8,0:0:0:0:
256,192,230675,1,0,0:0:0:0:
256,192,230750,1,8,0:0:0:0:
256,192,230900,1,0,0:0:0:0:
256,192,230975,1,0,0:0:0:0:
256,192,231050,1,8,0:0:0:0:
256,192,231200,1,8,0:0:0:0:
256,192,231275,1,8,0:0:0:0:
256,192,231350,1,8,0:0:0:0:
256,192,231500,1,0,0:0:0:0:
256,192,231650,1,8,0:0:0:0:
256,192,231800,1,8,0:0:0:0:
256,192,231875,1,0,0:0:0:0:
256,192,231950,1,8,0:0:0:0:
256,192,232100,1,0,0:0:0:0:
256,192,232175,1,0,0:0:0:0:
256,192,232250,1,8,0:0:0:0:
256,192,232400,1,0,0:0:0:0:
256,192,232550,1,8,0:0:0:0:
256,192,232700,1,0,0:0:0:0:
256,192,232775,1,0,0:0:0:0:
256,192,232850,1,8,0:0:0:0:
256,192,233000,1,0,0:0:0:0:
256,192,233150,1,8,0:0:0:0:
256,192,233300,1,0,0:0:0:0:
256,192,233375,1,0,0:0:0:0:
256,192,233450,1,8,0:0:0:0:
256,192,233600,1,0,0:0:0:0:
256,192,233750,1,8,0:0:0:0:
256,192,233900,1,0,0:0:0:0:
256,192,233950,1,0,0:0:0:0:
256,192,234000,1,0,0:0:0:0:
256,192,234050,1,8,0:0:0:0:
256,192,234200,1,12,0:0:0:0:
256,192,234350,1,8,0:0:0:0:
256,192,234500,1,0,0:0:0:0:
256,192,234575,1,0,0:0:0:0:
256,192,234650,1,8,0:0:0:0:
256,192,234800,1,8,0:0:0:0:
256,192,234875,1,8,0:0:0:0:
256,192,234950,1,8,0:0:0:0:
256,192,235100,1,0,0:0:0:0:
256,192,235175,1,0,0:0:0:0:
256,192,235250,1,8,0:0:0:0:
256,192,235400,1,8,0:0:0:0:
256,192,235475,1,8,0:0:0:0:
256,192,235550,1,0,0:0:0:0:
256,192,235625,1,0,0:0:0:0:
256,192,235700,1,8,0:0:0:0:
256,192,235775,1,0,0:0:0:0:
256,192,235850,1,8,0:0:0:0:
256,192,236000,1,8,0:0:0:0:
256,192,236075,1,8,0:0:0:0:
256,192,236150,1,8,0:0:0:0:
256,192,236300,1,0,0:0:0:0:
256,192,236375,1,0,0:0:0:0:
256,192,236450,1,8,0:0:0:0:
256,192,236600,1,8,0:0:0:0:
256,192,236750,1,8,0:0:0:0:
256,192,236825,1,0,0:0:0:0:
256,192,236900,1,0,0:0:0:0:
256,192,236975,1,0,0:0:0:0:
256,192,237050,1,8,0:0:0:0:
256,192,237125,1,0,0:0:0:0:
256,192,237200,1,0,0:0:0:0:
256,192,237275,1,0,0:0:0:0:
256,192,237350,1,8,0:0:0:0:
256,192,237425,1,0,0:0:0:0:
256,192,237500,1,8,0:0:0:0:
256,192,237575,1,0,0:0:0:0:
256,192,237650,1,8,0:0:0:0:
256,192,237725,1,0,0:0:0:0:
256,192,237800,1,0,0:0:0:0:
256,192,237875,1,0,0:0:0:0:
256,192,237950,1,8,0:0:0:0:
256,192,238025,1,0,0:0:0:0:
256,192,238100,1,0,0:0:0:0:
256,192,238175,1,0,0:0:0:0:
256,192,238250,1,8,0:0:0:0:
256,192,238325,1,0,0:0:0:0:
256,192,238400,1,8,0:0:0:0:
256,192,238475,1,8,0:0:0:0:
256,192,238550,1,0,0:0:0:0:
256,192,238700,1,8,0:0:0:0:
256,192,238775,1,8,0:0:0:0:
256,192,238850,1,8,0:0:0:0:
256,192,239000,1,4,0:0:0:0:
256,192,239150,1,8,0:0:0:0:
256,192,239300,1,0,0:0:0:0:
256,192,239375,1,0,0:0:0:0:
256,192,239450,1,8,0:0:0:0:
256,192,239600,1,8,0:0:0:0:
256,192,239675,1,8,0:0:0:0:
256,192,239750,1,0,0:0:0:0:
256,192,239900,1,0,0:0:0:0:
256,192,240050,1,8,0:0:0:0:
256,192,240200,1,8,0:0:0:0:
256,192,240275,1,0,0:0:0:0:
256,192,240350,1,8,0:0:0:0:
256,192,240500,1,0,0:0:0:0:
256,192,240575,1,0,0:0:0:0:
256,192,240650,1,8,0:0:0:0:
256,192,240800,1,8,0:0:0:0:
256,192,240875,1,8,0:0:0:0:
256,192,240950,1,8,0:0:0:0:
256,192,241100,1,0,0:0:0:0:
256,192,241250,1,8,0:0:0:0:
256,192,241400,1,8,0:0:0:0:
256,192,241475,1,0,0:0:0:0:
256,192,241550,1,8,0:0:0:0:
256,192,241700,1,0,0:0:0:0:
256,192,241775,1,0,0:0:0:0:
256,192,241850,1,8,0:0:0:0:
256,192,242000,1,0,0:0:0:0:
256,192,242150,1,8,0:0:0:0:
256,192,242300,1,0,0:0:0:0:
256,192,242375,1,0,0:0:0:0:
256,192,242450,1,8,0:0:0:0:
256,192,242600,1,0,0:0:0:0:
256,192,242750,1,8,0:0:0:0:
256,192,242825,1,8,0:0:0:0:
256,192,242900,1,0,0:0:0:0:
256,192,242975,1,0,0:0:0:0:
256,192,243050,1,8,0:0:0:0:
256,192,243200,1,0,0:0:0:0:
256,192,243250,1,0,0:0:0:0:
256,192,243300,1,0,0:0:0:0:
256,192,243350,1,8,0:0:0:0:
256,192,243500,1,0,0:0:0:0:
256,192,243550,1,0,0:0:0:0:
256,192,243600,1,0,0:0:0:0:
256,192,243650,1,8,0:0:0:0:
256,192,243800,1,12,0:0:0:0:
256,192,243950,1,8,0:0:0:0:
256,192,244100,1,0,0:0:0:0:
256,192,244175,1,0,0:0:0:0:
256,192,244250,1,8,0:0:0:0:
256,192,244400,1,8,0:0:0:0:
256,192,244475,1,8,0:0:0:0:
256,192,244550,1,8,0:0:0:0:
256,192,244700,1,0,0:0:0:0:
256,192,244775,1,0,0:0:0:0:
256,192,244850,1,8,0:0:0:0:
256,192,245000,1,8,0:0:0:0:
256,192,245075,1,8,0:0:0:0:
256,192,245150,1,0,0:0:0:0:
256,192,245300,1,8,0:0:0:0:
256,192,245375,1,0,0:0:0:0:
256,192,245450,1,8,0:0:0:0:
256,192,245600,1,8,0:0:0:0:
256,192,245675,1,8,0:0:0:0:
256,192,245750,1,8,0:0:0:0:
256,192,245825,1,0,0:0:0:0:
256,192,245900,1,8,0:0:0:0:
256,192,245975,1,0,0:0:0:0:
256,192,246050,1,0,0:0:0:0:
256,192,246125,1,0,0:0:0:0:
256,192,246200,1,8,0:0:0:0:
256,192,246275,1,8,0:0:0:0:
256,192,246350,1,0,0:0:0:0:
256,192,246425,1,0,0:0:0:0:
256,192,246500,1,0,0:0:0:0:
256,192,246575,1,0,0:0:0:0:
256,192,246650,1,8,0:0:0:0:
256,192,246725,1,8,0:0:0:0:
256,192,246800,1,0,0:0:0:0:
256,192,246875,1,0,0:0:0:0:
256,192,246950,1,8,0:0:0:0:
256,192,247025,1,0,0:0:0:0:
256,192,247100,1,0,0:0:0:0:
256,192,247175,1,0,0:0:0:0:
256,192,247250,1,8,0:0:0:0:
256,192,247400,1,8,0:0:0:0:
256,192,247475,1,8,0:0:0:0:
256,192,247550,1,0,0:0:0:0:
256,192,247625,1,0,0:0:0:0:
256,192,247700,1,8,0:0:0:0:
256,192,247775,1,0,0:0:0:0:
256,192,247850,1,0,0:0:0:0:
256,192,247925,1,0,0:0:0:0:
256,192,248000,1,8,0:0:0:0:
256,192,248075,1,8,0:0:0:0:
256,192,248150,1,8,0:0:0:0:
256,192,248225,1,0,0:0:0:0:
256,192,248300,1,8,0:0:0:0:
256,192,248375,1,8,0:0:0:0:
256,192,248450,1,0,0:0:0:0:
256,192,248600,1,12,0:0:0:0:
256,192,248750,1,8,0:0:0:0:
256,192,248825,1,0,0:0:0:0:
256,192,248900,1,0,0:0:0:0:
256,192,248975,1,0,0:0:0:0:
256,192,249050,1,8,0:0:0:0:
256,192,249125,1,0,0:0:0:0:
256,192,249200,1,8,0:0:0:0:
256,192,249275,1,8,0:0:0:0:
256,192,249350,1,0,0:0:0:0:
256,192,249425,1,0,0:0:0:0:
256,192,249500,1,0,0:0:0:0:
256,192,249575,1,0,0:0:0:0:
256,192,249650,1,8,0:0:0:0:
256,192,249725,1,0,0:0:0:0:
256,192,249800,1,8,0:0:0:0:
256,192,249875,1,0,0:0:0:0:
256,192,249950,1,8,0:0:0:0:
256,192,250025,1,0,0:0:0:0:
256,192,250100,1,0,0:0:0:0:
256,192,250175,1,0,0:0:0:0:
256,192,250250,1,8,0:0:0:0:
256,192,250325,1,0,0:0:0:0:
256,192,250400,1,8,0:0:0:0:
256,192,250475,1,8,0:0:0:0:
256,192,250550,1,0,0:0:0:0:
256,192,250625,1,0,0:0:0:0:
256,192,250700,1,0,0:0:0:0:
256,192,250775,1,0,0:0:0:0:
256,192,250850,1,8,0:0:0:0:
256,192,251000,1,8,0:0:0:0:
256,192,251075,1,8,0:0:0:0:
256,192,251150,1,8,0:0:0:0:
256,192,251225,1,8,0:0:0:0:
256,192,251300,1,0,0:0:0:0:
256,192,251375,1,0,0:0:0:0:
256,192,251450,1,8,0:0:0:0:
256,192,251525,1,0,0:0:0:0:
256,192,251600,1,0,0:0:0:0:
256,192,251675,1,0,0:0:0:0:
256,192,251750,1,8,0:0:0:0:
256,192,251825,1,0,0:0:0:0:
256,192,251900,1,0,0:0:0:0:
256,192,251975,1,0,0:0:0:0:
256,192,252050,1,8,0:0:0:0:
256,192,252125,1,0,0:0:0:0:
256,192,252200,1,0,0:0:0:0:
256,192,252275,1,0,0:0:0:0:
256,192,252350,1,8,0:0:0:0:
256,192,252425,1,0,0:0:0:0:
256,192,252500,1,0,0:0:0:0:
256,192,252575,1,0,0:0:0:0:
256,192,252650,1,8,0:0:0:0:
256,192,252800,1,0,0:0:0:0:
256,192,252850,1,0,0:0:0:0:
256,192,252900,1,0,0:0:0:0:
256,192,252950,1,8,0:0:0:0:
256,192,253100,1,0,0:0:0:0:
256,192,253150,1,0,0:0:0:0:
256,192,253200,1,0,0:0:0:0:
256,192,253250,1,8,0:0:0:0:
256,192,253400,1,12,0:0:0:0:
256,192,253550,1,8,0:0:0:0:
256,192,253625,1,8,0:0:0:0:
256,192,253700,1,0,0:0:0:0:
256,192,253775,1,0,0:0:0:0:
256,192,253850,1,8,0:0:0:0:
256,192,253925,1,0,0:0:0:0:
256,192,254000,1,8,0:0:0:0:
256,192,254075,1,8,0:0:0:0:
256,192,254150,1,8,0:0:0:0:
256,192,254225,1,0,0:0:0:0:
256,192,254300,1,0,0:0:0:0:
256,192,254375,1,0,0:0:0:0:
256,192,254450,1,8,0:0:0:0:
256,192,254525,1,0,0:0:0:0:
256,192,254600,1,8,0:0:0:0:
256,192,254675,1,0,0:0:0:0:
256,192,254750,1,8,0:0:0:0:
256,192,254825,1,8,0:0:0:0:
256,192,254900,1,0,0:0:0:0:
256,192,254975,1,0,0:0:0:0:
256,192,255050,1,8,0:0:0:0:
256,192,255125,1,0,0:0:0:0:
256,192,255200,1,8,0:0:0:0:
256,192,255275,1,8,0:0:0:0:
256,192,255350,1,8,0:0:0:0:
256,192,255425,1,0,0:0:0:0:
256,192,255500,1,0,0:0:0:0:
256,192,255575,1,0,0:0:0:0:
256,192,255650,1,8,0:0:0:0:
256,192,255800,1,8,0:0:0:0:
256,192,255875,1,8,0:0:0:0:
256,192,255950,1,8,0:0:0:0:
256,192,256025,1,8,0:0:0:0:
256,192,256100,1,0,0:0:0:0:
256,192,256175,1,0,0:0:0:0:
256,192,256250,1,8,0:0:0:0:
256,192,256325,1,8,0:0:0:0:
256,192,256400,1,0,0:0:0:0:
256,192,256475,1,0,0:0:0:0:
256,192,256550,1,8,0:0:0:0:
256,192,256700,1,0,0:0:0:0:
256,192,256750,1,0,0:0:0:0:
256,192,256800,1,0,0:0:0:0:
256,192,256850,1,8,0:0:0:0:
256,192,257000,1,0,0:0:0:0:
256,192,257150,1,8,0:0:0:0:
256,192,257225,1,0,0:0:0:0:
256,192,257300,1,0,0:0:0:0:
256,192,257375,1,0,0:0:0:0:
256,192,257450,1,8,0:0:0:0:
256,192,257525,1,8,0:0:0:0:
256,192,257600,1,0,0:0:0:0:
256,192,257675,1,0,0:0:0:0:
256,192,257750,1,8,0:0:0:0:
256,192,257825,1,0,0:0:0:0:
256,192,257900,1,8,0:0:0:0:
256,192,257975,1,0,0:0:0:0:
256,192,258050,1,8,0:0:0:0:
256,192,258200,1,12,0:0:0:0:
256,192,258350,1,8,0:0:0:0:
256,192,258425,1,0,0:0:0:0:
256,192,258500,1,0,0:0:0:0:
256,192,258575,1,0,0:0:0:0:
256,192,258650,1,8,0:0:0:0:
256,192,258725,1,0,0:0:0:0:
256,192,258800,1,8,0:0:0:0:
256,192,258875,1,8,0:0:0:0:
256,192,258950,1,0,0:0:0:0:
256,192,259025,1,0,0:0:0:0:
256,192,259100,1,0,0:0:0:0:
256,192,259175,1,0,0:0:0:0:
256,192,259250,1,8,0:0:0:0:
256,192,259325,1,0,0:0:0:0:
256,192,259400,1,8,0:0:0:0:
256,192,259475,1,8,0:0:0:0:
256,192,259550,1,0,0:0:0:0:
256,192,259625,1,0,0:0:0:0:
256,192,259700,1,0,0:0:0:0:
256,192,259775,1,0,0:0:0:0:
256,192,259850,1,8,0:0:0:0:
256,192,259925,1,0,0:0:0:0:
256,192,260000,1,8,0:0:0:0:
256,192,260075,1,8,0:0:0:0:
256,192,260150,1,8,0:0:0:0:
256,192,260300,1,0,0:0:0:0:
256,192,260350,1,0,0:0:0:0:
256,192,260400,1,0,0:0:0:0:
256,192,260450,1,8,0:0:0:0:
256,192,260525,1,0,0:0:0:0:
256,192,260600,1,8,0:0:0:0:
256,192,260750,1,8,0:0:0:0:
256,192,260825,1,0,0:0:0:0:
256,192,260900,1,0,0:0:0:0:
256,192,260975,1,0,0:0:0:0:
256,192,261050,1,8,0:0:0:0:
256,192,261125,1,0,0:0:0:0:
256,192,261200,1,0,0:0:0:0:
256,192,261275,1,0,0:0:0:0:
256,192,261350,1,8,0:0:0:0:
256,192,261425,1,0,0:0:0:0:
256,192,261500,1,0,0:0:0:0:
256,192,261575,1,0,0:0:0:0:
256,192,261650,1,8,0:0:0:0:
256,192,261725,1,0,0:0:0:0:
256,192,261800,1,8,0:0:0:0:
256,192,261875,1,0,0:0:0:0:
256,192,261950,1,8,0:0:0:0:
256,192,262025,1,0,0:0:0:0:
256,192,262100,1,0,0:0:0:0:
256,192,262175,1,0,0:0:0:0:
256,192,262250,1,8,0:0:0:0:
256,192,262325,1,0,0:0:0:0:
256,192,262400,1,0,0:0:0:0:
256,192,262475,1,0,0:0:0:0:
256,192,262550,1,8,0:0:0:0:
256,192,262625,1,8,0:0:0:0:
256,192,262700,1,8,0:0:0:0:
256,192,262775,1,8,0:0:0:0:
256,192,262850,1,0,0:0:0:0:
256,192,263000,1,12,0:0:0:0:
256,192,263150,1,0,0:0:0:0:
256,192,263225,1,0,0:0:0:0:
256,192,263300,1,8,0:0:0:0:
256,192,263450,1,0,0:0:0:0:
256,192,263525,1,0,0:0:0:0:
256,192,263600,1,8,0:0:0:0:
256,192,263675,1,8,0:0:0:0:
256,192,263750,1,0,0:0:0:0:
256,192,263825,1,0,0:0:0:0:
256,192,263900,1,8,0:0:0:0:
256,192,264200,1,12,0:0:0:0:
256,192,264350,1,0,0:0:0:0:
256,192,264425,1,0,0:0:0:0:
256,192,264500,1,0,0:0:0:0:
256,192,264575,1,8,0:0:0:0:
256,192,264650,1,8,0:0:0:0:
256,192,264725,1,8,0:0:0:0:
256,192,264800,1,0,0:0:0:0:
256,192,264875,1,0,0:0:0:0:
256,192,264950,1,8,0:0:0:0:
256,192,265025,1,0,0:0:0:0:
256,192,265100,1,8,0:0:0:0:
256,192,265175,1,8,0:0:0:0:
256,192,265250,1,0,0:0:0:0:
256,192,265400,1,12,0:0:0:0:
256,192,265550,1,8,0:0:0:0:
256,192,265700,1,0,0:0:0:0:
256,192,265775,1,0,0:0:0:0:
256,192,265850,1,8,0:0:0:0:
256,192,265925,1,8,0:0:0:0:
256,192,266000,1,0,0:0:0:0:
256,192,266150,1,8,0:0:0:0:
256,192,266225,1,0,0:0:0:0:
256,192,266300,1,8,0:0:0:0:
256,192,266450,1,0,0:0:0:0:
256,192,266600,1,8,0:0:0:0:
256,192,266750,1,8,0:0:0:0:
256,192,266825,1,0,0:0:0:0:
256,192,266900,1,0,0:0:0:0:
256,192,267050,1,8,0:0:0:0:
256,192,267125,1,8,0:0:0:0:
256,192,267200,1,0,0:0:0:0:
256,192,267350,1,8,0:0:0:0:
256,192,267500,1,8,0:0:0:0:
256,192,267575,1,0,0:0:0:0:
256,192,267650,1,0,0:0:0:0:
256,192,267725,1,0,0:0:0:0:
256,192,267800,1,8,0:0:0:0:
256,192,267950,1,8,0:0:0:0:
256,192,268100,1,0,0:0:0:0:
256,192,268175,1,0,0:0:0:0:
256,192,268250,1,8,0:0:0:0:
256,192,268325,1,8,0:0:0:0:
256,192,268400,1,0,0:0:0:0:
256,192,268550,1,8,0:0:0:0:
256,192,268625,1,0,0:0:0:0:
256,192,268700,1,8,0:0:0:0:
256,192,268850,1,0,0:0:0:0:
256,192,269000,1,8,0:0:0:0:
256,192,269150,1,8,0:0:0:0:
256,192,269225,1,0,0:0:0:0:
256,192,269300,1,0,0:0:0:0:
256,192,269450,1,8,0:0:0:0:
256,192,269525,1,8,0:0:0:0:
256,192,269600,1,0,0:0:0:0:
256,192,269675,1,0,0:0:0:0:
256,192,269750,1,8,0:0:0:0:
256,192,269900,1,0,0:0:0:0:
256,192,269950,1,0,0:0:0:0:
256,192,270000,1,0,0:0:0:0:
256,192,270050,1,8,0:0:0:0:
256,192,270200,1,12,0:0:0:0:
256,192,270350,1,8,0:0:0:0:
256,192,270425,1,0,0:0:0:0:
256,192,270500,1,0,0:0:0:0:
256,192,270575,1,0,0:0:0:0:
256,192,270650,1,8,0:0:0:0:
256,192,270725,1,8,0:0:0:0:
256,192,270800,1,0,0:0:0:0:
256,192,270950,1,8,0:0:0:0:
256,192,271025,1,0,0:0:0:0:
256,192,271100,1,8,0:0:0:0:
256,192,271175,1,0,0:0:0:0:
256,192,271250,1,0,0:0:0:0:
256,192,271400,1,8,0:0:0:0:
256,192,271550,1,8,0:0:0:0:
256,192,271700,1,0,0:0:0:0:
256,192,271775,1,0,0:0:0:0:
256,192,271850,1,8,0:0:0:0:
256,192,271925,1,8,0:0:0:0:
256,192,272000,1,0,0:0:0:0:
256,192,272075,1,0,0:0:0:0:
256,192,272150,1,8,0:0:0:0:
256,192,272300,1,8,0:0:0:0:
256,192,272375,1,0,0:0:0:0:
256,192,272450,1,0,0:0:0:0:
256,192,272600,1,12,0:0:0:0:
256,192,272750,1,8,0:0:0:0:
256,192,272825,1,0,0:0:0:0:
256,192,272900,1,0,0:0:0:0:
256,192,272975,1,0,0:0:0:0:
256,192,273050,1,8,0:0:0:0:
256,192,273125,1,0,0:0:0:0:
256,192,273200,1,0,0:0:0:0:
256,192,273275,1,0,0:0:0:0:
256,192,273350,1,8,0:0:0:0:
256,192,273425,1,0,0:0:0:0:
256,192,273500,1,0,0:0:0:0:
256,192,273575,1,0,0:0:0:0:
256,192,273650,1,8,0:0:0:0:
256,192,273725,1,0,0:0:0:0:
256,192,273800,1,0,0:0:0:0:
256,192,273875,1,0,0:0:0:0:
256,192,273950,1,8,0:0:0:0:
256,192,274025,1,0,0:0:0:0:
256,192,274100,1,0,0:0:0:0:
256,192,274175,1,0,0:0:0:0:
256,192,274250,1,8,0:0:0:0:
256,192,274325,1,0,0:0:0:0:
256,192,274400,1,8,0:0:0:0:
256,192,274475,1,8,0:0:0:0:
256,192,274550,1,0,0:0:0:0:
256,192,274625,1,0,0:0:0:0:
256,192,274700,1,8,0:0:0:0:
256,192,274775,1,8,0:0:0:0:
256,192,274850,1,0,0:0:0:0:
256,192,275000,1,12,0:0:0:0:
256,192,275150,1,8,0:0:0:0:
256,192,275225,1,0,0:0:0:0:
256,192,275300,1,0,0:0:0:0:
256,192,275375,1,0,0:0:0:0:
256,192,275450,1,8,0:0:0:0:
256,192,275600,1,0,0:0:0:0:
256,192,275675,1,0,0:0:0:0:
256,192,275750,1,8,0:0:0:0:
256,192,275900,1,8,0:0:0:0:
256,192,275975,1,0,0:0:0:0:
256,192,276050,1,0,0:0:0:0:
256,192,276200,1,8,0:0:0:0:
256,192,276350,1,8,0:0:0:0:
256,192,276425,1,0,0:0:0:0:
256,192,276500,1,0,0:0:0:0:
256,192,276575,1,0,0:0:0:0:
256,192,276650,1,8,0:0:0:0:
256,192,276800,1,0,0:0:0:0:
256,192,276875,1,0,0:0:0:0:
256,192,276950,1,8,0:0:0:0:
256,192,277025,1,0,0:0:0:0:
256,192,277100,1,8,0:0:0:0:
256,192,277175,1,8,0:0:0:0:
256,192,277250,1,0,0:0:0:0:
256,192,277400,1,8,0:0:0:0:
256,192,277550,1,8,0:0:0:0:
256,192,277625,1,8,0:0:0:0:
256,192,277700,1,0,0:0:0:0:
256,192,277775,1,0,0:0:0:0:
256,192,277850,1,8,0:0:0:0:
256,192,278000,1,0,0:0:0:0:
256,192,278075,1,0,0:0:0:0:
256,192,278150,1,8,0:0:0:0:
256,192,278300,1,8,0:0:0:0:
256,192,278375,1,8,0:0:0:0:
256,192,278450,1,0,0:0:0:0:
256,192,278600,1,8,0:0:0:0:
256,192,278750,1,8,0:0:0:0:
256,192,278825,1,0,0:0:0:0:
256,192,278900,1,0,0:0:0:0:
256,192,278975,1,0,0:0:0:0:
256,192,279050,1,8,0:0:0:0:
256,192,279200,1,0,0:0:0:0:
256,192,279250,1,0,0:0:0:0:
256,192,279300,1,0,0:0:0:0:
256,192,279350,1,8,0:0:0:0:
256,192,279500,1,0,0:0:0:0:
256,192,279550,1,0,0:0:0:0:
256,192,279600,1,0,0:0:0:0:
256,192,279650,1,8,0:0:0:0:
256,192,279800,1,4,0:0:0:0:
256,192,279950,1,8,0:0:0:0:
256,192,280025,1,0,0:0:0:0:
256,192,280100,1,0,0:0:0:0:
256,192,280175,1,0,0:0:0:0:
256,192,280250,1,8,0:0:0:0:
256,192,280400,1,0,0:0:0:0:
256,192,280475,1,0,0:0:0:0:
256,192,280550,1,8,0:0:0:0:
256,192,280700,1,8,0:0:0:0:
256,192,280775,1,0,0:0:0:0:
256,192,280850,1,0,0:0:0:0:
256,192,280925,1,0,0:0:0:0:
256,192,281000,1,8,0:0:0:0:
256,192,281075,1,8,0:0:0:0:
256,192,281150,1,0,0:0:0:0:
256,192,281225,1,0,0:0:0:0:
256,192,281300,1,8,0:0:0:0:
256,192,281375,1,8,0:0:0:0:
256,192,281450,1,0,0:0:0:0:
256,192,281525,1,0,0:0:0:0:
256,192,281600,1,8,0:0:0:0:
256,192,281675,1,8,0:0:0:0:
256,192,281750,1,8,0:0:0:0:
256,192,281825,1,8,0:0:0:0:
256,192,281900,1,0,0:0:0:0:
256,192,281975,1,0,0:0:0:0:
256,192,282050,1,0,0:0:0:0:
256,192,282200,1,12,0:0:0:0:
256,192,282350,1,0,0:0:0:0:
256,192,282500,1,8,0:0:0:0:
256,192,282575,1,0,0:0:0:0:
256,192,282650,1,8,0:0:0:0:
256,192,282800,1,8,0:0:0:0:
256,192,282950,1,0,0:0:0:0:
256,192,283025,1,0,0:0:0:0:
256,192,283100,1,8,0:0:0:0:
256,192,283175,1,8,0:0:0:0:
256,192,283250,1,0,0:0:0:0:
256,192,283400,1,0,0:0:0:0:
256,192,283475,1,0,0:0:0:0:
256,192,283550,1,8,0:0:0:0:
256,192,283700,1,8,0:0:0:0:
256,192,283850,1,0,0:0:0:0:
256,192,283925,1,0,0:0:0:0:
256,192,284000,1,8,0:0:0:0:
256,192,284150,1,0,0:0:0:0:
256,192,284225,1,0,0:0:0:0:
256,192,284300,1,8,0:0:0:0:
256,192,284450,1,0,0:0:0:0:
256,192,284525,1,0,0:0:0:0:
256,192,284600,1,8,0:0:0:0:
256,192,284675,1,8,0:0:0:0:
256,192,284750,1,0,0:0:0:0:
256,192,284900,1,0,0:0:0:0:
256,192,285050,1,8,0:0:0:0:
256,192,285200,1,8,0:0:0:0:
256,192,285350,1,0,0:0:0:0:
256,192,285425,1,0,0:0:0:0:
256,192,285500,1,8,0:0:0:0:
256,192,285575,1,8,0:0:0:0:
256,192,285650,1,0,0:0:0:0:
256,192,285800,1,0,0:0:0:0:
256,192,285950,1,8,0:0:0:0:
256,192,286100,1,8,0:0:0:0:
256,192,286175,1,0,0:0:0:0:
256,192,286250,1,0,0:0:0:0:
256,192,286325,1,0,0:0:0:0:
256,192,286400,1,8,0:0:0:0:
256,192,286550,1,0,0:0:0:0:
256,192,286625,1,0,0:0:0:0:
256,192,286700,1,8,0:0:0:0:
256,192,286850,1,0,0:0:0:0:
256,192,287000,1,12,0:0:0:0:
256,192,287150,1,0,0:0:0:0:
256,192,287300,1,8,0:0:0:0:
256,192,287375,1,0,0:0:0:0:
256,192,287450,1,8,0:0:0:0:
256,192,287600,1,8,0:0:0:0:
256,192,287750,1,0,0:0:0:0:
256,192,287825,1,0,0:0:0:0:
256,192,287900,1,8,0:0:0:0:
256,192,287975,1,8,0:0:0:0:
256,192,288050,1,0,0:0:0:0:
256,192,288200,1,0,0:0:0:0:
256,192,288275,1,0,0:0:0:0:
256,192,288350,1,8,0:0:0:0:
256,192,288500,1,8,0:0:0:0:
256,192,288650,1,0,0:0:0:0:
256,192,288725,1,0,0:0:0:0:
256,192,288800,1,8,0:0:0:0:
256,192,288950,1,0,0:0:0:0:
256,192,289025,1,0,0:0:0:0:
256,192,289100,1,8,0:0:0:0:
256,192,289250,1,0,0:0:0:0:
256,192,289325,1,0,0:0:0:0:
256,192,289400,1,8,0:0:0:0:
256,192,289475,1,8,0:0:0:0:
256,192,289550,1,0,0:0:0:0:
256,192,289700,1,0,0:0:0:0:
256,192,289850,1,8,0:0:0:0:
256,192,290000,1,8,0:0:0:0:
256,192,290150,1,0,0:0:0:0:
256,192,290225,1,0,0:0:0:0:
256,192,290300,1,8,0:0:0:0:
256,192,290450,1,0,0:0:0:0:
256,192,290525,1,0,0:0:0:0:
256,192,290600,1,8,0:0:0:0:
256,192,290675,1,8,0:0:0:0:
256,192,290750,1,0,0:0:0:0:
256,192,290825,1,0,0:0:0:0:
256,192,290900,1,0,0:0:0:0:
256,192,290975,1,0,0:0:0:0:
256,192,291050,1,8,0:0:0:0:
256,192,291125,1,8,0:0:0:0:
256,192,291200,1,0,0:0:0:0:
256,192,291275,1,0,0:0:0:0:
256,192,291350,1,0,0:0:0:0:
256,192,291425,1,0,0:0:0:0:
256,192,291500,1,8,0:0:0:0:
256,192,291650,1,0,0:0:0:0:
256,192,291800,1,12,0:0:0:0:
256,192,291950,1,0,0:0:0:0:
256,192,292100,1,8,0:0:0:0:
256,192,292175,1,0,0:0:0:0:
256,192,292250,1,8,0:0:0:0:
256,192,292400,1,8,0:0:0:0:
256,192,292550,1,0,0:0:0:0:
256,192,292625,1,0,0:0:0:0:
256,192,292700,1,8,0:0:0:0:
256,192,292775,1,8,0:0:0:0:
256,192,292850,1,0,0:0:0:0:
256,192,293000,1,0,0:0:0:0:
256,192,293075,1,0,0:0:0:0:
256,192,293150,1,8,0:0:0:0:
256,192,293300,1,8,0:0:0:0:
256,192,293450,1,0,0:0:0:0:
256,192,293525,1,0,0:0:0:0:
256,192,293600,1,8,0:0:0:0:
256,192,293750,1,0,0:0:0:0:
256,192,293825,1,0,0:0:0:0:
256,192,293900,1,8,0:0:0:0:
256,192,294050,1,0,0:0:0:0:
256,192,294125,1,0,0:0:0:0:
256,192,294200,1,8,0:0:0:0:
256,192,294275,1,8,0:0:0:0:
256,192,294350,1,0,0:0:0:0:
256,192,294500,1,0,0:0:0:0:
256,192,294650,1,8,0:0:0:0:
256,192,294800,1,8,0:0:0:0:
256,192,294950,1,0,0:0:0:0:
256,192,295025,1,0,0:0:0:0:
256,192,295100,1,8,0:0:0:0:
256,192,295175,1,8,0:0:0:0:
256,192,295250,1,0,0:0:0:0:
256,192,295400,1,0,0:0:0:0:
256,192,295550,1,8,0:0:0:0:
256,192,295700,1,8,0:0:0:0:
256,192,295775,1,8,0:0:0:0:
256,192,295850,1,0,0:0:0:0:
256,192,295925,1,0,0:0:0:0:
256,192,296000,1,0,0:0:0:0:
256,192,296075,1,0,0:0:0:0:
256,192,296150,1,8,0:0:0:0:
256,192,296225,1,8,0:0:0:0:
256,192,296300,1,8,0:0:0:0:
256,192,296375,1,8,0:0:0:0:
256,192,296450,1,0,0:0:0:0:
256,192,296600,1,4,0:0:0:0:
256,192,296750,1,8,0:0:0:0:
256,192,296825,1,8,0:0:0:0:
256,192,296900,1,0,0:0:0:0:
256,192,296975,1,0,0:0:0:0:
256,192,297050,1,8,0:0:0:0:
256,192,297125,1,8,0:0:0:0:
256,192,297200,1,0,0:0:0:0:
256,192,297275,1,0,0:0:0:0:
256,192,297350,1,8,0:0:0:0:
256,192,297425,1,0,0:0:0:0:
256,192,297500,1,8,0:0:0:0:
256,192,297575,1,8,0:0:0:0:
256,192,297650,1,0,0:0:0:0:
256,192,297725,1,0,0:0:0:0:
256,192,297800,1,0,0:0:0:0:
256,192,297875,1,0,0:0:0:0:
256,192,297950,1,8,0:0:0:0:
256,192,298025,1,8,0:0:0:0:
256,192,298100,1,0,0:0:0:0:
256,192,298175,1,0,0:0:0:0:
256,192,298250,1,8,0:0:0:0:
256,192,298325,1,0,0:0:0:0:
256,192,298400,1,8,0:0:0:0:
256,192,298475,1,8,0:0:0:0:
256,192,298550,1,0,0:0:0:0:
256,192,298625,1,0,0:0:0:0:
256,192,298700,1,8,0:0:0:0:
256,192,298775,1,8,0:0:0:0:
256,192,298850,1,0,0:0:0:0:
256,192,298925,1,0,0:0:0:0:
256,192,299000,1,8,0:0:0:0:
256,192,299075,1,0,0:0:0:0:
256,192,299150,1,8,0:0:0:0:
256,192,299225,1,8,0:0:0:0:
256,192,299300,1,0,0:0:0:0:
256,192,299375,1,0,0:0:0:0:
256,192,299450,1,8,0:0:0:0:
256,192,299525,1,8,0:0:0:0:
256,192,299600,1,0,0:0:0:0:
256,192,299675,1,0,0:0:0:0:
256,192,299750,1,8,0:0:0:0:
256,192,299825,1,0,0:0:0:0:
256,192,299900,1,8,0:0:0:0:
256,192,300200,1,8,0:0:0:0:
256,192,300275,1,8,0:0:0:0:
256,192,300350,1,0,0:0:0:0:
256,192,300425,1,0,0:0:0:0:
256,192,300500,1,8,0:0:0:0:
256,192,300575,1,8,0:0:0:0:
256,192,300650,1,0,0:0:0:0:
256,192,300725,1,0,0:0:0:0:
256,192,300800,1,8,0:0:0:0:
256,192,300875,1,8,0:0:0:0:
256,192,300950,1,0,0:0:0:0:
256,192,301100,1,12,0:0:0:0:
