osu file format v14

[General]
AudioFilename: audio.mp3
AudioLeadIn: 0
PreviewTime: 163118
Countdown: 0
SampleSet: Normal
StackLeniency: 0.5
Mode: 0
LetterboxInBreaks: 0
WidescreenStoryboard: 1

[Editor]
DistanceSpacing: 0.6
BeatDivisor: 4
GridSize: 16
TimelineZoom: 1.7

[Metadata]
Title:Hoshi no Utsuwa ~ Casket of Star
TitleUnicode:星の器 ~ Casket of Star
Artist:Demetori
ArtistUnicode:Demetori
Creator:Uniform
Version:Uniflake's Extra Stage
Source:東方幻想郷 ~ Lotus Land Story
Tags:happy30 MikasaSerket Flake Vessel of Stars Kirisame Marisa le Grimoire De reve zun 東方幻想郷 Lotus Land Story 4 Scarlet Weather Rhapsody SWR 東方project touhou project ZUN instrumental metal
BeatmapID:2538074
BeatmapSetID:1220050

[Difficulty]
HPDrainRate:6
CircleSize:4.5
OverallDifficulty:8
ApproachRate:9.3
SliderMultiplier:1.4
SliderTickRate:1

[Events]
//Background and Video events
0,0,"maxresdefault (1).jpg",0,0
//Break Periods
//Storyboard Layer 0 (Background)
//Storyboard Layer 1 (Fail)
//Storyboard Layer 2 (Pass)
//Storyboard Layer 3 (Foreground)
Sprite,Foreground,Centre,"flake.png",320,240 M,0,62302,,374.1425,254.7126 S,0,62302,,0.3938391 F,0,62302,62381,0.131954,0.3850116 F,0,62381,62460,0.3850116,0.5821608 F,0,62460,62539,0.5821608,0.6763219 F,0,62539,62618,0.6763219,0.7969655 F,0,62618,62697,0.7969655,1 F,0,62697,64829,1 F,0,64829,173255,1 F,0,173255,173328,1,0.9794023 F,0,173328,173341,0.9794023,0.8970115 F,0,173341,173350,0.8970115,0.8499311 F,0,173350,173360,0.8499311,0.8028506 F,0,173360,173369,0.8028506,0.7498851 F,0,173369,173380,0.7498851,0.6204138 F,0,173380,173391,0.6204138,0.5350804 F,0,173391,173406,0.5350804,0.3526437 F,0,173406,173417,0.3526437,0.2437702 F,0,173417,173428,0.2437702,0.1525518 F,0,173428,173438,0.1525518,0 F,0,173438,173449,0 F,0,173449,173459,0 F,0,173459,173460,0,1 F,0,173460,173470,1,0 F,0,173470,173481,0 F,0,173481,173491,0 F,0,173491,173587,0 F,0,173587,173598,0 F,0,173598,173610,0 F,0,173610,173619,0 F,0,173619,173631,0 F,0,173631,173640,0 F,0,173640,173651,0 F,0,173651,173662,0 F,0,173662,173672,0 F,0,173672,173683,0 F,0,173683,173695,0 F,0,173695,173703,0 F,0,173703,173715,0 F,0,173715,173725,0 F,0,173725,173736,0 F,0,173736,173747,0 F,0,173747,173759,0 F,0,173759,173768,0 F,0,173768,173779,0 F,0,173779,173789,0 F,0,173789,173799,0 F,0,173799,173811,0 F,0,173811,173821,0 F,0,173821,173832,0 F,0,173832,173841,0 F,0,173841,173855,0 F,0,173855,173865,0 F,0,173865,173873,0 F,0,173873,173883,0 F,0,173883,173895,0 F,0,173895,173907,0 F,0,173907,173916,0 F,0,173916,173927,0 F,0,173927,173938,0 F,0,173938,173948,0 F,0,173948,173959,0 F,0,173959,173969,0 F,0,173969,173980,0 F,0,173980,173990,0 F,0,173990,174000,0 F,0,174000,174011,0 F,0,174011,174020,0 F,0,174020,174030,0 F,0,174030,174041,0 F,0,174041,174051,0 F,0,174051,174062,0
Sprite,Foreground,Centre,"flake (1).png",320,240 F,0,960,1039,0,0.1382988 F,0,1039,1118,0.1382988,0.2648275 F,0,1118,1197,0.2648275,0.3497012 F,0,1197,1276,0.3497012,0.532138 F,0,1276,1355,0.532138,0.6910344 F,0,1355,1434,0.6910344,1 F,0,1434,1513,1 F,0,1513,61986,1 F,0,61986,62065,1,0.6476831 F,0,62065,62144,0.6476831,0.394166 F,0,62144,62223,0.394166,0.1965569 F,0,62223,62302,0.1965569,0 F,0,62302,173381,0 F,0,173381,173460,0 F,0,173460,173539,0,0.3379311 F,0,173539,173618,0.3379311,0.616803 F,0,173618,173697,0.616803,0.890559 F,0,173697,173776,0.890559,1 F,0,173776,183565,1 M,0,183565,,360.607,261.1862 S,0,183565,,0.3761843 F,0,183565,183683,1 F,0,183683,184829,1 F,0,184829,222723,1 F,0,222723,236455,1,0.9970575 F,0,236455,236539,0.9970575,0.7851973 F,0,236539,236618,0.7851973,0.6292434 F,0,236618,236697,0.6292434,0.5556801 F,0,236697,236776,0.5556801,0.4144388 F,0,236776,236855,0.4144388,0.2790823 F,0,236855,236934,0.2790823,0.1496112 F,0,236934,237013,0.1496112,0
//Storyboard Layer 4 (Overlay)
//Storyboard Sound Samples

[TimingPoints]
408,315.789473684211,4,1,1,60,1,0
31986,-100,4,1,1,75,0,1
52197,-100,4,1,1,67,0,0
62302,-99.9999999999999,4,1,1,67,0,0
72408,-99.9999999999999,4,1,1,75,0,1
92618,-166.666666666667,4,1,1,45,0,0
101302,-100,4,1,1,67,0,0
163355,-80,4,1,1,82,0,1
173460,-166.666666666667,4,1,1,45,0,0
182144,-111.111111111111,4,1,1,60,0,0
183565,-90.9090909090909,4,1,1,75,0,1
193671,-80,4,1,1,67,0,0
208829,-80,4,1,1,75,0,1
211355,-72.7272727272727,4,1,1,83,0,1
213723,-111.111111111111,4,1,1,66,0,0
233934,-100,4,1,1,82,0,1
236460,-66.6666666666667,4,1,1,83,0,1
236539,-66.6666666666667,4,2,1,83,0,1
237092,-66.6666666666667,4,2,1,30,0,0

[Colours]
Combo1 : 187,186,228
Combo2 : 206,152,26
Combo3 : 253,236,115
Combo4 : 192,117,217
Combo5 : 223,223,223
Combo6 : 249,187,238
Combo7 : 83,96,210

[HitObjects]
244,43,1197,5,0,0:0:0:0:
270,196,1355,1,0,0:0:0:0:
242,33,1513,6,0,B|171:22|171:22|91:43,1,140,4|0,0:0|0:0,0:0:0:0:
58,252,1986,1,8,0:0:0:0:
112,195,2145,2,0,P|124:163|120:129,1,70,2|0,0:2|0:0,0:0:0:0:
53,261,2460,1,0,0:0:0:0:
105,39,2618,1,8,0:0:0:0:
105,39,2776,1,2,0:2:0:0:
191,72,2934,6,0,P|218:92|232:124,1,70
112,195,3250,2,0,P|116:160|136:132,1,70,8|2,0:0|1:0,0:0:0:0:
192,211,3565,1,0,0:0:0:0:
102,192,3723,1,2,0:0:0:0:
191,72,3881,1,8,0:0:0:0:
275,282,4039,6,0,B|215:277|215:277|188:285|188:285|126:280,1,140,4|0,0:0|0:0,0:0:0:0:
347,240,4513,2,0,B|352:309,1,70,8|2,0:0|0:2,0:0:0:0:
341,162,4829,1,0,0:0:0:0:
341,162,4986,1,0,0:0:0:0:
458,151,5144,2,0,B|452:220,1,70,8|2,0:0|0:2,0:0:0:0:
464,73,5460,5,0,0:0:0:0:
464,73,5617,1,0,0:0:0:0:
269,134,5776,2,0,B|266:169|266:169|278:201,1,70,8|2,0:0|0:0,0:0:0:0:
347,240,6092,1,0,0:0:0:0:
242,33,6250,1,2,0:0:0:0:
129,57,6408,1,8,0:0:0:0:
77,223,6565,6,0,B|121:227|121:227|142:242|142:242|168:232|168:232|220:236,1,140,4|0,0:0|0:0,0:0:0:0:
129,57,7039,2,0,P|108:84|104:119,1,70,8|2,0:0|0:2,0:0:0:0:
210,235,7355,2,0,P|244:238|276:225,1,70
324,75,7671,2,0,P|310:43|282:22,1,70,8|2,0:0|0:2,0:0:0:0:
76,308,7986,5,0,0:0:0:0:
104,119,8144,1,0,0:0:0:0:
205,311,8303,1,8,0:0:0:0:
182,159,8461,1,2,0:0:0:0:
289,313,8619,1,0,0:0:0:0:
306,200,8777,1,2,0:0:0:0:
419,187,8934,1,8,0:0:0:0:
292,202,9092,6,0,B|272:134|272:134|285:65,1,140,4|0,0:0|0:0,0:0:0:0:
425,193,9565,2,0,P|421:227|401:256,1,70,8|2,0:0|0:2,0:0:0:0:
278,204,9881,1,0,0:0:0:0:
289,313,10039,1,0,0:0:0:0:
396,334,10198,2,0,B|413:335|413:335|429:329,2,35,8|0|2,0:0|0:0|0:2,0:0:0:0:
289,313,10513,5,0,0:0:0:0:
266,309,10591,1,0,0:0:0:0:
243,312,10670,1,0,0:0:0:0:
222,323,10749,1,0,0:0:0:0:
211,352,10829,5,0,0:0:0:0:
193,355,10907,1,0,0:0:0:0:
176,355,10986,1,2,0:0:0:0:
159,350,11065,1,0,0:0:0:0:
144,341,11144,6,0,B|147:306,1,35
281,169,11302,2,0,B|278:203,1,35,2|0,0:0|0:0,0:0:0:0:
168,60,11460,2,0,B|171:26,1,35
182,159,11618,6,0,B|122:154|122:154|95:162|95:162|33:157,1,140,4|0,0:0|0:0,0:0:0:0:
74,59,12092,1,8,0:0:0:0:
264,71,12250,1,2,0:2:0:0:
171,25,12408,1,0,0:0:0:0:
171,25,12565,1,0,0:0:0:0:
277,203,12723,2,0,B|309:215|309:215|344:212,1,70,8|2,0:0|0:2,0:0:0:0:
211,156,13039,5,0,0:0:0:0:
211,156,13197,1,0,0:0:0:0:
204,237,13355,2,0,B|198:270|198:270|178:299,1,70,8|2,0:0|1:0,0:0:0:0:
174,75,13671,1,0,0:0:0:0:
255,38,13829,1,2,0:0:0:0:
164,70,13986,1,8,0:0:0:0:
147,165,14144,6,0,B|151:209|151:209|166:230|166:230|156:256|156:256|160:308,1,140,4|0,0:0|0:0,0:0:0:0:
239,342,14618,1,8,0:0:0:0:
317,294,14776,1,2,0:2:0:0:
313,121,14934,1,0,0:0:0:0:
313,121,15092,1,0,0:0:0:0:
277,203,15250,2,0,B|346:197,1,70,8|2,0:0|0:2,0:0:0:0:
511,147,15565,5,0,0:0:0:0:
429,111,15723,2,0,B|435:180,1,70,0|8,0:0|0:0,0:0:0:0:
483,288,16039,2,0,B|484:270|484:270|478:254,2,35,2|0|0,0:0|0:0|0:0,0:0:0:0:
413,348,16355,1,2,0:0:0:0:
343,314,16513,1,8,0:0:0:0:
256,340,16671,6,0,B|187:356|187:356|118:339,1,140,4|0,0:0|0:0,0:0:0:0:
163,229,17144,2,0,P|197:232|224:254,1,70,8|2,0:0|0:2,0:0:0:0:
256,340,17460,1,0,0:0:0:0:
256,340,17618,1,0,0:0:0:0:
86,251,17776,2,0,B|92:182,1,70,8|2,0:0|0:2,0:0:0:0:
97,18,18092,5,0,0:0:0:0:
269,46,18250,1,0,0:0:0:0:
400,133,18408,1,10,0:0:0:0:
263,155,18566,1,0,0:0:0:0:
169,233,18723,1,0,0:0:0:0:
273,250,18881,2,0,L|237:217,1,35,2|0,0:0|0:0,0:0:0:0:
124,104,19039,1,8,0:0:0:0:
7,281,19197,6,0,B|41:311|41:311|135:303,1,140,4|0,0:0|0:0,0:0:0:0:
283,241,19671,1,8,0:0:0:0:
92,181,19829,1,2,0:2:0:0:
244,55,19987,1,0,0:0:0:0:
239,144,20144,1,0,0:0:0:0:
135,42,20302,2,0,B|151:36|151:36|169:37,2,35,8|0|2,0:0|0:0|0:2,0:0:0:0:
319,104,20619,5,8,0:0:0:0:
383,327,20776,2,8,B|386:292,1,35,8|8,0:0|0:0,0:0:0:0:
401,123,20934,1,8,0:0:0:0:
256,331,21092,2,8,B|253:296,1,35
238,127,21250,1,8,0:0:0:0:
315,174,21408,1,8,0:0:0:0:
399,141,21565,1,8,0:0:0:0:
450,215,21723,1,8,0:0:0:0:
229,123,21881,6,0,B|235:90|235:90|255:61,1,70,4|0,0:1|0:0,0:0:0:0:
367,13,22197,1,8,0:0:0:0:
249,49,22355,1,0,0:0:0:0:
388,139,22513,1,0,0:0:0:0:
308,184,22671,2,0,P|302:218|316:249,1,70,0|8,0:0|0:0,0:0:0:0:
303,45,22986,2,0,B|268:48,1,35,2|0,0:0|0:0,0:0:0:0:
97,65,23144,6,0,P|116:92|149:105,1,70
231,224,23460,2,0,B|215:176|215:176|228:122,1,105,10|0,0:0|0:0,0:0:0:0:
254,99,23776,1,0,0:0:0:0:
271,94,23855,1,0,0:0:0:0:
288,94,23934,1,0,0:0:0:0:
305,99,24013,1,0,0:0:0:0:
330,109,24092,1,8,0:0:0:0:
358,110,24170,1,0,0:0:0:0:
385,101,24249,1,0,0:0:0:0:
406,84,24328,1,0,0:0:0:0:
421,60,24408,6,0,B|427:130,1,70,4|0,0:0|0:0,0:0:0:0:
350,34,24723,1,8,0:0:0:0:
334,189,24881,2,0,B|328:259,1,70
437,125,25197,2,0,P|471:128|498:150,1,70,0|8,0:0|0:0,0:0:0:0:
251,57,25513,2,0,P|289:18|345:29,1,105,2|0,0:0|0:0,0:0:0:0:
350,34,25829,5,0,0:0:0:0:
418,260,25986,2,0,B|368:278|368:278|316:262,1,105,10|0,0:0|0:0,0:0:0:0:
301,255,26303,1,2,0:0:0:0:
284,253,26382,1,0,0:0:0:0:
267,256,26461,1,0,0:0:0:0:
251,263,26540,1,0,0:0:0:0:
238,275,26619,1,8,0:0:0:0:
210,272,26697,1,0,0:0:0:0:
182,270,26776,1,0,0:0:0:0:
154,267,26855,1,0,0:0:0:0:
126,265,26934,6,0,P|104:238|100:203,1,70,4|0,0:0|0:0,0:0:0:0:
153,62,27249,1,8,0:0:0:0:
153,62,27407,2,0,B|147:132,1,70
334,189,27723,2,0,B|328:119,1,70,0|8,0:0|0:0,0:0:0:0:
276,356,28039,2,0,B|226:374|226:374|174:358,1,105,2|0,0:0|0:0,0:0:0:0:
164,345,28355,5,0,0:0:0:0:
418,260,28513,2,0,B|392:282|392:282|322:276,1,105,10|0,0:0|0:0,0:0:0:0:
307,266,28829,1,2,0:0:0:0:
290,261,28907,1,0,0:0:0:0:
273,256,28986,1,0,0:0:0:0:
256,261,29065,1,0,0:0:0:0:
240,266,29144,1,8,0:0:0:0:
213,274,29222,1,0,0:0:0:0:
186,279,29301,1,0,0:0:0:0:
160,270,29380,1,0,0:0:0:0:
133,260,29460,6,0,B|136:217|136:217|126:191|126:191|141:170|141:170|145:126,1,140,6|8,0:0|0:0,0:0:0:0:
251,57,29934,1,0,0:0:0:0:
249,242,30092,2,0,P|299:245|333:207,1,105,6|0,0:0|0:0,0:0:0:0:
334,189,30408,2,0,B|350:183|350:183|368:184,2,35,8|0|0,0:0|0:0|0:0,0:0:0:0:
256,36,30723,5,6,0:0:0:0:
344,343,30881,2,0,B|348:294,1,35
368,82,31038,1,10,0:0:0:0:
169,348,31197,2,0,B|164:299,1,35
144,87,31354,1,10,0:0:0:0:
384,176,31513,1,0,0:0:0:0:
256,256,31671,1,8,0:0:0:0:
128,176,31829,6,0,B|159:172|159:172|189:152|189:152|223:164|223:164|259:159,1,140,4|0,0:0|0:0,0:0:0:0:
256,256,32302,1,8,0:0:0:0:
256,256,32460,1,0,0:0:0:0:
350,303,32618,1,0,0:0:0:0:
358,127,32776,1,0,0:0:0:0:
389,214,32934,1,8,0:0:0:0:
445,96,33092,6,0,P|402:102|362:106,1,70,2|0,0:0|0:1,0:0:0:0:
291,217,33408,2,0,P|248:211|208:207,1,70,2|8,0:0|1:0,0:0:0:0:
157,143,33723,1,2,0:0:0:0:
75,138,33881,1,0,0:0:0:0:
205,75,34039,1,0,0:0:0:0:
189,219,34197,2,0,P|208:246|241:259,1,70,8|0,0:0|0:0,0:0:0:0:
277,259,34434,1,0,0:0:0:0:
308,243,34513,5,4,0:0:0:0:
359,92,34671,1,0,0:0:0:0:
290,153,34829,1,8,0:0:0:0:
290,153,34908,1,0,0:0:0:0:
290,153,34986,5,4,0:0:0:0:
239,2,35144,1,0,0:0:0:0:
201,127,35302,1,0,0:0:0:0:
369,90,35460,1,8,0:0:0:0:
191,129,35618,6,0,B|186:189|186:189|194:216|194:216|189:278,1,140,4|0,0:0|0:0,0:0:0:0:
316,312,36092,2,0,P|311:277|307:242,1,70,8|0,0:0|0:0,0:0:0:0:
476,211,36408,1,0,0:0:0:0:
288,170,36565,1,0,0:0:0:0:
466,209,36723,1,8,0:0:0:0:
483,76,36881,6,0,P|430:116|368:89,1,140,4|0,0:0|0:0,0:0:0:0:
239,2,37355,2,0,B|272:8|272:8|301:28,1,70,8|0,0:0|0:0,0:0:0:0:
288,170,37671,1,0,0:0:0:0:
191,129,37829,1,0,0:0:0:0:
368,89,37986,1,8,0:0:0:0:
181,132,38144,6,0,P|184:166|189:201,1,70,2|0,0:0|0:2,0:0:0:0:
111,326,38460,2,0,P|116:291|120:257,1,70,2|8,0:0|1:0,0:0:0:0:
58,131,38776,2,0,P|53:165|49:200,1,70,2|0,0:0|0:0,0:0:0:0:
121,25,39092,1,0,0:0:0:0:
120,257,39250,2,0,B|98:286|98:286|69:303,1,70,8|0,0:0|0:0,0:0:0:0:
36,313,39486,1,0,0:0:0:0:
1,309,39565,5,4,0:0:0:0:
191,202,39723,1,0,0:0:0:0:
49,200,39881,1,8,0:0:0:0:
7,78,40039,2,0,B|33:56|33:56|103:62,1,105,4|0,0:0|0:0,0:0:0:0:
114,75,40355,1,0,0:0:0:0:
120,257,40513,1,8,0:0:0:0:
201,195,40671,6,0,B|278:189|249:242|334:235,1,140,4|0,0:0|0:0,0:0:0:0:
304,111,41144,2,0,B|286:116|286:116|273:127,2,35,8|0|0,0:0|0:0|0:0,0:0:0:0:
329,235,41460,1,0,0:0:0:0:
455,287,41618,2,0,P|455:304|453:321,1,35
349,166,41776,1,8,0:0:0:0:
311,344,41934,2,0,P|310:361|312:378,1,35
407,223,42092,6,0,B|410:191|410:191|430:161|430:161|418:127|418:127|423:91,1,140,4|8,0:0|0:0,0:0:0:0:
423,91,42565,1,0,0:0:0:0:
319,16,42723,2,0,P|314:51|310:86,1,70
244,246,43039,1,8,0:0:0:0:
233,165,43197,6,0,P|229:130|224:95,1,70,2|0,0:0|0:2,0:0:0:0:
142,214,43513,2,0,P|147:179|151:144,1,70,2|8,0:0|1:0,0:0:0:0:
41,237,43829,2,0,P|55:204|68:172,1,70,2|0,0:0|0:0,0:0:0:0:
111,326,44144,1,0,0:0:0:0:
167,367,44302,2,0,P|198:375|232:364,1,70,8|0,0:0|0:0,0:0:0:0:
259,340,44539,1,0,0:0:0:0:
273,308,44618,5,4,0:0:0:0:
190,152,44776,1,0,0:0:0:0:
281,166,44934,1,8,0:0:0:0:
281,166,45013,1,0,0:0:0:0:
281,166,45091,5,4,0:0:0:0:
197,303,45249,1,0,0:0:0:0:
318,251,45407,1,0,0:0:0:0:
182,146,45565,1,8,0:0:0:0:
325,256,45723,6,0,B|330:205|330:205|322:178|322:178|327:118,1,140,4|0,0:0|0:0,0:0:0:0:
424,14,46197,2,0,P|389:17|354:22,1,70,8|0,0:0|0:0,0:0:0:0:
473,105,46513,2,0,P|438:99|403:95,1,70
258,89,46829,1,8,0:0:0:0:
365,257,46986,6,0,P|402:270|445:273,1,70,4|0,0:0|0:0,0:0:0:0:
503,249,47302,1,0,0:0:0:0:
283,211,47460,2,0,B|264:237|264:237|257:287,1,70,8|0,0:0|0:0,0:0:0:0:
250,373,47776,1,0,0:0:0:0:
215,156,47934,1,0,0:0:0:0:
340,339,48091,1,8,0:0:0:0:
155,222,48250,6,0,P|116:220|76:232,1,70,2|0,0:0|0:2,0:0:0:0:
215,156,48565,2,0,P|181:133|141:124,1,70,2|8,0:0|1:0,0:0:0:0:
290,107,48881,2,0,P|272:71|241:43,1,70,2|0,0:0|0:0,0:0:0:0:
424,14,49197,1,0,0:0:0:0:
340,339,49355,1,8,0:0:0:0:
290,107,49513,1,0,0:0:0:0:
290,107,49592,1,0,0:0:0:0:
290,107,49671,5,4,0:0:0:0:
412,185,49829,1,0,0:0:0:0:
155,222,49986,1,8,0:0:0:0:
432,273,50144,5,4,0:0:0:0:
128,308,50302,1,4,0:0:0:0:
375,369,50460,1,8,0:0:0:0:
290,107,50618,1,0,0:0:0:0:
381,384,50776,6,0,L|242:363,1,140,4|0,0:0|0:0,0:0:0:0:
210,340,51171,1,0,0:0:0:0:
197,303,51250,2,0,P|158:301|118:313,1,70,8|0,0:0|0:0,0:0:0:0:
48,338,51565,1,0,0:0:0:0:
40,310,51643,1,0,0:0:0:0:
33,283,51722,1,0,0:0:0:0:
25,256,51801,1,0,0:0:0:0:
18,229,51881,1,8,0:0:0:0:
35,198,51960,1,0,0:0:0:0:
53,167,52039,1,0,0:0:0:0:
70,138,52118,1,0,0:0:0:0:
88,107,52197,5,4,0:0:0:0:
128,308,52355,1,0,0:0:0:0:
128,308,52513,1,8,0:0:0:0:
173,155,52671,2,0,P|212:153|252:165,1,70
86,223,52986,2,0,P|52:230|17:228,1,70,8|0,0:0|0:0,0:0:0:0:
152,31,53302,2,0,P|158:47|160:64,1,35,10|0,0:0|0:0,0:0:0:0:
155,222,53460,5,0,0:0:0:0:
241,160,53618,1,0,0:0:0:0:
196,302,53776,2,0,B|246:318|246:318|296:300,1,105,10|0,0:0|0:0,0:0:0:0:
308,266,54092,1,2,0:0:0:0:
324,248,54170,1,0,0:0:0:0:
346,238,54249,1,0,0:0:0:0:
371,237,54328,1,0,0:0:0:0:
393,247,54408,1,0,0:0:0:0:
426,256,54486,1,0,0:0:0:0:
459,247,54565,1,0,0:0:0:0:
484,223,54644,1,0,0:0:0:0:
493,189,54723,6,0,B|416:183|445:236|360:229,1,140,4|8,0:0|0:0,0:0:0:0:
319,86,55197,2,0,B|348:108|348:108|365:137,1,70
429,6,55513,2,0,B|443:39|443:39|443:73,1,70,8|0,0:0|0:0,0:0:0:0:
364,229,55829,2,0,P|347:226|331:221,1,35,10|0,0:0|0:0,0:0:0:0:
493,189,55987,5,0,0:0:0:0:
366,311,56144,1,0,0:0:0:0:
364,136,56302,2,0,B|320:131|320:131|297:138|297:138|260:135,1,105,10|0,0:0|0:0,0:0:0:0:
237,108,56618,1,2,0:0:0:0:
228,85,56697,1,0,0:0:0:0:
211,67,56775,1,0,0:0:0:0:
188,58,56854,1,0,0:0:0:0:
164,58,56935,1,0,0:0:0:0:
136,78,57013,1,0,0:0:0:0:
122,110,57092,1,0,0:0:0:0:
124,145,57171,1,0,0:0:0:0:
142,174,57250,6,0,B|147:210|147:210|135:244|135:244|155:274|155:274|159:305,1,140,4|8,0:0|0:0,0:0:0:0:
268,99,57723,2,0,P|233:99|204:118,1,70
348,155,58039,2,0,P|365:124|362:90,1,70,8|0,0:0|0:0,0:0:0:0:
259,196,58355,6,0,B|229:230|229:230|237:324,1,140,10|0,0:0|0:0,0:0:0:0:
385,249,58829,2,0,P|350:253|315:258,1,70,10|0,0:0|0:0,0:0:0:0:
202,134,59144,1,2,0:0:0:0:
179,144,59222,1,0,0:0:0:0:
161,160,59301,1,0,0:0:0:0:
148,180,59380,1,0,0:0:0:0:
141,204,59460,1,0,0:0:0:0:
130,237,59538,1,0,0:0:0:0:
106,262,59617,1,0,0:0:0:0:
74,273,59696,1,0,0:0:0:0:
39,269,59775,5,4,0:0:0:0:
226,214,59934,1,0,0:0:0:0:
226,214,60092,1,8,0:0:0:0:
66,198,60250,2,0,B|68:164|68:164|84:131,1,70
130,13,60565,2,0,B|132:46|132:46|148:79,1,70,8|0,0:0|0:0,0:0:0:0:
489,84,60881,2,0,L|430:58,1,35,8|0,0:0|0:0,0:0:0:0:
286,2,61039,5,4,0:0:0:0:
390,234,61197,2,0,L|351:182,1,35
255,61,61355,1,6,0:0:0:0:
255,338,61513,2,0,L|247:274,1,35
220,118,61671,5,6,0:0:0:0:
196,115,61750,1,0,0:0:0:0:
173,107,61829,1,0,0:0:0:0:
153,92,61908,1,0,0:0:0:0:
138,73,61986,1,0,0:0:0:0:
113,49,62066,1,0,0:0:0:0:
80,39,62145,1,0,0:0:0:0:
46,44,62224,1,0,0:0:0:0:
18,65,62302,5,4,0:0:0:0:
48,257,62460,1,0,0:0:0:0:
48,257,62618,1,8,0:0:0:0:
146,63,62776,6,0,P|112:85|92:121,1,70
276,154,63092,2,0,P|274:133|264:116,1,35,8|0,0:0|0:0,0:0:0:0:
132,221,63250,1,0,0:0:0:0:
194,170,63408,5,8,0:0:0:0:
121,352,63565,2,0,B|81:349|81:349|50:332,1,70,2|0,0:0|0:0,0:0:0:0:
207,249,63881,2,0,B|240:275|240:275|253:343,1,105,10|0,0:0|0:0,0:0:0:0:
250,372,64197,5,2,0:0:0:0:
269,358,64275,1,0,0:0:0:0:
293,355,64354,1,0,0:0:0:0:
317,362,64433,1,0,0:0:0:0:
349,376,64513,1,0,0:0:0:0:
384,370,64591,1,0,0:0:0:0:
411,349,64670,1,0,0:0:0:0:
427,318,64749,1,0,0:0:0:0:
420,283,64829,6,0,B|410:250|410:250|417:211,1,70,4|0,0:0|0:0,0:0:0:0:
466,86,65144,1,8,0:0:0:0:
294,104,65302,6,0,B|289:146|289:146|307:175,1,70
387,112,65618,1,8,0:0:0:0:
188,166,65776,1,0,0:0:0:0:
318,247,65934,1,8,0:0:0:0:
262,30,66092,1,2,0:0:0:0:
262,30,66250,1,0,0:0:0:0:
156,237,66408,2,0,P|109:236|53:195,1,105,10|0,0:0|0:0,0:0:0:0:
48,172,66723,5,2,0:0:0:0:
70,164,66801,1,0,0:0:0:0:
90,177,66880,1,0,0:0:0:0:
95,200,66959,1,0,0:0:0:0:
84,222,67038,1,0,0:0:0:0:
63,251,67118,1,0,0:0:0:0:
42,279,67196,1,0,0:0:0:0:
40,314,67275,1,0,0:0:0:0:
55,345,67354,5,4,0:0:0:0:
31,94,67513,1,0,0:0:0:0:
31,94,67671,1,8,0:0:0:0:
145,306,67829,2,0,B|182:310|182:310|212:294,1,70
182,77,68144,2,0,B|145:73|145:73|115:89,1,70,8|0,0:0|0:0,0:0:0:0:
275,158,68460,1,8,0:0:0:0:
208,204,68618,5,2,0:0:0:0:
269,79,68776,1,0,0:0:0:0:
356,170,68934,2,0,B|424:176|424:176|461:152,1,105,10|0,0:0|0:0,0:0:0:0:
471,124,69250,5,2,0:0:0:0:
449,108,69328,1,0,0:0:0:0:
422,115,69407,1,0,0:0:0:0:
411,140,69486,1,0,0:0:0:0:
423,164,69565,1,0,0:0:0:0:
441,193,69644,1,0,0:0:0:0:
461,222,69722,1,0,0:0:0:0:
460,256,69801,1,0,0:0:0:0:
439,283,69880,5,4,0:0:0:0:
275,158,70039,2,0,L|270:116,2,35,0|0|8,0:0|0:0|0:0,0:0:0:0:
210,214,70355,1,0,0:0:0:0:
210,214,70434,1,0,0:0:0:0:
210,214,70513,2,0,P|225:229|241:235,1,35,4|0,0:0|0:0,0:0:0:0:
351,199,70671,2,0,P|358:178|357:161,1,35
483,34,70829,5,8,0:0:0:0:
472,36,70908,1,0,0:0:0:0:
463,42,70986,1,0,0:0:0:0:
456,50,71065,1,0,0:0:0:0:
450,62,71144,6,0,P|457:77|462:94,1,35,4|0,0:0|0:0,0:0:0:0:
372,97,71302,2,0,P|370:114|366:131,1,35
272,119,71460,2,0,P|262:133|250:146,1,35
170,89,71618,2,0,P|154:96|137:101,1,35
85,5,71776,6,0,P|67:4|51:0,7,35,0|0|0|0|0|0|0|0,0:0|0:0|0:0|0:0|2:0|0:0|0:0|0:0,0:0:0:0:
50,74,72408,6,0,B|14:109|14:109|32:200,1,140,4|8,0:0|0:0,0:0:0:0:
31,197,72881,1,0,0:0:0:0:
151,138,73039,1,0,0:0:0:0:
143,314,73197,1,0,0:0:0:0:
112,227,73355,1,8,0:0:0:0:
56,345,73513,6,0,P|99:339|139:335,1,70,2|0,0:0|0:2,0:0:0:0:
210,224,73829,2,0,P|253:230|293:234,1,70,2|8,0:0|1:0,0:0:0:0:
344,298,74144,1,2,0:0:0:0:
426,303,74302,1,0,0:0:0:0:
281,364,74460,1,0,0:0:0:0:
395,213,74618,2,0,P|405:168|409:136,1,70,8|0,0:0|0:0,0:0:0:0:
403,109,74855,1,0,0:0:0:0:
387,77,74934,5,4,0:0:0:0:
430,309,75092,1,0,0:0:0:0:
316,183,75250,1,8,0:0:0:0:
487,220,75408,5,4,0:0:0:0:
260,260,75565,1,0,0:0:0:0:
311,176,75723,1,0,0:0:0:0:
337,314,75881,1,8,0:0:0:0:
185,217,76039,6,0,B|196:152|196:152|202:144|202:144|213:78,1,140,4|0,0:0|0:0,0:0:0:0:
19,66,76513,2,0,L|30:141,1,70,8|0,0:0|0:0,0:0:0:0:
45,215,76829,1,0,0:0:0:0:
221,162,76986,5,0,0:0:0:0:
53,225,77144,1,8,0:0:0:0:
156,372,77302,2,0,B|166:304|166:304|188:273|234:272,1,140,4|0,0:0|0:0,0:0:0:0:
294,328,77776,2,0,P|328:328|361:316,1,70,8|0,0:0|0:0,0:0:0:0:
464,227,78092,1,0,0:0:0:0:
324,178,78250,2,0,B|310:213|310:213|316:250,1,70,0|8,0:0|0:0,0:0:0:0:
472,79,78565,6,0,P|481:44|496:13,1,70,2|0,0:0|0:2,0:0:0:0:
324,178,78881,2,0,P|315:143|300:112,1,70,2|8,0:0|1:0,0:0:0:0:
464,227,79197,2,0,P|473:192|488:161,1,70,2|0,0:0|0:0,0:0:0:0:
387,303,79513,1,0,0:0:0:0:
292,260,79671,2,0,P|260:244|226:236,1,70,8|0,0:0|0:0,0:0:0:0:
191,240,79908,1,0,0:0:0:0:
166,264,79986,5,4,0:0:0:0:
215,141,80144,1,0,0:0:0:0:
122,56,80302,1,8,0:0:0:0:
0,140,80460,6,0,P|38:137|105:191,1,105,4|0,0:0|0:0,0:0:0:0:
107,202,80776,1,0,0:0:0:0:
226,56,80934,1,8,0:0:0:0:
316,295,81092,6,0,B|250:291|250:291|238:283|238:283|176:278,1,140,4|0,0:0|0:0,0:0:0:0:
72,307,81565,6,0,L|66:334,2,23.3333333333333,8|0|0,0:0|0:0|0:0,0:0:0:0:
72,307,81776,2,0,B|64:281|64:281|72:248,2,46.6666666666667
136,342,82092,5,0,0:0:0:0:
178,278,82197,1,0,0:0:0:0:
250,299,82302,1,0,0:0:0:0:
308,256,82408,1,0,0:0:0:0:
365,360,82513,6,0,P|433:363|488:298,1,140,4|8,0:0|0:0,0:0:0:0:
358,162,82986,1,0,0:0:0:0:
380,231,83144,2,0,P|412:249|454:248,1,70
512,63,83460,1,8,0:0:0:0:
358,162,83618,6,0,L|279:155,1,70,2|0,0:0|0:2,0:0:0:0:
150,68,83934,2,0,L|71:61,1,70,2|8,0:0|1:0,0:0:0:0:
64,249,84250,6,0,L|143:242,1,70,2|0,0:0|0:0,0:0:0:0:
261,81,84565,1,0,0:0:0:0:
288,155,84723,2,0,L|367:162,1,70,8|0,0:0|0:0,0:0:0:0:
393,163,84960,1,0,0:0:0:0:
427,166,85039,5,4,0:0:0:0:
362,56,85197,1,0,0:0:0:0:
297,269,85355,1,8,0:0:0:0:
367,43,85513,2,0,P|413:35|495:86,1,140,4|0,0:0|0:0,0:0:0:0:
332,204,85986,1,8,0:0:0:0:
512,152,86144,6,0,B|461:183|461:183|443:274,1,140,4|0,0:0|0:0,0:0:0:0:
345,281,86618,2,0,L|357:362,1,70,8|0,0:0|0:0,0:0:0:0:
355,350,86934,1,0,0:0:0:0:
285,226,87092,1,0,0:0:0:0:
152,276,87250,1,8,0:0:0:0:
207,85,87408,6,0,P|183:47|79:43,1,140,4|0,0:0|0:0,0:0:0:0:
254,185,87881,2,0,P|294:179|330:166,1,70,8|0,0:0|0:0,0:0:0:0:
471,52,88197,1,0,0:0:0:0:
384,42,88355,2,0,P|390:82|403:118,1,70,0|8,0:0|0:0,0:0:0:0:
512,236,88671,6,0,B|479:216|479:216|441:222,1,70,2|0,0:0|0:2,0:0:0:0:
342,249,88986,2,0,B|308:267|308:267|294:303,1,70,2|8,0:0|1:0,0:0:0:0:
374,374,89302,6,0,B|407:355|407:355|421:319,1,70,2|0,0:0|0:0,0:0:0:0:
447,220,89618,1,0,0:0:0:0:
208,277,89776,2,0,B|207:238|207:238|231:208,1,70,8|0,0:0|0:0,0:0:0:0:
262,198,90013,1,0,0:0:0:0:
299,204,90092,5,4,0:0:0:0:
121,321,90250,2,0,P|88:318|55:299,1,70,0|8,0:0|0:0,0:0:0:0:
305,310,90565,5,4,0:0:0:0:
100,148,90723,1,0,0:0:0:0:
220,378,90881,5,8,0:0:0:0:
185,80,91039,1,0,0:0:0:0:
198,300,91197,2,0,L|219:161,1,140,4|0,0:0|0:0,0:0:0:0:
242,130,91592,1,0,0:0:0:0:
280,125,91671,5,0,0:0:0:0:
417,220,91829,2,0,P|381:224|344:244,1,70
305,310,92144,5,0,0:0:0:0:
379,315,92302,1,0,0:0:0:0:
416,380,92460,1,0,0:0:0:0:
500,248,92618,6,0,L|511:158,1,83.9999974365235,4|0,0:2|0:0,0:0:0:0:
510,164,93092,1,0,0:0:0:0:
417,220,93250,1,2,0:3:0:0:
369,163,93408,2,0,P|370:142|379:120,1,41.9999987182618
430,110,93723,6,0,L|385:115,1,41.9999987182618,4|0,0:3|0:0,0:0:0:0:
320,71,94039,2,0,L|278:66,1,41.9999987182618,4|0,0:3|0:0,0:0:0:0:
278,66,94355,1,4,0:3:0:0:
228,168,94513,1,2,0:3:0:0:
152,84,94671,2,0,P|144:110|97:144,1,83.9999974365235
27,329,95144,6,0,L|14:243,1,83.9999974365235,4|4,0:2|0:3,0:0:0:0:
14,245,95618,1,0,0:0:0:0:
109,340,95776,2,0,P|130:315|135:263,1,83.9999974365235,2|0,0:3|0:0,0:0:0:0:
135,265,96250,6,0,P|164:273|177:283,1,41.9999987182618,4|0,0:3|0:0,0:0:0:0:
297,330,96565,1,4,0:3:0:0:
245,338,96723,2,0,P|263:327|283:322,1,41.9999987182618,0|2,0:0|1:3,0:0:0:0:
437,259,97039,1,0,0:0:0:0:
362,287,97197,2,0,B|356:262|356:262|359:238,2,41.9999987182618
437,259,97671,6,0,L|448:168,1,83.9999974365235,4|0,0:2|0:0,0:0:0:0:
447,175,98144,1,0,0:0:0:0:
359,118,98302,1,2,0:3:0:0:
413,61,98460,2,0,P|400:40|383:29,1,41.9999987182618
308,33,98776,6,0,P|305:53|294:71,1,41.9999987182618,4|0,0:3|0:0,0:0:0:0:
241,131,99092,2,0,P|230:149|227:169,1,41.9999987182618,4|0,0:3|0:0,0:0:0:0:
227,169,99408,1,4,0:3:0:0:
103,111,99565,1,2,0:3:0:0:
124,187,99723,2,0,P|95:190|42:159,1,83.9999974365235
7,235,100197,6,0,L|24:322,1,83.9999974365235,4|0,0:2|0:0,0:0:0:0:
23,317,100671,1,0,0:0:0:0:
142,273,100829,1,2,0:3:0:0:
105,343,100986,2,0,L|149:355,1,41.9999987182618
217,310,101302,6,0,B|244:286|244:286|365:274,1,140,4|0,0:2|0:0,0:0:0:0:
382,280,101697,1,0,0:0:0:0:
408,303,101776,1,0,0:0:0:0:
505,259,101934,5,0,0:0:0:0:
498,224,102013,1,0,0:0:0:0:
508,190,102092,1,0,0:0:0:0:
418,120,102250,5,0,0:0:0:0:
353,165,102409,1,0,0:0:0:0:
424,126,102565,1,0,0:0:0:0:
287,209,102723,6,0,B|202:201|255:161|148:156,1,140,4|8,0:0|0:0,0:0:0:0:
12,321,103355,2,0,P|53:327|84:313,1,70
148,269,103671,1,8,0:0:0:0:
22,113,103829,6,0,B|49:146|49:146|36:264,1,140,4|0,0:0|0:0,0:0:0:0:
207,150,104302,1,8,0:0:0:0:
211,354,104460,2,0,B|184:321|184:321|197:203,1,140
218,71,104934,2,0,P|258:79|282:103,1,70,8|0,0:0|0:0,0:0:0:0:
393,209,105250,6,0,P|352:217|328:241,1,70,4|0,0:0|0:0,0:0:0:0:
512,92,105565,2,0,P|498:60|470:39,1,70,8|0,0:0|0:0,0:0:0:0:
331,235,105881,5,0,0:0:0:0:
388,293,106039,1,0,0:0:0:0:
432,132,106197,1,8,0:0:0:0:
332,345,106355,2,4,B|408:353|384:304|470:315,1,140,4|0,0:0|0:0,0:0:0:0:
246,244,106829,1,8,0:0:0:0:
432,132,106986,1,0,0:0:0:0:
388,293,107144,1,0,0:0:0:0:
332,87,107302,1,0,0:0:0:0:
260,318,107460,2,0,P|221:315|182:298,1,70,8|0,0:0|0:0,0:0:0:0:
128,67,107776,6,0,L|139:207,1,140,4|8,0:0|0:0,0:0:0:0:
33,104,108408,1,0,0:0:0:0:
209,148,108565,1,0,0:0:0:0:
42,242,108723,1,8,0:0:0:0:
260,318,108881,6,0,B|230:294|230:294|129:307,1,140,4|0,0:0|0:0,0:0:0:0:
64,349,109355,1,8,0:0:0:0:
273,192,109513,2,0,P|309:194|343:211,1,70
386,281,109829,1,0,0:0:0:0:
209,148,109986,1,8,0:0:0:0:
260,318,110144,1,0,0:0:0:0:
348,114,110302,6,0,B|357:77|357:77|338:40,1,70,4|0,0:0|0:0,0:0:0:0:
163,217,110618,2,0,B|163:255|163:255|185:278,1,70,8|0,0:0|0:0,0:0:0:0:
268,74,110934,2,0,L|193:65,1,70,4|0,0:0|0:0,0:0:0:0:
124,56,111250,1,8,0:0:0:0:
16,184,111408,2,0,L|23:222,1,35
54,285,111565,5,4,0:0:0:0:
40,363,111723,1,0,0:0:0:0:
109,223,111881,1,8,0:0:0:0:
165,373,112039,1,0,0:0:0:0:
253,139,112197,1,0,0:0:0:0:
296,333,112355,1,8,0:0:0:0:
443,97,112513,1,8,0:0:0:0:
430,340,112671,1,0,0:0:0:0:
246,221,112829,6,0,B|323:215|294:268|379:261,1,140,4|8,0:0|0:0,0:0:0:0:
291,44,113302,2,0,P|274:65|269:76,2,35
500,133,113618,1,0,0:0:0:0:
360,181,113776,2,0,P|340:143|339:108,1,70,8|0,0:0|0:0,0:0:0:0:
386,48,114092,5,0,0:0:0:0:
495,299,114250,2,0,B|469:322|469:322|412:320,1,70,2|8,0:0|0:0,0:0:0:0:
242,270,114565,1,0,0:0:0:0:
441,242,114723,2,0,B|445:225|445:225|446:207,2,35,2|0|0,0:0|0:0|0:0,0:0:0:0:
327,372,115039,2,0,P|317:339|316:304,1,70,10|0,0:0|0:0,0:0:0:0:
225,147,115355,6,0,B|200:121|200:121|76:100,1,140,4|8,0:0|0:0,0:0:0:0:
242,270,115829,1,0,0:0:0:0:
341,155,115986,2,0,P|337:190|323:222,1,70
164,328,116302,2,0,P|149:296|146:262,1,70,8|0,0:0|0:0,0:0:0:0:
294,79,116618,6,0,B|332:60|332:60|433:79,1,140,0|8,0:0|0:0,0:0:0:0:
427,78,117092,1,0,0:0:0:0:
323,221,117250,1,2,0:0:0:0:
406,256,117408,1,0,0:0:0:0:
339,147,117565,2,0,L|261:154,1,70,10|0,0:0|0:0,0:0:0:0:
198,194,117802,1,0,0:0:0:0:
188,201,117881,6,0,L|205:59,1,140,4|8,0:0|0:0,0:0:0:0:
36,66,118355,2,0,L|52:205,1,140,2|0,0:0|0:0,0:0:0:0:
26,289,118829,2,0,B|14:323|14:323|23:360,1,70,10|0,0:0|0:0,0:0:0:0:
236,317,119144,6,0,B|172:323|172:323|154:318|154:318|98:322,1,140,4|8,0:0|0:0,0:0:0:0:
124,157,119618,2,0,B|180:161|180:161|198:156|198:156|263:162,1,140,2|0,0:0|0:0,0:0:0:0:
328,127,120092,2,0,B|341:163|341:163|330:197,1,70,10|0,0:0|0:0,0:0:0:0:
318,226,120329,1,0,0:0:0:0:
302,257,120408,6,0,L|317:332,1,70,4|0,0:0|0:0,0:0:0:0:
488,232,120723,1,8,0:0:0:0:
413,201,120881,2,0,L|411:277,1,70,2|0,0:0|0:0,0:0:0:0:
458,342,121197,1,2,0:0:0:0:
459,119,121355,2,0,P|436:92|400:79,1,70,8|0,0:0|0:0,0:0:0:0:
328,127,121671,5,6,0:0:0:0:
328,127,121829,1,0,0:0:0:0:
154,290,121986,2,0,P|111:280|82:258,1,70,8|10,0:0|0:0,0:0:0:0:
11,196,122302,5,0,0:0:0:0:
11,196,122460,1,2,0:0:0:0:
245,240,122618,1,8,0:0:0:0:
193,365,122776,1,8,0:0:0:0:
123,118,122934,6,0,P|146:89|249:69,1,140,4|8,0:0|0:0,0:0:0:0:
387,162,123408,2,0,P|407:157|423:146,2,35
304,129,123723,1,0,0:0:0:0:
365,257,123881,2,0,P|402:270|445:273,1,70,8|0,0:0|0:0,0:0:0:0:
503,249,124197,1,0,0:0:0:0:
283,211,124355,6,0,B|264:237|264:237|257:287,1,70,2|8,0:0|0:0,0:0:0:0:
250,373,124671,1,0,0:0:0:0:
215,156,124829,1,2,0:0:0:0:
340,339,124986,1,0,0:0:0:0:
155,222,125144,2,0,P|116:220|76:232,1,70,10|0,0:0|0:0,0:0:0:0:
37,369,125460,6,0,P|44:334|47:300,1,70,6|0,0:0|0:0,0:0:0:0:
0,99,125776,1,8,0:0:0:0:
86,211,125934,6,0,P|120:218|154:221,1,70,2|0,0:0|0:0,0:0:0:0:
356,174,126250,1,0,0:0:0:0:
303,69,126408,6,0,P|295:103|292:137,1,70,10|0,0:0|0:0,0:0:0:0:
340,339,126724,1,2,0:0:0:0:
340,339,126881,1,0,0:0:0:0:
461,218,127039,6,0,B|469:178|469:178|466:147|466:147|474:109,1,105,8|0,0:0|0:0,0:0:0:0:
481,80,127355,5,0,0:0:0:0:
467,78,127434,1,0,0:0:0:0:
453,76,127513,1,0,0:0:0:0:
439,74,127592,1,0,0:0:0:0:
404,81,127671,5,8,0:0:0:0:
479,348,127829,1,0,0:0:0:0:
479,348,127908,1,0,0:0:0:0:
479,348,127986,2,0,P|444:329|411:322,1,70,6|0,0:0|0:0,0:0:0:0:
192,318,128302,2,0,P|222:300|256:292,1,70,8|2,0:0|0:0,0:0:0:0:
452,225,128618,5,8,0:0:0:0:
177,243,128776,1,0,0:0:0:0:
462,223,128934,1,10,0:0:0:0:
279,158,129092,2,0,L|323:168,1,35
478,221,129250,6,0,P|490:184|492:152,1,70,14|0,0:0|0:0,0:0:0:0:
205,177,129565,2,0,P|193:140|191:108,1,70,8|2,0:0|0:0,0:0:0:0:
64,253,129881,1,8,0:0:0:0:
124,66,130039,1,0,0:0:0:0:
154,317,130197,1,10,0:0:0:0:
124,57,130355,2,0,L|118:93,1,35
65,342,130513,5,14,0:0:0:0:
207,258,130671,5,0,0:0:0:0:
207,258,130750,1,0,0:0:0:0:
207,258,130829,1,12,0:0:0:0:
344,366,130986,5,0,0:0:0:0:
344,366,131065,1,0,0:0:0:0:
344,366,131144,1,12,0:0:0:0:
414,139,131302,5,0,0:0:0:0:
414,139,131381,1,0,0:0:0:0:
414,139,131460,1,12,0:0:0:0:
506,302,131776,6,0,L|514:358,2,46.6666666666667
504,229,132092,5,0,0:0:0:0:
457,224,132197,1,0,0:0:0:0:
421,254,132302,1,0,0:0:0:0:
347,233,132408,6,0,B|347:209|347:209|355:177,2,46.6666666666667
433,328,132723,1,0,0:0:0:0:
320,322,132881,6,0,P|289:293|186:280,1,140,4|0,0:0|0:0,0:0:0:0:
34,353,133355,1,8,0:0:0:0:
34,353,133671,2,0,L|41:276,1,70
56,117,133986,1,8,0:0:0:0:
26,195,134144,6,0,B|106:210|90:169|166:181,1,140
233,241,134618,1,8,0:0:0:0:
177,63,134776,1,0,0:0:0:0:
365,114,134934,1,2,0:0:0:0:
267,151,135092,2,0,L|263:79,1,70
477,229,135408,6,2,B|440:236|440:236|409:223,1,70,6|0,0:0|0:0,0:0:0:0:
365,114,135723,1,0,0:0:0:0:
313,324,135881,1,8,0:0:0:0:
313,324,136197,2,0,L|230:333,1,70,2|0,0:0|0:0,0:0:0:0:
67,297,136513,1,8,0:0:0:0:
148,367,136671,6,2,L|164:219,1,140,0|0,0:0|0:0,0:0:0:0:
108,60,137144,2,0,B|96:72|96:72|117:66,1,35,8|0,0:0|0:0,0:0:0:0:
179,26,137302,2,2,B|193:36|208:41|208:41|224:31|244:29|244:29|262:39|281:42|281:42|295:36|315:33,1,140
380,74,137776,1,8,0:0:0:0:
256,281,137934,6,0,P|285:251|380:227,1,140,6|0,0:0|0:0,0:0:0:0:
485,282,138408,1,10,0:0:0:0:
407,355,138565,1,0,0:0:0:0:
414,143,138723,1,2,0:0:0:0:
508,197,138881,1,0,0:0:0:0:
377,226,139039,1,8,0:0:0:0:
373,40,139197,6,0,P|407:25|503:51,1,140,2|0,0:0|0:0,0:0:0:0:
505,53,139592,1,0,0:0:0:0:
510,59,139671,2,0,B|515:87|515:87|501:125,1,70,10|0,0:0|0:0,0:0:0:0:
377,226,139986,1,2,0:0:0:0:
414,143,140144,1,0,0:0:0:0:
441,319,140302,1,8,0:0:0:0:
324,157,140460,6,2,B|260:155|260:155|248:164|248:164|185:161,1,140,4|0,0:0|0:0,0:0:0:0:
259,271,140934,1,8,0:0:0:0:
259,271,141250,2,0,P|223:276|191:292,1,70
126,354,141565,1,8,0:0:0:0:
70,118,141723,6,2,P|111:108|189:169,1,140,0|2,0:0|0:0,0:0:0:0:
0,237,142197,2,0,P|-3:199|9:167,1,70,8|2,0:0|0:0,0:0:0:0:
212,235,142513,1,8,0:0:0:0:
34,309,142671,1,2,0:0:0:0:
140,323,142829,1,10,0:0:0:0:
70,118,142986,6,0,P|110:111|148:93,1,70,4|0,0:0|0:0,0:0:0:0:
197,47,143302,1,0,0:0:0:0:
134,243,143460,1,8,0:0:0:0:
134,243,143776,2,0,P|174:250|212:268,1,70
309,335,144092,1,8,0:0:0:0:
298,76,144250,6,2,B|271:113|271:113|284:208,1,140,0|2,0:0|0:0,0:0:0:0:
459,185,144723,1,8,0:0:0:0:
364,135,144881,2,0,L|383:273,1,140,2|0,0:0|0:0,0:0:0:0:
383,273,145355,1,8,0:0:0:0:
506,38,145513,6,0,L|513:-2,2,35,6|0|0,0:0|0:0|0:0,0:0:0:0:
489,154,145829,1,0,0:0:0:0:
489,154,145908,1,0,0:0:0:0:
489,154,145986,1,8,0:0:0:0:
384,56,146144,1,0,0:0:0:0:
292,215,146302,5,0,0:0:0:0:
459,186,146460,1,2,0:0:0:0:
364,136,146618,1,8,0:0:0:0:
338,345,146776,6,2,B|364:317|364:317|476:301,1,140,2|0,0:0|0:0,0:0:0:0:
464,302,147250,1,8,0:0:0:0:
257,366,147408,2,0,P|223:356|201:330,1,70,2|0,0:1|0:0,0:0:0:0:
0,329,147723,2,0,P|34:319|56:293,1,70,0|8,0:0|0:1,0:0:0:0:
68,219,148039,6,2,L|84:87,1,105,4|0,0:0|0:0,0:0:0:0:
92,39,148355,2,0,L|131:33,1,35
202,66,148513,5,8,0:0:0:0:
200,79,148592,1,0,0:0:0:0:
199,92,148671,2,0,L|192:139,1,35
267,285,148829,5,0,0:0:0:0:
269,269,148908,1,0,0:0:0:0:
270,253,148987,2,0,L|278:196,1,35
364,65,149144,5,8,0:0:0:0:
362,78,149223,1,0,0:0:0:0:
361,91,149302,2,0,L|354:138,1,35
452,330,149460,6,0,P|463:345|476:355,3,35,6|0|0|0,0:0|0:0|0:0|0:0,0:0:0:0:
502,232,149776,2,0,P|509:215|512:198,3,35,10|0|0|0,0:0|0:0|0:0|0:0,0:0:0:0:
393,239,150092,6,0,P|375:239|359:246,3,35,2|0|8|0,0:0|0:0|0:0|0:0,0:0:0:0:
453,331,150408,2,0,P|467:349|482:358,1,35,8|0,0:0|0:0,0:0:0:0:
427,120,150565,5,4,0:0:0:0:
273,303,150881,1,0,0:0:0:0:
273,303,151039,2,0,L|202:295,1,70,8|0,1:1|0:0,0:0:0:0:
168,291,151276,1,0,0:0:0:0:
168,291,151355,2,0,L|161:335,3,35,8|0|0|0,0:0|0:0|0:0|0:0,0:0:0:0:
86,243,151671,2,0,L|91:208,3,35,8|0|0|0,0:0|0:0|0:0|0:0,0:0:0:0:
35,314,151986,6,0,L|0:319,3,35
239,227,152302,2,0,L|273:232,3,35,8|0|0|0,0:0|0:0|0:0|0:0,0:0:0:0:
34,149,152618,2,0,L|-1:154,3,35
94,34,152934,1,8,0:0:0:0:
148,40,153013,1,0,0:0:0:0:
202,46,153092,1,0,0:0:0:0:
257,54,153171,1,0,0:0:0:0:
311,61,153250,6,0,B|335:92|335:92|326:132,1,70,4|0,0:0|0:0,0:0:0:0:
231,201,153565,1,8,0:0:0:0:
405,205,153723,2,0,B|381:236|381:236|340:237,1,70
212,124,154039,1,0,0:0:0:0:
179,306,154197,1,8,0:0:0:0:
70,200,154355,2,0,L|-3:208,1,70,2|0,0:0|0:0,0:0:0:0:
200,130,154671,1,2,0:0:0:0:
331,334,154829,2,0,P|368:332|404:311,1,70,8|2,0:0|0:0,0:0:0:0:
270,195,155144,1,0,0:0:0:0:
367,242,155302,5,0,0:0:0:0:
376,208,155380,1,0,0:0:0:0:
369,174,155459,1,8,0:0:0:0:
354,143,155538,1,0,0:0:0:0:
355,108,155617,1,8,0:0:0:0:
371,77,155696,1,0,0:0:0:0:
404,63,155776,6,0,L|480:51,1,70,4|0,0:0|0:0,0:0:0:0:
271,30,156092,1,8,0:0:0:0:
270,195,156250,2,0,L|346:207,1,70
128,76,156565,2,0,B|99:99|99:99|95:141,1,70,0|8,0:0|0:0,0:0:0:0:
251,192,156881,1,2,0:0:0:0:
41,212,157039,2,0,L|54:284,1,70,0|2,0:0|0:0,0:0:0:0:
212,368,157355,1,8,0:0:0:0:
251,192,157513,1,2,0:0:0:0:
289,321,157671,5,0,0:0:0:0:
302,322,157750,1,0,0:0:0:0:
315,323,157829,1,0,0:0:0:0:
328,324,157908,1,0,0:0:0:0:
355,344,157986,1,8,0:0:0:0:
389,346,158064,1,0,0:0:0:0:
422,335,158143,1,0,0:0:0:0:
449,312,158222,1,0,0:0:0:0:
465,281,158302,6,0,L|469:206,1,70,4|0,0:0|0:0,0:0:0:0:
470,59,158618,1,8,0:0:0:0:
365,231,158776,6,0,B|328:243|328:243|286:234,1,70
290,77,159092,2,0,B|327:65|327:65|369:74,1,70,0|8,0:0|0:0,0:0:0:0:
428,139,159408,1,2,0:0:0:0:
223,153,159565,5,0,0:0:0:0:
290,77,159723,1,2,0:0:0:0:
276,261,159881,2,0,L|202:252,1,70,8|2,0:0|0:0,0:0:0:0:
95,141,160197,1,0,0:0:0:0:
60,145,160275,1,0,0:0:0:0:
34,167,160354,1,0,0:0:0:0:
32,200,160433,1,0,0:0:0:0:
39,233,160513,1,8,0:0:0:0:
48,253,160591,1,0,0:0:0:0:
48,275,160670,1,0,0:0:0:0:
41,295,160749,1,0,0:0:0:0:
27,311,160829,6,0,B|63:307|63:307|90:327,1,70,4|0,0:0|0:0,0:0:0:0:
217,201,161144,1,8,0:0:0:0:
163,367,161302,2,0,L|239:357,1,70,0|4,0:0|0:0,0:0:0:0:
388,275,161618,1,0,0:0:0:0:
314,247,161776,2,0,B|303:285|303:285|322:332,1,70,8|2,0:0|0:0,0:0:0:0:
425,353,162092,5,12,0:0:0:0:
348,113,162250,1,10,0:0:0:0:
490,222,162408,1,8,0:0:0:0:
490,222,162486,1,0,0:0:0:0:
490,222,162565,1,2,0:0:0:0:
176,174,162723,5,8,0:0:0:0:
198,147,162801,1,0,0:0:0:0:
231,137,162880,1,0,0:0:0:0:
265,144,162959,1,0,0:0:0:0:
293,166,163039,1,8,0:0:0:0:
322,183,163117,1,0,0:0:0:0:
357,187,163196,1,0,0:0:0:0:
390,176,163275,1,0,0:0:0:0:
415,152,163355,6,0,B|432:111|432:111|424:64,1,87.5,6|0,0:0|0:0,0:0:0:0:
262,48,163671,1,8,0:0:0:0:
331,264,163829,2,0,L|322:355,1,87.5
73,260,164144,1,2,0:0:0:0:
236,234,164302,1,8,0:0:0:0:
61,263,164460,1,2,0:0:0:0:
169,334,164618,5,0,0:0:0:0:
169,334,164776,1,2,0:0:0:0:
127,97,164934,2,0,B|92:77|92:77|36:86,1,87.5,8|2,0:0|0:0,0:0:0:0:
149,174,165250,1,0,1:0:0:0:
188,157,165328,1,0,1:0:0:0:
211,120,165407,1,0,1:0:0:0:
209,77,165486,1,0,1:0:0:0:
199,35,165565,1,10,1:0:0:0:
230,64,165643,1,0,1:0:0:0:
271,78,165722,1,0,1:0:0:0:
314,74,165801,1,0,1:0:0:0:
352,52,165881,6,0,B|392:40|392:40|444:62,1,87.5,6|0,0:0|0:0,1:0:0:0:
236,234,166197,1,8,0:0:0:0:
474,130,166355,2,0,L|463:231,1,87.5
237,247,166671,1,2,0:0:0:0:
249,350,166828,1,8,0:0:0:0:
346,177,166986,1,2,0:0:0:0:
386,317,167144,5,0,0:0:0:0:
386,317,167302,1,2,0:0:0:0:
159,184,167460,2,0,B|125:211|125:211|129:257,1,87.5,8|2,0:0|0:0,0:0:0:0:
13,356,167776,1,0,1:0:0:0:
42,324,167854,1,0,1:0:0:0:
50,282,167933,1,0,1:0:0:0:
34,242,168012,1,0,1:0:0:0:
7,207,168092,1,10,1:0:0:0:
0,164,168170,1,0,1:0:0:0:
6,124,168249,1,0,1:0:0:0:
39,95,168328,1,0,1:0:0:0:
86,90,168408,6,0,B|128:94|128:94|130:97|130:97|176:101,1,87.5,6|0,0:0|0:0,1:0:0:0:
312,29,168723,1,8,0:0:0:0:
237,247,168881,2,0,L|329:235,1,87.5
324,30,169197,1,2,0:0:0:0:
414,41,169354,1,8,0:0:0:0:
265,145,169513,1,2,0:0:0:0:
472,143,169671,5,0,0:0:0:0:
323,235,169829,1,2,0:0:0:0:
445,339,169986,2,0,B|469:304|469:304|456:257,1,87.5,8|2,0:0|0:0,0:0:0:0:
322,88,170302,1,0,0:0:0:0:
283,68,170380,1,0,0:0:0:0:
240,71,170459,1,0,0:0:0:0:
204,95,170538,1,0,0:0:0:0:
182,133,170618,1,8,0:0:0:0:
205,169,170696,1,0,0:0:0:0:
216,211,170775,1,0,0:0:0:0:
213,255,170854,1,0,0:0:0:0:
197,295,170933,5,6,0:0:0:0:
90,92,171092,2,0,L|83:148,1,43.75
62,294,171250,1,12,0:0:0:0:
172,93,171408,2,0,L|179:148,1,43.75
197,295,171566,1,14,0:0:0:0:
249,73,171723,2,0,L|270:124,1,43.75
325,261,171881,1,12,0:0:0:0:
325,261,172092,6,0,B|301:239|301:239|271:234,2,58.3333333333333
374,324,172408,1,0,0:0:0:0:
374,324,172513,2,0,B|366:355|366:355|377:384,2,58.3333333333333
405,251,172829,5,0,0:0:0:0:
218,328,172986,1,0,0:0:0:0:
144,206,173144,1,0,0:0:0:0:
109,284,173302,1,0,0:0:0:0:
33,249,173460,6,0,L|22:159,1,83.9999974365235,4|0,0:2|0:0,0:0:0:0:
22,165,173934,1,0,0:0:0:0:
118,164,174092,1,2,0:3:0:0:
153,78,174250,2,0,L|149:37,1,41.9999987182618
196,100,174565,2,0,P|175:99|156:92,1,41.9999987182618,4|0,0:3|0:0,0:0:0:0:
222,15,174881,6,0,L|264:10,1,41.9999987182618,4|0,0:3|0:0,0:0:0:0:
263,10,175197,1,4,0:3:0:0:
296,104,175355,1,2,0:3:0:0:
248,181,175513,2,0,B|288:177|288:177|330:194,1,83.9999974365235
383,340,175986,6,0,P|362:315|357:263,1,83.9999974365235,4|0,0:2|0:0,0:0:0:0:
356,265,176460,1,0,0:0:0:0:
435,162,176618,2,0,L|447:245,1,83.9999974365235,2|0,0:3|0:0,0:0:0:0:
383,340,177092,2,0,L|338:335,1,41.9999987182618,4|0,0:3|0:0,0:0:0:0:
230,275,177407,5,4,0:3:0:0:
293,283,177565,2,0,P|275:294|255:299,1,41.9999987182618,0|4,0:0|0:2,0:0:0:0:
109,329,177881,1,0,0:0:0:0:
169,318,178039,2,0,B|144:312|120:315,2,41.9999987182618
196,239,178513,6,0,L|185:148,1,83.9999974365235,4|0,0:2|0:0,0:0:0:0:
185,155,178986,1,0,0:0:0:0:
265,129,179144,1,2,0:3:0:0:
218,53,179302,6,0,L|214:12,1,41.9999987182618,4|0,0:0|0:0,0:0:0:0:
308,42,179618,2,0,B|325:31|325:31|347:34,1,41.9999987182618,4|0,0:3|0:0,0:0:0:0:
417,109,179934,2,0,B|395:111|395:111|377:101,1,41.9999987182618,4|0,0:3|0:0,0:0:0:0:
378,102,180250,1,4,0:3:0:0:
446,31,180408,1,2,0:3:0:0:
473,160,180565,2,0,P|438:182|397:182,1,83.9999974365235
308,133,181039,6,0,B|286:170|286:170|279:216,1,83.9999974365235,4|0,0:2|0:0,0:0:0:0:
281,211,181513,1,0,0:0:0:0:
353,254,181671,1,2,0:3:0:0:
413,249,181829,2,0,P|395:260|375:265,1,41.9999987182618
159,198,182144,6,0,B|205:196|205:196|234:212|234:212|286:210,1,125.999996154785,0|8,0:0|0:0,0:0:0:0:
219,327,182618,1,0,0:0:0:0:
18,186,182776,2,0,B|71:180,1,31.4999990386963
241,82,182934,5,0,0:0:0:0:
159,198,183092,1,0,0:0:0:0:
305,272,183565,6,0,B|336:307|336:307|446:293,1,154.000004699707,4|8,0:0|0:0,0:0:0:0:
463,260,183960,1,0,0:0:0:0:
464,221,184039,1,0,0:0:0:0:
232,347,184197,1,0,0:0:0:0:
232,347,184355,1,0,0:0:0:0:
369,149,184513,1,8,0:0:0:0:
230,206,184671,6,0,P|172:219|109:142,1,154.000004699707,4|0,0:0|0:0,0:0:0:0:
117,119,185065,1,0,0:0:0:0:
136,85,185144,1,8,0:0:0:0:
232,347,185302,2,0,B|192:353|192:353|168:374|168:374|137:362|137:362|71:371,1,154.000004699707
225,167,185776,2,0,B|231:220,1,38.5000011749268,8|0,0:0|0:0,0:0:0:0:
232,347,185934,1,0,0:0:0:0:
33,197,186092,6,0,B|19:90|19:90|54:59,1,154.000004699707,4|8,0:0|0:0,0:0:0:0:
232,36,186565,1,0,0:0:0:0:
270,227,186723,2,0,P|196:235|149:178,1,154.000004699707,0|8,0:0|0:0,0:0:0:0:
79,30,187197,6,4,L|232:36,1,154.000004699707,4|0,0:0|0:0,0:0:0:0:
264,301,187671,1,8,0:0:0:0:
225,167,187829,1,0,0:0:0:0:
358,128,187986,1,0,0:0:0:0:
396,262,188144,1,0,0:0:0:0:
396,262,188223,1,0,0:0:0:0:
396,262,188302,2,0,L|341:246,1,38.5000011749268
264,301,188460,2,0,L|224:259,1,38.5000011749268
149,178,188618,6,0,B|114:209|114:209|128:319,1,154.000004699707,4|8,0:0|0:0,0:0:0:0:
161,336,189013,1,0,0:0:0:0:
200,337,189092,1,0,0:0:0:0:
281,210,189250,1,0,0:0:0:0:
114,115,189408,1,0,0:0:0:0:
114,115,189565,1,8,0:0:0:0:
351,97,189723,6,0,L|360:276,1,154.000004699707,4|0,0:0|0:0,0:0:0:0:
378,284,190118,1,0,0:0:0:0:
404,311,190197,2,0,P|384:351|324:373,1,77.0000023498536,8|0,0:0|0:0,0:0:0:0:
203,251,190513,1,0,0:0:0:0:
203,251,190671,1,0,0:0:0:0:
252,98,190829,1,8,0:0:0:0:
240,134,190907,1,0,0:0:0:0:
246,171,190986,1,0,0:0:0:0:
304,36,191144,6,0,P|361:22|424:99,1,154.000004699707,4|8,0:0|0:0,0:0:0:0:
415,123,191539,1,0,0:0:0:0:
389,152,191618,1,0,0:0:0:0:
166,61,191776,2,0,L|160:176,1,115.50000352478,4|0,0:0|0:0,0:0:0:0:
157,215,192092,2,0,P|122:199|84:203,1,77.0000023498536,8|0,0:0|0:0,0:0:0:0:
78,299,192408,6,0,P|108:313|147:316,1,38.5000011749268,4|0,0:0|0:0,0:0:0:0:
256,373,192565,2,0,P|224:361|195:336,1,38.5000011749268
109,178,192723,2,0,P|128:177|147:174,1,38.5000011749268,8|0,0:0|0:0,0:0:0:0:
324,268,192881,2,0,P|310:254|299:238,1,38.5000011749268
145,41,193039,2,0,P|161:31|177:20,1,38.5000011749268
405,150,193197,2,0,P|399:131|397:112,1,38.5000011749268
217,225,193355,1,8,0:0:0:0:
217,225,193434,1,0,0:0:0:0:
217,225,193513,2,0,L|241:179,1,38.5000011749268
271,14,193671,6,0,B|335:16|335:16|370:38|370:38|441:41,1,175,6|8,0:0|0:0,0:0:0:0:
321,174,194144,1,2,0:0:0:0:
321,174,194223,1,0,0:0:0:0:
321,174,194302,1,0,0:0:0:0:
93,30,194460,1,0,0:0:0:0:
177,8,194618,2,0,L|173:96,1,87.5,10|0,0:0|0:0,0:0:0:0:
480,112,194934,5,0,0:0:0:0:
234,190,195092,2,0,B|187:197|187:197|161:221|161:221|123:207|123:207|58:215,1,175,2|0,0:0|0:0,0:0:0:0:
87,107,195565,1,2,1:0:0:0:
173,96,195723,1,0,1:0:0:0:
82,92,195881,1,10,1:0:0:0:
475,216,196197,6,0,B|434:261|434:261|296:243,1,175,6|8,0:0|0:0,0:0:0:0:
232,232,196671,1,2,0:0:0:0:
63,74,196829,2,0,P|103:94|124:156,1,87.5
143,217,197145,1,10,0:0:0:0:
143,217,197302,1,0,0:0:0:0:
227,319,197460,6,0,L|231:231,1,87.5,0|2,0:0|0:0,0:0:0:0:
212,113,197776,2,0,L|215:157,1,43.75,8|0,0:0|0:0,0:0:0:0:
208,27,197934,1,0,0:0:0:0:
377,187,198092,2,0,P|357:227|295:248,1,87.5,2|0,0:0|0:0,0:0:0:0:
299,169,198408,1,10,0:0:0:0:
227,319,198565,2,0,L|230:363,1,43.75
76,152,198723,6,0,P|112:100|229:138,1,175,4|8,0:0|0:0,0:0:0:0:
231,231,199197,1,2,0:0:0:0:
126,293,199355,2,0,B|105:290|105:290|87:273,2,43.75
32,220,199671,1,10,0:0:0:0:
308,259,199829,1,0,0:0:0:0:
289,297,199908,1,0,0:0:0:0:
251,318,199986,5,6,0:0:0:0:
156,172,200144,1,0,0:0:0:0:
381,97,200302,2,0,L|376:184,1,87.5,8|2,0:0|0:0,0:0:0:0:
381,314,200618,1,0,0:0:0:0:
317,374,200776,1,0,0:0:0:0:
251,318,200934,1,10,0:0:0:0:
165,336,201092,1,0,0:0:0:0:
208,159,201250,6,0,B|272:161|272:161|307:183|307:183|376:185,1,175,6|8,0:0|0:0,0:0:0:0:
165,336,201723,1,2,0:0:0:0:
85,268,201881,2,0,P|97:227|131:200,1,87.5,0|2,0:0|0:0,0:0:0:0:
333,322,202197,2,0,P|291:332|250:317,1,87.5,8|0,0:0|0:0,0:0:0:0:
208,159,202513,5,6,0:0:0:0:
298,252,202671,1,0,0:0:0:0:
130,200,202829,2,0,B|109:197|109:197|91:180,2,43.75,8|0|2,0:0|0:0|0:0,0:0:0:0:
304,159,203145,1,0,0:0:0:0:
214,252,203303,1,2,0:0:0:0:
382,200,203461,2,0,B|403:197|403:197|421:180,2,43.75,8|0|8,0:0|0:0|0:0,0:0:0:0:
208,27,203776,6,0,B|161:34|161:34|135:58|135:58|97:44|97:44|32:52,1,175,6|8,0:0|0:0,0:0:0:0:
10,131,204250,2,0,B|52:121|52:121|93:136,1,87.5,2|0,0:0|0:0,0:0:0:0:
214,252,204565,1,0,0:0:0:0:
133,278,204723,2,0,B|91:288|91:288|50:273,1,87.5,10|0,0:0|0:0,0:0:0:0:
387,112,205039,5,0,0:0:0:0:
382,200,205197,2,0,L|377:287,1,87.5,2|8,0:0|0:0,0:0:0:0:
308,151,205513,2,0,L|264:148,2,43.75,0|0|2,0:0|0:0|0:0,0:0:0:0:
461,161,205829,1,0,0:0:0:0:
392,24,205986,1,10,0:0:0:0:
376,287,206144,1,0,0:0:0:0:
180,143,206302,6,0,B|222:133|222:133|263:148,1,87.5,6|0,0:0|0:0,0:0:0:0:
297,177,206539,1,0,0:0:0:0:
312,218,206618,1,8,0:0:0:0:
130,217,206776,2,0,P|89:168|156:65,1,175,2|0,0:0|0:0,0:0:0:0:
214,252,207250,1,10,0:0:0:0:
263,148,207408,1,0,0:0:0:0:
126,73,207565,6,0,P|168:64|208:82,1,87.5,2|0,0:0|0:0,0:0:0:0:
312,218,207881,1,8,0:0:0:0:
376,287,208039,1,0,0:0:0:0:
490,184,208197,1,0,0:0:0:0:
476,161,208275,1,0,0:0:0:0:
457,144,208354,1,0,0:0:0:0:
433,133,208433,1,0,0:0:0:0:
407,131,208513,1,8,0:0:0:0:
369,151,208591,1,0,0:0:0:0:
326,147,208670,1,0,0:0:0:0:
293,119,208749,1,0,0:0:0:0:
277,74,208829,6,0,B|235:64|235:64|194:79,1,87.5,14|0,0:0|0:0,0:0:0:0:
49,169,209144,2,0,B|91:179|91:179|132:164,1,87.5,8|2,0:0|0:0,0:0:0:0:
193,79,209460,2,0,B|210:95|210:95|231:98,2,43.75,8|0|0,0:0|0:0|0:0,0:0:0:0:
139,244,209776,1,10,0:0:0:0:
76,94,209934,1,0,0:0:0:0:
65,52,210013,1,0,0:0:0:0:
83,11,210092,5,14,0:0:0:0:
214,252,210250,1,0,0:0:0:0:
0,104,210408,1,8,0:0:0:0:
216,262,210565,1,2,0:0:0:0:
90,19,210723,1,8,0:0:0:0:
218,272,210881,1,0,0:0:0:0:
8,109,211039,1,10,0:0:0:0:
148,226,211196,1,0,0:0:0:0:
148,226,211276,1,0,0:0:0:0:
148,226,211355,6,0,P|164:176|206:146,1,96.2500009179115,14|0,0:0|0:0,0:0:0:0:
375,223,211671,2,0,P|324:233|276:212,1,96.2500009179115,12|0,0:0|0:0,0:0:0:0:
268,23,211986,1,12,0:0:0:0:
214,333,212144,2,0,L|216:280,1,48.1250004589558
197,149,212302,1,12,0:0:0:0:
400,109,212460,2,0,P|425:116|450:130,1,48.1250004589558
474,349,212618,5,12,0:0:0:0:
458,241,212776,1,0,0:0:0:0:
351,287,212934,1,8,0:0:0:0:
400,109,213092,1,0,0:0:0:0:
214,333,213250,5,8,0:0:0:0:
150,77,213408,1,8,0:0:0:0:
25,312,213565,1,8,0:0:0:0:
86,26,213723,6,0,P|143:1|203:16,1,125.999996154785,4|0,0:0|0:0,0:0:0:0:
197,139,214197,1,8,0:0:0:0:
197,139,214355,1,2,0:2:0:0:
37,78,214513,2,0,P|31:109|38:140,1,62.9999980773926
132,250,214829,1,8,0:0:0:0:
132,250,214986,1,2,0:2:0:0:
34,306,215144,6,0,L|38:220,1,62.9999980773926
90,162,215460,1,8,0:0:0:0:
188,169,215618,1,2,1:0:0:0:
230,257,215776,2,0,P|260:262|291:255,1,62.9999980773926,0|2,0:0|0:0,0:0:0:0:
354,192,216092,1,8,0:0:0:0:
182,332,216250,6,0,B|241:353|241:353|314:329,1,125.999996154785,4|0,0:0|0:0,0:0:0:0:
358,184,216723,1,8,0:0:0:0:
358,184,216881,1,2,0:2:0:0:
370,271,217039,2,0,P|380:300|402:322,1,62.9999980773926
362,176,217355,1,8,0:0:0:0:
280,142,217513,6,0,P|249:136|218:143,1,62.9999980773926,2|0,0:0|0:0,0:0:0:0:
87,217,217829,2,0,P|117:222|148:215,1,62.9999980773926,2|8,0:0|0:0,0:0:0:0:
119,71,218144,2,0,L|116:133,1,62.9999980773926,2|0,0:0|0:0,0:0:0:0:
249,225,218460,1,10,0:0:0:0:
249,225,218618,1,8,0:0:0:0:
268,23,218776,6,0,B|314:21|314:21|343:37|343:37|395:35,1,125.999996154785,4|0,0:0|0:0,0:0:0:0:
447,116,219250,1,8,0:0:0:0:
412,209,219408,2,0,P|388:229|358:237,1,62.9999980773926,2|0,0:2|0:0,0:0:0:0:
451,108,219723,1,0,0:0:0:0:
360,51,219881,2,0,L|357:113,1,62.9999980773926,8|2,0:0|0:2,0:0:0:0:
314,200,220197,5,0,0:0:0:0:
357,113,220355,1,0,0:0:0:0:
245,252,220513,1,8,0:0:0:0:
284,331,220671,1,2,0:0:0:0:
176,200,220828,1,0,0:0:0:0:
209,129,220986,2,0,L|212:67,1,62.9999980773926,10|8,0:0|0:0,0:0:0:0:
360,51,221302,6,0,P|414:94|422:168,1,125.999996154785,4|0,0:0|0:0,0:0:0:0:
386,226,221776,1,8,0:0:0:0:
386,226,221934,1,2,0:2:0:0:
508,124,222092,2,0,L|510:186,1,62.9999980773926
468,268,222408,1,8,0:0:0:0:
391,319,222565,1,2,0:2:0:0:
391,319,222644,1,0,0:0:0:0:
391,319,222723,6,0,L|359:317,1,31.4999990386963
212,319,222881,2,0,L|243:317,1,31.4999990386963
375,179,223040,2,0,L|340:177,1,31.4999990386963
184,229,223198,2,0,L|213:210,1,31.4999990386963
322,42,223355,2,0,L|287:40,1,31.4999990386963
133,149,223513,2,0,L|148:118,1,31.4999990386963
178,8,223671,2,0,L|192:35,1,31.4999990386963
270,168,223829,6,0,B|329:189|329:189|402:165,1,125.999996154785,4|0,0:0|0:0,0:0:0:0:
502,92,224302,1,8,0:0:0:0:
502,92,224460,1,2,0:2:0:0:
504,203,224618,2,0,L|506:265,1,62.9999980773926
385,331,224934,2,0,P|403:305|429:289,1,62.9999980773926,8|2,0:0|0:2,0:0:0:0:
511,362,225250,5,0,0:0:0:0:
511,362,225408,1,0,0:0:0:0:
381,323,225565,2,0,P|399:297|425:281,1,62.9999980773926,8|2,0:0|0:0,0:0:0:0:
503,358,225881,1,0,0:0:0:0:
505,199,226039,1,2,0:0:0:0:
437,159,226197,1,8,0:0:0:0:
304,269,226355,6,0,B|350:267|350:267|379:283|379:283|431:281,1,125.999996154785,4|0,0:0|0:0,0:0:0:0:
278,197,226829,2,0,P|250:212|232:238,1,62.9999980773926,8|2,0:0|0:2,0:0:0:0:
317,328,227144,2,0,P|317:296|303:268,1,62.9999980773926
242,314,227460,1,8,0:0:0:0:
232,238,227618,6,0,L|230:176,1,62.9999980773926,2|0,0:0|0:0,0:0:0:0:
140,286,227934,2,0,L|171:285,2,31.4999990386963,2|0|8,0:0|0:0|0:0,0:0:0:0:
160,208,228250,2,0,L|159:177,1,31.4999990386963,2|0,0:0|0:0,0:0:0:0:
192,35,228408,1,0,0:0:0:0:
236,224,228565,1,10,0:0:0:0:
328,101,228723,1,8,0:0:0:0:
232,238,228881,6,0,P|250:212|344:204,1,125.999996154785,4|0,0:0|0:0,0:0:0:0:
305,331,229355,2,0,L|303:269,1,62.9999980773926,8|2,0:0|0:2,0:0:0:0:
243,384,229671,1,0,0:0:0:0:
243,384,229829,1,0,0:0:0:0:
171,284,229986,2,0,P|148:261|118:251,1,62.9999980773926,8|2,0:0|0:2,0:0:0:0:
49,297,230302,5,0,0:0:0:0:
293,271,230460,1,0,0:0:0:0:
34,155,230619,1,8,0:0:0:0:
229,175,230777,1,0,0:0:0:0:
19,54,230934,1,0,0:0:0:0:
166,39,231092,1,10,0:0:0:0:
229,175,231250,1,8,0:0:0:0:
197,107,231408,6,0,B|257:87|257:87|316:108,1,125.999996154785,4|0,0:0|0:0,0:0:0:0:
242,234,231881,2,0,P|228:206|229:175,1,62.9999980773926,8|2,0:0|0:2,0:0:0:0:
316,108,232197,1,0,0:0:0:0:
419,151,232355,1,0,0:0:0:0:
433,261,232513,1,8,0:0:0:0:
299,361,232671,6,0,B|253:363|253:363|224:347|224:347|172:349,1,125.999996154785,4|0,0:0|0:0,0:0:0:0:
91,185,233144,6,0,L|90:216,1,31.4999990386963,8|0,0:0|0:0,0:0:0:0:
52,309,233302,1,0,0:0:0:0:
258,200,233461,5,0,0:0:0:0:
238,213,233539,1,0,0:0:0:0:
216,224,233618,1,0,0:0:0:0:
201,181,233696,1,0,0:0:0:0:
205,136,233775,1,0,0:0:0:0:
226,93,233854,1,0,0:0:0:0:
262,65,233934,6,0,P|312:99|386:81,1,140,6|2,0:0|0:0,0:0:0:0:
181,27,234408,2,0,L|178:101,1,70,8|2,0:0|0:0,0:0:0:0:
452,193,234723,1,0,0:0:0:0:
262,65,234881,1,2,0:0:0:0:
89,216,235039,1,8,0:0:0:0:
279,344,235197,6,0,P|339:332|373:276,1,105,6|0,0:0|0:0,0:0:0:0:
367,265,235513,6,0,L|365:227,1,35,14|0,0:0|0:0,0:0:0:0:
385,81,235671,1,8,0:0:0:0:
89,216,235829,6,0,B|84:232|84:232|91:249,2,35,6|0|0,0:0|0:0|0:0,0:0:0:0:
181,27,236144,5,6,0:0:0:0:
147,26,236223,1,0,0:0:0:0:
116,40,236301,1,0,0:0:0:0:
167,306,236460,6,0,B|209:339|256:314|256:314|306:357|359:362|416:358|454:305|454:305|424:267|391:255|346:270,1,420.000016021729,2|2,0:1|2:0,0:0:0:0:
