osu file format v14

[General]
AudioFilename: audio.mp3
AudioLeadIn: 0
PreviewTime: 163118
Countdown: 0
SampleSet: Normal
StackLeniency: 0.7
Mode: 0
LetterboxInBreaks: 0
WidescreenStoryboard: 1

[Editor]
Bookmarks: 62302,122934,183565,236618
DistanceSpacing: 0.3
BeatDivisor: 4
GridSize: 8
TimelineZoom: 1.1

[Metadata]
Title:Hoshi no Utsuwa ~ Casket of Star
TitleUnicode:星の器 ~ Casket of Star
Artist:Demetori
ArtistUnicode:Demetori
Creator:Uniform
Version:Lunatic
Source:東方幻想郷 ~ Lotus Land Story
Tags:happy30 MikasaSerket Flake Vessel of Stars Kirisame Marisa le Grimoire De reve zun 東方幻想郷 Lotus Land Story 4 Scarlet Weather Rhapsody SWR 東方project touhou project ZUN instrumental metal
BeatmapID:2538081
BeatmapSetID:1220050

[Difficulty]
HPDrainRate:5
CircleSize:4
OverallDifficulty:7
ApproachRate:9
SliderMultiplier:1.3
SliderTickRate:1

[Events]
//Background and Video events
0,0,"maxresdefault (1).jpg",0,0
//Break Periods
2,92818,100552
2,173660,181394
//Storyboard Layer 0 (Background)
//Storyboard Layer 1 (Fail)
//Storyboard Layer 2 (Pass)
//Storyboard Layer 3 (Foreground)
//Storyboard Layer 4 (Overlay)
//Storyboard Sound Samples

[TimingPoints]
408,315.789473684211,4,1,1,60,1,0
31986,-100,4,1,1,75,0,1
52197,-100,4,1,1,67,0,0
62302,-99.9999999999999,4,1,1,67,0,0
71302,-95.2380952380952,4,1,1,67,0,0
71460,-90.9090909090909,4,1,1,67,0,0
71618,-86.9565217391304,4,1,1,67,0,0
71776,-83.3333333333333,4,1,1,67,0,0
72408,-99.9999999999999,4,1,1,75,0,1
92618,-166.666666666667,4,1,1,45,0,0
101302,-100,4,1,1,67,0,0
127986,-100,4,1,1,67,0,1
132881,-100,4,1,1,67,0,0
163355,-80,4,1,1,82,0,1
173460,-166.666666666667,4,1,1,45,0,0
182144,-100,4,1,1,60,0,0
183565,-100,4,1,1,75,0,0
193671,-100,4,1,1,67,0,0
208829,-80,4,1,1,75,0,1
211355,-72.7272727272727,4,1,1,83,0,1
213723,-100,4,1,1,66,0,0
233934,-100,4,1,1,82,0,0
236460,-66.6666666666667,4,1,1,83,0,0
236539,-66.6666666666667,4,2,1,83,0,0
237013,-66.6666666666667,4,2,1,83,0,0
237092,-66.6666666666667,4,2,1,30,0,0

[Colours]
Combo1 : 187,186,228
Combo2 : 206,152,26
Combo3 : 253,236,115
Combo4 : 192,117,217
Combo5 : 223,223,223
Combo6 : 249,187,238
Combo7 : 83,96,210

[HitObjects]
455,242,1197,5,0,0:0:0:0:
455,242,1355,1,0,0:0:0:0:
490,318,1513,6,0,B|454:345|454:345|360:334,1,130,4|0,0:0|0:0,0:0:0:0:
361,182,1986,2,0,P|367:218|370:261,1,65,8|2,0:0|0:2,0:0:0:0:
277,154,2302,1,0,0:0:0:0:
277,154,2460,1,0,0:0:0:0:
239,229,2618,2,0,P|232:265|229:308,1,65,8|2,0:0|0:2,0:0:0:0:
132,177,2934,6,0,P|158:159|190:161,1,65
102,247,3250,2,0,P|73:232|58:204,1,65,8|2,0:0|1:0,0:0:0:0:
96,43,3565,1,0,0:0:0:0:
132,177,3723,1,2,0:0:0:0:
181,92,3881,1,8,0:0:0:0:
47,128,4039,6,0,B|54:187|54:187|59:195|59:195|66:255,1,130,4|0,0:0|0:0,0:0:0:0:
158,348,4513,2,0,P|125:344|94:339,1,65,8|2,0:0|0:2,0:0:0:0:
66,255,4829,1,0,0:0:0:0:
66,255,4987,1,0,0:0:0:0:
205,207,5145,2,0,P|172:211|141:217,1,65,8|2,0:0|0:2,0:0:0:0:
226,288,5460,5,0,0:0:0:0:
226,288,5618,1,0,0:0:0:0:
265,150,5776,1,8,0:0:0:0:
325,209,5934,2,0,B|357:207|357:207|382:185,2,65,2|0|2,0:0|0:0|0:0,0:0:0:0:
418,108,6408,1,8,0:0:0:0:
477,272,6565,6,0,P|415:261|368:303,1,130,4|0,0:0|0:0,0:0:0:0:
271,355,7039,2,0,P|274:322|280:290,1,65,8|2,0:0|0:2,0:0:0:0:
145,180,7355,1,0,0:0:0:0:
145,180,7513,1,0,0:0:0:0:
182,254,7671,2,0,P|188:286|192:319,1,65,8|2,0:0|0:2,0:0:0:0:
228,184,7986,5,0,0:0:0:0:
228,184,8144,1,0,0:0:0:0:
99,250,8302,1,8,0:0:0:0:
99,250,8460,1,2,0:0:0:0:
116,108,8618,2,0,L|52:101,2,65,0|2|8,0:0|0:0|0:0,0:0:0:0:
182,254,9092,6,0,B|107:248|130:303|59:295,1,130,4|0,0:0|0:0,0:0:0:0:
189,183,9565,2,0,P|225:195|249:228,1,65,8|2,0:0|0:2,0:0:0:0:
176,330,9881,1,0,0:0:0:0:
176,330,10039,1,0,0:0:0:0:
194,177,10197,2,0,P|230:189|254:222,1,65,8|2,0:0|0:2,0:0:0:0:
302,297,10513,6,0,P|304:281|305:265,3,32.5
384,232,10829,2,0,P|378:216|371:202,3,32.5,0|0|2|0,0:0|0:0|0:0|0:0,0:0:0:0:
397,125,11144,5,0,0:0:0:0:
386,143,11222,1,0,0:0:0:0:
370,158,11301,1,2,0:0:0:0:
350,167,11380,1,0,0:0:0:0:
329,169,11459,1,0,0:0:0:0:
308,165,11538,1,0,0:0:0:0:
289,156,11618,6,0,B|292:128|292:128|312:98|312:98|300:64|300:64|303:33,1,130,4|0,0:0|0:0,0:0:0:0:
151,138,12092,2,0,P|173:160|204:169,1,65,8|2,0:0|0:2,0:0:0:0:
214,19,12408,1,0,0:0:0:0:
214,19,12566,1,0,0:0:0:0:
146,144,12724,2,0,P|168:166|199:175,1,65,8|2,0:0|0:2,0:0:0:0:
70,100,13039,6,0,P|64:131|61:164,1,65
119,283,13355,1,8,0:0:0:0:
119,283,13513,1,2,1:0:0:0:
156,209,13671,2,0,P|152:176|146:144,1,65,0|2,0:0|0:0,0:0:0:0:
61,164,13986,1,8,0:0:0:0:
60,337,14144,6,0,B|96:364|96:364|190:353,1,130,4|0,0:0|0:0,0:0:0:0:
287,267,14618,2,0,P|254:271|223:276,1,65,8|2,0:0|0:2,0:0:0:0:
228,152,14934,1,0,0:0:0:0:
228,152,15092,1,0,0:0:0:0:
302,189,15250,2,0,P|333:195|366:199,1,65,8|2,0:0|0:2,0:0:0:0:
269,108,15565,6,0,P|241:124|225:152,1,65
345,118,15881,2,0,P|344:85|329:57,1,65,8|2,0:0|0:0,0:0:0:0:
171,10,16196,1,0,0:0:0:0:
270,109,16354,1,2,0:0:0:0:
171,108,16512,1,8,0:0:0:0:
72,107,16671,6,0,B|79:166|79:166|84:174|84:174|91:234,1,130,4|0,0:0|0:0,0:0:0:0:
240,215,17144,2,0,P|204:209|161:206,1,65,8|2,0:0|0:2,0:0:0:0:
268,299,17460,1,0,0:0:0:0:
268,299,17618,1,0,0:0:0:0:
193,337,17776,2,0,P|157:344|114:347,1,65,8|2,0:0|0:2,0:0:0:0:
324,233,18092,6,0,P|357:237|388:242,1,65
345,98,18408,2,0,P|365:124|383:149,1,65,10|0,0:0|0:0,0:0:0:0:
455,17,18723,2,0,P|450:49|445:80,1,65,0|2,0:0|0:0,0:0:0:0:
316,6,19039,1,8,0:0:0:0:
236,128,19197,6,0,P|282:86|344:97,1,130,4|0,0:0|0:0,0:0:0:0:
266,265,19671,2,0,P|269:232|275:200,1,65,8|2,0:0|0:2,0:0:0:0:
150,228,19987,1,0,0:0:0:0:
150,228,20145,1,0,0:0:0:0:
187,302,20303,2,0,P|193:334|197:367,1,65,8|2,0:0|0:2,0:0:0:0:
75,198,20618,6,0,P|91:170|118:154,1,65,8|8,0:0|0:0,0:0:0:0:
149,146,20855,1,8,0:0:0:0:
180,155,20934,1,8,0:0:0:0:
266,265,21092,2,8,P|264:248|261:232,2,32.5
329,194,21408,1,8,0:0:0:0:
290,103,21565,1,8,0:0:0:0:
367,31,21723,1,8,0:0:0:0:
446,152,21881,6,0,B|371:146|394:201|323:193,1,130,4|8,0:1|0:0,0:0:0:0:
452,80,22355,2,0,P|483:89|506:112,1,65
261,225,22671,2,0,P|253:194|262:163,1,65,0|8,0:0|0:0,0:0:0:0:
280,301,22986,6,0,B|252:304|252:304|222:324|222:324|188:312|188:312|157:315,1,130,2|0,0:0|0:0,0:0:0:0:
63,222,23460,2,0,B|90:242|90:242|153:234,1,97.5,10|0,0:0|0:0,0:0:0:0:
173,221,23776,2,0,P|174:204|177:188,1,32.5
265,116,23934,2,0,P|267:131|269:148,1,32.5
193,94,24092,1,8,0:0:0:0:
206,65,24170,1,0,0:0:0:0:
232,45,24249,1,0,0:0:0:0:
264,38,24328,1,0,0:0:0:0:
295,47,24408,6,0,B|354:54|354:54|362:59|362:59|422:66,1,130,4|8,0:0|0:0,0:0:0:0:
399,207,24881,2,0,P|402:175|408:143,1,65
492,115,25197,1,0,0:0:0:0:
492,115,25355,1,8,0:0:0:0:
451,289,25513,6,0,P|404:247|342:258,1,130,2|0,0:0|0:0,0:0:0:0:
287,380,25986,2,0,P|283:347|277:315,1,65,10|0,0:0|0:0,0:0:0:0:
212,208,26302,1,2,0:0:0:0:
212,208,26381,1,0,0:0:0:0:
212,208,26460,2,0,P|209:223|207:240,1,32.5
125,333,26618,1,8,0:0:0:0:
125,333,26697,1,0,0:0:0:0:
125,333,26776,2,0,P|122:317|120:300,1,32.5
132,165,26934,6,0,B|57:159|80:214|8:203,1,130,4|8,0:0|0:0,0:0:0:0:
78,95,27408,2,0,P|42:107|18:140,1,65
207,198,27723,2,0,P|214:165|205:134,1,65,0|8,0:0|0:0,0:0:0:0:
151,27,28039,6,0,B|178:30|178:30|208:50|208:50|242:38|242:38|273:41,1,130,2|0,0:0|0:0,0:0:0:0:
287,124,28513,2,0,B|314:103|314:103|377:111,1,97.5,10|0,0:0|0:0,0:0:0:0:
397,125,28829,2,0,P|398:141|401:157,1,32.5,2|0,0:0|0:0,0:0:0:0:
321,252,28986,2,0,P|322:235|325:219,1,32.5
393,274,29145,1,8,0:0:0:0:
380,303,29223,1,0,0:0:0:0:
353,323,29302,1,0,0:0:0:0:
321,330,29381,1,0,0:0:0:0:
289,323,29460,6,0,P|261:306|245:279,1,65,6|0,0:0|0:0,0:0:0:0:
272,176,29776,1,8,0:0:0:0:
166,197,29934,2,0,P|133:199|100:205,1,65,0|6,0:0|0:0,0:0:0:0:
133,102,30250,1,0,0:0:0:0:
224,141,30407,1,8,0:0:0:0:
296,64,30565,1,0,0:0:0:0:
331,220,30723,6,0,P|358:203|374:176,1,65,6|0,0:0|0:0,0:0:0:0:
383,145,30960,1,0,0:0:0:0:
374,115,31039,1,10,0:0:0:0:
489,89,31197,2,0,P|473:86|456:84,2,32.5,0|0|10,0:0|0:0|0:0,0:0:0:0:
454,162,31513,5,0,0:0:0:0:
388,28,31671,1,8,0:0:0:0:
305,152,31829,6,0,B|246:159|246:159|238:164|238:164|178:171,1,130,4|0,0:0|0:0,0:0:0:0:
130,49,32302,2,0,P|157:64|173:92,1,65,8|0,0:0|0:0,0:0:0:0:
180,249,32618,1,0,0:0:0:0:
103,121,32776,1,0,0:0:0:0:
252,118,32934,1,8,0:0:0:0:
401,115,33092,6,0,P|403:82|409:50,1,65,2|0,0:0|0:1,0:0:0:0:
282,202,33408,2,0,P|268:172|252:144,1,65,2|8,0:0|1:0,0:0:0:0:
401,289,33723,2,0,P|424:266|448:245,1,65,2|0,0:0|0:0,0:0:0:0:
282,376,34039,1,0,0:0:0:0:
282,376,34197,1,8,0:0:0:0:
372,202,34355,1,0,0:0:0:0:
372,202,34434,1,0,0:0:0:0:
372,202,34513,5,4,0:0:0:0:
257,289,34671,1,0,0:0:0:0:
372,202,34829,1,8,0:0:0:0:
201,217,34986,6,0,B|182:234|182:234|172:314|172:314|185:335,1,130,4|0,0:0|0:0,0:0:0:0:
372,202,35460,1,8,0:0:0:0:
235,131,35618,6,0,P|189:172|127:162,1,130,4|0,0:0|0:0,0:0:0:0:
300,21,36092,2,0,P|305:52|307:85,1,65,8|0,0:0|0:0,0:0:0:0:
193,35,36408,1,0,0:0:0:0:
135,143,36565,1,0,0:0:0:0:
39,56,36723,1,8,0:0:0:0:
125,161,36881,6,0,B|50:155|73:210|2:202,1,130,4|0,0:0|0:0,0:0:0:0:
186,322,37355,2,0,B|188:301|188:301|203:279|203:279|194:253|194:253|196:230,1,97.5,8|0,0:0|0:0,0:0:0:0:
190,212,37671,1,0,0:0:0:0:
101,360,37829,1,0,0:0:0:0:
52,283,37986,1,8,0:0:0:0:
186,322,38144,6,0,P|218:316|251:315,1,65,2|0,0:0|0:2,0:0:0:0:
280,166,38460,2,0,P|308:182|338:196,1,65,2|8,0:0|1:0,0:0:0:0:
380,362,38776,2,0,P|401:337|424:315,1,65,2|0,0:0|0:0,0:0:0:0:
512,196,39091,1,0,0:0:0:0:
512,196,39249,1,8,0:0:0:0:
338,286,39407,1,0,0:0:0:0:
338,286,39486,1,0,0:0:0:0:
338,286,39565,5,4,0:0:0:0:
173,180,39723,1,0,0:0:0:0:
280,166,39881,1,8,0:0:0:0:
259,344,40039,6,0,B|295:371|295:371|389:360,1,130,4|0,0:0|0:0,0:0:0:0:
280,166,40513,1,8,0:0:0:0:
173,296,40671,6,0,B|114:303|114:303|106:308|106:308|46:315,1,130,4|0,0:0|0:0,0:0:0:0:
45,160,41144,2,0,B|104:167|104:167|112:172|112:172|172:179,1,130,8|0,0:0|0:0,0:0:0:0:
258,52,41618,1,0,0:0:0:0:
242,25,41696,1,0,0:0:0:0:
214,9,41775,1,8,0:0:0:0:
249,137,41935,1,0,0:0:0:0:
281,136,42013,1,0,0:0:0:0:
309,120,42092,6,0,B|330:107|330:107|410:117|410:117|427:136,1,130,4|8,0:0|0:0,0:0:0:0:
344,305,42565,1,0,0:0:0:0:
463,207,42723,1,0,0:0:0:0:
344,305,42881,1,0,0:0:0:0:
257,182,43039,1,8,0:0:0:0:
208,284,43197,6,0,P|162:243|100:253,2,130,2|2|2,0:0|0:0|0:0,0:0:0:0:
280,262,43986,1,0,0:0:0:0:
280,262,44144,1,0,0:0:0:0:
146,380,44302,2,0,P|140:348|139:315,1,65,8|0,0:0|0:0,0:0:0:0:
138,315,44539,1,0,0:0:0:0:
138,315,44618,5,4,0:0:0:0:
113,151,44776,1,0,0:0:0:0:
113,151,44934,1,8,0:0:0:0:
297,145,45092,6,0,B|222:139|245:194|174:186,1,130,4|0,0:0|0:0,0:0:0:0:
207,72,45565,1,8,0:0:0:0:
388,86,45723,6,0,B|385:117|385:117|397:151|397:151|377:181|377:181|374:208,1,130,4|0,0:0|0:0,0:0:0:0:
288,252,46197,2,0,P|282:220|281:187,1,65,8|0,0:0|0:0,0:0:0:0:
364,308,46513,2,0,P|362:340|356:372,2,65,0|0|8,0:0|0:0|0:0,0:0:0:0:
501,263,46986,6,0,B|474:227|474:227|483:142,1,130,4|0,0:0|0:0,0:0:0:0:
451,16,47460,2,0,P|478:31|494:59,1,65,8|0,0:0|0:0,0:0:0:0:
296,71,47776,1,0,0:0:0:0:
418,92,47934,1,0,0:0:0:0:
357,6,48092,1,8,0:0:0:0:
338,159,48250,6,0,P|306:153|273:152,1,65,2|0,0:0|0:2,0:0:0:0:
244,3,48566,2,0,P|216:19|186:33,1,65,2|8,0:0|1:0,0:0:0:0:
144,199,48881,2,0,P|122:174|99:152,1,65,2|0,0:0|0:0,0:0:0:0:
167,280,49197,1,0,0:0:0:0:
99,152,49355,1,8,0:0:0:0:
91,314,49513,1,0,0:0:0:0:
107,342,49592,1,0,0:0:0:0:
135,359,49670,5,4,0:0:0:0:
97,234,49829,1,0,0:0:0:0:
224,263,49986,1,8,0:0:0:0:
351,292,50144,6,0,B|344:233|344:233|339:225|339:225|332:165,1,130,4|8,0:0|0:0,0:0:0:0:
224,263,50618,1,0,0:0:0:0:
163,113,50776,6,0,B|180:94|180:94|260:84|260:84|281:97,1,130,4|0,0:0|0:0,0:0:0:0:
209,16,51250,2,0,P|240:10|273:8,1,65,8|0,0:0|0:0,0:0:0:0:
286,183,51565,1,0,0:0:0:0:
318,187,51643,1,0,0:0:0:0:
350,191,51722,1,0,0:0:0:0:
383,195,51801,1,0,0:0:0:0:
415,198,51880,1,8,0:0:0:0:
487,114,52039,2,0,P|486:97|484:82,1,32.5
411,104,52197,6,0,B|336:110|359:55|288:63,1,130,4|8,0:0|0:0,0:0:0:0:
417,175,52671,2,0,P|454:162|478:129,1,65
226,31,52987,2,0,P|218:62|227:93,1,65,8|0,0:0|0:0,0:0:0:0:
296,176,53302,6,0,B|268:179|268:179|238:199|238:199|204:187|204:187|173:190,1,130,10|0,0:0|0:0,0:0:0:0:
44,317,53776,2,0,B|71:337|71:337|134:329,1,97.5,10|0,0:0|0:0,0:0:0:0:
154,316,54092,2,0,P|155:299|158:283,1,32.5,2|0,0:0|0:0,0:0:0:0:
246,211,54250,2,0,P|248:226|250:243,1,32.5
174,189,54408,1,0,0:0:0:0:
187,160,54486,1,0,0:0:0:0:
213,140,54565,1,0,0:0:0:0:
245,133,54644,1,0,0:0:0:0:
276,142,54723,6,0,B|335:149|335:149|343:154|343:154|403:161,1,130,4|8,0:0|0:0,0:0:0:0:
436,267,55197,2,0,P|442:299|446:332,1,65
363,216,55513,1,8,0:0:0:0:
363,216,55671,1,0,0:0:0:0:
283,331,55829,6,0,P|236:373|174:362,1,130,10|0,0:0|0:0,0:0:0:0:
119,240,56302,2,0,P|115:273|109:305,1,65,10|0,0:0|0:0,0:0:0:0:
196,206,56618,1,2,0:0:0:0:
196,206,56697,1,0,0:0:0:0:
196,206,56776,2,0,P|199:221|201:238,1,32.5
283,331,56934,1,0,0:0:0:0:
283,331,57013,1,0,0:0:0:0:
283,331,57092,2,0,P|286:315|288:298,1,32.5
276,163,57250,6,0,B|351:157|328:212|399:204,1,130,4|8,0:0|0:0,0:0:0:0:
329,96,57724,2,0,P|365:108|389:141,1,65
207,194,58039,2,0,P|199:162|207:131,1,65,8|0,0:0|0:0,0:0:0:0:
259,27,58355,6,0,B|232:30|232:30|202:50|202:50|168:38|168:38|137:41,1,130,10|0,0:0|0:0,0:0:0:0:
114,152,58829,2,0,B|87:131|87:131|24:139,1,97.5,10|0,0:0|0:0,0:0:0:0:
4,153,59145,2,0,P|3:169|0:185,1,32.5,2|0,0:0|0:0,0:0:0:0:
80,280,59302,2,0,P|79:263|76:247,1,32.5
8,302,59461,1,0,0:0:0:0:
21,331,59539,1,0,0:0:0:0:
48,351,59618,1,0,0:0:0:0:
80,358,59697,1,0,0:0:0:0:
112,351,59776,6,0,P|140:334|156:307,1,65,4|0,0:0|0:0,0:0:0:0:
201,196,60092,1,8,0:0:0:0:
264,353,60250,2,0,P|247:351|231:348,2,32.5
298,257,60566,1,8,0:0:0:0:
389,296,60723,1,0,0:0:0:0:
461,219,60881,1,8,0:0:0:0:
370,180,61039,6,0,P|343:163|327:136,1,65,4|0,0:0|0:0,0:0:0:0:
318,105,61276,1,0,0:0:0:0:
327,75,61355,1,6,0:0:0:0:
212,48,61513,2,0,P|227:46|244:44,1,32.5
184,156,61671,1,6,0:0:0:0:
163,159,61749,1,0,0:0:0:0:
143,155,61828,1,0,0:0:0:0:
127,144,61907,1,0,0:0:0:0:
107,138,61986,1,0,0:0:0:0:
89,144,62064,1,0,0:0:0:0:
74,159,62143,1,0,0:0:0:0:
67,178,62222,1,0,0:0:0:0:
65,199,62302,6,0,B|140:193|117:248|188:240,1,130,4|8,0:0|0:0,0:0:0:0:
249,210,62776,2,0,P|257:240|250:272,1,65
4,159,63092,2,0,P|27:136|58:128,1,65,8|0,0:0|0:0,0:0:0:0:
182,240,63408,6,0,B|154:243|154:243|124:263|124:263|90:251|90:251|59:254,1,130,8|0,0:0|0:0,0:0:0:0:
260,119,63881,2,0,B|240:146|240:146|248:209,1,97.5,10|0,0:0|0:0,0:0:0:0:
261,229,64197,2,0,P|278:230|294:233,1,32.5,2|0,0:0|0:0,0:0:0:0:
366,321,64355,2,0,P|351:323|334:325,1,32.5
388,249,64513,1,0,0:0:0:0:
417,262,64591,1,0,0:0:0:0:
437,288,64670,1,0,0:0:0:0:
444,320,64749,1,0,0:0:0:0:
442,352,64829,6,0,B|449:293|449:293|454:285|454:285|461:225,1,130,4|8,0:0|0:0,0:0:0:0:
356,195,65302,2,0,P|364:225|387:248,1,65
456,68,65619,2,0,P|424:60|393:68,1,65,8|0,0:0|0:0,0:0:0:0:
206,102,65934,6,0,B|241:129|241:129|325:119,1,130,8|0,0:0|0:0,0:0:0:0:
222,15,66408,2,0,B|176:0|176:0|129:17,1,97.5,10|0,0:0|0:0,0:0:0:0:
117,27,66724,1,2,0:0:0:0:
106,44,66802,1,0,0:0:0:0:
104,65,66881,1,0,0:0:0:0:
108,85,66960,1,0,0:0:0:0:
117,103,67039,1,0,0:0:0:0:
120,122,67118,1,0,0:0:0:0:
112,141,67197,1,0,0:0:0:0:
105,161,67276,1,0,0:0:0:0:
97,180,67355,6,0,P|143:221|205:211,1,130,4|8,0:0|0:0,0:0:0:0:
209,66,67829,2,0,P|203:98|199:131,1,65
292,39,68145,1,8,0:0:0:0:
292,39,68303,1,0,0:0:0:0:
322,119,68460,6,0,P|328:151|332:184,1,65,8|2,0:0|0:0,0:0:0:0:
199,130,68776,1,0,0:0:0:0:
292,39,68934,2,0,P|323:33|356:29,1,65,10|0,0:0|0:0,0:0:0:0:
134,33,69250,5,2,0:0:0:0:
111,30,69328,1,0,0:0:0:0:
89,26,69407,1,0,0:0:0:0:
67,22,69486,1,0,0:0:0:0:
44,19,69565,2,0,P|45:36|48:52,1,32.5
130,150,69723,2,0,P|132:135|134:118,1,32.5
38,198,69881,6,0,B|25:219|25:219|35:299|35:299|54:316,1,130,4|8,0:0|0:0,0:0:0:0:
230,342,70355,2,0,B|155:336|178:391|107:383,1,130
281,280,70829,1,8,0:0:0:0:
290,288,70908,1,0,0:0:0:0:
299,298,70987,1,0,0:0:0:0:
305,309,71066,1,0,0:0:0:0:
311,321,71144,6,0,P|313:336|315:353,1,32.5,4|0,0:0|0:0,0:0:0:0:
369,253,71302,2,0,P|382:263|396:273,1,34.1249989585877
360,163,71460,2,0,P|378:160|396:157,1,35.7500010910034
291,105,71618,2,0,P|301:90|312:75,1,37.3750007128716
200,112,71776,2,0,P|197:93|193:74,7,38.9999988098145,0|0|0|0|0|0|0|0,0:0|0:0|0:0|0:0|2:0|0:0|0:0|0:0,0:0:0:0:
288,159,72408,6,0,B|281:100|281:100|276:92|276:92|269:32,1,130,4|8,0:0|0:0,0:0:0:0:
167,8,72881,2,0,P|140:23|124:51,1,65
76,173,73197,1,0,0:0:0:0:
194,80,73355,1,8,0:0:0:0:
46,86,73513,6,0,P|44:52|38:20,1,65,2|0,0:0|0:2,0:0:0:0:
166,173,73828,2,0,P|180:143|196:115,1,65,2|8,0:0|1:0,0:0:0:0:
47,259,74144,2,0,P|24:237|0:215,1,65,2|0,0:0|0:0,0:0:0:0:
166,347,74459,1,0,0:0:0:0:
166,347,74617,1,8,0:0:0:0:
76,173,74776,1,0,0:0:0:0:
76,173,74854,1,0,0:0:0:0:
76,173,74933,5,4,0:0:0:0:
200,193,75093,1,0,0:0:0:0:
113,78,75251,1,8,0:0:0:0:
128,249,75408,6,0,B|145:268|145:268|225:278|225:278|246:265,1,130,4|0,0:0|0:0,0:0:0:0:
354,283,75882,1,8,0:0:0:0:
309,162,76040,6,0,P|263:203|201:193,1,130,4|0,0:0|0:0,0:0:0:0:
129,85,76513,2,0,P|131:117|137:150,1,65,8|0,0:0|0:0,0:0:0:0:
244,136,76829,1,0,0:0:0:0:
192,42,76987,1,0,0:0:0:0:
310,1,77145,1,8,0:0:0:0:
192,42,77303,6,0,B|267:48|244:-7|315:1,1,130,4|0,0:0|0:0,0:0:0:0:
33,22,77777,2,0,B|35:43|35:43|50:65|50:65|41:91|41:91|43:114,1,97.5,8|0,0:0|0:0,0:0:0:0:
37,132,78093,1,0,0:0:0:0:
142,188,78251,1,0,0:0:0:0:
65,237,78408,1,8,0:0:0:0:
49,344,78566,6,0,P|80:338|113:336,1,65,2|0,0:0|0:2,0:0:0:0:
142,188,78882,2,0,P|170:204|200:218,1,65,2|8,0:0|1:0,0:0:0:0:
242,384,79197,2,0,P|264:359|287:337,1,65,2|0,0:0|0:0,0:0:0:0:
374,218,79513,1,0,0:0:0:0:
374,218,79671,1,8,0:0:0:0:
200,308,79829,1,0,0:0:0:0:
200,308,79908,1,0,0:0:0:0:
200,308,79987,5,4,0:0:0:0:
299,253,80145,1,0,0:0:0:0:
234,167,80303,1,8,0:0:0:0:
286,337,80461,6,0,B|322:364|322:364|416:353,1,130,4|0,0:0|0:0,0:0:0:0:
234,167,80935,1,8,0:0:0:0:
200,308,81093,6,0,B|141:315|141:315|133:320|133:320|73:327,1,130,4|0,0:0|0:0,0:0:0:0:
65,334,81460,6,0,P|66:344|68:355,4,21.6666666666667,0|0|8|0|0,0:0|0:0|0:0|0:0|0:0,0:0:0:0:
10,188,81880,2,0,P|5:166|2:145,1,43.3333333333333
51,83,82091,2,0,P|71:89|91:98,1,43.3333333333333
121,171,82302,2,0,P|104:185|87:198,1,43.3333333333333
139,260,82514,6,0,B|160:273|160:273|240:263|240:263|257:244,1,130,4|8,0:0|0:0,0:0:0:0:
174,75,82987,1,0,0:0:0:0:
293,173,83145,1,0,0:0:0:0:
174,75,83303,1,0,0:0:0:0:
87,198,83461,1,8,0:0:0:0:
104,41,83619,6,0,P|150:0|212:10,2,130,2|2|2,0:0|0:0|0:0,0:0:0:0:
32,21,84408,1,0,0:0:0:0:
32,21,84566,1,0,0:0:0:0:
166,139,84724,2,0,P|172:107|173:74,1,65,8|0,0:0|0:0,0:0:0:0:
174,74,84961,1,0,0:0:0:0:
174,74,85040,5,4,0:0:0:0:
247,139,85196,1,0,0:0:0:0:
367,54,85354,1,8,0:0:0:0:
250,12,85513,6,0,B|325:6|302:61|373:53,1,130,4|0,0:0|0:0,0:0:0:0:
314,196,85987,1,8,0:0:0:0:
466,104,86145,6,0,B|463:135|463:135|475:169|475:169|455:199|455:199|452:226,1,130,4|0,0:0|0:0,0:0:0:0:
512,363,86619,2,0,P|479:361|448:356,1,65,8|0,0:0|0:0,0:0:0:0:
327,288,86935,2,0,P|359:282|392:280,2,65,0|0|8,0:0|0:0|0:0,0:0:0:0:
452,225,87408,6,0,B|416:198|416:198|331:207,1,130,4|0,0:0|0:0,0:0:0:0:
208,171,87882,2,0,P|223:198|251:214,1,65,8|0,0:0|0:0,0:0:0:0:
124,178,88198,1,0,0:0:0:0:
284,138,88356,1,0,0:0:0:0:
124,178,88514,1,8,0:0:0:0:
165,39,88672,6,0,P|159:71|158:104,1,65,2|0,0:0|0:2,0:0:0:0:
8,133,88986,2,0,P|25:161|39:191,1,65,2|8,0:0|1:0,0:0:0:0:
205,233,89303,2,0,P|180:255|158:278,1,65,2|0,0:0|0:0,0:0:0:0:
135,359,89619,1,0,0:0:0:0:
182,142,89777,1,8,0:0:0:0:
91,314,89935,1,0,0:0:0:0:
107,342,90014,1,0,0:0:0:0:
135,359,90092,5,4,0:0:0:0:
303,265,90251,1,0,0:0:0:0:
158,277,90408,1,8,0:0:0:0:
284,138,90566,6,0,B|291:198|291:198|296:206|296:206|303:265,1,130,4|8,0:0|0:0,0:0:0:0:
363,84,91040,1,0,0:0:0:0:
232,25,91198,6,0,B|249:6|249:6|329:-4|329:-4|350:9,1,130,4|0,0:0|0:0,0:0:0:0:
349,8,91592,1,0,0:0:0:0:
349,8,91671,1,0,0:0:0:0:
256,192,91829,2,0,P|250:159|248:127,1,65
354,255,92145,1,0,0:0:0:0:
454,229,92303,1,0,0:0:0:0:
499,150,92461,1,0,0:0:0:0:
500,72,92618,5,4,0:2:0:0:
114,105,101302,6,0,P|160:64|222:74,1,130,4|0,0:2|0:0,0:0:0:0:
234,93,101697,1,0,0:0:0:0:
234,93,101776,2,0,P|229:124|227:157,1,65
226,157,102013,1,0,0:0:0:0:
226,157,102092,1,0,0:0:0:0:
226,238,102250,1,0,0:0:0:0:
304,264,102408,1,0,0:0:0:0:
351,198,102565,1,0,0:0:0:0:
304,132,102723,6,0,B|379:126|356:181|427:173,1,130,4|8,0:0|0:0,0:0:0:0:
479,121,103197,1,0,0:0:0:0:
451,242,103355,2,0,P|478:227|494:199,1,65
479,121,103671,1,8,0:0:0:0:
351,198,103829,6,0,B|358:258|358:258|363:266|363:266|370:325,1,130,4|0,0:0|0:0,0:0:0:0:
304,264,104302,1,8,0:0:0:0:
233,315,104460,2,0,B|211:329|211:329|131:319|131:319|114:301,1,130
181,245,104934,1,8,0:0:0:0:
181,245,105092,1,0,0:0:0:0:
126,136,105250,6,0,P|93:141|61:143,1,65,4|0,0:0|0:0,0:0:0:0:
239,124,105565,2,0,P|271:125|303:131,1,65,8|0,0:0|0:0,0:0:0:0:
368,33,105881,2,0,B|332:60|332:60|238:49,1,130,0|8,0:0|0:0,0:0:0:0:
121,26,106355,6,4,B|91:28|91:28|57:16|57:16|27:36|27:36|-1:39,1,130,4|0,0:0|0:0,0:0:0:0:
247,50,106829,1,8,0:0:0:0:
149,137,106986,1,0,0:0:0:0:
149,137,107065,1,0,0:0:0:0:
149,137,107144,2,0,P|164:165|192:181,1,65
290,94,107460,2,0,P|274:65|246:49,1,65,8|0,0:0|0:0,0:0:0:0:
152,243,107776,6,0,P|213:254|261:212,1,130,4|8,0:0|0:0,0:0:0:0:
290,94,108250,1,0,0:0:0:0:
366,187,108408,1,0,0:0:0:0:
462,115,108565,1,0,0:0:0:0:
366,187,108723,1,8,0:0:0:0:
324,30,108881,6,0,B|346:16|346:16|426:26|426:26|443:44,1,130,4|0,0:0|0:0,0:0:0:0:
376,100,109355,1,8,0:0:0:0:
481,242,109513,2,0,B|474:182|474:182|469:174|469:174|462:115,1,130
410,271,109986,2,0,P|425:299|453:315,1,65,8|0,0:0|0:0,0:0:0:0:
366,187,110302,6,0,B|291:181|314:236|243:228,2,130,4|8|4,0:0|0:0|0:0,0:0:0:0:
410,271,111092,1,0,0:0:0:0:
352,344,111250,2,0,P|319:339|287:337,1,65,8|0,0:0|0:0,0:0:0:0:
287,337,111486,1,0,0:0:0:0:
287,337,111565,5,4,0:0:0:0:
248,228,111723,1,0,0:0:0:0:
184,358,111881,1,8,0:0:0:0:
233,215,112039,1,0,0:0:0:0:
410,271,112197,5,0,0:0:0:0:
376,100,112355,1,8,0:0:0:0:
248,228,112513,1,8,0:0:0:0:
293,57,112671,1,0,0:0:0:0:
441,157,112829,6,0,B|426:174|426:174|346:184|346:184|324:170,1,130,4|8,0:0|0:0,0:0:0:0:
209,99,113302,2,0,P|241:101|273:105,2,65
116,198,113776,2,0,P|146:190|169:167,1,65,8|0,0:0|0:0,0:0:0:0:
33,132,114092,5,0,0:0:0:0:
9,221,114250,2,0,P|5:253|3:286,2,65,2|8|0,0:0|0:0|0:0,0:0:0:0:
98,69,114723,1,2,0:0:0:0:
116,198,114881,1,0,0:0:0:0:
127,62,115039,1,10,0:0:0:0:
145,191,115197,1,0,0:0:0:0:
304,137,115355,6,0,B|268:110|268:110|174:121,1,130,4|8,0:0|0:0,0:0:0:0:
380,188,115829,2,0,B|378:158|378:158|390:124|390:124|370:94|370:94|367:66,1,130
321,234,116302,2,0,P|343:256|374:264,1,65,8|0,0:0|0:0,0:0:0:0:
452,372,116618,5,0,0:0:0:0:
373,261,116776,1,0,0:0:0:0:
452,372,116934,2,0,P|449:339|445:307,1,65,8|0,0:0|0:0,0:0:0:0:
297,362,117250,2,0,P|329:359|361:355,1,65,2|0,0:0|0:0,0:0:0:0:
256,288,117565,2,0,P|223:283|191:281,1,65,10|0,0:0|0:0,0:0:0:0:
121,175,117802,1,0,0:0:0:0:
121,175,117881,6,0,P|182:164|230:206,1,130,4|8,0:0|0:0,0:0:0:0:
378,111,118355,2,0,B|356:97|356:97|276:107|276:107|259:125,1,130,2|0,0:0|0:0,0:0:0:0:
333,245,118829,2,0,L|325:180,1,65,10|0,0:0|0:0,0:0:0:0:
416,265,119144,6,0,L|400:135,1,130,4|8,0:0|0:0,0:0:0:0:
331,297,119618,2,0,B|256:291|279:346|208:338,1,130,2|0,0:0|0:0,0:0:0:0:
119,241,120092,2,0,P|150:248|173:270,1,65,10|0,0:0|0:0,0:0:0:0:
134,338,120408,1,4,0:0:0:0:
256,192,120565,12,0,121512,0:0:0:0:
143,171,121671,6,0,P|190:169|228:199,1,97.5,6|0,0:0|0:0,0:0:0:0:
227,215,121986,2,0,P|228:231|230:247,2,32.5,8|0|10,0:0|0:0|0:0,0:0:0:0:
391,268,122302,2,0,P|343:266|305:296,1,97.5
307,312,122618,2,0,P|305:328|305:344,2,32.5,8|0|8,0:0|0:0|0:0,0:0:0:0:
455,210,122934,6,0,B|440:193|440:193|360:183|360:183|338:197,1,130,4|8,0:0|0:0,0:0:0:0:
376,108,123407,2,0,P|408:110|440:114,2,65
274,11,123881,2,0,P|304:19|327:42,1,65,8|0,0:0|0:0,0:0:0:0:
210,153,124197,5,0,0:0:0:0:
186,64,124355,2,0,P|182:32|180:-1,2,65,2|8|0,0:0|0:0|0:0,0:0:0:0:
107,152,124828,1,2,0:0:0:0:
89,23,124986,1,0,0:0:0:0:
78,159,125144,1,10,0:0:0:0:
60,30,125302,1,0,0:0:0:0:
78,159,125460,6,0,B|114:186|114:186|208:175,1,130,6|8,0:0|0:0,0:0:0:0:
2,108,125934,2,0,B|4:138|4:138|-8:172|-8:172|12:202|12:202|15:230,1,130,2|0,0:0|0:0,0:0:0:0:
61,62,126407,2,0,P|39:40|8:32,1,65,10|0,0:0|0:0,0:0:0:0:
14,229,126723,6,0,P|62:231|100:201,1,97.5,2|0,0:0|0:0,0:0:0:0:
98,185,127039,2,0,P|100:169|101:151,2,32.5,8|0|0,0:0|0:0|0:0,0:0:0:0:
191,106,127355,1,0,0:0:0:0:
223,108,127433,1,0,0:0:0:0:
250,124,127512,1,0,0:0:0:0:
276,143,127591,1,0,0:0:0:0:
308,147,127670,1,8,0:0:0:0:
307,36,127829,2,0,P|304:51|302:68,1,32.5
433,132,127986,6,0,P|410:108|379:100,1,65,6|0,0:0|0:0,0:0:0:0:
304,231,128302,2,0,P|326:254|357:262,1,65,8|2,0:0|0:0,0:0:0:0:
429,216,128618,1,8,0:0:0:0:
308,147,128776,1,0,0:0:0:0:
429,216,128934,1,10,0:0:0:0:
308,147,129092,2,0,L|279:163,1,32.5
204,228,129250,6,0,P|200:196|199:164,2,65,14|0|8,0:0|0:0|0:0,0:0:0:0:
149,303,129723,1,2,0:0:0:0:
117,108,129881,2,0,P|116:140|112:173,2,65,8|0|10,0:0|0:0|0:0,0:0:0:0:
44,238,130355,2,0,L|47:270,1,32.5
30,124,130513,6,0,P|26:92|24:59,1,65,14|0,0:0|0:0,0:0:0:0:
35,48,130750,1,0,0:0:0:0:
35,48,130829,2,0,P|64:35|96:39,1,65,12|0,0:0|0:0,0:0:0:0:
234,92,131144,2,0,P|238:60|240:27,1,65,12|0,0:0|0:0,0:0:0:0:
229,16,131381,1,0,0:0:0:0:
229,16,131460,2,0,P|199:3|167:7,1,65,12|0,0:0|0:0,0:0:0:0:
245,176,131776,6,0,P|249:197|254:218,2,43.3333333333333
359,67,132092,2,0,P|338:59|317:53,2,43.3333333333333
393,219,132409,2,0,P|409:205|426:191,2,43.3333333333333
332,154,132723,1,0,0:0:0:0:
325,252,132881,6,0,P|372:293|434:283,1,130,4|0,0:0|0:0,0:0:0:0:
222,213,133355,2,0,L|230:278,1,65,8|0,0:0|0:0,0:0:0:0:
294,334,133671,2,0,B|279:351|279:351|199:361|199:361|177:347,1,130,0|8,0:0|0:0,0:0:0:0:
93,314,134144,6,0,L|109:184,1,130
192,151,134618,2,0,P|223:143|246:121,1,65,8|0,0:0|0:0,0:0:0:0:
341,219,134934,2,0,P|309:211|286:189,2,65,2|0|0,0:0|0:0|0:0,0:0:0:0:
466,105,135408,6,2,B|391:99|414:154|343:146,1,130,6|0,0:0|0:0,0:0:0:0:
306,6,135881,2,0,L|314:71,1,65,8|0,0:0|0:0,0:0:0:0:
246,121,136197,1,2,0:0:0:0:
158,54,136355,1,0,0:0:0:0:
58,96,136513,1,8,0:0:0:0:
144,161,136671,6,2,L|128:291,1,130,0|0,0:0|0:0,0:0:0:0:
220,336,137144,1,8,0:0:0:0:
278,235,137302,2,2,P|245:235|218:252,2,65,2|0|2,0:0|0:0|0:0,0:0:0:0:
208,349,137776,1,8,0:0:0:0:
327,312,137934,6,0,B|363:285|363:285|457:296,1,130,6|0,0:0|0:0,0:0:0:0:
366,182,138408,2,0,L|374:247,1,65,10|0,0:0|0:0,0:0:0:0:
278,235,138723,1,2,0:0:0:0:
198,121,138881,1,0,0:0:0:0:
278,235,139039,1,8,0:0:0:0:
198,121,139197,6,0,B|195:149|195:149|175:179|175:179|187:213|187:213|185:243,1,130,2|0,0:0|0:0,0:0:0:0:
182,262,139592,1,0,0:0:0:0:
179,283,139671,2,0,L|171:348,1,65,10|0,0:0|0:0,0:0:0:0:
49,246,139986,2,0,P|78:234|110:240,1,65,2|0,0:0|0:0,0:0:0:0:
10,328,140302,1,8,0:0:0:0:
11,184,140460,6,2,P|70:160|133:172,1,130,4|0,0:0|0:0,0:0:0:0:
210,269,140934,2,0,L|218:204,1,65,8|0,0:0|0:0,0:0:0:0:
228,122,141250,2,0,P|255:105|288:106,2,65,0|0|8,0:0|0:0|0:0,0:0:0:0:
344,174,141723,6,2,B|366:188|366:188|446:178|446:178|461:161,1,130,0|2,0:0|0:0,0:0:0:0:
389,40,142197,2,0,L|397:105,1,65,8|2,0:0|0:0,0:0:0:0:
286,125,142513,1,8,0:0:0:0:
183,86,142671,1,2,0:0:0:0:
147,190,142829,1,10,0:0:0:0:
288,106,142986,6,0,B|363:100|340:155|411:147,1,130,4|0,0:0|0:0,0:0:0:0:
448,7,143460,2,0,L|440:72,1,65,8|0,0:0|0:0,0:0:0:0:
491,165,143775,1,0,0:0:0:0:
425,234,143933,1,0,0:0:0:0:
440,342,144091,1,8,0:0:0:0:
311,276,144250,6,2,B|275:249|275:249|181:260,1,130,0|2,0:0|0:0,0:0:0:0:
142,343,144723,2,0,P|157:337|173:336,1,32.5,8|0,0:0|0:0,0:0:0:0:
257,348,144881,2,0,B|285:351|285:351|315:371|315:371|349:359|349:359|379:361,1,130,2|0,0:0|0:0,0:0:0:0:
363,258,145355,1,8,0:0:0:0:
480,356,145513,6,0,L|464:226,1,130,6|0,0:0|0:0,0:0:0:0:
461,208,145907,1,0,0:0:0:0:
459,190,145986,1,8,0:0:0:0:
512,98,146144,1,0,0:0:0:0:
449,25,146302,2,0,P|416:25|389:42,1,65,0|2,0:0|0:0,0:0:0:0:
306,164,146618,1,8,0:0:0:0:
276,75,146776,6,2,P|274:42|268:10,1,65,2|0,0:0|0:0,0:0:0:0:
396,162,147092,2,0,P|409:132|425:104,1,65,0|8,0:0|0:0,0:0:0:0:
277,248,147407,2,0,P|253:225|229:203,1,65,2|0,0:1|0:0,0:0:0:0:
140,266,147723,1,0,0:0:0:0:
129,163,147881,1,8,0:1:0:0:
118,60,148039,6,2,P|180:70|227:29,1,130,4|0,0:0|0:0,0:0:0:0:
231,33,148434,1,0,0:0:0:0:
234,36,148513,2,0,P|236:51|237:68,1,32.5,8|0,0:0|0:0,0:0:0:0:
305,117,148671,2,0,P|303:132|302:149,1,32.5
195,146,148829,2,0,P|197:161|198:178,1,32.5
342,230,148986,2,0,P|340:245|339:262,1,32.5
175,272,149144,2,0,P|177:287|178:304,1,32.5,8|0,0:0|0:0,0:0:0:0:
274,318,149302,6,0,B|289:335|289:335|369:345|369:345|391:331,1,130
346,197,149776,2,0,L|338:262,1,65,10|0,0:0|0:0,0:0:0:0:
427,203,150092,1,2,0:0:0:0:
424,178,150170,1,0,0:0:0:0:
414,156,150249,1,8,0:0:0:0:
398,138,150328,1,0,0:0:0:0:
377,125,150407,1,8,0:0:0:0:
264,181,150565,6,0,B|189:175|212:230|141:222,1,130,4|0,0:0|0:0,0:0:0:0:
64,304,151039,1,8,1:1:0:0:
64,144,151197,2,0,L|64:112,1,32.5
64,224,151355,2,0,P|47:224|31:227,3,32.5,8|0|0|0,0:0|0:0|0:0|0:0,0:0:0:0:
143,305,151671,2,0,P|159:305|175:308,3,32.5,8|0|0|0,0:0|0:0|0:0|0:0,0:0:0:0:
254,231,151986,6,0,P|256:247|257:263,3,32.5
337,292,152302,2,0,P|334:308|333:324,3,32.5,8|0|0|0,0:0|0:0|0:0|0:0,0:0:0:0:
416,263,152618,2,0,P|418:246|419:230,3,32.5
486,158,152934,5,8,0:0:0:0:
454,121,153012,1,0,0:0:0:0:
408,108,153091,1,0,0:0:0:0:
362,123,153170,1,0,0:0:0:0:
332,160,153250,6,0,B|257:154|280:209|209:201,1,130,4|8,0:0|0:0,0:0:0:0:
195,63,153723,2,0,P|226:72|249:95,1,65
122,94,154039,2,0,P|114:63|123:32,1,65,0|8,0:0|0:0,0:0:0:0:
181,142,154355,6,0,B|153:145|153:145|123:165|123:165|89:153|89:153|55:157,1,130,2|2,0:0|0:0,0:0:0:0:
22,257,154828,2,0,B|49:237|49:237|112:245,1,97.5,8|0,0:0|0:0,0:0:0:0:
132,258,155144,2,0,P|133:275|136:291,1,32.5
240,299,155302,2,0,P|238:315|235:331,1,32.5
314,271,155460,1,8,0:0:0:0:
301,242,155538,1,0,0:0:0:0:
275,222,155617,1,8,0:0:0:0:
243,215,155696,1,0,0:0:0:0:
212,224,155776,6,0,B|219:164|219:164|224:156|224:156|231:97,1,130,4|8,0:0|0:0,0:0:0:0:
308,24,156250,2,0,P|313:56|317:88,1,65
425,104,156565,2,0,P|405:130|385:155,1,65,0|8,0:0|0:0,0:0:0:0:
451,243,156881,6,0,P|386:253|321:261,1,130,2|2,0:0|0:0,0:0:0:0:
234,161,157355,2,0,P|265:170|288:193,1,65,8|2,0:0|0:0,0:0:0:0:
220,270,157671,2,0,P|219:255|219:237,3,32.5
168,339,157986,2,0,P|167:354|167:371,3,32.5,8|0|0|0,0:0|0:0|0:0|0:0,0:0:0:0:
114,225,158302,6,0,B|141:189|141:189|130:95,1,130,4|8,0:0|0:0,0:0:0:0:
231,6,158776,2,0,P|200:15|177:38,1,65
232,122,159092,2,0,P|263:113|286:90,1,65,0|8,0:0|0:0,0:0:0:0:
240,198,159408,6,0,P|301:181|347:135,1,130,2|2,0:0|0:0,0:0:0:0:
416,34,159881,2,0,B|419:62|419:62|439:92|439:92|427:126|427:126|429:156,1,130,8|0,0:0|0:0,0:0:0:0:
432,159,160276,1,0,0:0:0:0:
435,162,160355,2,0,P|436:177|435:194,1,32.5
337,248,160513,2,0,P|335:231|336:215,1,32.5,8|0,0:0|0:0,0:0:0:0:
439,326,160671,1,0,0:0:0:0:
439,326,160750,1,0,0:0:0:0:
439,326,160829,6,0,L|309:342,1,130,4|8,0:0|0:0,0:0:0:0:
243,261,161302,2,0,P|245:228|251:196,1,65,0|4,0:0|0:0,0:0:0:0:
151,311,161618,2,0,P|149:278|143:246,1,65,0|8,0:0|0:0,0:0:0:0:
74,143,161934,1,2,0:0:0:0:
74,143,162013,1,0,0:0:0:0:
74,143,162092,6,0,L|66:208,1,65,12|10,0:0|0:0,0:0:0:0:
157,104,162408,2,0,P|156:87|153:71,2,32.5,8|0|2,0:0|0:0|0:0,0:0:0:0:
212,172,162723,1,8,0:0:0:0:
232,185,162801,1,0,0:0:0:0:
256,190,162880,1,0,0:0:0:0:
280,187,162959,1,0,0:0:0:0:
303,179,163038,1,8,0:0:0:0:
327,180,163117,1,0,0:0:0:0:
350,189,163196,1,0,0:0:0:0:
367,205,163275,1,0,0:0:0:0:
378,227,163354,5,6,0:0:0:0:
313,315,163513,1,0,0:0:0:0:
313,315,163671,1,8,0:0:0:0:
378,227,163829,2,0,B|369:151|369:151|362:141|362:141|354:68,2,162.5,0|2|2,0:0|0:0|0:0,0:0:0:0:
240,266,164618,6,0,P|259:230|296:214,1,81.25,0|2,0:0|0:0,0:0:0:0:
255,340,164934,2,0,P|215:341|183:317,1,81.25,8|2,0:0|0:0,0:0:0:0:
161,205,165250,1,0,1:0:0:0:
161,205,165329,1,0,1:0:0:0:
160,205,165408,2,0,P|159:225|160:245,1,40.625,0|0,1:0|1:0,0:0:0:0:
250,143,165565,1,10,1:0:0:0:
250,143,165644,1,0,1:0:0:0:
250,142,165723,2,0,P|251:122|250:102,1,40.625,0|0,1:0|1:0,0:0:0:0:
130,19,165881,6,0,B|175:24|175:24|205:44|205:44|239:32|239:32|283:37,1,162.5,6|8,0:0|0:0,1:0:0:0:
377,0,166355,2,0,L|367:80,1,81.25
470,176,166671,2,0,L|461:96,1,81.25,2|8,0:0|0:0,0:0:0:0:
360,233,166986,6,0,B|402:264|402:264|511:251,1,162.5,2|2,0:0|0:0,0:0:0:0:
344,159,167460,2,0,P|307:174|287:212,1,81.25,8|2,0:0|0:0,0:0:0:0:
298,298,167776,2,0,P|296:318|293:338,1,40.625,0|0,1:0|1:0,0:0:0:0:
212,258,167934,2,0,P|208:238|207:217,1,40.625,0|0,1:0|1:0,0:0:0:0:
200,344,168092,1,10,1:0:0:0:
169,342,168170,1,0,1:0:0:0:
139,340,168249,1,0,1:0:0:0:
108,338,168328,1,0,1:0:0:0:
78,336,168407,5,6,0:0:0:0:
128,254,168565,2,0,L|118:172,1,81.25,0|8,0:0|0:0,0:0:0:0:
179,86,168881,2,0,B|155:69|155:69|55:81|55:81|33:105,2,162.5,0|2|2,0:0|0:0|0:0,0:0:0:0:
306,79,169671,6,0,P|287:114|250:130,1,81.25,0|2,0:0|0:0,0:0:0:0:
291,6,169987,2,0,P|330:4|362:28,1,81.25,8|2,0:0|0:0,0:0:0:0:
391,118,170302,1,0,0:0:0:0:
366,140,170380,1,0,0:0:0:0:
355,172,170459,1,0,0:0:0:0:
360,205,170538,1,0,0:0:0:0:
381,231,170617,1,8,0:0:0:0:
412,244,170696,1,0,0:0:0:0:
445,240,170776,2,0,P|448:220|450:200,1,40.625
391,118,170934,6,0,B|304:118|327:160|227:154,1,162.5,6|12,0:0|0:0,0:0:0:0:
171,55,171408,2,0,P|169:75|166:95,2,40.625,0|0|14,0:0|0:0|0:0,0:0:0:0:
76,96,171723,2,0,P|77:116|80:136,2,40.625,0|0|12,0:0|0:0|0:0,0:0:0:0:
235,154,172039,1,0,0:0:0:0:
145,250,172197,6,0,P|146:222|150:196,2,54.1666666666667
248,304,172513,2,0,P|246:276|242:250,2,54.1666666666667
180,365,172829,5,0,0:0:0:0:
326,334,172986,1,0,0:0:0:0:
423,384,173144,1,0,0:0:0:0:
507,346,173302,1,0,0:0:0:0:
512,272,173460,5,4,0:2:0:0:
290,26,182144,6,0,L|287:47,3,21.6666666666667
195,85,182460,5,8,0:0:0:0:
251,212,182618,1,0,0:0:0:0:
427,80,182776,5,0,0:0:0:0:
427,80,182855,1,0,0:0:0:0:
427,80,182934,1,0,0:0:0:0:
360,243,183092,1,0,0:0:0:0:
251,212,183565,6,0,P|298:253|360:243,1,130,4|8,0:0|0:0,0:0:0:0:
285,148,184039,1,0,0:0:0:0:
209,55,184197,1,0,0:0:0:0:
113,127,184354,1,0,0:0:0:0:
209,55,184512,1,8,0:0:0:0:
251,212,184670,6,0,B|229:226|229:226|149:216|149:216|132:198,1,130,4|0,0:0|0:0,0:0:0:0:
199,142,185144,1,8,0:0:0:0:
31,86,185302,2,0,B|38:145|38:145|43:153|43:153|50:213,1,130
180,285,185776,2,0,P|164:258|137:240,1,65,8|0,0:0|0:0,0:0:0:0:
90,337,186092,6,0,B|165:331|142:386|213:378,2,130,4|8|0,0:0|0:0|0:0,0:0:0:0:
207,240,186880,1,0,0:0:0:0:
296,267,187039,1,8,0:0:0:0:
393,128,187198,6,4,B|386:187|386:187|381:195|381:195|374:255,1,130,4|0,0:0|0:0,0:0:0:0:
296,267,187672,1,8,0:0:0:0:
256,138,187830,2,0,B|234:124|234:124|154:134|154:134|137:152,1,130
204,208,188302,2,0,L|207:240,1,32.5
220,349,188460,2,0,L|217:317,1,32.5
296,267,188618,6,0,B|371:261|348:316|419:308,1,130,4|8,0:0|0:0,0:0:0:0:
471,256,189092,1,0,0:0:0:0:
443,377,189250,2,0,P|470:362|486:334,1,65
471,256,189566,1,8,0:0:0:0:
512,155,189723,6,0,B|476:128|476:128|382:139,1,130,4|0,0:0|0:0,0:0:0:0:
377,221,190197,1,8,0:0:0:0:
250,180,190355,1,0,0:0:0:0:
250,180,190434,1,0,0:0:0:0:
250,180,190513,2,0,P|265:208|293:224,1,65
391,137,190829,2,0,P|375:108|347:92,1,65,8|0,0:0|0:0,0:0:0:0:
157,49,191144,6,0,B|185:46|185:46|215:26|215:26|249:38|249:38|279:36,2,130,4|8|4,0:0|0:0|0:0,0:0:0:0:
230,144,191934,2,0,L|226:111,1,32.5
238,234,192092,1,8,0:0:0:0:
117,156,192250,1,0,0:0:0:0:
117,156,192329,1,0,0:0:0:0:
117,156,192408,5,4,0:0:0:0:
114,175,192486,1,0,0:0:0:0:
112,195,192565,1,0,0:0:0:0:
109,215,192644,1,0,0:0:0:0:
107,236,192723,1,8,0:0:0:0:
104,256,192802,1,0,0:0:0:0:
102,276,192881,1,0,0:0:0:0:
99,296,192960,1,0,0:0:0:0:
97,316,193039,2,0,L|93:349,3,32.5
172,300,193355,2,0,L|176:267,3,32.5,8|0|0|0,0:0|0:0|0:0|0:0,0:0:0:0:
230,353,193671,6,0,B|247:338|247:338|257:258|257:258|243:236,1,130,6|8,0:0|0:0,0:0:0:0:
172,121,194144,2,0,P|174:153|178:185,2,65,2|0|0,0:0|0:0|0:0,0:0:0:0:
271,28,194618,2,0,P|263:58|240:81,1,65,10|0,0:0|0:0,0:0:0:0:
110,11,194934,5,0,0:0:0:0:
86,100,195092,2,0,P|82:132|80:165,2,65,2|0|0,0:0|0:0|0:0,0:0:0:0:
188,47,195565,1,2,1:0:0:0:
206,176,195723,1,0,1:0:0:0:
217,40,195881,1,10,1:0:0:0:
235,169,196039,1,0,0:0:0:0:
391,114,196197,6,0,B|355:87|355:87|261:98,1,130,6|8,0:0|0:0,0:0:0:0:
467,165,196671,2,0,B|465:135|465:135|477:101|477:101|457:71|457:71|454:43,1,130,2|0,0:0|0:0,0:0:0:0:
408,211,197144,2,0,P|430:233|461:241,1,65,10|0,0:0|0:0,0:0:0:0:
334,185,197460,6,0,P|325:215|334:245,2,65,0|2|8,0:0|0:0|0:0,0:0:0:0:
375,312,197934,2,0,P|313:322|266:281,1,130
334,185,198408,1,10,0:0:0:0:
211,212,198565,1,0,0:0:0:0:
211,212,198644,1,0,0:0:0:0:
211,212,198723,6,0,L|81:228,1,130,4|8,0:0|0:0,0:0:0:0:
119,104,199197,2,0,B|178:111|178:111|186:116|186:116|246:123,1,130,2|0,0:0|0:0,0:0:0:0:
319,19,199671,2,0,P|321:51|325:83,1,65,10|0,0:0|0:0,0:0:0:0:
439,161,199986,6,0,B|424:178|424:178|344:188|344:188|322:174,1,130,6|8,0:0|0:0,0:0:0:0:
246,123,200460,2,0,B|171:117|194:172|123:164,1,130,2|0,0:0|0:0,0:0:0:0:
34,67,200934,2,0,P|65:74|88:96,1,65,10|0,0:0|0:0,0:0:0:0:
49,164,201250,1,6,0:0:0:0:
256,192,201408,12,0,202355,0:0:0:0:
228,199,202513,5,6,0:0:0:0:
143,171,202671,1,0,0:0:0:0:
227,215,202829,2,0,P|228:231|230:247,2,32.5,8|0|2,0:0|0:0|0:0,0:0:0:0:
305,295,203144,1,0,0:0:0:0:
391,268,203302,1,2,0:0:0:0:
307,312,203460,2,0,P|305:328|303:344,2,32.5,8|0|8,0:0|0:0|0:0,0:0:0:0:
343,179,203776,6,0,B|268:173|291:228|220:220,1,130,6|8,0:0|0:0,0:0:0:0:
168,168,204250,1,2,0:0:0:0:
196,289,204408,2,0,P|169:274|153:246,1,65
168,168,204724,1,10,0:0:0:0:
72,251,204882,6,0,B|79:311|79:311|84:319|84:319|91:378,1,130,0|2,0:0|0:0,0:0:0:0:
175,365,205355,2,0,P|208:370|240:372,1,65,8|0,0:0|0:0,0:0:0:0:
152,244,205671,1,2,0:0:0:0:
305,295,205829,1,0,0:0:0:0:
305,295,205987,1,10,0:0:0:0:
225,220,206144,1,0,0:0:0:0:
225,220,206302,6,0,B|261:193|261:193|355:204,1,130,6|8,0:0|0:0,0:0:0:0:
463,126,206776,2,0,B|441:140|441:140|361:130|361:130|344:112,1,130,2|0,0:0|0:0,0:0:0:0:
446,51,207250,2,0,P|414:50|382:44,1,65,10|0,0:0|0:0,0:0:0:0:
249,30,207565,6,0,L|265:160,1,130,2|8,0:0|0:0,0:0:0:0:
311,288,208039,1,0,0:0:0:0:
177,262,208197,1,0,0:0:0:0:
177,262,208276,1,0,0:0:0:0:
177,262,208355,2,0,P|180:247|182:230,1,32.5
81,114,208513,1,8,0:0:0:0:
81,114,208592,1,0,0:0:0:0:
81,114,208671,2,0,P|84:130|86:147,1,32.5
54,326,208829,6,0,P|94:332|134:334,1,81.25,14|0,0:0|0:0,0:0:0:0:
257,253,209144,2,0,P|216:255|176:261,1,81.25,8|2,0:0|0:0,0:0:0:0:
334,239,209460,2,0,P|320:201|287:179,1,81.25,8|0,0:0|0:0,0:0:0:0:
308,311,209776,2,0,P|347:318|382:300,1,81.25,10|0,0:0|0:0,0:0:0:0:
382,300,210013,1,0,0:0:0:0:
382,300,210092,5,14,0:0:0:0:
430,148,210250,1,0,0:0:0:0:
345,195,210407,2,0,P|304:192|264:186,1,81.25,8|2,0:0|0:0,0:0:0:0:
168,211,210723,1,8,0:0:0:0:
120,58,210881,1,0,0:0:0:0:
205,105,211039,2,0,P|245:102|285:96,1,81.25,10|0,0:0|0:0,0:0:0:0:
285,96,211276,1,0,0:0:0:0:
285,96,211355,5,14,0:0:0:0:
416,161,211513,2,0,L|410:208,2,44.6875004261732,0|0|12,0:0|0:0|0:0,0:0:0:0:
256,220,211829,2,0,L|261:267,2,44.6875004261732,0|0|12,0:0|0:0|0:0,0:0:0:0:
440,301,212144,2,0,L|434:348,2,44.6875004261732,0|0|12,0:0|0:0|0:0,0:0:0:0:
205,361,212460,1,0,0:0:0:0:
205,361,212539,1,0,0:0:0:0:
205,361,212618,5,12,0:0:0:0:
312,237,212776,1,0,0:0:0:0:
152,247,212934,1,8,0:0:0:0:
302,346,213092,1,0,0:0:0:0:
261,161,213250,5,8,0:0:0:0:
138,258,213408,1,8,0:0:0:0:
80,79,213565,1,8,0:0:0:0:
52,270,213723,6,0,B|88:297|88:297|182:286,1,130,4|0,0:0|0:0,0:0:0:0:
237,220,214197,2,0,P|273:214|316:211,1,65,8|2,0:0|0:2,0:0:0:0:
166,163,214513,1,0,0:0:0:0:
166,163,214670,1,0,0:0:0:0:
286,119,214828,2,0,P|322:126|365:129,1,65,8|2,0:0|0:2,0:0:0:0:
406,263,215144,6,0,P|390:236|390:202,1,65
476,293,215460,2,0,P|458:321|419:336,1,65,8|2,0:0|1:0,0:0:0:0:
247,367,215776,1,0,0:0:0:0:
290,228,215934,1,2,0:0:0:0:
340,344,216091,1,8,0:0:0:0:
188,313,216249,6,0,B|129:320|129:320|121:325|121:325|61:332,1,130,4|0,0:0|0:0,0:0:0:0:
204,232,216723,2,0,P|171:228|140:223,1,65,8|2,0:0|0:2,0:0:0:0:
53,241,217039,1,0,0:0:0:0:
123,130,217197,1,0,0:0:0:0:
205,207,217355,1,8,0:0:0:0:
321,72,217513,6,0,P|288:76|257:82,1,65,2|0,0:0|0:0,0:0:0:0:
221,10,217829,2,0,P|194:29|170:50,1,65,2|8,0:0|0:0,0:0:0:0:
399,172,218144,2,0,P|366:168|335:162,1,65,2|0,0:0|0:0,0:0:0:0:
299,234,218460,2,0,P|272:214|248:193,1,65,10|8,0:0|0:0,0:0:0:0:
163,144,218776,6,0,P|116:185|54:174,1,130,4|0,0:0|0:0,0:0:0:0:
110,12,219250,2,0,P|115:43|118:76,1,65,8|2,0:0|0:2,0:0:0:0:
294,23,219565,1,0,0:0:0:0:
294,23,219723,1,0,0:0:0:0:
257,97,219881,2,0,P|251:129|247:162,1,65,8|2,0:0|0:2,0:0:0:0:
382,186,220197,5,0,0:0:0:0:
355,285,220355,1,0,0:0:0:0:
388,173,220513,1,8,0:0:0:0:
253,252,220670,1,2,0:0:0:0:
347,349,220828,2,0,L|354:285,2,65,0|10|8,0:0|0:0|0:0,0:0:0:0:
243,321,221302,6,0,B|168:327|191:272|120:280,1,130,4|0,0:0|0:0,0:0:0:0:
56,169,221776,2,0,P|92:181|116:214,1,65,8|2,0:0|0:2,0:0:0:0:
43,316,222091,1,0,0:0:0:0:
43,316,222249,1,0,0:0:0:0:
61,163,222407,2,0,P|97:175|121:208,1,65,8|2,0:0|0:2,0:0:0:0:
211,228,222723,6,0,P|209:244|208:260,3,32.5
129,293,223039,2,0,P|135:309|142:323,3,32.5
220,294,223355,5,0,0:0:0:0:
231,276,223434,1,0,0:0:0:0:
247,261,223513,1,0,0:0:0:0:
267,252,223591,1,0,0:0:0:0:
288,250,223670,1,0,0:0:0:0:
309,254,223749,1,0,0:0:0:0:
328,263,223828,6,0,B|325:291|325:291|305:321|305:321|317:355|317:355|314:386,1,130,4|0,0:0|0:0,0:0:0:0:
468,225,224302,2,0,P|446:203|415:194,1,65,8|2,0:0|0:2,0:0:0:0:
405,344,224618,1,0,0:0:0:0:
405,344,224776,1,0,0:0:0:0:
473,219,224934,2,0,P|451:197|420:188,1,65,8|2,0:0|0:2,0:0:0:0:
323,267,225250,6,0,P|329:236|332:203,1,65
278,80,225565,1,8,0:0:0:0:
378,115,225723,1,2,0:0:0:0:
237,158,225881,2,0,P|241:191|247:223,1,65,0|2,0:0|0:0,0:0:0:0:
211,304,226197,1,8,0:0:0:0:
83,301,226355,6,0,B|119:328|119:328|213:317,1,130,4|0,0:0|0:0,0:0:0:0:
98,217,226828,2,0,P|65:221|34:226,1,65,8|2,0:0|0:2,0:0:0:0:
110,131,227144,1,0,0:0:0:0:
195,204,227302,1,0,0:0:0:0:
256,121,227460,1,8,0:0:0:0:
325,200,227619,6,0,P|332:232|336:265,1,65,2|0,0:0|0:0,0:0:0:0:
360,105,227935,2,0,P|381:130|400:156,1,65,2|8,0:0|0:0,0:0:0:0:
341,6,228250,2,0,P|372:17|402:30,1,65,2|0,0:0|0:0,0:0:0:0:
485,87,228565,1,10,0:0:0:0:
486,186,228723,1,8,0:0:0:0:
487,285,228881,6,0,B|428:278|428:278|420:273|420:273|360:266,1,130,4|0,0:0|0:0,0:0:0:0:
271,161,229355,2,0,P|265:197|262:240,1,65,8|2,0:0|0:2,0:0:0:0:
288,65,229670,1,0,0:0:0:0:
194,57,229828,1,0,0:0:0:0:
138,133,229986,2,0,P|145:169|148:212,1,65,8|2,0:0|0:2,0:0:0:0:
169,333,230302,6,0,P|136:337|105:342,1,65
148,198,230618,2,0,P|128:224|110:249,1,65,8|0,0:0|0:0,0:0:0:0:
38,117,230934,2,0,P|43:149|48:180,1,65,0|10,0:0|0:0,0:0:0:0:
180,65,231249,1,8,0:0:0:0:
256,167,231407,6,0,P|194:155|147:197,1,130,4|0,0:0|0:0,0:0:0:0:
319,293,231881,2,0,P|322:260|328:228,1,65,8|2,0:0|0:2,0:0:0:0:
479,199,232197,1,0,0:0:0:0:
499,293,232355,1,0,0:0:0:0:
431,336,232513,1,8,0:0:0:0:
319,293,232671,6,0,B|244:287|267:342|196:334,1,130,4|0,0:0|0:0,0:0:0:0:
201,334,233065,1,0,0:0:0:0:
201,334,233144,1,8,0:0:0:0:
243,181,233302,2,0,L|247:220,1,32.5
188,122,233460,1,0,0:0:0:0:
228,138,233539,1,0,0:0:0:0:
266,132,233618,1,0,0:0:0:0:
294,111,233697,1,0,0:0:0:0:
305,88,233776,1,0,0:0:0:0:
306,68,233855,1,0,0:0:0:0:
300,52,233934,6,0,B|359:59|359:59|367:64|367:64|427:71,1,130,6|2,0:0|0:0,0:0:0:0:
427,71,234329,1,0,0:0:0:0:
427,71,234408,1,8,0:0:0:0:
375,157,234565,2,0,L|378:189,1,32.5,2|0,0:0|0:0,0:0:0:0:
441,259,234723,1,0,0:0:0:0:
358,328,234881,1,2,0:0:0:0:
469,356,235039,1,8,0:0:0:0:
302,259,235197,6,0,P|269:261|237:267,1,65,6|0,0:0|0:0,0:0:0:0:
237,266,235434,1,0,0:0:0:0:
237,266,235513,5,14,0:0:0:0:
177,187,235671,1,8,0:0:0:0:
130,329,235829,5,6,0:0:0:0:
132,352,235908,1,0,0:0:0:0:
135,376,235986,1,0,0:0:0:0:
57,211,236143,5,6,0:0:0:0:
59,188,236222,1,0,0:0:0:0:
62,164,236301,1,0,0:0:0:0:
156,73,236460,5,2,0:1:0:0:
256,192,236539,12,0,237565,0:0:0:0:
