osu file format v14

[General]
AudioFilename: Casket of Star.mp3
AudioLeadIn: 0
PreviewTime: 31474
Countdown: 0
SampleSet: Normal
StackLeniency: 0.7
Mode: 0
LetterboxInBreaks: 0
WidescreenStoryboard: 1

[Editor]
Bookmarks: 11579,31790,52158,72369,92579,112790,123842,132842,142711,153211,173421,176421,183526,193632,213947,233895
DistanceSpacing: 1.2
BeatDivisor: 4
GridSize: 32
TimelineZoom: 2.3

[Metadata]
Title:Hoshi no Utsuwa ~ Casket of Star
TitleUnicode:星の器 ~ Casket of Star
Artist:Demetori
ArtistUnicode:Demetori
Creator:happy30
Version:sjoy's Insane
Source:東方Project
Tags:Vessel of Stars Kirisame Marisa le Grimoire De reve zun 東方幻想郷 Lotus Land Story 4 Scarlet Weather Rhapsody SWR
BeatmapID:1115583
BeatmapSetID:139677

[Difficulty]
HPDrainRate:6
CircleSize:4
OverallDifficulty:7
ApproachRate:9
SliderMultiplier:1.6
SliderTickRate:1

[Events]
//Background and Video events
0,0,"Konachan.com - 67200 sample.jpg",0,0
//Break Periods
2,52397,61702
2,173660,181860
//Storyboard Layer 0 (Background)
//Storyboard Layer 1 (Fail)
//Storyboard Layer 2 (Pass)
//Storyboard Layer 3 (Foreground)
//Storyboard Sound Samples

[TimingPoints]
408,315.789473684211,4,1,1,70,1,0
10513,-100,4,1,1,50,0,0
11618,-100,4,1,1,70,0,0
23776,-100,4,1,1,50,0,0
24408,-100,4,1,1,70,0,0
26302,-100,4,1,1,50,0,0
26934,-100,4,1,1,70,0,0
28829,-100,4,1,1,50,0,0
29460,-100,4,1,1,70,0,0
51408,-100,4,1,1,60,0,0
62302,-100,4,1,1,70,0,0
64197,-100,4,1,1,50,0,0
64829,-100,4,1,1,70,0,0
66723,-100,4,1,1,60,0,0
67355,-100,4,1,1,70,0,0
69250,-100,4,1,1,60,0,0
69881,-100,4,1,1,70,0,0
71144,-100,4,1,1,40,0,0
72408,-100,4,1,1,70,0,0
81565,-100,4,1,1,50,0,0
82197,-100,4,1,1,70,0,0
92618,-100,4,1,1,50,0,0
92776,-117.647058823529,4,2,1,50,0,0
101776,-100,4,1,1,70,0,0
102250,-100,4,1,1,50,0,0
102723,-100,4,1,1,70,0,0
112829,-86.9565217391304,4,1,1,70,0,1
132881,-100,4,1,1,70,0,0
142986,-100,4,1,1,70,0,1
143065,-100,4,1,1,70,0,0
148513,-100,4,1,1,50,0,0
149460,-100,4,1,1,70,0,0
150092,-100,4,1,1,50,0,0
151986,-100,4,1,1,60,0,0
153250,-86.9565217391304,4,1,1,80,0,1
157671,-86.9565217391304,4,1,1,60,0,1
158302,-86.9565217391304,4,1,1,80,0,1
163276,-100,4,1,1,70,0,0
163355,-100,4,1,1,80,0,1
172197,-100,4,1,1,60,0,1
173460,-100,4,1,1,50,0,0
182144,-100,4,1,1,70,0,0
192408,-100,4,1,1,60,0,0
193671,-86.9565217391304,4,1,1,70,0,1
213723,-100,4,1,1,70,0,0
216250,-100,4,1,1,70,0,0
222723,-100,4,1,1,50,0,0
223829,-100,4,1,1,70,0,0
236539,-100,4,2,1,5,0,0

[Colours]
Combo1 : 192,192,192
Combo2 : 255,255,128
Combo3 : 18,124,255

[HitObjects]
71,43,1197,5,0,0:0:0:0:
48,136,1355,1,0,0:0:0:0:
134,177,1513,2,0,P|200:193|307:157,1,160,4|0,0:0|0:0,0:0:0:0:
349,97,1986,1,8,0:0:0:0:
272,39,2144,1,0,0:0:0:0:
409,23,2302,2,0,L|480:58,1,80
478,185,2618,2,0,L|406:220,1,80,8|0,0:0|0:0,0:0:0:0:
169,298,2934,6,0,P|211:308|261:294,1,80
334,262,3250,1,8,0:0:0:0:
283,180,3408,1,0,0:0:0:0:
193,213,3565,1,2,0:0:0:0:
263,82,3723,1,2,0:0:0:0:
137,41,3881,1,8,0:0:0:0:
65,187,4039,6,0,P|61:263|114:323,1,160,4|0,0:0|0:0,0:0:0:0:
193,213,4513,2,0,L|239:130,1,80,8|0,0:0|0:0,0:0:0:0:
265,300,4829,2,0,L|311:383,1,80
373,303,5144,1,8,0:0:0:0:
338,213,5302,1,0,0:0:0:0:
294,111,5460,6,0,P|334:101|392:114,1,80
458,230,5776,1,8,0:0:0:0:
446,152,5934,1,0,0:0:0:0:
338,213,6092,2,0,P|304:222|255:215,1,80,2|2,0:0|0:0,0:0:0:0:
182,158,6408,1,8,0:0:0:0:
279,33,6565,6,0,P|351:55|360:148,1,160,4|0,0:0|0:0,0:0:0:0:
221,88,7039,2,0,P|187:78|141:85,1,80,8|0,0:0|0:0,0:0:0:0:
18,156,7355,2,0,P|52:146|98:153,1,80
151,230,7671,1,8,0:0:0:0:
55,234,7829,1,0,0:0:0:0:
109,319,7986,6,0,P|140:342|192:347,1,80
261,296,8302,2,0,P|304:292|350:302,1,80,8|0,0:0|0:0,0:0:0:0:
418,353,8618,1,2,0:0:0:0:
498,263,8776,1,2,0:0:0:0:
487,143,8934,1,8,0:0:0:0:
375,211,9092,6,0,P|292:222|215:195,1,160,4|0,0:0|0:0,0:0:0:0:
61,272,9565,2,0,L|133:237,1,80,8|0,0:0|0:0,0:0:0:0:
154,116,9881,2,0,L|68:158,1,80
37,65,10197,1,8,0:0:0:0:
126,31,10355,1,0,0:0:0:0:
235,74,10513,6,0,L|287:94,3,40,6|4|4|4,3:0|3:0|3:0|3:0,0:3:0:0:
295,185,10829,2,0,L|257:170,3,40,6|4|4|4,3:0|3:0|3:0|3:0,0:3:0:0:
369,130,11144,1,4,3:0:0:0:
388,135,11223,1,4,3:0:0:0:
405,144,11302,1,4,3:0:0:0:
419,157,11381,1,4,3:0:0:0:
432,172,11460,1,4,3:0:0:0:
440,189,11539,1,4,3:0:0:0:
441,205,11618,6,0,P|447:264|388:347,1,160,4|0,0:0|0:0,0:0:0:0:
299,332,12092,2,0,L|316:254,1,80,8|0,0:0|0:0,0:0:0:0:
254,183,12408,2,0,L|237:261,1,80
215,354,12723,1,8,0:0:0:0:
121,331,12881,1,0,0:0:0:0:
27,352,13039,6,0,P|11:314|14:256,1,80
36,182,13355,1,8,0:0:0:0:
117,130,13513,1,0,0:0:0:0:
254,183,13671,2,0,P|212:195|162:181,1,80,2|2,0:0|0:0,0:0:0:0:
117,130,13986,1,8,0:0:0:0:
266,76,14144,6,0,P|345:64|427:95,1,160,4|0,0:0|0:0,0:0:0:0:
472,228,14618,2,0,L|510:147,1,80,8|0,0:0|0:0,0:0:0:0:
430,318,14934,2,0,L|392:248,1,80
338,332,15250,2,0,L|259:344,1,80,8|0,0:0|0:0,0:0:0:0:
163,356,15565,5,0,0:0:0:0:
128,266,15723,1,0,0:0:0:0:
176,183,15881,2,0,P|219:178|261:192,1,80,8|0,0:0|0:0,0:0:0:0:
326,261,16197,1,2,0:0:0:0:
218,264,16355,1,2,0:0:0:0:
354,180,16513,1,8,0:0:0:0:
256,103,16671,6,0,P|170:93|91:124,1,160,4|0,0:0|0:0,0:0:0:0:
25,58,17144,2,0,L|96:20,1,80,8|0,0:0|0:0,0:0:0:0:
13,159,17460,2,0,L|37:248,1,80
166,291,17776,1,8,0:0:0:0:
122,205,17934,1,0,0:0:0:0:
215,181,18092,6,0,P|254:174|308:180,1,80
265,278,18408,1,8,0:0:0:0:
353,241,18565,1,0,0:0:0:0:
420,172,18723,2,0,P|420:132|389:81,1,80,2|2,0:0|0:0,0:0:0:0:
336,26,19039,1,8,0:0:0:0:
223,143,19197,6,0,P|213:220|283:285,1,160,4|0,0:0|0:0,0:0:0:0:
353,317,19671,1,8,0:0:0:0:
368,222,19829,1,0,0:0:0:0:
454,175,19987,2,0,P|457:215|476:251,1,80
466,91,20302,2,0,P|423:96|377:88,1,80,8|0,0:0|0:0,0:0:0:0:
282,72,20618,5,4,0:0:0:0:
192,106,20776,1,0,0:0:0:0:
180,110,20855,1,0,0:0:0:0:
169,114,20934,1,8,0:0:0:0:
82,253,21092,1,0,0:0:0:0:
94,249,21171,1,0,0:0:0:0:
105,245,21250,5,8,0:0:0:0:
204,212,21408,1,8,0:0:0:0:
169,114,21565,1,8,0:0:0:0:
77,142,21723,1,8,0:0:0:0:
124,27,21881,6,0,P|160:18|207:24,1,80,4|0,0:0|0:0,0:0:0:0:
282,72,22197,1,8,0:0:0:0:
386,112,22355,2,0,P|387:73|371:37,1,80,2|0,0:0|0:0,0:0:0:0:
282,72,22671,1,0,0:0:0:0:
169,114,22829,2,0,P|162:154|174:214,1,80,8|2,0:0|0:0,0:0:0:0:
246,250,23144,5,0,0:0:0:0:
280,160,23302,1,0,0:0:0:0:
347,288,23460,2,0,L|321:373,1,80,8|2,0:0|0:0,0:0:0:0:
250,289,23776,1,4,3:0:0:0:
250,289,23855,1,4,3:0:0:0:
250,289,23934,2,4,L|242:220,1,40,4|4,3:0|3:0,3:0:0:0:
181,168,24092,1,8,3:1:0:0:
181,168,24171,1,4,3:0:0:0:
181,168,24250,2,4,L|173:237,1,40,4|4,3:0|3:0,3:0:0:0:
112,266,24408,6,0,L|83:181,1,80
57,98,24723,1,8,0:0:0:0:
149,71,24881,1,2,0:0:0:0:
181,168,25039,2,0,L|258:147,1,80
294,237,25355,1,8,0:0:0:0:
383,200,25513,1,2,0:0:0:0:
321,340,25671,6,0,L|243:360,1,80
208,271,25987,1,8,0:0:0:0:
119,308,26145,1,2,0:0:0:0:
99,214,26302,2,4,L|77:157,3,40,4|4|4|4,3:0|3:0|3:0|3:0,3:0:0:0:
181,168,26618,2,4,L|195:124,3,40,8|4|4|4,3:1|3:0|3:0|3:0,3:0:0:0:
217,46,26934,6,0,L|306:74,1,80
358,141,27250,1,8,0:0:0:0:
281,199,27408,1,2,0:0:0:0:
181,168,27565,2,0,L|92:196,1,80
13,222,27881,1,8,0:0:0:0:
47,312,28039,1,2,0:0:0:0:
143,314,28197,6,0,P|177:330|239:328,1,80
313,314,28513,1,8,0:0:0:0:
385,251,28671,1,2,0:0:0:0:
281,199,28829,2,0,L|242:210,3,40,4|4|4|4,3:0|3:0|3:0|3:0,0:3:0:0:
330,126,29144,2,0,L|367:110,3,40,8|4|6|4,3:1|3:0|3:1|3:0,0:3:0:0:
250,122,29460,6,0,P|210:113|171:115,1,80
80,149,29776,1,8,0:0:0:0:
26,228,29934,1,2,0:0:0:0:
157,204,30092,2,0,P|196:195|235:197,1,80
329,221,30408,1,8,0:0:0:0:
396,288,30566,1,2,0:0:0:0:
290,303,30723,5,10,0:0:0:0:
403,214,30881,1,0,0:0:0:0:
403,214,30960,1,0,0:0:0:0:
403,214,31039,1,8,0:0:0:0:
294,172,31197,1,0,0:0:0:0:
294,172,31276,1,0,0:0:0:0:
294,172,31355,1,8,0:0:0:0:
290,303,31513,1,2,0:0:0:0:
170,282,31671,1,2,0:0:0:0:
198,155,31829,6,0,B|258:150|295:176|295:176|266:214|260:255,1,160,4|0,0:0|0:0,0:0:0:0:
220,338,32302,1,8,0:0:0:0:
198,155,32618,2,0,P|154:144|96:160,1,80,0|2,0:0|0:0,0:0:0:0:
29,183,32934,1,8,0:0:0:0:
47,80,33092,6,0,P|119:43|222:54,1,160,2|2,0:0|0:0,0:0:0:0:
270,106,33565,1,8,0:0:0:0:
376,127,33723,2,0,P|376:79|356:38,1,80,2|0,0:0|0:0,0:0:0:0:
270,106,34039,1,2,0:0:0:0:
322,248,34197,1,8,0:0:0:0:
198,155,34355,1,0,0:0:0:0:
198,155,34434,1,0,0:0:0:0:
198,155,34513,6,0,L|105:162,1,80,8|2,0:0|0:0,0:0:0:0:
20,293,34829,2,0,L|113:286,1,80,0|2,0:0|0:0,0:0:0:0:
99,286,35302,1,2,0:0:0:0:
222,336,35460,1,8,0:0:0:0:
322,248,35618,2,0,P|381:176|355:82,1,160,2|0,0:0|0:0,0:0:0:0:
259,33,36092,1,8,0:0:0:0:
322,248,36408,5,0,0:0:0:0:
322,248,36565,2,0,L|401:247,1,80,2|8,0:0|0:0,0:0:0:0:
287,159,36881,2,0,P|206:169|160:257,1,160,4|0,0:0|0:0,0:0:0:0:
120,345,37355,1,8,0:0:0:0:
64,116,37671,2,0,L|43:20,1,80,0|2,0:0|0:0,0:0:0:0:
18,188,37986,1,8,0:0:0:0:
147,97,38144,6,0,P|216:70|296:93,1,160,2|2,0:0|0:0,0:0:0:0:
366,158,38618,1,8,0:0:0:0:
227,212,38776,2,0,P|167:238|68:236,1,160,2|2,0:0|0:0,0:0:0:0:
120,345,39250,2,0,P|160:339|233:346,1,80,8|0,0:0|0:0,0:0:0:0:
295,344,39565,5,8,0:0:0:0:
227,212,39723,1,0,0:0:0:0:
199,340,39881,1,0,0:0:0:0:
313,257,40039,1,2,0:0:0:0:
120,345,40355,1,2,0:0:0:0:
295,344,40513,1,8,0:0:0:0:
227,212,40671,6,0,P|151:168|75:178,1,160,2|0,0:0|0:0,0:0:0:0:
8,255,41144,1,8,0:0:0:0:
8,255,41460,1,0,3:0:0:0:
11,235,41539,1,0,3:0:0:0:
15,215,41618,1,2,3:1:0:0:
20,195,41697,1,0,3:0:0:0:
24,175,41776,2,0,L|43:85,1,80,8|2,0:0|0:0,0:0:0:0:
144,134,42092,6,0,P|222:148|311:120,1,160,4|8,0:0|0:0,0:0:0:0:
364,57,42565,1,2,0:0:0:0:
328,217,42723,2,0,P|333:258|374:308,1,80
431,346,43039,1,8,0:0:0:0:
430,214,43197,6,0,L|425:118,1,80,2|0,0:0|2:0,0:0:0:0:
289,29,43513,2,0,L|284:125,1,80,2|8,0:0|2:1,0:0:0:0:
148,213,43829,2,0,L|143:117,1,80,2|0,0:0|2:0,0:0:0:0:
137,37,44144,1,2,0:0:0:0:
284,108,44302,2,0,L|363:114,1,80,8|2,0:0|0:0,0:0:0:0:
363,114,44539,1,0,0:0:0:0:
363,114,44618,1,8,0:0:0:0:
430,214,44776,5,0,0:0:0:0:
306,201,44934,1,0,0:0:0:0:
404,50,45092,2,0,P|328:45|283:107,1,160,2|2,0:0|0:0,0:0:0:0:
134,169,45565,2,0,P|174:173|231:145,1,80,8|2,0:0|0:0,0:0:0:0:
63,39,46039,5,2,0:0:0:0:
48,156,46197,2,0,P|69:233|152:255,1,160,8|0,0:0|0:0,0:0:0:0:
215,198,46671,1,0,0:0:0:0:
186,347,46829,1,8,0:0:0:0:
322,264,46986,6,0,B|358:236|358:236|411:268|483:264,1,160,4|0,0:0|0:0,0:0:0:0:
505,148,47460,1,8,0:0:0:0:
215,198,47776,2,0,L|240:94,1,80,0|2,0:0|0:0,0:0:0:0:
255,25,48092,1,8,0:0:0:0:
415,76,48250,6,0,L|335:82,1,80,2|0,0:0|2:0,0:0:0:0:
215,198,48565,2,0,L|229:310,1,80,2|8,0:0|2:1,0:0:0:0:
386,326,48881,2,0,L|469:251,1,80,2|0,0:0|2:0,0:0:0:0:
451,175,49197,1,8,0:0:0:0:
342,57,49355,1,8,0:0:0:0:
233,99,49513,1,0,0:0:0:0:
233,99,49592,1,0,0:0:0:0:
233,99,49671,6,0,P|266:125|315:139,1,80,8|0,0:0|0:0,0:0:0:0:
138,205,49986,2,0,P|109:220|69:268,1,80,0|2,0:0|0:0,0:0:0:0:
321,277,50460,1,2,0:0:0:0:
138,205,50618,1,8,0:0:0:0:
301,137,50776,6,0,P|386:121|477:143,1,160,4|0,0:2|0:0,0:0:0:0:
416,27,51250,1,8,0:0:0:0:
309,43,51408,1,4,3:0:0:0:
297,45,51486,1,4,3:0:0:0:
285,47,51565,1,4,3:0:0:0:
273,49,51644,1,4,3:0:0:0:
261,52,51723,1,4,3:0:0:0:
249,54,51802,1,4,3:0:0:0:
237,57,51881,2,4,L|172:74,1,40,4|4,3:0|3:0,3:0:0:0:
91,29,52039,2,4,L|156:12,1,40,4|4,3:0|3:0,3:0:0:0:
120,112,52197,5,4,0:2:0:0:
64,89,62302,6,0,L|165:88,1,80,4|0,0:0|0:0,0:0:0:0:
243,88,62618,1,8,0:0:0:0:
281,175,62776,1,2,0:0:0:0:
89,185,63092,1,2,0:0:0:0:
60,276,63250,2,0,L|35:367,1,80,8|2,0:0|0:0,0:0:0:0:
158,332,63565,6,0,L|249:332,1,80
381,265,63881,2,0,L|290:265,1,80,8|0,0:0|0:0,0:0:0:0:
215,243,64197,1,4,3:0:0:0:
215,243,64276,1,4,3:0:0:0:
215,243,64355,2,0,L|204:202,1,40,4|4,3:0|3:0,0:0:0:0:
270,136,64513,1,4,3:0:0:0:
270,136,64592,1,4,3:0:0:0:
270,136,64671,2,0,L|281:177,1,40,4|4,3:0|3:0,0:0:0:0:
382,189,64829,6,0,L|360:107,1,80,4|0,0:0|0:0,0:0:0:0:
333,19,65144,1,8,0:0:0:0:
239,41,65302,1,2,0:0:0:0:
125,209,65618,1,0,0:0:0:0:
215,243,65776,2,0,L|181:326,1,80,8|2,0:0|0:0,0:0:0:0:
91,290,66092,5,0,0:0:0:0:
184,317,66250,1,0,0:0:0:0:
279,305,66408,1,8,0:0:0:0:
360,255,66565,1,2,0:0:0:0:
381,161,66723,1,4,3:0:0:0:
381,136,66802,1,4,3:0:0:0:
378,112,66881,1,4,3:0:0:0:
368,89,66960,1,4,3:0:0:0:
352,70,67039,2,4,L|303:34,1,40,4|4,3:0|3:0,3:0:0:0:
235,77,67197,2,4,L|284:113,1,40,4|4,3:0|3:0,3:0:0:0:
230,170,67355,6,0,L|150:170,1,80,4|0,0:0|0:0,0:0:0:0:
53,171,67671,1,8,0:0:0:0:
42,75,67829,1,2,0:0:0:0:
24,278,68144,1,2,0:0:0:0:
117,261,68302,2,0,P|161:248|217:259,1,80,8|2,0:0|0:0,0:0:0:0:
378,319,68618,5,0,0:0:0:0:
293,272,68776,1,0,0:0:0:0:
318,179,68934,2,0,P|325:138|310:76,1,80,8|2,0:0|0:0,0:0:0:0:
249,33,69250,1,4,3:0:0:0:
237,35,69329,1,4,3:0:0:0:
225,38,69408,1,4,3:0:0:0:
213,40,69486,1,4,3:0:0:0:
201,44,69565,1,4,3:0:0:0:
189,48,69644,1,4,3:0:0:0:
177,51,69723,1,4,3:0:0:0:
166,56,69802,1,4,3:0:0:0:
154,58,69881,6,0,L|178:143,1,80,8|2,0:0|0:0,0:0:0:0:
103,248,70197,2,0,L|71:151,1,80,8|2,0:0|0:0,0:0:0:0:
200,230,70513,1,0,0:0:0:0:
77,172,70671,1,2,0:0:0:0:
175,134,70829,1,0,0:0:0:0:
103,248,70986,1,2,0:0:0:0:
200,230,71144,6,0,L|241:251,3,40,8|0|0|0,0:0|0:0|0:0|0:0,0:0:0:0:
242,331,71460,2,0,L|201:310,3,40
317,325,71776,1,0,0:0:0:0:
336,324,71855,1,0,0:0:0:0:
355,319,71934,1,0,0:0:0:0:
374,314,72013,1,0,0:0:0:0:
392,307,72092,1,0,0:0:0:0:
410,298,72171,1,0,0:0:0:0:
423,283,72250,1,0,0:0:0:0:
432,265,72329,1,0,0:0:0:0:
435,245,72408,6,0,B|449:207|435:168|435:168|386:142|322:159,1,160,4|8,0:0|0:0,0:0:0:0:
247,39,72881,2,0,L|231:135,1,80
77,183,73197,2,0,L|164:190,1,80,0|2,0:0|0:0,0:0:0:0:
214,297,73513,6,0,L|46:282,1,160,2|2,0:0|0:0,0:0:0:0:
77,183,73986,1,8,0:0:0:0:
240,220,74144,2,0,P|281:250|258:360,1,160,2|2,0:0|0:0,0:0:0:0:
387,299,74618,2,0,P|425:275|490:283,1,80,8|0,0:0|0:0,0:0:0:0:
459,272,74855,1,0,0:0:0:0:
459,272,74934,5,8,0:0:0:0:
482,159,75092,1,2,0:0:0:0:
451,68,75250,1,0,0:0:0:0:
300,112,75408,2,0,P|257:121|207:106,1,80,2|0,0:0|0:0,0:0:0:0:
63,94,75723,1,2,0:0:0:0:
187,22,75881,1,8,0:0:0:0:
171,185,76039,6,0,P|252:228|328:207,1,160,2|0,0:0|0:0,0:0:0:0:
341,112,76513,1,8,0:0:0:0:
98,240,76829,1,0,0:0:0:0:
98,240,76986,2,0,P|128:261|143:318,1,80,2|8,0:0|0:0,0:0:0:0:
171,185,77302,6,0,P|237:132|241:37,1,160,4|0,0:0|0:0,0:0:0:0:
157,26,77776,1,8,0:0:0:0:
399,169,78092,2,0,L|374:247,1,80,0|2,0:0|0:0,0:0:0:0:
342,336,78408,1,8,0:0:0:0:
262,214,78565,2,0,P|176:175|101:190,1,160,2|2,0:0|0:0,0:0:0:0:
34,240,79039,1,8,0:0:0:0:
80,115,79197,2,0,P|148:95|261:118,1,160,2|2,0:0|0:0,0:0:0:0:
321,148,79671,1,8,0:0:0:0:
188,246,79829,5,0,0:0:0:0:
188,246,79908,1,0,0:0:0:0:
188,246,79986,1,8,0:0:0:0:
316,271,80144,1,0,0:0:0:0:
235,106,80302,1,8,0:0:0:0:
359,212,80460,1,6,0:0:0:0:
80,115,80776,1,2,0:0:0:0:
34,240,80934,1,8,0:0:0:0:
162,169,81092,6,0,P|226:177|261:260,1,160,2|0,0:0|0:0,0:0:0:0:
359,212,81565,2,4,L|363:160,2,26.6666666666667,4|4|4,3:0|3:0|3:0,3:0:0:0:
447,164,81776,2,4,L|452:106,3,53.3333333333333,4|4|4|4,3:0|3:0|3:0|3:0,3:0:0:0:
434,257,82197,2,0,L|469:342,1,80,8|2,0:0|0:0,0:0:0:0:
310,282,82513,6,0,P|255:259|162:296,1,160,4|8,0:0|0:0,0:0:0:0:
77,331,82986,2,0,P|42:298|32:242,1,80,2|0,0:0|0:0,0:0:0:0:
38,172,83302,1,0,0:0:0:0:
131,194,83460,1,8,0:0:0:0:
221,160,83618,2,0,P|232:125|220:50,1,80,2|0,0:0|2:0,0:0:0:0:
340,200,83934,2,0,P|351:165|339:90,1,80,2|8,0:0|2:1,0:0:0:0:
459,249,84250,2,0,P|470:214|458:139,1,80,2|0,0:0|2:0,0:0:0:0:
429,84,84565,1,2,0:0:0:0:
340,200,84723,2,0,P|316:237|317:277,1,80,8|0,0:0|0:0,0:0:0:0:
402,313,85039,5,8,0:0:0:0:
340,200,85197,1,0,0:0:0:0:
245,321,85355,1,0,0:0:0:0:
250,199,85513,2,0,P|285:133|372:122,1,160,6|2,0:0|0:0,0:0:0:0:
178,139,85986,2,0,L|88:160,1,80,8|2,0:0|0:0,0:0:0:0:
340,200,86460,5,2,0:0:0:0:
245,321,86618,2,0,P|159:295|121:222,1,160,8|0,0:0|0:0,0:0:0:0:
178,139,87092,1,0,0:0:0:0:
250,199,87250,1,8,0:0:0:0:
232,68,87408,6,0,B|284:44|284:44|332:88|324:144,1,160,4|0,0:0|0:0,0:0:0:0:
250,199,87881,1,8,0:0:0:0:
416,110,88197,2,0,L|479:32,1,80,0|2,0:0|0:0,0:0:0:0:
475,189,88513,1,8,0:0:0:0:
324,134,88671,2,0,P|279:118|224:138,1,80,2|0,0:0|2:0,0:0:0:0:
95,227,88986,2,0,P|139:211|195:231,1,80,2|8,0:0|2:1,0:0:0:0:
323,305,89302,2,0,P|278:289|223:309,1,80,2|0,0:0|2:0,0:0:0:0:
118,319,89618,1,8,0:0:0:0:
250,199,89776,1,8,0:0:0:0:
95,227,89934,1,0,0:0:0:0:
95,227,90013,1,0,0:0:0:0:
95,227,90092,6,0,P|63:237|23:285,1,80,8|0,0:0|0:0,0:0:0:0:
30,124,90408,2,0,P|59:109|99:61,1,80,2|2,0:0|0:0,0:0:0:0:
118,319,90881,1,2,0:0:0:0:
160,179,91039,1,0,0:0:0:0:
309,244,91197,1,4,0:2:0:0:
256,192,91276,12,4,92618,0:2:0:0:
404,304,93250,6,0,L|324:308,1,68.0000012969971,0|2,1:0|0:0,0:0:0:0:
205,246,93565,2,0,L|273:243,1,68.0000012969971,2|0,0:0|0:0,0:0:0:0:
38,340,94355,1,2,0:0:0:0:
125,313,94513,2,0,L|117:230,1,68.0000012969971,0|2,1:0|0:0,0:0:0:0:
49,211,94829,2,0,L|57:128,1,68.0000012969971,2|2,0:0|0:0,0:0:0:0:
120,57,95144,5,4,0:0:0:0:
265,114,95460,1,2,0:0:0:0:
412,62,95776,1,0,1:0:0:0:
476,209,96092,2,0,L|449:291,1,68.0000012969971,2|0,0:0|0:0,0:0:0:0:
455,270,96723,5,2,0:0:0:0:
379,251,96881,2,0,P|346:239|298:241,1,68.0000012969971,0|0,0:0|1:0,0:0:0:0:
242,263,97197,1,0,0:0:0:0:
164,267,97355,1,0,0:0:0:0:
91,237,97513,1,2,0:0:0:0:
10,282,97671,6,0,P|51:322|128:320,1,136.000002593994,4|0,0:0|0:0,0:0:0:0:
157,176,98302,2,0,L|168:109,1,68.0000012969971,0|2,1:0|0:0,0:0:0:0:
253,55,98618,2,0,L|242:122,1,68.0000012969971,2|0,0:0|0:0,0:0:0:0:
95,64,99092,1,2,0:0:0:0:
33,207,99408,1,2,0:0:0:0:
65,277,99565,2,0,L|93:344,1,68.0000012969971,0|2,1:0|0:0,0:0:0:0:
156,295,99881,2,0,L|231:291,1,68.0000012969971,2|0,0:0|0:0,0:0:0:0:
266,227,100197,6,0,P|301:282|266:356,1,136.000002593994,4|2,0:0|0:0,0:0:0:0:
194,184,100829,1,0,1:0:0:0:
241,122,100986,1,0,0:0:0:0:
191,61,101144,1,2,0:0:0:0:
145,124,101302,1,4,0:0:0:0:
321,146,101618,5,0,0:0:0:0:
321,146,101697,1,0,0:0:0:0:
321,146,101776,1,0,0:0:0:0:
423,64,101934,1,0,2:0:0:0:
423,64,102013,1,0,2:0:0:0:
423,64,102092,1,0,0:0:0:0:
349,35,102250,1,0,0:0:0:0:
272,51,102408,1,0,0:0:0:0:
241,122,102565,1,0,0:0:0:0:
259,203,102723,6,0,P|321:227|397:181,1,160,4|8,0:0|0:0,0:0:0:0:
498,337,103355,1,2,0:0:0:0:
407,305,103513,1,2,0:0:0:0:
325,355,103671,1,8,0:0:0:0:
241,307,103829,6,0,P|146:297|87:331,1,160,2|0,0:0|0:0,0:0:0:0:
14,383,104302,1,8,0:0:0:0:
27,227,104460,2,0,L|40:134,1,80,2|0,0:0|0:0,0:0:0:0:
52,46,104776,1,2,0:0:0:0:
159,39,104934,1,8,0:0:0:0:
38,147,105092,1,2,0:0:0:0:
187,119,105250,6,0,P|234:103|283:113,1,80,4|0,0:0|0:0,0:0:0:0:
170,209,105565,2,0,P|123:225|74:215,1,80,8|0,0:0|0:0,0:0:0:0:
243,187,105881,2,0,P|263:222|265:264,1,80,2|0,0:0|0:0,0:0:0:0:
181,308,106197,1,8,0:0:0:0:
359,216,106355,2,0,B|403:188|403:188|456:187|456:187|511:152,1,160,2|0,0:0|0:0,0:0:0:0:
480,25,106829,1,8,0:0:0:0:
352,3,106986,2,0,B|347:57|347:57|316:100|316:100|312:152,1,160,2|0,0:0|0:0,0:0:0:0:
187,119,107460,1,8,0:0:0:0:
96,208,107618,1,2,0:0:0:0:
181,308,107776,6,0,P|256:297|339:320,1,160,4|8,0:0|0:0,0:0:0:0:
490,187,108408,1,0,0:0:0:0:
396,206,108565,1,2,0:0:0:0:
393,109,108723,1,8,0:0:0:0:
301,137,108881,2,0,P|237:150|145:131,1,160,2|0,0:0|0:0,0:0:0:0:
63,80,109355,5,8,0:0:0:0:
78,214,109513,2,0,L|87:294,1,80,0|2,0:0|0:0,0:0:0:0:
148,367,109829,1,2,0:0:0:0:
0,311,109986,1,8,0:0:0:0:
177,258,110144,1,2,0:0:0:0:
135,146,110302,6,0,P|60:131|0:183,1,160,4|8,0:0|0:0,0:0:0:0:
0,311,110776,1,0,0:0:0:0:
177,258,110934,2,0,P|252:243|312:295,1,160,0|8,0:0|0:0,0:0:0:0:
227,341,111408,1,0,0:0:0:0:
227,341,111486,1,0,0:0:0:0:
227,341,111565,5,4,0:0:0:0:
311,293,111723,1,8,0:0:0:0:
265,208,111881,1,0,0:0:0:0:
349,160,112039,1,8,0:0:0:0:
302,75,112197,1,0,0:0:0:0:
218,123,112355,1,8,0:0:0:0:
168,40,112513,1,0,0:0:0:0:
84,88,112671,1,8,0:0:0:0:
132,180,112829,6,2,P|165:259|119:346,1,184.000003509522,4|8,0:0|0:0,0:0:0:0:
227,341,113302,1,0,0:0:0:0:
227,341,113381,1,0,0:0:0:0:
227,341,113460,2,0,P|261:360|336:357,1,92.0000017547608,2|0,0:0|0:0,0:0:0:0:
446,287,113776,2,0,P|377:227|294:247,1,184.000003509522,8|0,0:0|0:0,0:0:0:0:
336,125,114250,6,2,L|371:16,1,92.0000017547608,2|8,0:0|0:0,0:0:0:0:
221,103,114565,1,0,0:0:0:0:
108,148,114723,2,0,L|69:59,1,92.0000017547608,2|0,0:0|0:0,0:0:0:0:
182,205,115039,2,0,L|286:226,1,92.0000017547608,8|0,0:0|0:0,0:0:0:0:
174,313,115355,6,2,P|70:299|-10:342,1,184.000003509522,6|8,0:0|0:0,0:0:0:0:
33,196,115829,2,2,P|35:94|106:53,1,184.000003509522
296,81,116302,2,0,L|196:63,1,92.0000017547608,8|0,0:0|0:0,0:0:0:0:
182,205,116618,6,2,P|245:188|311:200,1,92.0000017547608
375,226,116934,1,8,0:0:0:0:
285,298,117092,2,2,P|249:326|206:342,1,92.0000017547608,2|0,0:0|0:0,0:0:0:0:
118,273,117408,1,2,0:0:0:0:
271,189,117565,1,10,0:0:0:0:
113,131,117723,1,0,0:0:0:0:
112,140,117802,1,0,0:0:0:0:
110,149,117881,6,2,B|99:200|99:200|116:257|116:257|96:338,1,184.000003509522,4|8,0:0|0:0,0:0:0:0:
285,298,118355,2,2,B|347:281|347:281|403:282|403:282|461:246,1,184.000003509522
387,93,118829,2,0,L|427:175,1,92.0000017547608,8|0,0:0|0:0,0:0:0:0:
286,124,119144,6,2,P|203:101|106:135,1,184.000003509522,2|10,0:0|0:0,0:0:0:0:
47,274,119618,2,0,P|106:277|207:183,1,184.000003509522,2|0,0:0|0:0,0:0:0:0:
218,93,120092,2,0,L|184:4,1,92.0000017547608,8|0,0:0|0:0,0:0:0:0:
70,52,120408,5,6,0:0:0:0:
94,159,120565,1,0,0:0:0:0:
199,203,120723,2,0,P|246:212|314:199,1,92.0000017547608,8|0,0:0|0:0,0:0:0:0:
431,149,121039,1,2,0:0:0:0:
407,256,121196,1,0,0:0:0:0:
302,300,121355,2,0,P|255:309|187:296,1,92.0000017547608,8|0,0:0|0:0,0:0:0:0:
94,159,121671,6,0,L|78:249,1,92.0000017547608,2|2,0:0|0:0,0:0:0:0:
125,316,121986,1,8,0:0:0:0:
199,203,122144,1,2,0:0:0:0:
199,203,122223,1,0,0:0:0:0:
199,203,122302,2,0,L|222:83,1,92.0000017547608,0|2,0:0|0:0,0:0:0:0:
129,43,122618,1,10,0:0:0:0:
305,41,122776,1,0,0:0:0:0:
391,145,122934,6,0,P|343:151|299:140,1,92.0000017547608,4|0,0:0|0:0,0:0:0:0:
202,89,123250,1,8,0:0:0:0:
65,137,123408,1,0,0:0:0:0:
65,137,123486,1,0,0:0:0:0:
65,137,123565,2,0,L|89:253,1,92.0000017547608
229,187,123881,2,0,P|270:178|341:190,1,92.0000017547608,8|0,0:0|0:0,0:0:0:0:
398,257,124197,1,0,0:0:0:0:
381,122,124355,6,2,P|384:68|363:25,1,92.0000017547608,2|0,0:0|0:0,0:0:0:0:
258,31,124671,1,0,0:0:0:0:
229,187,124829,2,0,L|248:288,1,92.0000017547608,2|0,0:0|0:0,0:0:0:0:
142,138,125144,2,0,L|120:23,1,92.0000017547608,8|0,0:0|0:0,0:0:0:0:
229,187,125460,6,2,P|314:176|392:102,1,184.000003509522,4|8,0:0|0:0,0:0:0:0:
490,256,125934,2,2,P|430:237|307:272,1,184.000003509522,0|0,0:0|0:0,0:0:0:0:
154,340,126408,2,0,L|203:241,1,92.0000017547608,8|0,0:0|0:0,0:0:0:0:
141,137,126723,6,0,P|96:130|35:143,1,92.0000017547608,6|0,0:0|0:0,0:0:0:0:
0,228,127039,1,8,0:0:0:0:
138,214,127197,1,0,0:0:0:0:
30,70,127355,1,4,3:0:0:0:
50,59,127434,1,4,3:0:0:0:
72,55,127513,1,4,3:0:0:0:
95,54,127592,1,4,3:0:0:0:
117,56,127671,1,4,3:0:0:0:
247,109,127829,5,0,0:0:0:0:
269,107,127908,1,0,0:0:0:0:
291,101,127986,2,0,P|334:94|382:97,1,92.0000017547608,8|0,0:0|0:0,0:0:0:0:
512,191,128302,2,0,P|468:197|421:195,1,92.0000017547608,8|0,0:0|0:0,0:0:0:0:
256,266,128618,2,0,P|299:259|347:262,1,92.0000017547608,8|0,0:0|0:0,0:0:0:0:
477,356,128934,2,0,P|433:362|386:360,1,92.0000017547608,8|0,0:0|0:0,0:0:0:0:
212,186,129250,6,0,L|162:268,1,92.0000017547608,8|0,0:0|0:0,0:0:0:0:
172,111,129565,2,0,L|117:32,1,92.0000017547608,8|0,0:0|0:0,0:0:0:0:
122,196,129881,2,0,L|68:278,1,92.0000017547608,8|0,0:0|0:0,0:0:0:0:
86,121,130197,2,0,L|27:44,1,92.0000017547608,8|0,0:0|0:0,0:0:0:0:
86,121,130513,5,12,0:0:0:0:
86,121,130671,1,0,0:0:0:0:
122,196,130829,1,8,0:0:0:0:
122,196,130986,1,0,0:0:0:0:
172,111,131144,1,8,0:0:0:0:
172,111,131302,1,0,0:0:0:0:
212,186,131460,1,8,0:0:0:0:
212,186,131618,1,0,0:0:0:0:
267,119,131776,6,4,L|347:129,2,61.3333345031739,4|4|4,3:0|3:0|3:0,3:0:0:0:
365,211,132092,2,4,L|285:201,2,61.3333345031739,4|4|4,3:0|3:0|3:0,3:0:0:0:
229,271,132408,2,4,L|309:281,1,61.3333345031739,4|4,3:0|3:0,3:0:0:0:
367,359,132618,2,4,L|287:349,1,61.3333345031739,4|4,3:0|3:0,3:0:0:0:
164,337,132881,6,2,B|133:292|133:292|89:264|89:264|68:199,1,160,4|8,0:0|0:0,0:0:0:0:
53,118,133355,1,0,0:0:0:0:
267,119,133671,1,0,0:0:0:0:
227,206,133829,1,0,0:0:0:0:
314,237,133986,1,8,0:0:0:0:
278,326,134144,6,0,P|353:349|436:323,1,160,2|0,0:0|0:0,0:0:0:0:
411,249,134618,2,0,L|429:326,1,80,8|0,0:0|0:0,0:0:0:0:
410,160,134934,2,0,L|431:70,1,80,2|0,0:0|0:0,0:0:0:0:
428,82,135250,1,8,0:0:0:0:
267,119,135408,6,0,P|189:133|109:117,1,160,2|0,0:0|0:0,0:0:0:0:
40,51,135881,1,8,0:0:0:0:
5,256,136197,1,2,0:0:0:0:
94,220,136355,1,0,0:0:0:0:
168,281,136513,1,8,0:0:0:0:
257,245,136671,6,0,B|306:222|306:222|359:224|424:264,1,160,2|2,0:0|0:0,0:0:0:0:
489,299,137144,1,8,0:0:0:0:
484,146,137302,2,0,B|435:123|435:123|382:125|317:165,1,160,2|2,0:0|0:0,0:0:0:0:
257,245,137776,1,8,0:0:0:0:
232,118,137934,6,0,P|150:99|73:123,1,160,4|0,0:0|0:0,0:0:0:0:
39,207,138408,2,0,L|-1:295,1,80,8|0,0:0|0:0,0:0:0:0:
113,225,138723,2,0,L|144:298,1,80,2|0,0:0|0:0,0:0:0:0:
167,176,139039,2,0,L|252:203,1,80,8|0,0:0|0:0,0:0:0:0:
19,46,139513,5,0,0:0:0:0:
31,43,139592,1,0,0:0:0:0:
43,40,139671,2,0,P|84:33|136:41,1,80,8|0,0:0|0:0,0:0:0:0:
197,96,139986,1,0,0:0:0:0:
84,141,140144,1,2,0:0:0:0:
196,17,140302,1,8,0:0:0:0:
167,176,140460,6,2,B|150:227|150:227|132:272|208:314,1,160,6|2,0:0|0:0,0:0:0:0:
289,271,140934,1,8,0:0:0:0:
197,96,141250,1,0,0:0:0:0:
283,53,141408,1,0,0:0:0:0:
372,85,141565,2,0,L|393:177,1,80,8|0,0:0|0:0,0:0:0:0:
280,176,141881,6,0,L|240:254,1,80,4|0,0:0|0:0,0:0:0:0:
389,162,142197,2,0,L|429:240,1,80,8|0,0:0|0:0,0:0:0:0:
427,52,142513,2,0,L|535:63,1,80,0|8,0:0|0:0,0:0:0:0:
498,173,142829,1,8,0:0:0:0:
348,207,142986,6,0,P|241:228|100:208,1,240,4|8,0:0|0:0,0:0:0:0:
74,301,143618,1,0,0:0:0:0:
171,316,143776,1,2,0:0:0:0:
251,263,143934,1,0,0:0:0:0:
198,183,144092,1,8,0:0:0:0:
277,129,144250,6,0,P|346:110|452:143,1,160,2|0,0:0|0:0,0:0:0:0:
481,210,144723,1,8,0:0:0:0:
390,243,144881,1,2,0:0:0:0:
428,330,145039,1,0,0:0:0:0:
307,287,145197,2,0,L|234:253,1,80,0|8,0:0|0:0,0:0:0:0:
50,203,145513,6,0,P|123:167|213:193,1,160,2|0,0:0|0:0,0:0:0:0:
197,182,145908,1,0,0:0:0:0:
197,182,145986,1,8,0:0:0:0:
168,74,146144,1,0,0:0:0:0:
129,245,146302,1,0,0:0:0:0:
280,213,146460,1,2,0:0:0:0:
168,74,146618,1,8,0:0:0:0:
307,109,146776,6,6,P|371:162|376:242,1,160,6|2,0:0|0:0,0:0:0:0:
330,318,147250,1,8,0:0:0:0:
280,213,147408,2,6,P|200:178|121:187,1,160,2|2,0:0|0:0,0:0:0:0:
40,220,147881,1,8,0:0:0:0:
93,101,148039,6,0,P|132:184|216:179,1,160,4|0,0:0|0:0,0:0:0:0:
291,74,148513,1,8,0:0:0:0:
291,74,148592,1,0,0:0:0:0:
291,74,148671,2,0,L|252:120,1,40
349,150,148829,1,0,0:0:0:0:
349,150,148908,1,0,0:0:0:0:
349,150,148986,2,0,L|388:196,1,40
280,213,149144,1,8,0:0:0:0:
280,213,149223,1,0,0:0:0:0:
280,213,149302,2,0,L|241:259,1,40
353,266,149460,6,0,P|393:272|420:269,3,40
447,212,149776,2,0,P|487:206|514:209,3,40,8|0|0|0,0:0|0:0|0:0|0:0,0:0:0:0:
417,120,150092,2,0,L|342:149,1,80,2|0,0:0|0:0,0:0:0:0:
169,142,150408,2,0,L|254:110,1,80,8|0,0:0|0:0,0:0:0:0:
280,213,150723,5,0,0:0:0:0:
353,266,150881,1,4,3:0:0:0:
353,266,150960,1,4,3:0:0:0:
353,266,151039,1,4,3:0:0:0:
235,282,151197,1,4,3:0:0:0:
235,282,151276,1,4,3:0:0:0:
235,282,151355,1,4,3:0:0:0:
210,164,151513,1,4,3:0:0:0:
210,164,151592,1,4,3:0:0:0:
210,164,151671,1,4,3:0:0:0:
242,51,151829,1,4,3:0:0:0:
242,51,151908,1,4,3:0:0:0:
242,51,151986,6,0,P|286:45|353:56,1,80
428,146,152302,2,0,P|384:152|317:141,1,80
210,164,152618,1,4,3:0:0:0:
193,164,152697,1,4,3:0:0:0:
176,164,152776,1,4,3:0:0:0:
160,168,152855,1,4,3:0:0:0:
144,172,152934,1,4,3:0:0:0:
129,178,153013,1,4,3:0:0:0:
113,179,153092,1,4,3:0:0:0:
97,181,153171,1,4,3:0:0:0:
79,180,153250,6,0,P|80:228|95:303,1,92.0000017547608,4|0,0:0|0:0,0:0:0:0:
181,328,153565,1,8,0:0:0:0:
265,256,153723,1,2,0:0:0:0:
279,131,153881,2,0,P|234:92|181:90,1,92.0000017547608,2|2,0:0|0:0,0:0:0:0:
92,96,154197,1,8,0:0:0:0:
191,17,154355,6,0,P|291:25|359:109,1,184.000003509522,6|2,0:0|0:0,0:0:0:0:
387,195,154829,2,0,P|425:177|459:128,1,92.0000017547608,8|0,0:0|0:0,0:0:0:0:
279,131,155144,2,0,P|238:111|186:116,1,92.0000017547608,2|2,0:0|0:0,0:0:0:0:
129,205,155460,1,8,0:0:0:0:
231,289,155618,1,0,0:0:0:0:
231,289,155697,1,0,0:0:0:0:
231,289,155776,6,0,L|259:188,1,92.0000017547608,4|0,0:0|0:0,0:0:0:0:
192,114,156092,1,8,0:0:0:0:
254,22,156250,1,2,0:0:0:0:
352,86,156408,2,0,P|361:120|354:186,1,92.0000017547608,2|2,0:0|0:0,0:0:0:0:
330,283,156723,1,8,0:0:0:0:
211,200,156881,6,0,P|123:177|33:219,1,184.000003509522,6|2,0:0|0:0,0:0:0:0:
6,95,157355,2,0,B|45:67|97:72,1,92.0000017547608,8|2,0:0|0:0,0:0:0:0:
192,114,157671,2,4,L|245:138,3,46.0000008773804,4|4|2|4,3:0|3:0|0:1|3:0,3:0:0:0:
310,65,157986,2,4,L|352:86,3,46.0000008773804,12|4|2|4,3:0|3:0|3:1|3:0,3:0:0:0:
302,152,158302,6,0,P|299:197|307:253,1,92.0000017547608,4|0,0:0|0:0,0:0:0:0:
195,318,158618,2,0,P|198:264|187:198,1,92.0000017547608,8|2,0:0|0:0,0:0:0:0:
192,114,158934,1,2,0:0:0:0:
100,52,159092,1,2,0:0:0:0:
43,146,159250,1,10,0:0:0:0:
173,44,159408,6,0,P|266:31|359:63,1,184.000003509522,6|2,0:0|0:0,0:0:0:0:
323,220,159881,2,0,L|341:124,1,92.0000017547608,8|2,0:0|0:0,0:0:0:0:
429,86,160197,1,0,0:0:0:0:
439,205,160355,1,2,0:0:0:0:
323,220,160513,1,8,3:1:0:0:
323,220,160592,1,4,3:0:0:0:
323,220,160671,1,4,3:0:0:0:
323,220,160750,1,4,3:0:0:0:
323,220,160829,6,0,L|219:225,1,92.0000017547608,6|0,0:0|0:0,0:0:0:0:
121,233,161144,1,8,0:0:0:0:
171,134,161302,1,2,0:0:0:0:
176,282,161460,2,0,P|209:304|277:304,1,92.0000017547608,0|2,0:0|0:0,0:0:0:0:
368,286,161776,1,8,0:0:0:0:
317,140,161934,6,0,P|229:120|124:157,1,184.000003509522,6|2,0:0|0:0,0:0:0:0:
204,45,162408,2,0,P|248:28|320:41,1,92.0000017547608,8|2,0:0|0:0,0:0:0:0:
454,64,162723,2,0,P|399:76|355:69,1,92.0000017547608,0|2,0:0|0:0,0:0:0:0:
410,173,163039,1,8,0:0:0:0:
254,199,163197,1,2,0:0:0:0:
368,286,163355,6,0,P|362:331|345:367,1,80,6|2,0:0|0:0,0:0:0:0:
252,347,163671,1,8,0:0:0:0:
189,273,163829,1,2,0:0:0:0:
104,317,163986,2,0,P|75:343|36:353,1,80,2|2,0:0|0:0,0:0:0:0:
8,260,164302,1,8,0:0:0:0:
113,156,164460,6,0,P|180:148|254:199,1,160,6|2,0:0|0:0,0:0:0:0:
308,105,164934,2,0,L|346:24,1,80,8|2,0:0|0:0,0:0:0:0:
458,73,165250,1,0,0:0:0:0:
453,88,165329,1,0,0:3:0:0:
447,103,165408,1,2,0:0:0:0:
440,117,165486,1,0,0:3:0:0:
435,132,165565,2,0,L|397:220,1,80,8|2,0:0|0:0,0:0:0:0:
254,210,165881,5,6,0:0:0:0:
337,258,166039,1,2,0:0:0:0:
197,291,166197,2,0,L|119:310,1,80,8|2,0:0|0:0,0:0:0:0:
49,243,166513,1,2,0:0:0:0:
111,169,166671,1,2,0:0:0:0:
197,291,166829,1,8,0:0:0:0:
195,136,166986,6,0,P|262:123|343:170,1,160,6|2,0:0|0:0,0:0:0:0:
311,36,167460,2,0,P|266:33|223:41,1,80,8|2,0:0|0:0,0:0:0:0:
108,85,167776,1,0,0:0:0:0:
106,100,167855,1,0,0:0:0:0:
107,115,167934,1,2,0:0:0:0:
108,130,168013,1,0,0:0:0:0:
112,145,168092,1,8,0:0:0:0:
243,193,168250,1,2,0:0:0:0:
243,193,168329,1,0,0:0:0:0:
243,193,168408,6,0,P|288:208|334:204,1,80,4|2,0:0|0:0,0:0:0:0:
410,175,168723,1,8,0:0:0:0:
491,225,168881,1,2,0:0:0:0:
416,343,169039,2,0,P|399:305|402:252,1,80,2|2,0:0|0:0,0:0:0:0:
410,175,169355,1,8,0:0:0:0:
303,281,169513,6,0,P|231:288|152:253,1,160,6|2,0:0|0:0,0:0:0:0:
93,177,169986,1,8,0:0:0:0:
217,117,170144,1,2,0:0:0:0:
98,73,170302,1,0,0:0:0:0:
112,67,170381,1,0,0:0:0:0:
126,61,170460,1,2,0:0:0:0:
141,56,170539,1,0,0:0:0:0:
156,52,170618,2,0,P|194:34|243:38,1,80,8|2,0:0|0:0,0:0:0:0:
328,78,170934,5,4,0:0:0:0:
217,117,171092,1,0,0:0:0:0:
213,132,171171,1,0,0:0:0:0:
210,147,171250,1,8,0:0:0:0:
308,198,171408,1,0,0:0:0:0:
312,213,171487,1,0,0:0:0:0:
315,228,171566,1,8,0:0:0:0:
212,238,171723,1,0,0:0:0:0:
208,253,171802,1,0,0:0:0:0:
205,268,171881,1,8,0:0:0:0:
304,318,172039,1,0,0:0:0:0:
182,341,172197,6,4,L|128:346,2,53.3333333333333,4|4|4,3:0|3:0|3:0,3:0:0:0:
111,259,172513,2,4,L|57:264,2,53.3333333333333,4|4|4,3:0|3:0|3:0,3:0:0:0:
51,177,172829,1,4,3:0:0:0:
154,163,172986,1,4,3:0:0:0:
208,253,173144,1,4,3:0:0:0:
111,259,173302,1,4,3:0:0:0:
59,336,173460,5,4,2:0:0:0:
472,116,182460,6,0,L|497:202,1,80,2|8,0:0|0:0,0:0:0:0:
384,144,182776,1,0,3:0:0:0:
384,144,182855,1,0,3:0:0:0:
384,144,182934,2,0,L|358:57,1,80,2|8,0:0|0:0,0:0:0:0:
361,67,183565,6,0,P|299:43|223:89,1,160,4|8,0:0|0:0,0:0:0:0:
32,312,184197,1,2,0:0:0:0:
72,224,184355,1,2,0:0:0:0:
32,136,184513,1,8,0:0:0:0:
152,172,184671,6,0,P|247:182|306:148,1,160,2|0,0:0|0:0,0:0:0:0:
361,67,185144,1,8,0:0:0:0:
417,190,185302,2,0,L|466:291,1,80,2|0,0:0|0:0,0:0:0:0:
438,357,185618,1,2,0:0:0:0:
340,293,185776,1,8,0:0:0:0:
417,190,185934,1,2,0:0:0:0:
250,238,186092,6,0,P|203:254|154:244,1,80,4|0,0:0|0:0,0:0:0:0:
340,293,186407,2,0,P|387:277|436:287,1,80,8|0,0:0|0:0,0:0:0:0:
312,159,186723,2,0,P|277:139|235:137,1,80,2|0,0:0|0:0,0:0:0:0:
148,171,187039,1,8,0:0:0:0:
106,296,187197,2,0,B|152:266|152:266|205:265|205:265|249:237,1,160,2|0,0:0|0:0,0:0:0:0:
340,293,187671,1,8,0:0:0:0:
413,172,187828,2,0,B|437:121|437:121|413:79|413:79|452:22,1,160,2|2,0:0|0:0,0:0:0:0:
444,33,188223,1,0,0:0:0:0:
444,33,188302,5,8,0:0:0:0:
331,76,188460,1,2,0:0:0:0:
258,175,188618,2,0,P|336:192|412:171,1,160,4|8,0:0|0:0,0:0:0:0:
331,76,189092,1,0,0:0:0:0:
331,76,189171,1,0,0:0:0:0:
331,76,189250,1,0,0:0:0:0:
235,79,189407,1,2,0:0:0:0:
172,151,189565,1,8,0:0:0:0:
277,256,189723,2,0,P|358:279|432:252,1,160,2|0,0:0|0:0,0:0:0:0:
427,256,190197,5,8,0:0:0:0:
417,135,190355,2,0,L|408:55,1,80,0|2,0:0|0:0,0:0:0:0:
321,11,190671,1,2,0:0:0:0:
274,144,190828,1,8,0:0:0:0:
408,55,190986,1,2,0:0:0:0:
234,78,191144,6,0,P|166:98|69:69,1,160,4|8,0:0|0:0,0:0:0:0:
81,77,191618,1,0,0:0:0:0:
8,199,191776,2,0,P|78:232|171:225,1,160,2|8,0:0|0:0,0:0:0:0:
159,228,192250,1,0,0:0:0:0:
274,144,192408,6,4,L|284:191,3,40,4|4|4|4,3:0|3:0|3:0|3:0,3:0:0:0:
380,228,192723,2,4,L|370:181,3,40,4|4|4|4,3:0|3:0|3:0|3:0,3:0:0:0:
299,262,193039,2,4,L|286:308,1,40,4|4,3:0|3:0,3:0:0:0:
375,319,193197,2,4,L|388:365,1,40,4|4,3:0|3:0,3:0:0:0:
457,280,193355,1,4,2:0:0:0:
457,280,193671,6,2,P|478:203|453:103,1,184.000003509522,4|8,0:0|0:0,0:0:0:0:
279,132,194144,1,0,0:0:0:0:
279,132,194223,1,0,0:0:0:0:
279,132,194302,2,0,P|313:151|388:148,1,92.0000017547608,2|0,0:0|0:0,0:0:0:0:
299,262,194618,2,0,P|212:242|146:301,1,184.000003509522,8|0,0:0|0:0,0:0:0:0:
90,131,195092,6,2,L|125:240,1,92.0000017547608,2|8,0:0|0:0,0:0:0:0:
146,301,195407,1,0,0:0:0:0:
235,326,195565,2,0,L|341:329,1,92.0000017547608,2|0,0:0|0:0,0:0:0:0:
425,195,195881,2,0,L|325:191,1,92.0000017547608,8|0,0:0|0:0,0:0:0:0:
195,117,196197,6,0,P|299:131|379:88,1,184.000003509522,6|8,0:0|0:0,0:0:0:0:
425,195,196671,2,0,P|431:280|373:361,1,184.000003509522,2|0,0:0|0:0,0:0:0:0:
238,244,197144,2,0,L|338:262,1,92.0000017547608,10|0,0:0|0:0,0:0:0:0:
165,311,197460,6,2,P|102:328|36:316,1,92.0000017547608
47,219,197776,1,8,0:0:0:0:
116,133,197934,2,2,P|152:105|195:89,1,92.0000017547608,2|0,0:0|0:0,0:0:0:0:
305,104,198250,1,2,0:0:0:0:
238,244,198407,1,10,0:0:0:0:
402,290,198565,1,0,0:0:0:0:
402,290,198644,1,0,0:0:0:0:
402,290,198723,6,2,B|417:232|403:204|403:204|359:182|279:193,1,184.000003509522,4|8,0:0|0:0,0:0:0:0:
144,143,199197,2,2,B|129:201|143:229|143:229|187:251|267:240,1,184.000003509522,2|0,0:0|0:0,0:0:0:0:
223,108,199671,2,0,L|214:4,1,92.0000017547608,8|0,0:0|0:0,0:0:0:0:
305,104,199986,6,0,P|388:127|485:93,1,184.000003509522,2|8,0:0|0:0,0:0:0:0:
500,220,200460,2,0,P|441:217|340:311,1,184.000003509522,2|0,0:0|0:0,0:0:0:0:
233,197,200934,2,0,P|242:243|286:281,1,92.0000017547608,8|0,0:0|0:0,0:0:0:0:
323,187,201250,5,6,0:0:0:0:
223,108,201407,1,0,0:0:0:0:
104,143,201565,2,0,P|56:156|-11:147,1,92.0000017547608,8|0,0:0|0:0,0:0:0:0:
80,250,201881,1,2,0:0:0:0:
104,143,202038,1,0,0:0:0:0:
223,108,202197,2,0,P|270:99|338:112,1,92.0000017547608,8|0,0:0|0:0,0:0:0:0:
400,254,202513,6,0,P|419:202|415:163,1,92.0000017547608,2|2,0:0|0:0,0:0:0:0:
389,61,202828,1,8,0:0:0:0:
323,187,202986,1,2,0:0:0:0:
323,187,203065,1,0,0:0:0:0:
323,187,203144,2,0,P|303:231|311:307,1,92.0000017547608,0|2,0:0|0:0,0:0:0:0:
377,339,203460,1,10,0:0:0:0:
232,338,203618,1,0,0:0:0:0:
116,249,203776,6,0,P|164:243|207:253,1,92.0000017547608,4|0,0:0|0:0,0:0:0:0:
301,274,204092,1,8,0:0:0:0:
245,162,204250,1,0,0:0:0:0:
245,162,204328,1,0,0:0:0:0:
245,162,204407,2,0,P|242:118|261:56,1,92.0000017547608
139,105,204723,2,0,P|98:114|27:102,1,92.0000017547608,8|0,0:0|0:0,0:0:0:0:
17,23,205039,1,0,0:0:0:0:
139,105,205197,6,2,P|136:159|157:202,1,92.0000017547608,2|8,0:0|0:0,0:0:0:0:
223,276,205513,1,0,0:0:0:0:
326,155,205671,2,0,L|356:53,1,92.0000017547608,2|0,0:0|0:0,0:0:0:0:
398,240,205986,2,0,L|420:355,1,92.0000017547608,8|0,0:0|0:0,0:0:0:0:
223,276,206302,6,2,P|137:257|41:283,1,184.000003509522,4|8,0:0|0:0,0:0:0:0:
22,128,206776,2,2,P|82:147|205:112,1,184.000003509522,0|0,0:0|0:0,0:0:0:0:
366,72,207250,2,0,L|317:171,1,92.0000017547608,8|0,0:0|0:0,0:0:0:0:
222,275,207565,6,0,P|177:281|132:275,1,92.0000017547608,4|2,0:0|0:0,0:0:0:0:
35,218,207881,1,8,0:0:0:0:
174,186,208039,1,2,0:0:0:0:
315,229,208197,1,2,3:1:0:0:
301,210,208276,1,4,3:0:0:0:
294,189,208355,1,4,3:0:0:0:
290,166,208434,1,4,3:0:0:0:
289,144,208513,1,2,3:1:0:0:
289,121,208592,1,4,3:0:0:0:
291,97,208671,2,4,L|310:37,1,46.0000008773804
383,76,208828,6,0,P|428:78|474:72,1,92.0000017547608,8|0,0:0|0:0,0:0:0:0:
291,97,209144,2,0,P|245:93|199:100,1,92.0000017547608,8|0,0:0|0:0,0:0:0:0:
371,158,209460,2,0,P|415:152|462:154,1,92.0000017547608,8|0,0:0|0:0,0:0:0:0:
301,210,209776,2,0,P|255:206|209:213,1,92.0000017547608,8|0,0:0|0:0,0:0:0:0:
71,311,210092,6,0,L|128:226,1,92.0000017547608,8|0,0:0|0:0,0:0:0:0:
71,73,210408,2,0,L|128:158,1,92.0000017547608,8|0,0:0|0:0,0:0:0:0:
261,311,210723,2,0,L|204:226,1,92.0000017547608,8|0,0:0|0:0,0:0:0:0:
261,73,211039,2,0,L|204:158,1,92.0000017547608,8|0,0:0|0:0,0:0:0:0:
122,234,211355,5,12,0:0:0:0:
122,234,211513,1,0,0:0:0:0:
122,149,211671,1,8,0:0:0:0:
122,149,211828,1,0,0:0:0:0:
209,149,211986,1,8,0:0:0:0:
209,149,212144,1,0,0:0:0:0:
209,234,212302,1,8,0:0:0:0:
209,234,212460,1,0,0:0:0:0:
256,192,212618,5,0,0:0:0:0:
320,160,212776,1,0,0:0:0:0:
320,224,212934,1,0,0:0:0:0:
352,128,213092,1,0,0:0:0:0:
352,256,213250,1,0,0:0:0:0:
384,96,213408,1,0,0:0:0:0:
384,288,213565,1,0,0:0:0:0:
352,192,213723,6,0,L|172:192,1,160,4|0,0:0|0:0,0:0:0:0:
86,192,214197,1,8,0:0:0:0:
111,271,214355,1,0,0:0:0:0:
207,271,214513,2,0,P|251:268|303:291,1,80
367,328,214829,1,8,0:0:0:0:
276,359,214986,1,2,0:0:0:0:
324,217,215144,6,0,L|350:123,1,80
373,47,215460,1,8,0:0:0:0:
278,61,215618,1,0,0:0:0:0:
252,153,215776,2,0,P|211:159|171:157,1,80,2|2,0:0|0:0,0:0:0:0:
81,125,216092,1,8,0:0:0:0:
119,240,216250,6,0,P|110:296|18:339,1,160,6|0,0:0|0:0,0:0:0:0:
163,345,216723,2,0,L|251:338,1,80,8|0,0:0|0:0,0:0:0:0:
363,259,217039,2,0,L|276:261,1,80
192,226,217355,1,8,0:0:0:0:
227,136,217513,6,0,L|274:46,1,80,2|0,0:0|0:0,0:0:0:0:
348,143,217829,2,0,L|454:113,1,80,2|8,0:0|0:0,0:0:0:0:
363,259,218144,2,0,L|405:358,1,80,2|0,0:0|0:0,0:0:0:0:
394,332,218460,1,2,0:0:0:0:
277,309,218618,1,8,0:0:0:0:
286,190,218776,6,0,P|356:157|435:182,1,160,6|0,0:0|0:0,0:0:0:0:
494,324,219250,2,0,L|460:251,1,80,8|0,0:0|0:0,0:0:0:0:
325,329,219565,2,0,L|363:259,1,80
324,119,219881,2,0,L|282:195,1,80,8|2,0:0|0:0,0:0:0:0:
220,260,220197,5,0,0:0:0:0:
159,185,220355,1,0,0:0:0:0:
171,89,220513,2,0,P|134:88|92:102,1,80,8|0,0:0|0:0,0:0:0:0:
38,181,220829,1,2,0:0:0:0:
159,185,220986,1,2,0:0:0:0:
78,291,221144,1,8,0:0:0:0:
219,259,221302,6,0,P|302:243|386:277,1,160,4|0,0:0|0:0,0:0:0:0:
400,157,221776,2,0,L|329:119,1,80,8|0,0:0|0:0,0:0:0:0:
438,231,222092,2,0,L|509:269,1,80
507,172,222408,1,8,0:0:0:0:
463,86,222565,1,2,0:0:0:0:
400,157,222723,6,4,L|338:158,3,40,4|4|4|4,3:0|3:0|3:0|3:0,3:0:0:0:
307,237,223039,2,4,L|369:236,3,40,4|4|4|4,3:0|3:0|3:0|3:0,3:0:0:0:
251,292,223355,2,0,L|211:292,1,40,4|0,3:0|3:0,3:0:0:0:
233,216,223513,2,4,L|193:216,1,40,4|4,3:0|3:0,3:0:0:0:
222,140,223671,2,4,L|166:141,1,40,4|4,3:0|3:0,3:0:0:0:
211,69,223829,6,0,B|131:71|131:71|90:149,1,160,4|0,0:0|0:0,0:0:0:0:
46,293,224302,2,0,L|73:214,1,80,8|0,0:0|0:0,0:0:0:0:
156,275,224619,2,0,L|173:353,1,80
251,292,224934,1,8,0:0:0:0:
326,336,225092,1,0,0:0:0:0:
409,288,225250,6,0,P|425:250|422:192,1,80
411,116,225566,1,8,0:0:0:0:
335,195,225724,1,0,0:0:0:0:
409,288,225882,2,0,P|451:300|501:286,1,80,2|2,0:0|0:0,0:0:0:0:
481,171,226197,1,8,0:0:0:0:
335,195,226355,6,0,P|262:211|178:201,1,160,4|0,0:0|0:0,0:0:0:0:
40,156,226829,2,0,L|2:237,1,80,8|0,0:0|0:0,0:0:0:0:
82,66,227145,2,0,L|120:136,1,80
178,201,227460,1,8,0:0:0:0:
306,120,227618,6,0,L|226:111,1,80,2|0,0:0|0:0,0:0:0:0:
414,203,227934,2,0,L|334:194,1,80,2|8,0:0|0:0,0:0:0:0:
512,290,228250,2,0,L|432:281,1,80,2|0,0:0|0:0,0:0:0:0:
305,310,228566,1,2,0:0:0:0:
178,201,228724,1,8,0:0:0:0:
306,120,228882,6,0,P|392:130|471:99,1,160,4|0,0:0|0:0,0:0:0:0:
414,203,229355,2,0,L|362:304,1,80,8|0,0:0|0:0,0:0:0:0:
306,120,229671,2,0,L|282:31,1,80
188,47,229987,1,8,0:0:0:0:
199,142,230145,1,0,0:0:0:0:
107,210,230303,6,0,P|91:168|94:128,1,80
199,142,230619,1,8,0:0:0:0:
219,235,230776,1,0,0:0:0:0:
124,293,230934,2,0,P|84:293|33:262,1,80,2|2,0:0|0:0,0:0:0:0:
107,210,231250,1,8,0:0:0:0:
272,178,231408,6,0,P|268:100|186:60,1,160,4|0,0:0|0:0,0:0:0:0:
124,17,231881,1,8,0:0:0:0:
48,69,232040,2,0,L|22:156,1,80
8,240,232355,1,0,0:0:0:0:
57,332,232513,2,0,P|90:339|146:335,1,80,8|0,0:0|0:0,0:0:0:0:
182,252,232829,5,4,0:0:0:0:
271,301,232987,1,0,0:0:0:0:
283,305,233066,1,0,0:0:0:0:
294,309,233145,1,8,0:0:0:0:
272,178,233302,1,0,0:0:0:0:
386,219,233460,1,4,3:0:0:0:
401,216,233539,1,4,3:0:0:0:
415,208,233618,1,4,3:0:0:0:
425,196,233697,1,4,3:0:0:0:
433,182,233776,1,4,3:0:0:0:
440,167,233855,1,4,3:0:0:0:
440,150,233934,6,0,B|429:98|429:98|380:73|298:95,1,160,6|0,0:0|0:0,0:0:0:0:
324,88,234408,1,8,0:0:0:0:
272,178,234565,1,0,0:0:0:0:
265,192,234644,1,0,0:0:0:0:
258,206,234723,1,8,0:0:0:0:
334,247,234881,1,0,0:0:0:0:
341,261,234960,1,0,0:0:0:0:
348,275,235039,1,8,0:0:0:0:
239,294,235197,6,0,P|201:300|131:294,1,80,4|0,0:0|0:0,0:0:0:0:
143,296,235434,1,0,0:0:0:0:
127,293,235513,2,0,P|111:263|109:200,1,80,8|0,0:0|0:0,0:0:0:0:
136,127,235829,1,8,0:0:0:0:
143,113,235908,1,0,0:0:0:0:
150,99,235987,1,0,0:0:0:0:
247,55,236144,1,8,0:0:0:0:
240,69,236223,1,0,0:0:0:0:
233,83,236302,1,0,0:0:0:0:
330,111,236460,5,4,0:2:0:0:
256,192,236539,12,0,237092,0:0:0:0:
