osu file format v14

[General]
AudioFilename: Casket of Star.mp3
AudioLeadIn: 0
PreviewTime: 31474
Countdown: 0
SampleSet: Soft
StackLeniency: 0.7
Mode: 0
LetterboxInBreaks: 0
WidescreenStoryboard: 1

[Editor]
Bookmarks: 11579,31790,52158,72369,92579,112790,123842,132842,142711,153211,173421,176421,183526,193632,213947,233895
DistanceSpacing: 1.3
BeatDivisor: 4
GridSize: 4
TimelineZoom: 2.3

[Metadata]
Title:Hoshi no Utsuwa ~ Casket of Star
TitleUnicode:星の器 ~ Casket of Star
Artist:Demetori
ArtistUnicode:Demetori
Creator:happy30
Version:sjoy's Hard
Source:東方Project
Tags:Vessel of Stars Kirisame Marisa le Grimoire De reve zun 東方幻想郷 Lotus Land Story 4 Scarlet Weather Rhapsody SWR
BeatmapID:443710
BeatmapSetID:139677

[Difficulty]
HPDrainRate:5.5
CircleSize:4
OverallDifficulty:6
ApproachRate:8
SliderMultiplier:1.3
SliderTickRate:1

[Events]
//Background and Video events
0,0,"Konachan.com - 67200 sample.jpg",0,0
//Break Periods
2,52397,61552
2,173660,181710
//Storyboard Layer 0 (Background)
//Storyboard Layer 1 (Fail)
//Storyboard Layer 2 (Pass)
//Storyboard Layer 3 (Foreground)
//Storyboard Sound Samples

[TimingPoints]
408,315.789473684211,4,1,1,70,1,0
62302,-100,4,1,1,70,0,0
72408,-100,4,1,1,70,0,0
92618,-100,4,1,1,50,0,0
92776,-100,4,2,1,50,0,0
101776,-100,4,1,1,70,0,0
102250,-100,4,1,1,40,0,0
102723,-100,4,1,1,70,0,0
112829,-100,4,1,1,70,0,1
132881,-100,4,1,1,70,0,0
142986,-100,4,1,1,70,0,1
143065,-100,4,1,1,70,0,0
153250,-100,4,1,1,80,0,1
163276,-100,4,1,1,70,0,0
163355,-100,4,1,1,80,0,1
173460,-100,4,1,1,50,0,0
182144,-100,4,1,1,70,0,0
193671,-100,4,1,1,70,0,1
213723,-100,4,1,1,70,0,0
216250,-100,4,1,1,70,0,0
236539,-100,4,2,1,30,0,0

[Colours]
Combo1 : 192,192,192
Combo2 : 255,255,128
Combo3 : 18,124,255

[HitObjects]
92,88,1197,5,0,0:0:0:0:
72,163,1355,1,0,0:0:0:0:
88,239,1513,2,0,P|196:265|283:219,1,195,4|8,0:0|0:0,0:0:0:0:
406,305,2302,2,0,L|333:269,1,65
402,220,2618,2,0,L|475:184,1,65,8|0,0:0|0:0,0:0:0:0:
396,145,2934,6,0,L|327:86,1,65,0|0,0:0|0:0,0:0:0:0:
288,49,3250,1,8,0:0:0:0:
223,4,3408,1,0,0:0:0:0:
208,83,3565,2,0,L|277:142,2,65,2|2|8,0:0|0:0|0:0,0:0:0:0:
149,31,4039,6,0,P|131:101|181:157,1,130,4|0,0:0|0:0,0:0:0:0:
227,187,4513,2,0,L|181:270,1,65,8|0,0:0|0:0,0:0:0:0:
268,272,4829,2,0,L|314:355,1,65
221,353,5144,1,8,0:0:0:0:
376,317,5460,6,0,L|461:296,1,65,0|0,0:0|0:0,0:0:0:0:
469,229,5776,1,8,0:0:0:0:
453,152,5934,1,0,0:0:0:0:
387,195,6092,2,0,P|353:204|304:197,1,65,2|2,0:0|0:0,0:0:0:0:
245,193,6408,1,8,0:0:0:0:
258,111,6565,6,0,P|314:141|324:203,1,130,4|0,0:0|0:0,0:0:0:0:
285,271,7039,2,0,P|251:281|205:274,1,65,8|0,0:0|0:0,0:0:0:0:
150,245,7355,2,0,P|116:235|70:242,1,65,0|0,0:0|0:0,0:0:0:0:
11,260,7671,1,8,0:0:0:0:
141,326,7986,6,0,P|172:349|224:354,1,65,0|0,0:0|0:0,0:0:0:0:
275,350,8302,2,0,P|309:350|345:354,1,65,8|0,0:0|0:0,0:0:0:0:
418,353,8618,1,2,0:0:0:0:
479,304,8776,1,2,0:0:0:0:
473,226,8934,1,8,0:0:0:0:
406,274,9092,6,0,P|362:279|278:266,1,130,4|0,0:0|0:0,0:0:0:0:
204,238,9565,2,0,L|139:271,1,65,8|0,0:0|0:0,0:0:0:0:
85,217,9881,2,0,L|150:184,1,65
211,148,10197,1,8,0:0:0:0:
273,194,10355,1,0,0:0:0:0:
285,116,10513,6,0,L|337:96,2,32.5,4|4|4,3:0|3:0|3:0,0:3:0:0:
362,159,10829,2,0,L|392:147,2,32.5,4|4|4,3:0|3:0|3:0,0:3:0:0:
400,66,11144,2,0,L|475:34,1,65,4|4,0:3|0:3,3:0:0:0:
482,127,11460,1,8,0:0:0:0:
446,209,11618,6,0,L|415:354,1,130,4|0,0:0|0:0,0:0:0:0:
299,332,12092,2,0,L|316:254,1,65,8|0,0:0|0:0,0:0:0:0:
254,183,12408,2,0,L|237:261,1,65
202,314,12723,1,8,0:0:0:0:
124,317,12881,1,0,0:0:0:0:
71,259,13039,6,0,P|55:234|52:190,1,65
66,122,13354,1,8,0:0:0:0:
134,84,13512,1,0,0:0:0:0:
188,140,13671,2,0,L|116:181,1,65,2|2,0:0|0:0,0:0:0:0:
158,245,13986,1,8,0:0:0:0:
230,216,14144,6,0,P|297:208|379:224,1,130,4|0,0:0|0:0,0:0:0:0:
433,240,14618,2,0,L|471:159,1,65,8|0,0:0|0:0,0:0:0:0:
388,149,14934,2,0,L|350:79,1,65
291,134,15250,2,0,L|212:146,1,65,8|0,0:0|0:0,0:0:0:0:
151,165,15565,5,0,0:0:0:0:
107,229,15723,1,0,0:0:0:0:
184,241,15881,2,0,L|266:255,1,65,8|0,0:0|0:0,0:0:0:0:
325,262,16197,1,2,0:0:0:0:
322,336,16355,1,2,0:0:0:0:
392,301,16513,1,8,0:0:0:0:
393,225,16671,6,0,P|346:191|271:208,1,130,4|0,0:0|0:0,0:0:0:0:
184,241,17144,2,0,L|113:279,1,65,8|0,0:0|0:0,0:0:0:0:
22,234,17460,2,0,L|93:196,1,65
151,165,17776,1,8,0:0:0:0:
83,125,17934,1,0,0:0:0:0:
152,89,18092,6,0,P|191:82|245:88,1,65
285,118,18408,1,8,0:0:0:0:
359,139,18565,1,0,0:0:0:0:
435,162,18723,2,0,P|436:129|426:99,1,65,2|2,0:0|0:0,0:0:0:0:
359,139,19039,1,8,0:0:0:0:
374,215,19197,6,0,P|384:280|376:353,1,130,4|0,0:0|0:0,0:0:0:0:
455,329,19671,1,8,0:0:0:0:
479,254,19829,2,0,L|492:186,1,65
505,113,20144,1,0,0:0:0:0:
455,52,20302,2,0,P|422:45|366:49,1,65,8|0,0:0|0:0,0:0:0:0:
314,62,20618,5,4,0:0:0:0:
323,139,20776,2,0,L|336:191,2,32.5,0|0|8,0:0|0:0|0:0,0:0:0:0:
236,106,21092,2,0,L|223:54,2,32.5,0|0|8,0:0|0:0|0:0,0:0:0:0:
171,168,21408,1,0,0:0:0:0:
133,235,21565,1,8,0:0:0:0:
155,309,21723,1,0,0:0:0:0:
232,312,21881,6,0,P|268:303|315:309,1,65,4|0,0:0|0:0,0:0:0:0:
373,313,22197,1,8,0:0:0:0:
432,363,22355,2,0,P|448:306|407:239,1,130
338,239,22829,2,0,L|258:233,1,65,8|0,0:0|0:0,0:0:0:0:
195,230,23144,5,0,0:0:0:0:
238,165,23302,1,0,0:0:0:0:
273,234,23460,2,0,L|254:318,1,65,0|2,0:0|0:0,0:0:0:0:
191,338,23776,1,0,0:0:0:0:
113,350,23934,1,0,0:0:0:0:
54,286,24092,1,8,0:0:0:0:
132,274,24250,1,2,0:0:0:0:
54,286,24408,6,0,L|25:201,1,65
13,148,24723,1,8,0:0:0:0:
81,110,24881,1,2,0:0:0:0:
141,158,25039,2,0,L|209:136,1,65
265,185,25355,2,0,L|294:254,1,65,8|2,0:0|0:0,0:0:0:0:
327,313,25671,5,0,0:0:0:0:
401,288,25829,1,0,0:0:0:0:
370,216,25986,2,0,L|447:187,1,65,8|2,0:0|0:0,0:0:0:0:
454,103,26302,2,0,L|423:114,3,32.5,4|4|4|4,3:0|3:0|3:0|3:0,0:3:0:0:
384,112,26618,2,0,L|353:100,3,32.5,8|4|0|4,3:1|3:0|3:1|3:0,0:3:0:0:
314,107,26934,6,0,L|245:144,1,65
189,177,27250,1,8,0:0:0:0:
228,244,27408,1,2,0:0:0:0:
137,236,27565,2,0,L|65:223,1,65
4,263,27881,1,8,0:0:0:0:
40,331,28039,1,2,0:0:0:0:
121,307,28197,6,0,L|193:320,1,65
137,236,28513,1,8,0:0:0:0:
189,177,28671,1,2,0:0:0:0:
228,244,28829,2,0,L|258:232,3,32.5,4|4|4|4,3:0|3:0|3:0|3:0,0:3:0:0:
297,235,29145,2,0,L|327:246,3,32.5,8|4|6|4,3:1|3:0|3:1|3:0,0:3:0:0:
365,252,29460,6,0,P|398:254|447:244,1,65,0|0,0:0|0:0,0:0:0:0:
483,192,29776,1,8,0:0:0:0:
498,115,29934,1,2,0:0:0:0:
425,142,30092,2,0,P|388:151|331:151,1,65
282,158,30408,1,8,0:0:0:0:
206,139,30565,1,2,0:0:0:0:
165,205,30723,5,2,0:0:0:0:
241,222,30881,2,0,L|223:267,2,32.5,2|0|8,0:0|0:0|0:0,0:0:0:0:
299,310,31197,2,0,L|317:265,2,32.5,2|0|2,0:0|0:0|0:0,0:0:0:0:
203,325,31513,1,0,0:0:0:0:
124,322,31671,1,0,0:0:0:0:
57,281,31829,6,0,P|37:221|70:92,1,195,4|8,0:0|0:0,0:0:0:0:
220,123,32618,2,0,L|154:111,1,65,0|2,0:0|0:0,0:0:0:0:
162,189,32934,1,8,0:0:0:0:
249,198,33092,2,0,P|290:150|278:64,1,130,0|2,0:0|0:0,0:0:0:0:
357,47,33565,1,8,0:0:0:0:
393,115,33723,2,0,L|424:185,1,65,2|0,0:0|0:0,0:0:0:0:
403,251,34039,1,2,0:0:0:0:
480,247,34197,1,8,0:0:0:0:
508,320,34355,1,0,0:0:0:0:
508,320,34434,1,0,0:0:0:0:
508,320,34513,6,0,L|415:327,1,65,0|2,0:0|0:0,0:0:0:0:
304,322,34829,2,0,L|397:315,1,65,8|2,0:0|0:0,0:0:0:0:
140,346,35302,1,2,0:0:0:0:
218,347,35460,1,8,0:0:0:0:
207,269,35618,2,0,P|252:223|255:147,1,130,10|0,0:0|0:0,0:0:0:0:
225,74,36092,1,8,0:0:0:0:
142,269,36408,1,0,0:0:0:0:
142,269,36565,6,0,L|207:269,1,65,2|8,0:0|0:0,0:0:0:0:
178,195,36881,2,0,P|90:208|82:322,1,195,4|8,0:0|0:0,0:0:0:0:
40,146,37671,2,0,L|27:78,1,65,0|2,0:0|0:0,0:0:0:0:
86,31,37986,1,8,0:0:0:0:
147,78,38144,2,0,P|211:86|286:71,1,130,2|2,0:0|0:0,0:0:0:0:
350,53,38618,1,8,0:0:0:0:
380,124,38776,2,0,P|320:150|244:157,1,130,2|2,0:0|0:0,0:0:0:0:
178,164,39250,2,0,L|176:238,1,65,8|2,0:0|0:0,0:0:0:0:
244,265,39565,5,0,0:0:0:0:
321,269,39723,1,0,0:0:0:0:
396,248,39881,1,8,0:0:0:0:
459,202,40039,1,2,0:0:0:0:
367,336,40355,1,2,0:0:0:0:
289,341,40513,1,8,0:0:0:0:
211,336,40671,6,0,P|171:285|196:214,1,130,2|0,0:0|0:0,0:0:0:0:
184,225,41144,1,8,0:0:0:0:
46,341,41460,1,0,0:0:0:0:
5,263,41618,1,2,0:0:0:0:
14,177,41776,2,0,L|21:90,1,65,8|2,0:0|0:0,0:0:0:0:
82,65,42092,6,0,P|137:88|221:75,1,130,4|8,0:0|0:0,0:0:0:0:
271,141,42565,2,0,P|272:206|332:271,1,130,2|0,0:0|0:0,0:0:0:0:
363,327,43039,1,8,0:0:0:0:
449,284,43197,2,0,P|480:230|472:144,2,130,2|2|2,0:0|0:0|0:0,0:0:0:0:
316,376,44144,1,2,0:0:0:0:
238,372,44302,2,0,L|147:365,1,65,8|2,0:0|0:0,0:0:0:0:
105,309,44618,5,0,0:0:0:0:
93,231,44776,1,0,0:0:0:0:
110,155,44934,1,8,0:0:0:0:
169,104,45092,2,0,P|231:95|301:102,1,130,2|2,0:0|0:0,0:0:0:0:
271,174,45565,2,0,L|247:262,1,65,8|2,0:0|0:0,0:0:0:0:
464,303,46039,5,2,0:0:0:0:
403,251,46197,2,0,L|438:108,1,130,8|0,0:0|0:0,0:0:0:0:
453,48,46671,1,0,0:0:0:0:
377,28,46829,1,8,0:0:0:0:
321,73,46986,6,0,P|224:90|128:35,1,195,4|8,0:0|0:0,0:0:0:0:
58,206,47776,2,0,L|89:149,1,65,0|2,0:0|0:0,0:0:0:0:
1,19,48250,1,2,0:0:0:0:
155,34,48565,1,2,0:0:0:0:
216,177,48881,1,2,0:0:0:0:
58,206,49197,2,0,L|73:271,1,65,2|8,0:0|0:0,0:0:0:0:
227,248,49671,6,0,P|256:233|296:185,1,65,0|0,0:0|0:0,0:0:0:0:
385,250,49986,2,0,P|356:265|316:313,1,65,8|2,0:0|0:0,0:0:0:0:
147,324,50460,1,2,0:0:0:0:
137,233,50618,1,8,0:0:0:0:
183,154,50776,1,6,0:0:0:0:
256,192,50855,12,4,52197,0:0:0:0:
64,89,62302,6,0,L|157:89,1,65,4|0,0:0|0:0,0:0:0:0:
207,93,62618,1,8,0:0:0:0:
269,140,62776,1,2,0:0:0:0:
124,185,63092,1,2,0:0:0:0:
94,257,63250,2,0,L|62:328,1,65,8|2,0:0|0:0,0:0:0:0:
161,318,63565,6,0,L|252:318,1,65
364,275,63881,2,0,L|273:275,1,65,8|0,0:0|0:0,0:0:0:0:
215,243,64197,2,0,L|204:202,2,32.5,4|4|4,3:0|3:0|3:0,0:0:0:0:
319,163,64513,2,0,L|330:204,2,32.5,4|4|4,3:0|3:0|3:0,0:0:0:0:
212,86,64829,6,0,L|302:66,1,65,4|0,0:0|0:0,0:0:0:0:
352,59,65144,1,8,0:0:0:0:
423,89,65302,1,2,0:0:0:0:
212,86,65618,1,0,0:0:0:0:
140,55,65776,2,0,L|102:125,1,65,8|2,0:0|0:0,0:0:0:0:
32,130,66092,5,0,0:0:0:0:
85,187,66250,1,0,0:0:0:0:
21,233,66408,1,8,0:0:0:0:
80,282,66565,1,2,0:0:0:0:
30,342,66723,2,0,L|-1:350,7,32.5,4|4|4|4|8|4|4|4,3:0|3:0|3:0|3:0|3:1|3:0|3:0|3:0,0:0:0:0:
68,358,67355,6,0,L|159:358,1,65,4|0,0:0|0:0,0:0:0:0:
211,338,67671,1,8,0:0:0:0:
240,265,67829,1,2,0:0:0:0:
445,215,68144,1,2,0:0:0:0:
366,210,68302,2,0,P|337:189|300:183,1,65,8|2,0:0|0:0,0:0:0:0:
223,183,68618,5,0,0:0:0:0:
145,194,68776,1,0,0:0:0:0:
68,177,68934,2,0,P|57:142|73:83,1,65,8|2,0:0|0:0,0:0:0:0:
121,66,69250,2,0,P|146:61|199:66,2,43.3333333333333,4|4|4,3:0|3:0|3:0,0:0:0:0:
196,90,69565,2,0,P|221:94|274:90,2,43.3333333333333,4|4|4,3:0|3:0|3:0,0:0:0:0:
149,129,69881,6,0,L|145:194,1,65,0|2,0:0|0:0,0:0:0:0:
219,249,70197,2,0,L|223:184,1,65,8|2,0:0|0:0,0:0:0:0:
300,168,70513,1,2,0:0:0:0:
360,217,70671,2,0,L|336:256,6,32.5,4|4|8|4|4|4|4,3:0|3:0|3:1|3:0|3:0|3:0|0:0,0:0:0:0:
455,103,72408,6,0,P|475:163|442:292,1,195,4|8,0:0|0:0,0:0:0:0:
246,255,73197,2,0,L|312:267,1,65,0|2,0:0|0:0,0:0:0:0:
350,195,73513,1,2,0:0:0:0:
316,42,73829,1,2,0:0:0:0:
161,61,74144,2,0,P|139:131|171:203,1,130,2|2,0:0|0:0,0:0:0:0:
227,124,74618,1,8,0:0:0:0:
20,269,74934,6,0,L|113:262,1,65,0|2,0:0|0:0,0:0:0:0:
205,328,75250,2,0,L|112:335,1,65,8|2,0:0|0:0,0:0:0:0:
34,173,75723,1,2,0:0:0:0:
96,125,75881,1,8,0:0:0:0:
163,163,76039,2,0,P|235:222|329:196,1,195,2|8,0:0|0:0,0:0:0:0:
99,217,76986,6,0,P|123:237|137:266,1,65,2|8,0:0|0:0,0:0:0:0:
213,286,77302,2,0,P|301:273|309:159,1,195,4|8,0:0|0:0,0:0:0:0:
456,36,78092,2,0,L|431:114,1,65,0|2,0:0|0:0,0:0:0:0:
399,169,78407,1,8,0:0:0:0:
322,181,78565,2,0,P|258:173|183:188,1,130,2|2,0:0|0:0,0:0:0:0:
120,210,79039,1,8,0:0:0:0:
123,287,79197,2,0,P|183:261|259:254,1,130,2|2,0:0|0:0,0:0:0:0:
324,266,79671,2,0,L|382:338,1,65,8|2,0:0|0:0,0:0:0:0:
441,304,79986,5,0,0:0:0:0:
465,229,80144,1,0,0:0:0:0:
462,150,80302,1,8,0:0:0:0:
450,72,80460,1,2,0:0:0:0:
294,72,80776,1,2,0:0:0:0:
372,67,80934,1,8,0:0:0:0:
450,72,81092,6,0,P|463:128|421:184,1,130,2|0,0:0|0:0,0:0:0:0:
348,207,81565,2,0,L|306:218,2,43.3333333333333,8|4|4,3:1|3:0|3:0,0:0:0:0:
422,183,81881,2,0,L|464:194,2,43.3333333333333,4|4|4,3:0|3:0|3:0,0:0:0:0:
400,252,82197,2,0,L|400:348,1,65,8|2,0:0|0:0,0:0:0:0:
304,312,82513,6,0,P|249:289|165:302,1,130,4|8,0:0|0:0,0:0:0:0:
104,314,82986,2,0,P|58:270|50:185,1,130,2|0,0:0|0:0,0:0:0:0:
122,190,83460,2,0,L|209:173,1,65,8|2,0:0|0:0,0:0:0:0:
34,31,83934,1,2,0:0:0:0:
190,32,84250,1,2,0:0:0:0:
317,127,84565,1,2,0:0:0:0:
392,145,84723,2,0,L|369:222,1,65,8|2,0:0|0:0,0:0:0:0:
348,281,85039,5,0,0:0:0:0:
270,293,85197,1,0,0:0:0:0:
194,276,85355,1,8,0:0:0:0:
143,217,85513,2,0,P|134:155|141:85,1,130,2|2,0:0|0:0,0:0:0:0:
65,109,85986,2,0,L|-6:130,1,65,8|2,0:0|0:0,0:0:0:0:
239,164,86460,5,2,0:0:0:0:
216,89,86618,2,0,L|348:49,1,130,8|0,0:0|0:0,0:0:0:0:
416,25,87092,1,0,0:0:0:0:
453,93,87250,1,8,0:0:0:0:
417,162,87407,6,0,B|377:131|377:131|299:177|239:163,1,195,4|8,0:0|0:0,0:0:0:0:
168,303,88197,2,0,L|199:246,1,65,0|2,0:0|0:0,0:0:0:0:
351,281,88671,1,2,0:0:0:0:
217,361,88986,1,2,0:0:0:0:
121,237,89302,1,2,0:0:0:0:
21,357,89618,2,0,L|66:307,1,65,2|8,0:0|0:0,0:0:0:0:
222,267,90092,6,0,P|193:282|153:330,1,65,0|0,0:0|0:0,0:0:0:0:
251,188,90407,2,0,P|280:173|320:125,1,65,8|2,0:0|0:0,0:0:0:0:
365,60,90881,1,2,0:0:0:0:
450,89,91039,1,0,0:0:0:0:
470,177,91197,1,4,0:2:0:0:
256,192,91276,12,4,92618,0:2:0:0:
404,304,93250,6,0,L|324:308,1,65,0|2,1:0|0:0,0:0:0:0:
273,243,93565,2,0,L|207:249,1,65,2|0,0:0|0:0,0:0:0:0:
38,340,94355,1,2,0:0:0:0:
125,313,94513,2,0,L|117:230,1,65,0|2,1:0|0:0,0:0:0:0:
49,211,94829,2,0,L|57:128,1,65,2|2,0:0|0:0,0:0:0:0:
120,57,95144,5,4,0:0:0:0:
265,114,95460,1,2,0:0:0:0:
412,62,95776,1,0,1:0:0:0:
476,209,96092,2,0,L|449:291,1,65,2|0,0:0|0:0,0:0:0:0:
455,270,96723,5,2,0:0:0:0:
379,251,96881,2,0,P|346:239|298:241,1,65,0|0,0:0|1:0,0:0:0:0:
242,263,97197,1,0,0:0:0:0:
164,267,97355,1,0,0:0:0:0:
91,237,97513,1,2,0:0:0:0:
22,274,97671,6,0,P|63:314|146:329,1,130,4|0,0:0|0:0,0:0:0:0:
157,176,98302,2,0,L|168:109,1,65,0|2,1:0|0:0,0:0:0:0:
253,55,98618,2,0,L|242:122,1,65,2|0,0:0|0:0,0:0:0:0:
95,64,99092,1,2,0:0:0:0:
33,207,99408,1,2,0:0:0:0:
65,277,99565,2,0,L|93:344,1,65,0|2,1:0|0:0,0:0:0:0:
156,295,99881,2,0,L|231:291,1,65,2|0,0:0|0:0,0:0:0:0:
266,227,100197,6,0,P|301:282|266:356,1,130,4|2,0:0|0:0,0:0:0:0:
436,303,100829,1,0,1:0:0:0:
483,241,100986,1,0,0:0:0:0:
433,180,101144,1,2,0:0:0:0:
387,243,101302,1,4,0:0:0:0:
321,146,101618,6,0,L|341:97,2,32.5,0|0|4,0:0|0:0|0:0,0:0:0:0:
423,64,101934,2,0,L|403:113,2,32.5,0|0|0,2:0|2:0|1:0,0:0:0:0:
349,35,102250,1,0,0:0:0:0:
272,51,102408,1,0,0:0:0:0:
241,122,102565,1,0,0:0:0:0:
260,197,102723,6,0,P|322:221|398:175,1,130,4|8,0:0|0:0,0:0:0:0:
458,333,103355,1,2,0:0:0:0:
384,307,103513,1,2,0:0:0:0:
315,344,103671,1,8,0:0:0:0:
250,299,103829,6,0,P|155:289|61:338,1,195,2|8,0:0|0:0,0:0:0:0:
85,255,104460,2,0,L|109:166,1,65,2|0,0:0|0:0,0:0:0:0:
126,117,104776,1,2,0:0:0:0:
200,140,104934,1,8,0:0:0:0:
173,213,105092,1,2,0:0:0:0:
249,198,105250,6,0,P|305:207|401:197,1,130,4|8,0:0|0:0,0:0:0:0:
490,94,105881,2,0,L|468:21,1,65,2|0,0:0|0:0,0:0:0:0:
399,64,106197,1,8,0:0:0:0:
324,86,106355,2,0,B|262:107|262:107|196:107|196:107|128:141,1,195,2|8,0:0|0:0,0:0:0:0:
70,173,106986,2,0,B|95:232|95:232|81:307,1,130,2|2,0:0|0:0,0:0:0:0:
157,270,107460,1,8,0:0:0:0:
187,341,107618,1,2,0:0:0:0:
258,309,107776,6,0,P|318:300|408:311,1,130,4|8,0:0|0:0,0:0:0:0:
490,187,108408,1,0,0:0:0:0:
413,201,108565,1,2,0:0:0:0:
390,126,108723,1,8,0:0:0:0:
318,156,108881,2,0,P|254:169|173:155,1,130,2|2,0:0|0:0,0:0:0:0:
116,135,109355,5,8,0:0:0:0:
65,194,109513,2,0,L|74:274,1,65,0|2,0:0|0:0,0:0:0:0:
145,287,109829,1,2,0:0:0:0:
222,283,109986,1,8,0:0:0:0:
276,338,110144,1,2,0:0:0:0:
184,350,110302,6,0,P|114:361|39:353,1,130,4|8,0:0|0:0,0:0:0:0:
325,253,110934,2,0,P|394:241|470:250,1,130,4|8,0:0|0:0,0:0:0:0:
260,199,111565,5,4,0:0:0:0:
260,199,111723,1,8,0:0:0:0:
192,260,111881,1,0,0:0:0:0:
192,260,112039,1,8,0:0:0:0:
102,270,112197,1,0,0:0:0:0:
102,270,112355,1,8,0:0:0:0:
13,248,112513,1,0,0:0:0:0:
13,248,112671,1,8,0:0:0:0:
1,155,112829,6,2,P|16:94|83:53,1,130,4|8,0:0|0:0,0:0:0:0:
145,89,113302,1,0,0:0:0:0:
145,89,113381,1,0,0:0:0:0:
145,89,113460,2,0,P|179:108|225:103,1,65
288,94,113776,2,0,P|350:98|417:159,1,130,8|0,0:0|0:0,0:0:0:0:
313,183,114250,6,2,L|156:191,1,130
98,196,114723,2,0,L|81:279,1,65,8|0,0:0|0:0,0:0:0:0:
72,343,115039,2,0,L|159:338,1,65,2|0,0:0|0:0,0:0:0:0:
221,330,115355,6,0,P|285:323|359:338,1,130,6|8,0:0|0:0,0:0:0:0:
311,245,115829,2,0,P|247:238|173:253,1,130,2|0,0:0|0:0,0:0:0:0:
101,271,116302,2,0,L|60:195,1,65,8|0,0:0|0:0,0:0:0:0:
144,162,116618,6,2,P|207:145|288:153,1,130,0|8,0:0|0:0,0:0:0:0:
356,153,117092,2,2,P|417:125|481:52,1,130,2|0,0:0|0:0,0:0:0:0:
462,82,117565,1,8,0:0:0:0:
456,178,117723,1,0,0:0:0:0:
455,187,117802,1,0,0:0:0:0:
453,196,117881,6,2,L|439:342,1,130,4|8,0:0|0:0,0:0:0:0:
355,303,118355,2,2,P|294:292|213:303,1,130
143,316,118829,2,0,L|163:382,1,65,8|0,0:0|0:0,0:0:0:0:
78,363,119144,6,2,L|41:220,1,130,2|10,0:0|0:0,0:0:0:0:
131,232,119618,2,2,P|190:235|262:207,1,130
226,131,120092,2,0,L|196:57,1,65,8|0,0:0|0:0,0:0:0:0:
97,128,120408,6,0,B|85:276|85:276|155:232|155:232|220:276|220:276|226:116,1,455,4|0,0:0|2:0,0:0:0:0:
324,64,121671,6,0,B|399:19|473:11|473:11|521:62|510:141|510:141|459:171|347:194,1,455,4|0,0:0|2:0,0:0:0:0:
258,146,122934,6,4,L|166:124,1,65
124,32,123250,2,0,L|102:123,1,65,8|0,0:0|0:0,0:0:0:0:
0,111,123565,2,0,L|22:202,1,65
116,242,123881,2,0,P|183:241|266:268,1,130,8|0,0:0|0:0,0:0:0:0:
361,234,124355,2,2,P|391:181|390:96,1,130
473,210,124829,2,0,L|506:278,1,65,8|0,0:0|0:0,0:0:0:0:
471,378,125144,2,0,L|438:310,1,65,8|0,0:0|0:0,0:0:0:0:
352,325,125460,6,2,P|295:338|206:332,1,130,4|8,0:0|0:0,0:0:0:0:
167,272,125934,2,0,P|110:259|21:265,1,130,2|0,0:0|0:0,0:0:0:0:
65,180,126408,2,0,L|91:107,1,65,8|0,0:0|0:0,0:0:0:0:
185,159,126723,1,4,0:0:0:0:
256,192,126802,12,8,127671,0:0:0:0:
227,90,127986,6,0,L|271:157,1,65,8|0,0:0|0:0,0:0:0:0:
381,130,128302,2,0,L|346:76,1,65,8|0,0:0|0:0,0:0:0:0:
370,240,128618,2,0,L|326:173,1,65,8|0,0:0|0:0,0:0:0:0:
440,195,128934,2,0,L|484:262,1,65,8|0,0:0|0:0,0:0:0:0:
449,359,129250,6,0,L|405:292,1,65,8|0,0:0|0:0,0:0:0:0:
324,303,129565,2,0,L|280:370,1,65,8|0,0:0|0:0,0:0:0:0:
225,315,129881,2,0,L|181:248,1,65,8|0,0:0|0:0,0:0:0:0:
100,259,130197,2,0,L|56:326,1,65,8|0,0:0|0:0,0:0:0:0:
12,245,130513,5,12,0:0:0:0:
12,245,130671,1,0,0:0:0:0:
65,179,130829,1,8,0:0:0:0:
65,179,130987,1,0,0:0:0:0:
148,175,131144,1,12,0:0:0:0:
148,175,131302,1,0,0:0:0:0:
106,108,131460,1,8,0:0:0:0:
106,108,131618,1,0,0:0:0:0:
185,107,131776,6,0,L|268:108,5,43.3333333333333,2|0|0|8|0|0,0:0|0:0|0:0|0:0|0:0|0:0,0:0:0:0:
282,41,132408,2,0,L|238:41,3,43.3333333333333,2|0|0|8,0:0|0:0|0:0|0:0,0:0:0:0:
365,53,132881,6,2,L|379:201,1,130,4|8,0:0|0:0,0:0:0:0:
384,260,133355,1,0,0:0:0:0:
207,183,133671,1,0,0:0:0:0:
266,232,133829,1,0,0:0:0:0:
235,303,133986,1,8,0:0:0:0:
303,340,134144,6,0,P|366:347|461:337,1,130,2|0,0:0|0:0,0:0:0:0:
487,287,134618,2,0,L|466:197,1,65,8|0,0:0|0:0,0:0:0:0:
462,145,134934,2,0,L|483:55,1,65,2|0,0:0|0:0,0:0:0:0:
214,121,135408,6,0,P|145:112|70:127,1,130,0|8,0:0|0:0,0:0:0:0:
32,68,135881,1,0,0:0:0:0:
5,256,136197,1,2,0:0:0:0:
79,232,136355,1,0,0:0:0:0:
148,267,136513,1,8,0:0:0:0:
222,243,136671,2,0,B|258:228|258:228|267:244|294:251|294:251|329:226|432:250,1,195,2|2,0:0|0:0,0:0:0:0:
454,184,137302,2,0,B|416:163|416:163|423:153|423:153|364:89,1,130,8|0,0:0|0:0,0:0:0:0:
285,120,137776,1,8,0:0:0:0:
195,77,137934,6,0,P|126:76|52:116,1,130,4|0,0:0|0:0,0:0:0:0:
46,175,138408,2,0,L|11:243,1,65,8|0,0:0|0:0,0:0:0:0:
94,238,138723,2,0,L|129:306,1,65,2|0,0:0|0:0,0:0:0:0:
46,300,139039,2,0,L|11:368,1,65,8|0,0:0|0:0,0:0:0:0:
199,355,139513,5,0,0:0:0:0:
211,352,139592,1,0,0:0:0:0:
223,349,139671,2,0,P|264:342|316:350,1,65,8|0,0:0|0:0,0:0:0:0:
365,341,139986,1,0,0:0:0:0:
434,304,140144,1,2,0:0:0:0:
464,232,140302,1,8,0:0:0:0:
459,154,140460,6,2,P|391:137|311:155,1,130,6|2,0:0|0:0,0:0:0:0:
262,180,140934,1,8,0:0:0:0:
321,35,141250,1,0,0:0:0:0:
398,25,141408,1,0,0:0:0:0:
474,36,141565,2,0,L|495:112,1,65,8|0,0:0|0:0,0:0:0:0:
397,121,141881,6,0,L|357:199,1,65,4|0,0:0|0:0,0:0:0:0:
335,250,142197,2,0,L|295:328,1,65,8|0,0:0|0:0,0:0:0:0:
206,307,142513,2,0,L|177:250,1,65,0|0,0:0|0:0,0:0:0:0:
144,178,142829,2,0,L|115:121,1,65,8|2,0:0|0:0,0:0:0:0:
28,251,143302,5,0,0:0:0:0:
13,327,143460,1,8,0:0:0:0:
207,308,143776,1,2,0:0:0:0:
263,253,143934,1,0,0:0:0:0:
216,190,144092,1,8,0:0:0:0:
282,149,144250,6,0,P|353:139|421:154,1,130,2|0,0:0|0:0,0:0:0:0:
483,177,144723,2,0,L|465:235,2,32.5,8|0|2,0:0|0:0|0:0,0:0:0:0:
481,98,145039,1,0,0:0:0:0:
409,66,145197,2,0,L|327:55,1,65,0|8,0:0|0:0,0:0:0:0:
266,56,145513,2,0,L|197:88,1,65,0|4,0:0|0:0,0:0:0:0:
132,108,145829,6,0,L|118:73,3,21.6666666666667,0|0|0|8,0:0|0:0|0:0|0:0,0:0:0:0:
116,188,146144,1,0,0:0:0:0:
190,164,146302,1,0,0:0:0:0:
215,237,146460,1,2,0:0:0:0:
140,260,146618,1,8,0:0:0:0:
200,309,146776,2,6,P|261:301|337:312,1,130,6|2,0:0|0:0,0:0:0:0:
484,153,147408,2,6,P|423:161|347:150,1,130,2|2,0:0|0:0,0:0:0:0:
288,112,147881,1,8,0:0:0:0:
288,33,148039,6,0,P|231:25|143:44,1,130,4|0,0:0|0:0,0:0:0:0:
90,73,148513,2,0,L|51:119,2,32.5,8|0|0,0:0|0:0|0:0,0:0:0:0:
188,119,148829,2,0,L|210:143,2,32.5
93,176,149144,2,0,L|54:222,2,32.5,8|0|0,0:0|0:0|0:0,0:0:0:0:
54,297,149460,6,0,L|84:368,1,65
182,329,149776,2,0,L|152:258,1,65,8|0,0:0|0:0,0:0:0:0:
301,298,150092,2,0,L|388:263,1,65
277,231,150408,2,0,L|190:196,1,65,8|0,0:0|0:0,0:0:0:0:
251,136,150723,6,0,L|281:75,2,43.3333333333333,2|0|0,0:0|0:0|0:0,0:0:0:0:
198,92,151039,2,0,L|167:38,2,43.3333333333333,8|0|0,0:0|0:0|0:0,0:0:0:0:
242,31,151355,2,0,L|285:27,2,43.3333333333333,2|0|0,0:0|0:0|0:0,0:0:0:0:
333,76,151671,2,0,L|394:87,2,43.3333333333333,8|0|0,0:0|0:0|0:0,0:0:0:0:
322,148,151986,6,0,L|366:191,5,43.3333333333333,2|0|0|8|0|0,0:0|0:0|0:0|0:0|0:0|0:0,0:0:0:0:
420,207,152618,2,0,L|381:253,5,43.3333333333333,2|0|0|8|0|0,0:0|0:0|0:0|0:0|0:0|0:0,0:0:0:0:
320,240,153250,6,0,L|251:181,1,65,4|0,0:0|0:0,0:0:0:0:
208,139,153566,1,8,0:0:0:0:
144,195,153724,1,2,0:0:0:0:
202,254,153881,2,0,L|271:313,2,65,2|2|8,0:0|0:0|0:0,0:0:0:0:
98,260,154355,6,0,P|66:205|86:144,1,130,6|2,0:0|0:0,0:0:0:0:
146,85,154829,2,0,L|213:52,1,65,8|0,0:0|0:0,0:0:0:0:
274,104,155145,2,0,L|354:121,1,65,2|2,0:0|0:0,0:0:0:0:
406,68,155460,1,8,0:0:0:0:
481,219,155776,6,0,L|460:304,1,65,4|0,0:0|0:0,0:0:0:0:
394,312,156092,1,8,0:0:0:0:
316,296,156250,1,0,0:0:0:0:
359,230,156408,2,0,P|368:196|361:147,1,65,2|2,0:0|0:0,0:0:0:0:
352,86,156724,1,8,0:0:0:0:
274,104,156881,6,0,P|214:133|148:124,1,130,6|2,0:0|0:0,0:0:0:0:
17,126,157355,2,0,B|47:107|92:117,1,65,8|2,0:0|0:0,0:0:0:0:
111,195,157671,2,0,B|81:214|36:204,1,65,0|2,0:0|0:0,0:0:0:0:
190,243,157986,2,0,B|220:262|265:252,1,65,8|2,0:0|0:0,0:0:0:0:
82,287,158302,6,0,L|76:352,1,65,4|0,0:0|0:0,0:0:0:0:
160,338,158618,2,0,P|192:333|230:342,1,65,8|2,0:0|0:0,0:0:0:0:
308,344,158934,1,2,0:0:0:0:
389,322,159092,1,2,0:0:0:0:
424,245,159250,1,8,0:0:0:0:
340,260,159408,6,0,P|296:265|212:252,1,130,6|2,0:0|0:0,0:0:0:0:
142,203,159881,2,0,L|77:236,1,65,8|2,0:0|0:0,0:0:0:0:
120,128,160197,2,0,L|185:95,2,65,0|2|8,0:0|0:0|0:0,0:0:0:0:
262,144,160829,6,0,L|266:229,1,65,6|0,0:0|0:0,0:0:0:0:
272,293,161144,1,8,0:0:0:0:
355,304,161302,1,2,0:0:0:0:
425,257,161460,2,0,L|447:183,1,65
467,113,161776,1,8,0:0:0:0:
372,158,161934,6,0,P|306:173|232:165,1,130,6|2,0:0|0:0,0:0:0:0:
159,224,162408,2,0,L|176:146,1,65,8|2,0:0|0:0,0:0:0:0:
233,248,162724,2,0,L|216:326,1,65,0|2,0:0|0:0,0:0:0:0:
301,332,163039,1,8,0:0:0:0:
385,328,163197,1,2,0:0:0:0:
329,264,163355,6,0,P|306:234|303:188,1,65,6|0,0:0|0:0,0:0:0:0:
304,123,163670,1,8,0:0:0:0:
328,41,163829,1,2,0:0:0:0:
229,99,163987,2,0,L|157:140,1,65,2|2,0:0|0:0,0:0:0:0:
104,181,164302,1,8,0:0:0:0:
82,271,164460,6,0,P|149:263|223:314,1,130,6|2,0:0|0:0,0:0:0:0:
294,309,164934,2,0,L|332:228,1,65,8|0,0:0|0:0,0:0:0:0:
240,224,165250,2,0,L|202:154,1,65,0|2,0:0|0:0,0:0:0:0:
127,210,165565,2,0,L|48:222,1,65,8|2,0:0|0:0,0:0:0:0:
21,145,165881,5,6,0:0:0:0:
75,80,166039,1,0,0:0:0:0:
159,73,166197,2,0,L|241:87,1,65,8|0,0:0|0:0,0:0:0:0:
307,93,166513,1,2,0:0:0:0:
304,167,166671,1,2,0:0:0:0:
374,132,166829,1,8,0:0:0:0:
375,56,166987,6,0,P|328:22|253:39,1,130,6|2,0:0|0:0,0:0:0:0:
307,93,167460,2,0,L|236:131,1,65,8|2,0:0|0:0,0:0:0:0:
180,229,167776,2,0,L|237:198,1,65,0|2,0:0|0:0,0:0:0:0:
164,154,168092,1,8,0:0:0:0:
92,199,168250,1,2,0:0:0:0:
122,277,168408,6,0,P|146:293|205:300,1,65,4|0,0:0|0:0,0:0:0:0:
265,297,168724,1,8,0:0:0:0:
345,272,168881,1,2,0:0:0:0:
427,288,169039,2,0,P|428:255|418:225,1,65,0|2,0:0|0:0,0:0:0:0:
345,180,169355,1,8,0:0:0:0:
267,214,169513,6,0,P|202:224|129:216,1,130,6|2,0:0|0:0,0:0:0:0:
56,194,169987,1,8,0:0:0:0:
122,142,170145,2,0,L|135:74,1,65,2|0,0:0|0:0,0:0:0:0:
217,65,170460,1,2,0:0:0:0:
282,118,170618,2,0,P|314:117|346:110,1,65,8|2,0:0|0:0,0:0:0:0:
428,88,170934,5,4,0:0:0:0:
461,165,171092,2,0,L|474:217,2,32.5,0|0|8,0:0|0:0|0:0,0:0:0:0:
373,201,171408,2,0,L|380:232,2,32.5,0|0|8,0:0|0:0|0:0,0:0:0:0:
282,230,171723,2,0,L|295:282,2,32.5,0|0|8,0:0|0:0|0:0,0:0:0:0:
191,258,172039,1,0,0:0:0:0:
191,258,172118,1,0,0:0:0:0:
191,258,172197,6,0,L|204:313,2,43.3333333333333,12|0|0,0:0|0:0|0:0,0:0:0:0:
130,270,172513,2,0,L|117:215,2,43.3333333333333,8|0|0,0:0|0:0|0:0,0:0:0:0:
70,283,172829,2,0,L|83:338,2,43.3333333333333,8|0|0,0:0|0:0|0:0,0:0:0:0:
9,295,173145,2,0,L|-4:240,2,43.3333333333333,8|0|0,0:0|0:0|0:0,0:0:0:0:
9,295,173460,5,4,0:2:0:0:
462,113,182460,6,0,L|487:199,1,65,2|8,0:0|0:0,0:0:0:0:
469,352,182934,2,0,L|443:265,1,65,2|8,0:0|0:0,0:0:0:0:
227,287,183565,6,0,P|166:269|101:278,1,130,4|8,0:0|0:0,0:0:0:0:
226,371,184197,1,2,0:0:0:0:
292,329,184355,1,2,0:0:0:0:
317,255,184513,1,8,0:0:0:0:
300,178,184671,6,0,P|204:188|102:167,1,195,2|8,0:0|0:0,0:0:0:0:
131,94,185302,2,0,L|155:5,1,65,2|0,0:0|0:0,0:0:0:0:
70,15,185618,1,2,0:0:0:0:
29,81,185776,1,8,0:0:0:0:
36,155,185934,1,2,0:0:0:0:
56,236,186092,6,0,P|104:260|198:258,1,130,4|8,0:0|0:0,0:0:0:0:
296,366,186723,2,0,L|234:317,1,65,2|0,0:0|0:0,0:0:0:0:
270,251,187039,1,8,0:0:0:0:
331,203,187197,2,0,B|274:170|274:170|211:173|211:173|150:139,1,195,2|8,0:0|0:0,0:0:0:0:
212,90,187828,2,0,B|271:65|271:65|346:79,1,130,2|2,0:0|0:0,0:0:0:0:
411,99,188302,1,8,0:0:0:0:
451,165,188460,1,2,0:0:0:0:
401,225,188618,6,0,P|341:234|251:223,1,130,4|8,0:0|0:0,0:0:0:0:
131,297,189250,1,0,0:0:0:0:
208,283,189407,1,2,0:0:0:0:
231,358,189565,1,8,0:0:0:0:
303,328,189723,2,0,P|367:315|448:329,1,130,2|2,0:0|0:0,0:0:0:0:
484,266,190197,5,8,0:0:0:0:
447,190,190355,2,0,L|438:110,1,65,0|2,0:0|0:0,0:0:0:0:
367,97,190671,1,2,0:0:0:0:
290,101,190828,1,8,0:0:0:0:
228,55,190986,1,2,0:0:0:0:
308,24,191144,6,0,P|375:13|450:41,1,130,4|8,0:0|0:0,0:0:0:0:
187,131,191776,2,0,P|118:143|47:124,1,130,4|8,0:0|0:0,0:0:0:0:
17,288,192407,5,4,0:0:0:0:
17,288,192565,1,8,0:0:0:0:
95,242,192723,1,0,0:0:0:0:
95,242,192881,1,8,0:0:0:0:
98,332,193039,1,0,0:0:0:0:
98,332,193197,1,8,0:0:0:0:
179,291,193355,1,0,0:0:0:0:
179,291,193513,1,8,0:0:0:0:
269,347,193671,6,2,P|329:367|388:345,1,130,4|8,0:0|0:0,0:0:0:0:
447,284,194144,1,0,0:0:0:0:
447,284,194223,1,0,0:0:0:0:
447,284,194302,2,0,P|413:265|367:270,1,65,2|0,0:0|0:0,0:0:0:0:
304,280,194618,2,0,P|242:276|175:215,1,130,8|0,0:0|0:0,0:0:0:0:
127,177,195092,6,0,P|179:156|257:181,1,130,2|0,0:0|0:0,0:0:0:0:
326,206,195565,2,0,L|362:134,1,65,8|0,0:0|0:0,0:0:0:0:
375,65,195881,2,0,L|289:67,1,65,2|0,0:0|0:0,0:0:0:0:
225,72,196197,6,0,P|161:79|87:64,1,130,6|8,0:0|0:0,0:0:0:0:
49,137,196671,2,0,P|27:193|62:276,1,130,2|0,0:0|0:0,0:0:0:0:
133,260,197144,2,0,L|103:203,1,65,8|0,0:0|0:0,0:0:0:0:
85,325,197460,6,2,P|148:336|206:301,1,130,0|8,0:0|0:0,0:0:0:0:
269,250,197934,2,2,P|334:240|402:257,1,130,2|0,0:0|0:0,0:0:0:0:
461,307,198407,1,8,0:0:0:0:
475,225,198565,1,0,0:0:0:0:
476,216,198644,1,0,0:0:0:0:
478,207,198723,6,0,L|495:65,1,130,6|8,0:0|0:0,0:0:0:0:
404,75,199197,2,0,P|339:82|275:71,1,130,2|0,0:0|0:0,0:0:0:0:
192,51,199671,2,0,L|210:113,1,65,8|0,0:0|0:0,0:0:0:0:
144,192,199986,6,0,L|111:66,1,130,2|8,0:0|0:0,0:0:0:0:
210,112,200460,2,0,P|272:111|339:152,1,130,2|0,0:0|0:0,0:0:0:0:
391,267,200934,2,0,L|361:203,1,65,8|0,0:0|0:0,0:0:0:0:
257,218,201250,1,4,0:0:0:0:
256,192,201328,12,4,202513,0:0:0:0:
256,192,202592,12,4,203777,0:0:0:0:
326,300,204092,6,0,L|348:209,1,65,8|0,0:0|0:0,0:0:0:0:
419,203,204407,2,0,L|397:112,1,65,0|0,0:0|0:0,0:0:0:0:
323,165,204723,2,0,P|256:166|173:139,1,130,8|0,0:0|0:0,0:0:0:0:
114,127,205197,2,2,P|84:180|85:265,1,130
164,258,205671,2,0,L|242:270,1,65,8|0,0:0|0:0,0:0:0:0:
330,352,205986,2,0,L|253:343,1,65,8|0,0:0|0:0,0:0:0:0:
305,274,206302,6,2,P|365:257|449:282,1,130,4|8,0:0|0:0,0:0:0:0:
466,177,206776,2,0,P|401:179|337:166,1,130,2|0,0:0|0:0,0:0:0:0:
255,144,207250,2,0,L|229:217,1,65,8|0,0:0|0:0,0:0:0:0:
305,274,207565,1,4,0:0:0:0:
256,192,207644,12,8,208513,0:0:0:0:
285,293,208829,2,0,L|241:226,1,65,4|0,0:0|0:0,0:0:0:0:
166,308,209144,2,0,L|122:241,1,65,8|0,0:0|0:0,0:0:0:0:
28,255,209460,2,0,L|72:322,1,65,8|0,0:0|0:0,0:0:0:0:
72,189,209776,2,0,L|28:122,1,65,8|0,0:0|0:0,0:0:0:0:
63,25,210092,6,0,L|107:92,1,65,8|0,0:0|0:0,0:0:0:0:
183,79,210407,2,0,L|227:146,1,65,8|0,0:0|0:0,0:0:0:0:
303,131,210723,2,0,L|347:198,1,65,8|0,0:0|0:0,0:0:0:0:
423,186,211039,2,0,L|467:253,1,65,8|0,0:0|0:0,0:0:0:0:
392,293,211355,5,12,0:0:0:0:
392,293,211513,1,0,0:0:0:0:
307,295,211671,1,8,0:0:0:0:
307,295,211829,1,0,0:0:0:0:
247,235,211986,1,12,0:0:0:0:
247,235,212144,1,0,0:0:0:0:
233,151,212302,1,8,0:0:0:0:
233,151,212460,1,0,0:0:0:0:
242,66,212618,6,0,P|175:49|97:72,1,130,6|8,0:0|0:0,0:0:0:0:
44,117,213092,1,0,0:0:0:0:
96,191,213250,2,0,P|153:209|241:197,1,130,2|8,0:0|0:0,0:0:0:0:
315,251,213723,6,0,P|272:296|185:296,1,130,4|0,0:0|0:0,0:0:0:0:
134,239,214197,1,8,0:0:0:0:
42,236,214355,1,0,0:0:0:0:
88,318,214513,2,0,L|172:341,1,65,0|0,0:0|0:0,0:0:0:0:
235,339,214829,1,8,0:0:0:0:
311,303,214986,1,2,0:0:0:0:
237,260,215144,6,0,L|256:187,1,65,0|0,0:0|0:0,0:0:0:0:
287,119,215460,1,8,0:0:0:0:
370,107,215618,1,0,0:0:0:0:
397,183,215776,2,0,L|316:187,1,65,0|2,0:0|0:0,0:0:0:0:
253,197,216092,1,8,0:0:0:0:
169,206,216250,6,0,P|185:147|245:112,1,130,6|0,0:0|0:0,0:0:0:0:
255,34,216723,2,0,L|191:44,1,65,8|0,0:0|0:0,0:0:0:0:
68,107,217039,2,0,L|142:97,1,65
73,37,217354,1,8,0:0:0:0:
2,82,217512,1,2,0:0:0:0:
20,159,217671,6,0,P|9:196|18:231,1,65
60,291,217986,1,8,0:0:0:0:
143,302,218144,1,0,0:0:0:0:
166,220,218302,2,0,P|194:235|215:261,2,65,0|2|8,0:0|0:0|0:0,0:0:0:0:
230,168,218776,6,0,P|297:176|379:160,1,130,6|0,0:0|0:0,0:0:0:0:
433,144,219250,2,0,L|471:225,1,65,8|0,0:0|0:0,0:0:0:0:
388,235,219565,2,0,L|350:305,1,65
291,250,219881,2,0,L|212:238,1,65,8|2,0:0|0:0,0:0:0:0:
151,219,220197,5,0,0:0:0:0:
107,155,220355,1,0,0:0:0:0:
184,143,220513,2,0,L|266:129,1,65,8|0,0:0|0:0,0:0:0:0:
325,122,220828,1,2,0:0:0:0:
322,48,220986,1,2,0:0:0:0:
392,83,221144,1,8,0:0:0:0:
393,159,221302,6,0,P|345:198|264:173,1,130,4|0,0:0|0:0,0:0:0:0:
184,143,221776,2,0,L|113:105,1,65,8|0,0:0|0:0,0:0:0:0:
22,150,222092,2,0,L|93:188,1,65
151,219,222408,1,8,0:0:0:0:
83,259,222565,1,2,0:0:0:0:
158,296,222723,6,0,L|215:307,2,32.5,4|4|4,3:0|3:0|3:0,0:3:0:0:
281,367,223039,2,0,L|225:356,2,32.5,8|4|4,3:1|3:0|3:0,0:0:0:0:
278,266,223355,2,0,L|320:275,2,32.5,4|4|4,3:0|3:0|3:0,0:3:0:0:
378,341,223671,1,12,0:3:0:0:
438,248,223829,6,0,P|448:183|440:110,1,130,4|0,0:0|0:0,0:0:0:0:
365,44,224302,1,8,0:0:0:0:
283,66,224460,2,0,L|296:134,1,65
263,208,224776,1,0,0:0:0:0:
180,224,224934,2,0,P|147:231|91:227,1,65,8|2,0:0|0:0,0:0:0:0:
63,163,225250,5,0,0:0:0:0:
17,234,225408,1,0,0:0:0:0:
64,303,225565,2,0,L|138:334,1,65,8|0,0:0|0:0,0:0:0:0:
207,309,225881,1,0,0:0:0:0:
180,224,226039,1,2,0:0:0:0:
154,143,226197,1,0,0:0:0:0:
63,163,226355,6,0,P|74:216|46:294,1,130,6|0,0:0|0:0,0:0:0:0:
125,328,226829,1,8,0:0:0:0:
207,309,226986,2,0,L|296:312,1,65
357,312,227302,1,0,0:0:0:0:
315,238,227460,1,8,0:0:0:0:
378,181,227618,6,0,L|462:201,1,65,2|0,0:0|0:0,0:0:0:0:
363,103,227934,2,0,L|426:118,1,65,2|8,0:0|0:0,0:0:0:0:
337,24,228250,2,0,L|421:44,1,65,2|0,0:0|0:0,0:0:0:0:
286,87,228565,1,2,0:0:0:0:
305,161,228723,1,8,0:0:0:0:
222,140,228881,6,0,P|165:161|94:114,1,130,6|0,0:0|0:0,0:0:0:0:
172,77,229355,1,8,0:0:0:0:
222,140,229513,1,0,0:0:0:0:
226,224,229671,2,0,L|153:245,1,65,0|0,0:0|0:0,0:0:0:0:
282,286,229986,2,0,L|343:306,1,65,8|0,0:0|0:0,0:0:0:0:
435,296,230302,5,0,0:0:0:0:
370,240,230460,1,2,0:0:0:0:
404,162,230618,2,0,L|433:85,1,65,8|2,0:0|0:0,0:0:0:0:
358,57,230934,1,0,0:0:0:0:
332,131,231092,1,2,0:0:0:0:
248,143,231250,1,8,0:0:0:0:
205,216,231408,6,0,P|202:280|236:348,1,130,4|0,0:0|0:0,0:0:0:0:
144,330,231881,1,8,0:0:0:0:
111,251,232039,1,0,0:0:0:0:
133,169,232197,2,0,P|100:170|61:182,2,65,0|2|8,0:0|0:0|0:0,0:0:0:0:
111,86,232671,6,0,P|179:100|249:85,1,130,6|0,0:0|0:0,0:0:0:0:
319,69,233144,1,8,0:0:0:0:
371,135,233302,1,0,0:0:0:0:
371,135,233381,1,0,0:0:0:0:
371,135,233460,2,0,L|383:165,5,32.5,4|4|4|4|8|0,3:0|3:0|3:0|3:0|3:1|0:3,0:3:0:0:
390,207,233934,6,0,P|358:224|305:222,1,65,6|0,0:0|0:0,0:0:0:0:
246,210,234250,1,0,0:0:0:0:
246,210,234329,1,0,0:0:0:0:
246,210,234408,2,0,P|212:205|171:218,1,65,8|2,0:0|0:0,0:0:0:0:
105,246,234723,1,2,0:0:0:0:
26,277,234881,1,2,0:0:0:0:
60,354,235039,1,8,0:0:0:0:
139,324,235197,6,0,P|207:318|273:328,1,130,6|0,0:0|0:0,0:0:0:0:
351,339,235671,1,8,0:0:0:0:
421,292,235829,2,0,L|389:243,2,32.5,0|0|8,0:0|0:0|0:0,0:0:0:0:
443,187,236144,2,0,L|475:236,2,32.5,0|0|8,0:0|0:0|0:0,0:0:0:0:
351,193,236460,6,2,B|313:141|313:141|286:184|286:184|259:152|259:152|237:177|237:177|200:165|154:177,1,260,4|0,0:0|0:0,0:0:0:0:
