osu file format v14

[General]
AudioFilename: Casket of Star.mp3
AudioLeadIn: 0
PreviewTime: 31474
Countdown: 0
SampleSet: Normal
StackLeniency: 0.7
Mode: 0
LetterboxInBreaks: 0
WidescreenStoryboard: 1

[Editor]
Bookmarks: 11579,21763,31790,52158,72369,92579,112790,132842,142711,153211,173421,183526,193632,213947,233895
DistanceSpacing: 1.5
BeatDivisor: 4
GridSize: 8
TimelineZoom: 1

[Metadata]
Title:Hoshi no Utsuwa ~ Casket of Star
TitleUnicode:星の器 ~ Casket of Star
Artist:Demetori
ArtistUnicode:Demetori
Creator:happy30
Version:Lunatic
Source:東方Project
Tags:Vessel of Stars Kirisame Marisa le Grimoire De reve zun 東方幻想郷 Lotus Land Story 4 Scarlet Weather Rhapsody SWR
BeatmapID:348903
BeatmapSetID:139677

[Difficulty]
HPDrainRate:7
CircleSize:4
OverallDifficulty:8
ApproachRate:9.3
SliderMultiplier:1.8
SliderTickRate:2

[Events]
//Background and Video events
0,0,"Konachan.com - 67200 sample.jpg",0,0
//Break Periods
//Storyboard Layer 0 (Background)
//Storyboard Layer 1 (Fail)
//Storyboard Layer 2 (Pass)
//Storyboard Layer 3 (Foreground)
//Storyboard Sound Samples

[TimingPoints]
408,315.789473684211,4,1,1,70,1,0
62302,-83.3333333333333,4,1,1,70,0,0
72408,-100,4,1,1,70,0,0
92618,-200,4,1,1,50,0,0
101776,-100,4,1,1,70,0,0
112829,-83.3333333333333,4,1,1,70,0,1
132881,-100,4,1,1,70,0,0
142986,-100,4,1,1,70,0,1
143065,-100,4,1,1,70,0,0
153250,-83.3333333333333,4,1,1,70,0,1
163276,-83.3333333333333,4,1,1,70,0,0
163355,-83.3333333333333,4,1,1,70,0,1
173460,-200,4,1,1,50,0,0
182144,-100,4,1,1,70,0,0
193671,-83.3333333333333,4,1,1,70,0,1
213723,-83.3333333333333,4,1,1,70,0,0
216250,-100,4,1,1,70,0,0
236539,-100,4,2,1,30,0,0

[Colours]
Combo1 : 192,192,192
Combo2 : 255,255,128
Combo3 : 18,124,255

[HitObjects]
344,32,1198,5,0,0:0:0:0:
344,32,1356,1,0,0:0:0:0:
384,112,1513,6,0,B|408:168|408:168|368:216|288:192,1,180,4|0,0:0|0:0,0:0:0:0:
432,40,1986,1,8,0:0:0:0:
512,184,2144,1,2,0:2:0:0:
392,272,2302,2,0,P|344:280|296:272,1,90,4|0,0:0|0:0,0:0:0:0:
136,152,2618,2,0,P|184:144|232:152,1,90,8|2,0:0|0:2,0:0:0:0:
160,344,2934,5,4,0:0:0:0:
32,216,3092,1,0,0:0:0:0:
216,280,3250,1,12,0:0:0:0:
352,160,3408,1,2,1:0:0:0:
120,280,3565,2,0,P|72:288|24:320,1,90,0|2,0:0|0:0,0:0:0:0:
0,128,3881,1,8,0:0:0:0:
160,208,4039,6,0,P|216:248|328:240,1,180,4|0,0:0|0:0,0:0:0:0:
176,104,4513,1,8,0:0:0:0:
96,248,4671,1,2,0:2:0:0:
216,336,4829,2,0,P|264:344|312:336,1,90,4|0,0:0|0:0,0:0:0:0:
472,216,5145,2,0,P|424:208|376:216,1,90,8|2,0:0|0:2,0:0:0:0:
304,248,5461,5,4,0:0:0:0:
472,104,5619,1,0,0:0:0:0:
376,360,5777,1,12,0:0:0:0:
176,152,5935,1,2,0:0:0:0:
400,288,6092,2,0,P|448:296|496:328,1,90,0|2,0:0|0:0,0:0:0:0:
384,128,6408,1,8,0:0:0:0:
256,24,6565,6,0,B|242:88|242:88|266:128|266:128|256:200,1,180,4|0,0:0|0:0,0:0:0:0:
312,272,7039,1,8,0:0:0:0:
168,352,7197,1,2,0:2:0:0:
80,232,7355,2,0,P|72:184|80:136,1,90,4|0,0:0|0:0,0:0:0:0:
352,88,7671,2,0,P|360:136|352:184,1,90,8|2,0:0|2:0,0:0:0:0:
288,352,7987,5,4,0:0:0:0:
416,224,8145,1,0,0:0:0:0:
232,288,8303,1,8,0:0:0:0:
368,144,8461,1,2,0:0:0:0:
176,216,8618,2,0,P|128:224|80:256,1,90,4|2,0:0|0:0,0:0:0:0:
40,96,8934,1,8,0:0:0:0:
0,312,9092,6,0,P|56:352|168:344,1,180,4|0,0:0|0:0,0:0:0:0:
344,112,9566,1,8,0:0:0:0:
200,32,9724,1,2,0:2:0:0:
112,152,9882,2,0,P|104:200|112:248,1,90,4|0,0:0|0:0,0:0:0:0:
368,344,10198,2,0,P|376:296|368:248,1,90,8|2,0:0|0:2,0:0:0:0:
304,192,10513,5,0,0:0:0:0:
282,185,10592,1,0,0:0:0:0:
259,187,10671,1,0,0:0:0:0:
211,325,10829,1,0,0:0:0:0:
233,332,10908,1,0,0:0:0:0:
256,330,10987,1,0,0:0:0:0:
173,214,11144,2,0,L|61:200,1,90,0|2,0:0|0:0,0:0:0:0:
61,200,11381,1,0,0:0:0:0:
38,197,11460,1,0,0:0:0:0:
304,192,11618,6,0,B|328:136|328:136|288:88|208:112,1,180,4|0,0:0|0:0,0:0:0:0:
352,264,12091,1,8,0:0:0:0:
432,120,12249,1,2,0:2:0:0:
312,32,12407,2,0,P|264:24|216:32,1,90,4|0,0:0|0:0,0:0:0:0:
416,208,12723,2,0,P|464:216|512:208,1,90,8|2,0:0|0:2,0:0:0:0:
208,136,13039,5,4,0:0:0:0:
184,296,13197,1,0,0:0:0:0:
360,368,13355,1,8,0:0:0:0:
376,208,13513,1,2,1:0:0:0:
136,192,13671,2,0,L|24:184,1,90,4|2,0:0|0:0,0:0:0:0:
8,264,13986,1,8,0:0:0:0:
208,136,14144,6,0,B|273:142|273:142|310:113|310:113|382:114,1,180,4|0,0:0|0:0,0:0:0:0:
200,240,14618,1,8,0:0:0:0:
120,96,14776,1,2,0:2:0:0:
240,8,14934,2,0,P|288:0|336:8,1,90,4|0,0:0|0:0,0:0:0:0:
104,184,15250,2,0,P|56:192|8:184,1,90,8|2,0:0|0:2,0:0:0:0:
296,88,15566,5,4,0:0:0:0:
392,248,15724,1,0,0:0:0:0:
248,360,15882,1,8,0:0:0:0:
176,200,16040,1,2,0:0:0:0:
384,112,16197,2,0,L|488:88,1,90,4|2,0:0|0:0,0:0:0:0:
496,176,16513,1,8,0:0:0:0:
288,208,16670,6,0,B|224:222|224:222|184:198|184:198|112:208,1,180,4|0,0:0|0:0,0:0:0:0:
72,288,17144,1,8,0:0:0:0:
248,360,17302,1,2,0:2:0:0:
392,248,17460,2,0,P|400:200|392:152,1,90,4|0,0:0|0:0,0:0:0:0:
136,40,17776,2,0,P|128:88|136:136,1,90,8|2,0:0|0:2,0:0:0:0:
216,176,18092,5,4,0:0:0:0:
312,40,18250,1,0,0:0:0:0:
48,152,18408,1,10,0:0:0:0:
272,256,18566,1,0,0:0:0:0:
64,352,18723,2,0,P|62:298|72:248,1,90,4|2,0:0|0:0,0:0:0:0:
216,176,19039,1,8,0:0:0:0:
372,312,19197,6,0,P|316:352|204:344,1,180,4|0,0:0|0:0,0:0:0:0:
144,200,19671,1,8,0:0:0:0:
240,40,19829,1,2,0:2:0:0:
400,112,19987,2,0,P|408:160|400:208,1,90,4|0,0:0|0:0,0:0:0:0:
144,200,20303,2,0,P|136:152|144:104,1,90,8|2,0:0|0:2,0:0:0:0:
402,200,20618,1,4,0:0:0:0:
352,264,20776,5,0,0:0:0:0:
352,264,20855,1,0,0:0:0:0:
352,264,20934,1,0,0:0:0:0:
396,332,21092,1,0,0:0:0:0:
396,332,21171,1,0,0:0:0:0:
396,332,21250,1,0,0:0:0:0:
328,376,21408,1,0,0:0:0:0:
216,240,21565,1,0,0:0:0:0:
402,200,21723,1,0,0:0:0:0:
168,336,21881,6,0,P|112:320|64:312,2,90,4|0|8,0:1|0:0|0:0,0:0:0:0:
408,288,22355,2,0,P|464:272|512:264,2,90
336,232,22829,1,12,0:0:0:0:
384,40,22986,1,2,0:0:0:0:
488,177,23144,6,0,L|496:273,1,90
304,112,23460,2,0,L|296:16,1,90,14|0,0:0|0:0,0:0:0:0:
256,248,23776,1,2,0:0:0:0:
238,261,23855,1,0,0:0:0:0:
217,271,23934,1,0,0:0:0:0:
195,277,24013,1,0,0:0:0:0:
172,279,24092,1,8,0:0:0:0:
149,277,24171,1,0,0:0:0:0:
127,270,24250,1,0,0:0:0:0:
108,256,24329,1,0,0:0:0:0:
91,240,24408,6,0,L|101:138,1,90,4|0,0:0|0:0,0:0:0:0:
176,120,24723,1,8,0:0:0:0:
8,256,24881,2,0,P|-8:304|-2:358,1,90
344,272,25197,2,0,P|360:224|354:170,1,90,0|12,0:0|0:0,0:0:0:0:
176,120,25513,2,0,L|72:112,1,90,2|0,0:0|0:0,0:0:0:0:
56,32,25829,5,0,0:0:0:0:
272,64,25986,2,0,P|288:112|282:166,1,90,14|0,0:0|0:0,0:0:0:0:
112,344,26302,1,2,0:0:0:0:
99,326,26381,1,0,0:0:0:0:
89,305,26460,1,0,0:0:0:0:
83,283,26539,1,0,0:0:0:0:
81,260,26618,1,8,0:0:0:0:
83,237,26697,1,0,0:0:0:0:
90,215,26776,1,0,0:0:0:0:
104,196,26855,1,0,0:0:0:0:
120,179,26934,6,0,L|222:189,1,90,4|0,0:0|0:0,0:0:0:0:
416,216,27250,1,8,0:0:0:0:
296,344,27408,2,0,L|194:354,1,90,0|4,0:0|0:0,0:0:0:0:
264,128,27723,2,0,L|366:118,1,90,0|8,0:0|0:0,0:0:0:0:
442,101,28039,1,2,0:0:0:0:
336,200,28197,6,0,P|292:226|264:264,1,90,4|0,0:0|0:0,0:0:0:0:
296,344,28513,1,10,0:0:0:0:
472,256,28671,1,0,0:0:0:0:
200,192,28829,1,2,0:0:0:0:
177,188,28908,1,0,0:0:0:0:
154,184,28986,1,0,0:0:0:0:
131,181,29065,1,0,0:0:0:0:
108,178,29144,1,8,0:0:0:0:
85,175,29223,1,0,0:0:0:0:
62,172,29302,1,0,0:0:0:0:
39,169,29381,1,0,0:0:0:0:
16,166,29460,6,0,P|16:101|33:70,1,90,6|0,0:0|0:0,0:0:0:0:
104,32,29776,1,8,0:0:0:0:
176,88,29934,1,0,0:0:0:0:
131,181,30092,2,0,L|120:288,1,90,6|0,0:0|0:0,0:0:0:0:
272,352,30408,1,8,0:0:0:0:
344,296,30566,1,0,0:0:0:0:
304,216,30723,5,6,0:0:0:0:
328,128,30881,1,0,0:0:0:0:
328,128,30960,1,0,0:0:0:0:
328,128,31039,1,10,0:0:0:0:
400,80,31197,1,0,0:0:0:0:
400,80,31276,1,0,0:0:0:0:
400,80,31355,1,10,0:0:0:0:
480,120,31513,1,0,0:0:0:0:
384,296,31671,1,8,0:0:0:0:
200,216,31829,6,0,B|128:176|88:232|16:168,1,180,4|0,0:0|0:0,0:0:0:0:
200,128,32302,2,0,P|272:152|384:120,1,180,8|0,0:0|0:0,0:0:0:0:
160,8,32776,2,0,P|136:48|128:112,1,90,0|8,0:0|0:0,0:0:0:0:
296,320,33092,6,0,L|280:224,1,90,6|0,0:0|2:0,0:0:0:0:
360,64,33408,2,0,L|344:160,1,90,2|8,0:0|1:0,0:0:0:0:
408,368,33723,2,0,P|472:328|448:224,1,180,2|0,0:0|0:0,0:0:0:0:
256,144,34197,1,8,0:0:0:0:
472,104,34355,5,0,0:0:0:0:
472,104,34434,1,0,0:0:0:0:
472,104,34513,1,4,0:0:0:0:
400,160,34671,2,0,P|368:200|352:248,1,90,0|8,0:0|0:0,0:0:0:0:
264,264,34986,2,0,P|176:232|112:288,1,180,4|0,0:0|0:0,0:0:0:0:
114,281,35381,1,0,0:0:0:0:
114,281,35460,1,8,0:0:0:0:
72,200,35618,6,0,B|52:135|52:135|69:91|69:91|45:30,1,180,4|0,0:0|0:0,0:0:0:0:
144,104,36092,2,0,P|208:128|232:120,1,90,8|0,0:0|0:0,0:0:0:0:
288,72,36408,1,0,0:0:0:0:
159,204,36565,2,0,P|127:252|111:300,1,90,0|8,0:0|0:0,0:0:0:0:
304,352,36881,6,0,B|376:312|416:368|488:304,1,180,4|0,0:0|0:0,0:0:0:0:
416,216,37355,2,0,P|344:240|232:208,1,180,8|0,0:0|0:0,0:0:0:0:
352,8,37828,2,0,P|376:48|384:112,1,90,0|8,0:0|0:0,0:0:0:0:
248,216,38144,6,0,L|264:120,1,90,6|0,0:0|2:0,0:0:0:0:
488,272,38460,2,0,L|504:368,1,90,2|8,0:0|1:0,0:0:0:0:
208,360,38776,2,0,P|144:320|168:216,1,180,2|0,0:0|0:0,0:0:0:0:
264,128,39249,1,8,0:0:0:0:
112,76,39407,5,0,0:0:0:0:
156,226,39565,1,4,0:0:0:0:
264,128,39723,2,0,P|247:86|218:52,1,90,0|8,0:0|0:0,0:0:0:0:
16,168,40039,1,0,0:0:0:0:
64,304,40197,1,4,0:0:0:0:
184,224,40355,1,0,0:0:0:0:
184,224,40433,1,0,0:0:0:0:
184,224,40512,1,8,0:0:0:0:
288,352,40670,6,0,B|307:287|307:287|290:243|290:243|314:182,1,180,4|0,0:0|0:0,0:0:0:0:
456,336,41144,2,0,P|392:360|368:352,1,90,12|0,0:0|0:0,0:0:0:0:
240,144,41460,2,0,L|277:48,1,90
272,60,41697,1,0,0:0:0:0:
272,60,41776,1,8,0:0:0:0:
392,224,41934,5,0,0:0:0:0:
392,224,42013,1,0,0:0:0:0:
392,224,42092,2,0,B|336:216|336:216|280:248|288:328,1,180,4|8,0:0|0:0,0:0:0:0:
472,272,42565,2,0,P|512:200|488:104,1,180
448,32,43039,1,8,0:0:0:0:
208,120,43197,6,0,P|160:136|88:152,1,90,6|0,0:0|2:0,0:0:0:0:
288,288,43513,2,0,P|336:304|408:320,1,90,2|8,0:0|1:0,0:0:0:0:
304,104,43829,2,0,P|216:88|120:56,1,180,2|0,0:0|0:0,0:0:0:0:
344,24,44302,1,8,0:0:0:0:
384,216,44460,5,0,0:0:0:0:
380,238,44539,1,0,0:0:0:0:
378,260,44618,2,0,L|406:354,1,90,4|0,0:0|0:0,0:0:0:0:
416,120,44934,1,8,0:0:0:0:
256,296,45092,2,0,L|290:416,1,90
476,280,45408,1,0,0:0:0:0:
400,88,45566,1,8,0:0:0:0:
212,168,45723,6,0,P|119:165|28:144,1,180,4|0,0:0|0:0,0:0:0:0:
296,160,46197,2,0,P|320:200|336:240,1,90,8|0,0:0|0:0,0:0:0:0:
336,240,46434,1,0,0:0:0:0:
336,240,46513,1,0,0:0:0:0:
56,336,46671,1,0,0:0:0:0:
128,168,46829,1,8,0:0:0:0:
184,360,46986,6,0,B|240:368|240:368|296:336|288:256,1,180,4|0,0:0|0:0,0:0:0:0:
72,72,47460,2,0,P|32:144|56:240,1,180,8|0,0:0|0:0,0:0:0:0:
128,280,47933,1,0,0:0:0:0:
248,192,48092,1,8,0:0:0:0:
224,48,48250,6,0,P|152:32|112:16,1,90,6|0,0:0|2:0,0:0:0:0:
336,200,48565,2,0,P|408:184|448:168,1,90,2|8,0:0|1:0,0:0:0:0:
176,128,48881,2,0,P|88:144|-8:176,1,180,2|0,0:0|0:0,0:0:0:0:
16,264,49354,1,8,0:0:0:0:
200,360,49512,5,0,0:0:0:0:
222,364,49591,1,0,0:0:0:0:
244,366,49671,2,0,L|338:338,1,90,4|0,0:0|0:0,0:0:0:0:
416,304,49986,1,8,0:0:0:0:
192,248,50144,2,4,L|98:220,1,90
352,128,50460,1,8,0:0:0:0:
168,72,50618,1,0,0:0:0:0:
296,200,50776,6,0,P|344:280|328:368,1,180,4|0,0:0|0:0,0:0:0:0:
82,355,51250,1,8,0:0:0:0:
69,337,51329,1,0,0:0:0:0:
59,316,51408,1,0,0:0:0:0:
53,294,51487,1,0,0:0:0:0:
51,271,51566,1,0,0:0:0:0:
53,248,51645,1,0,0:0:0:0:
60,226,51724,1,0,0:0:0:0:
74,207,51803,1,0,0:0:0:0:
88,189,51881,1,8,0:0:0:0:
106,175,51960,1,0,0:0:0:0:
126,165,52039,1,0,0:0:0:0:
144,160,52118,1,0,0:0:0:0:
169,157,52197,6,0,P|211:176|289:176,1,90,4|0,0:0|0:0,0:0:0:0:
339,149,52513,1,8,0:0:0:0:
465,262,52671,2,0,P|420:267|379:286,1,90
199,379,52986,2,0,P|243:373|284:354,1,90,8|0,0:0|0:0,0:0:0:0:
171,240,53302,1,10,0:0:0:0:
99,283,53460,6,0,L|77:385,1,90,4|0,0:0|0:0,0:0:0:0:
297,249,53776,1,10,0:0:0:0:
56,211,53934,1,0,0:0:0:0:
292,144,54092,1,2,0:0:0:0:
283,123,54171,1,0,0:0:0:0:
271,103,54250,1,0,0:0:0:0:
256,86,54329,1,0,0:0:0:0:
238,72,54408,1,0,0:0:0:0:
218,61,54487,1,0,0:0:0:0:
195,55,54566,1,0,0:0:0:0:
172,56,54645,1,0,0:0:0:0:
149,60,54724,6,0,L|132:169,1,90,4|0,0:0|0:0,0:0:0:0:
371,201,55039,1,8,0:0:0:0:
464,216,55197,2,0,L|483:326,1,90
176,360,55513,2,0,L|157:250,1,90,8|0,0:0|0:0,0:0:0:0:
216,200,55829,1,10,0:0:0:0:
32,104,55986,5,4,0:0:0:0:
248,120,56144,1,0,0:0:0:0:
88,240,56302,2,0,P|59:279|40:320,1,90,10|0,0:0|0:0,0:0:0:0:
280,288,56618,1,2,0:0:0:0:
289,309,56697,1,0,0:0:0:0:
301,329,56776,1,0,0:0:0:0:
316,346,56855,1,0,0:0:0:0:
334,360,56934,1,0,0:0:0:0:
354,371,57013,1,0,0:0:0:0:
377,377,57092,1,0,0:0:0:0:
400,376,57171,1,0,0:0:0:0:
423,372,57250,6,0,L|440:263,1,90,4|0,0:0|0:0,0:0:0:0:
336,56,57565,1,8,0:0:0:0:
176,208,57723,2,0,L|159:317,1,90
400,200,58039,2,0,L|417:91,1,90,8|0,0:0|0:0,0:0:0:0:
432,24,58355,1,10,0:0:0:0:
240,152,58513,6,0,P|280:184|320:192,1,90,4|0,0:0|0:0,0:0:0:0:
496,160,58829,1,10,0:0:0:0:
288,272,58986,2,0,P|244:282|210:311,1,90,0|2,0:0|0:0,0:0:0:0:
198,331,59223,1,0,0:0:0:0:
180,345,59302,1,0,0:0:0:0:
159,354,59381,1,0,0:0:0:0:
136,358,59460,1,0,0:0:0:0:
113,357,59539,1,0,0:0:0:0:
91,350,59618,1,0,0:0:0:0:
71,339,59697,1,0,0:0:0:0:
55,322,59776,6,0,L|46:228,1,90,4|0,0:0|0:0,0:0:0:0:
272,80,60092,1,8,0:0:0:0:
384,280,60250,2,0,L|393:374,1,90
464,104,60565,2,0,L|455:10,1,90,8|0,0:0|0:0,0:0:0:0:
208,144,60881,1,8,0:0:0:0:
256,216,61039,6,0,P|304:240|360:232,1,90,4|0,0:0|0:0,0:0:0:0:
339,239,61276,1,0,0:0:0:0:
339,239,61355,1,2,0:0:0:0:
128,136,61513,2,0,P|88:160|56:208,1,90,0|2,0:0|0:0,0:0:0:0:
54,215,61750,1,0,0:0:0:0:
50,237,61829,1,0,0:0:0:0:
50,259,61908,1,0,0:0:0:0:
55,280,61986,1,0,0:0:0:0:
63,300,62065,1,0,0:0:0:0:
76,318,62144,1,0,0:0:0:0:
92,333,62223,1,0,0:0:0:0:
111,343,62302,6,0,P|174:350|217:325,1,107.999996704102,4|0,0:0|0:0,0:0:0:0:
312,184,62618,1,8,0:0:0:0:
252,125,62776,2,0,P|189:118|146:143,1,107.999996704102,0|4,0:0|0:0,0:0:0:0:
353,328,63092,2,0,P|416:335|459:310,1,107.999996704102,8|0,0:0|0:0,0:0:0:0:
501,242,63408,1,8,0:0:0:0:
242,220,63565,6,0,L|125:214,1,107.999996704102,6|0,0:0|0:0,0:0:0:0:
361,118,63881,2,0,L|478:124,1,107.999996704102,10|0,0:0|0:0,0:0:0:0:
250,348,64197,1,6,0:0:0:0:
230,354,64276,1,0,0:0:0:0:
208,358,64355,1,0,0:0:0:0:
186,358,64434,1,0,0:0:0:0:
165,353,64512,1,0,0:0:0:0:
145,345,64591,1,0,0:0:0:0:
127,332,64670,1,0,0:0:0:0:
112,316,64749,1,0,0:0:0:0:
102,297,64828,6,0,P|95:234|120:191,1,107.999996704102,4|0,0:0|0:0,0:0:0:0:
392,200,65144,1,8,0:0:0:0:
450,262,65302,2,0,P|457:325|432:368,1,107.999996704102,0|4,0:0|0:0,0:0:0:0:
223,125,65618,2,0,P|216:62|241:19,1,107.999996704102,8|0,0:0|0:0,0:0:0:0:
322,10,65934,1,8,0:0:0:0:
387,163,66092,6,0,L|496:175,1,107.999996704102,6|0,0:0|0:0,0:0:0:0:
219,221,66408,2,0,L|110:209,1,107.999996704102,10|0,0:0|0:0,0:0:0:0:
471,136,66723,1,6,0:0:0:0:
477,156,66802,1,0,0:0:0:0:
481,178,66881,1,0,0:0:0:0:
481,200,66960,1,0,0:0:0:0:
476,221,67038,1,0,0:0:0:0:
468,241,67117,1,0,0:0:0:0:
455,259,67196,1,0,0:0:0:0:
439,274,67275,1,0,0:0:0:0:
420,284,67355,6,0,P|357:291|314:266,1,107.999996704102,4|0,0:0|0:0,0:0:0:0:
248,67,67671,1,8,0:0:0:0:
387,161,67829,1,0,0:0:0:0:
265,317,67986,2,0,P|208:329|158:363,1,107.999996704102,4|8,0:0|0:0,0:0:0:0:
129,217,68302,2,0,P|185:204|236:171,1,107.999996704102,0|8,0:0|0:0,0:0:0:0:
48,248,68618,6,0,L|32:361,1,107.999996704102,6|0,0:0|0:0,0:0:0:0:
241,173,68934,2,0,L|257:60,1,107.999996704102,10|0,0:0|0:0,0:0:0:0:
41,136,69250,1,6,0:0:0:0:
35,156,69329,1,0,0:0:0:0:
31,178,69408,1,0,0:0:0:0:
31,200,69487,1,0,0:0:0:0:
36,221,69565,1,0,0:0:0:0:
44,241,69644,1,0,0:0:0:0:
57,259,69723,1,0,0:0:0:0:
73,274,69802,1,0,0:0:0:0:
92,284,69881,6,0,P|155:291|198:266,1,107.999996704102,4|0,0:0|0:0,0:0:0:0:
261,324,70197,1,8,0:0:0:0:
279,304,70276,1,0,0:0:0:0:
301,289,70355,1,0,0:0:0:0:
325,278,70434,1,0,0:0:0:0:
351,273,70513,1,4,0:0:0:0:
448,256,70671,2,0,P|480:184|472:136,1,107.999996704102,0|8,0:0|0:0,0:0:0:0:
440,64,70986,1,0,0:0:0:0:
256,192,71144,1,4,0:0:0:0:
256,192,71223,12,0,72092,2:0:0:0:
168,288,72408,6,0,B|240:328|280:272|352:336,1,180,4|8,0:0|0:0,0:0:0:0:
504,216,72881,2,0,P|432:192|320:224,1,180
416,368,73355,1,8,0:0:0:0:
464,112,73513,6,0,L|478:23,1,90,6|0,0:0|2:0,0:0:0:0:
256,112,73829,2,0,L|240:208,1,90,2|8,0:0|1:0,0:0:0:0:
416,368,74144,2,0,P|480:328|456:224,1,180,2|0,0:0|0:0,0:0:0:0:
320,192,74618,1,8,0:0:0:0:
264,344,74776,5,0,0:0:0:0:
264,344,74855,1,0,0:0:0:0:
264,344,74934,1,4,0:0:0:0:
176,328,75092,2,0,L|72:312,1,90,0|8,0:0|0:0,0:0:0:0:
16,200,75407,2,0,P|104:232|168:176,1,180,4|0,0:0|0:0,0:0:0:0:
165,182,75802,1,0,0:0:0:0:
165,182,75881,1,8,0:0:0:0:
424,304,76039,6,0,B|443:239|443:239|426:195|426:195|450:134,1,180,4|0,0:0|0:0,0:0:0:0:
336,248,76513,2,0,P|272:224|248:232,1,90,8|0,0:0|0:0,0:0:0:0:
184,272,76829,1,0,0:0:0:0:
344,120,76986,1,0,0:0:0:0:
300,360,77144,1,8,0:0:0:0:
64,224,77302,6,0,B|24:152|80:112|16:40,1,180,4|0,0:0|0:0,0:0:0:0:
208,208,77776,2,0,P|280:184|392:216,1,180,8|0,0:0|0:0,0:0:0:0:
288,360,78250,2,0,P|264:320|256:256,1,90,0|8,0:0|0:0,0:0:0:0:
480,120,78565,6,0,L|464:216,1,90,6|0,0:0|2:0,0:0:0:0:
264,112,78881,2,0,L|248:16,1,90,2|8,0:0|1:0,0:0:0:0:
320,192,79197,2,0,P|384:232|360:336,1,180,2|0,0:0|0:0,0:0:0:0:
176,352,79670,1,8,0:0:0:0:
72,192,79828,5,0,0:0:0:0:
72,192,79907,1,0,0:0:0:0:
72,192,79986,1,4,0:0:0:0:
208,216,80144,2,0,P|240:256|256:304,1,90,0|8,0:0|0:0,0:0:0:0:
456,128,80460,1,4,0:0:0:0:
344,352,80618,1,0,0:0:0:0:
296,184,80776,1,0,0:0:0:0:
296,184,80854,1,0,0:0:0:0:
296,184,80933,1,8,0:0:0:0:
360,16,81092,6,0,B|379:80|379:80|362:124|362:124|386:185,1,180,4|0,0:0|0:0,0:0:0:0:
232,320,81565,1,8,0:0:0:0:
212,330,81644,1,0,0:0:0:0:
190,337,81723,1,0,0:0:0:0:
167,339,81802,1,0,0:0:0:0:
144,338,81881,2,0,L|56:311,2,60
168,256,82197,2,0,L|80:229,2,60
296,184,82513,6,0,B|240:192|240:192|184:160|192:80,1,180,4|8,0:0|0:0,0:0:0:0:
40,112,82986,2,0,P|0:184|24:280,1,180
64,352,83460,1,8,0:0:0:0:
304,264,83618,6,0,P|352:248|424:232,1,90,6|0,0:0|2:0,0:0:0:0:
224,96,83934,2,0,P|176:80|104:64,1,90,2|8,0:0|1:0,0:0:0:0:
208,280,84250,2,0,P|296:296|392:328,1,180,2|0,0:0|0:0,0:0:0:0:
168,360,84723,1,8,0:0:0:0:
128,168,84881,5,0,0:0:0:0:
132,146,84960,1,0,0:0:0:0:
134,124,85039,2,0,L|106:30,1,90,4|0,0:0|0:0,0:0:0:0:
96,320,85355,1,8,0:0:0:0:
296,152,85513,2,0,L|268:58,1,90,4|0,0:0|0:0,0:0:0:0:
40,136,85829,1,0,0:0:0:0:
312,308,85987,1,8,0:0:0:0:
208,160,86144,6,0,P|211:252|232:344,1,180,4|0,0:0|0:0,0:0:0:0:
416,240,86618,2,0,P|440:200|456:160,1,90,8|0,0:0|0:0,0:0:0:0:
456,159,86855,1,0,0:0:0:0:
456,159,86934,1,0,0:0:0:0:
280,112,87092,1,0,0:0:0:0:
448,64,87250,1,8,0:0:0:0:
328,224,87407,6,0,B|272:216|272:216|216:248|224:328,1,180,4|0,0:0|0:0,0:0:0:0:
437,323,87881,2,0,P|477:251|453:155,1,180,8|0,0:0|0:0,0:0:0:0:
384,104,88354,1,0,0:0:0:0:
264,192,88513,1,8,0:0:0:0:
288,336,88671,6,0,P|360:352|400:368,1,90,6|0,0:0|2:0,0:0:0:0:
176,184,88986,2,0,P|104:200|64:216,1,90,2|8,0:0|1:0,0:0:0:0:
336,256,89302,2,0,P|424:240|520:208,1,180,2|0,0:0|0:0,0:0:0:0:
496,120,89775,1,8,0:0:0:0:
312,24,89933,5,0,0:0:0:0:
290,20,90012,1,0,0:0:0:0:
268,18,90092,2,0,L|174:46,1,90,4|0,0:0|0:0,0:0:0:0:
96,80,90407,1,8,0:0:0:0:
320,136,90565,2,0,L|414:164,1,90,4|0,0:0|0:0,0:0:0:0:
160,256,90881,1,8,0:0:0:0:
344,312,91039,1,0,0:0:0:0:
216,184,91197,6,0,P|168:104|184:16,1,180,4|0,0:0|0:0,0:0:0:0:
320,136,91671,1,0,0:0:0:0:
320,136,91829,2,0,L|312:336,1,180
232,280,92302,1,0,0:0:0:0:
224,368,92460,1,0,0:0:0:0:
224,368,92618,6,0,P|144:336|56:368,1,180,4|2,0:2|0:3,0:0:0:0:
58,365,93408,2,0,L|48:312,1,45
24,232,93723,2,0,P|71:219|112:200,1,90,4|4,0:3|0:3,0:0:0:0:
248,88,94355,5,4,0:3:0:0:
248,88,94513,1,2,0:3:0:0:
184,152,94671,1,0,0:0:0:0:
176,240,94829,1,0,0:0:0:0:
224,312,94986,1,0,0:0:0:0:
280,240,95144,6,0,P|327:235|384:216,1,90,4|4,0:2|0:3,0:0:0:0:
112,96,95776,2,0,P|68:83|24:79,1,90,2|0,0:3|0:0,0:0:0:0:
24,79,96250,6,0,L|15:183,1,90,4|4,0:3|0:3,0:0:0:0:
352,160,96881,2,0,L|360:264,1,90,2|0,1:3|0:0,0:0:0:0:
368,344,97355,1,0,0:0:0:0:
368,344,97513,1,0,0:0:0:0:
448,296,97671,6,0,P|480:216|448:128,1,180,4|2,0:2|0:3,0:0:0:0:
450,130,98460,2,0,L|392:152,1,45
360,72,98776,2,0,P|312:59|272:40,1,90,4|4,0:3|0:3,0:0:0:0:
112,128,99408,5,4,0:3:0:0:
112,128,99566,1,2,0:3:0:0:
176,192,99724,1,0,0:0:0:0:
184,280,99882,1,0,0:0:0:0:
136,352,100039,1,0,0:0:0:0:
88,272,100197,6,0,P|40:267|-16:248,1,90,4|0,0:2|0:0,0:0:0:0:
240,136,100829,1,2,0:3:0:0:
240,136,100986,2,0,P|283:123|327:119,2,90,0|4|0,0:0|0:2|0:0,0:0:0:0:
288,216,101776,6,0,P|303:265|312:312,1,90
310,302,102013,1,0,0:0:0:0:
310,302,102092,1,0,0:0:0:0:
400,160,102250,2,0,P|409:115|422:73,1,90,0|0,0:0|0:0,0:0:0:0:
480,288,102565,1,0,0:0:0:0:
200,216,102723,6,0,B|120:192|96:240|16:208,1,180,4|8,0:0|0:0,0:0:0:0:
216,128,103197,1,0,0:0:0:0:
344,296,103355,2,0,P|376:344|392:376,1,90
480,192,103671,1,8,0:0:0:0:
328,32,103829,6,0,B|309:96|309:96|326:140|326:140|302:201,1,180,4|0,0:0|0:0,0:0:0:0:
152,72,104302,2,0,P|192:48|240:48,1,90,8|0,0:0|0:0,0:0:0:0:
408,224,104618,1,0,0:0:0:0:
240,296,104776,1,0,0:0:0:0:
208,144,104934,1,12,0:0:0:0:
376,72,105092,1,0,0:0:0:0:
328,192,105250,6,0,B|304:272|352:296|320:376,1,180,4|8,0:0|0:0,0:0:0:0:
408,352,105723,1,0,0:0:0:0:
176,232,105881,6,0,B|120:224|120:224|64:256|72:336,1,180,4|8,0:0|0:0,0:0:0:0:
408,352,106355,6,4,B|427:288|427:288|410:244|410:244|434:183,1,180,4|0,0:0|0:0,0:0:0:0:
472,104,106829,1,8,0:0:0:0:
320,272,106986,2,0,P|280:296|240:336,1,90,0|4,0:0|0:0,0:0:0:0:
168,376,107302,1,0,0:0:0:0:
288,192,107460,1,8,0:0:0:0:
88,312,107618,1,0,0:0:0:0:
320,272,107776,6,0,B|400:248|424:296|504:264,1,180,4|8,0:0|0:0,0:0:0:0:
448,192,108250,1,0,0:0:0:0:
216,224,108408,2,0,P|184:272|168:304,1,90
80,128,108724,1,8,0:0:0:0:
264,24,108882,6,0,B|283:88|283:88|266:132|266:132|290:193,1,180,4|0,0:0|0:0,0:0:0:0:
488,264,109355,2,0,P|448:240|400:240,1,90,8|0,0:0|0:0,0:0:0:0:
280,368,109671,1,0,0:0:0:0:
456,336,109829,1,0,0:0:0:0:
504,160,109987,1,12,0:0:0:0:
416,0,110145,1,0,0:0:0:0:
352,160,110303,6,0,B|272:184|248:136|168:168,1,180,4|8,0:0|0:0,0:0:0:0:
88,200,110776,1,0,0:0:0:0:
144,360,110934,6,0,B|200:368|200:368|256:336|248:256,1,180,4|8,0:0|0:0,0:0:0:0:
40,104,111408,1,0,0:0:0:0:
40,104,111486,1,0,0:0:0:0:
40,104,111565,1,4,0:0:0:0:
8,264,111723,1,0,0:0:0:0:
168,304,111881,1,8,0:0:0:0:
208,144,112039,1,0,0:0:0:0:
96,264,112197,5,4,0:0:0:0:
256,304,112355,1,8,0:0:0:0:
416,264,112513,1,8,0:0:0:0:
472,104,112671,1,0,0:0:0:0:
320,40,112829,6,0,B|280:104|280:104|344:160|320:240,1,215.999993408203,4|8,0:0|0:0,0:0:0:0:
224,208,113302,2,0,B|184:192|176:176|176:176|160:200|152:232|152:232|136:208|56:184,1,215.999993408203
55,182,113776,2,0,P|40:128|42:74,1,107.999996704102,8|0,0:0|0:0,0:0:0:0:
264,128,114092,5,4,0:0:0:0:
136,272,114250,2,0,P|112:320|104:384,1,107.999996704102,2|8,0:0|0:0,0:0:0:0:
336,256,114565,1,0,0:0:0:0:
176,192,114723,2,0,B|152:176|120:176|120:176|88:128,1,107.999996704102,6|0,0:0|0:0,0:0:0:0:
240,328,115039,2,0,B|264:344|296:344|296:344|328:392,1,107.999996704102,14|0,0:0|0:0,0:0:0:0:
488,256,115355,6,0,P|496:200|480:152,1,107.999996704102,4|0,0:0|0:0,0:0:0:0:
432,80,115671,1,8,0:0:0:0:
248,200,115829,2,0,B|192:224|176:280|176:280|112:264|56:328,1,215.999993408203
272,288,116302,2,0,B|296:304|328:304|328:304|360:352,1,107.999996704102,8|0,0:0|0:0,0:0:0:0:
416,184,116618,5,4,0:0:0:0:
168,48,116776,2,0,B|138:103|104:136|104:136|138:167|168:224,1,215.999993408203,2|0,0:0|0:0,0:0:0:0:
0,304,117250,2,0,P|32:248|64:216,1,107.999996704102,6|0,0:0|0:0,0:0:0:0:
336,120,117565,1,10,0:0:0:0:
160,320,117723,5,0,0:0:0:0:
160,320,117802,1,0,0:0:0:0:
160,320,117881,2,0,P|152:264|168:200,1,107.999996704102,4|0,0:0|0:0,0:0:0:0:
312,200,118197,1,8,0:0:0:0:
464,240,118355,2,0,P|472:296|456:360,1,107.999996704102,2|0,0:0|0:0,0:0:0:0:
240,360,118671,1,0,0:0:0:0:
72,240,118829,2,0,P|64:184|80:120,1,107.999996704102,14|0,0:0|0:0,0:0:0:0:
240,144,119144,6,0,P|248:88|232:24,1,107.999996704102,4|0,0:0|0:0,0:0:0:0:
16,72,119460,1,8,0:0:0:0:
176,232,119618,2,0,P|232:240|296:224,1,107.999996704102,2|0,0:0|0:0,0:0:0:0:
400,144,119934,1,0,0:0:0:0:
168,240,120092,2,0,L|176:360,1,107.999996704102,14|0,0:0|0:0,0:0:0:0:
80,280,120408,6,0,L|72:160,1,107.999996704102,4|0,0:0|0:0,0:0:0:0:
0,240,120723,1,8,0:0:0:0:
256,360,120881,2,0,B|312:336|328:280|328:280|392:296|448:232,1,215.999993408203,2|2,0:0|0:0,0:0:0:0:
496,80,121355,2,0,L|488:200,1,107.999996704102,8|0,0:0|0:0,0:0:0:0:
392,120,121671,6,0,L|400:0,1,107.999996704102,6|0,0:0|0:0,0:0:0:0:
488,187,121986,1,8,0:0:0:0:
320,280,122144,1,10,0:0:0:0:
200,160,122302,2,0,B|184:120|184:120|208:48,1,107.999996704102,4|2,0:0|0:0,0:0:0:0:
400,240,122618,2,0,B|416:280|416:280|392:352,1,107.999996704102,12|8,0:0|0:0,0:0:0:0:
192,264,122934,6,0,B|128:224|128:224|72:288|-8:264,1,215.999993408203,4|8,0:0|0:0,0:0:0:0:
320,200,123407,2,0,B|336:160|352:152|352:152|328:136|296:128|296:128|320:112|344:32,1,215.999993408203
400,240,123881,2,0,P|415:294|412:347,1,107.999996704102,8|0,0:0|0:0,0:0:0:0:
248,256,124197,5,4,0:0:0:0:
456,144,124355,2,0,P|480:96|488:32,1,107.999996704102,2|8,0:0|0:0,0:0:0:0:
176,128,124670,1,0,0:0:0:0:
192,320,124828,2,0,B|224:336|256:336|256:336|288:384,1,107.999996704102,6|0,0:0|0:0,0:0:0:0:
96,136,125144,2,0,B|72:120|40:120|40:120|8:72,1,107.999996704102,14|0,0:0|0:0,0:0:0:0:
48,208,125460,6,0,P|40:264|56:312,1,107.999996704102,6|0,0:0|0:0,0:0:0:0:
104,384,125776,1,8,0:0:0:0:
320,312,125934,2,0,B|376:288|392:232|392:232|456:248|512:184,1,215.999993408203,2|0,0:0|0:0,0:0:0:0:
208,216,126407,2,0,B|184:200|152:200|152:200|120:152,1,107.999996704102,10|0,0:0|0:0,0:0:0:0:
288,16,126723,6,0,B|318:71|352:104|352:104|318:135|288:192,1,215.999993408203,6|8,0:0|0:0,0:0:0:0:
216,360,127197,1,0,0:0:0:0:
127,297,127355,1,0,0:0:0:0:
112,274,127434,1,0,0:0:0:0:
103,248,127513,1,0,0:0:0:0:
95,222,127592,1,0,0:0:0:0:
92,195,127671,1,12,0:0:0:0:
359,249,127828,5,0,0:0:0:0:
359,249,127907,1,0,0:0:0:0:
359,249,127986,2,0,P|367:305|351:369,1,107.999996704102,6|0,0:0|0:0,0:0:0:0:
208,264,128302,1,8,0:0:0:0:
448,208,128460,2,0,P|456:152|440:88,1,107.999996704102,2|8,0:0|0:0,0:0:0:0:
272,24,128776,1,0,0:0:0:0:
72,144,128934,2,0,P|64:200|80:264,1,107.999996704102,14|0,0:0|0:0,0:0:0:0:
288,264,129250,6,0,P|296:320|280:384,1,107.999996704102,14|0,0:0|0:0,0:0:0:0:
144,184,129565,1,8,0:0:0:0:
280,80,129723,2,0,P|332:69|392:87,1,107.999996704102,2|8,0:0|0:0,0:0:0:0:
192,328,130039,1,0,0:0:0:0:
24,208,130197,2,0,L|16:88,1,107.999996704102,14|0,0:0|0:0,0:0:0:0:
328,200,130513,6,0,L|336:320,1,107.999996704102,14|0,0:0|0:0,0:0:0:0:
440,360,130829,2,0,L|432:240,1,107.999996704102,12|0,0:0|0:0,0:0:0:0:
432,252,131065,1,0,0:0:0:0:
432,252,131144,1,12,0:0:0:0:
216,152,131302,1,0,0:0:0:0:
88,336,131460,2,0,P|136:352|200:336,1,107.999996704102,12|0,0:0|0:0,0:0:0:0:
80,120,131776,6,0,L|8:104,2,71.9999978027344
120,200,132092,2,0,L|192:184,2,71.9999978027344
40,232,132408,2,0,P|16:264|8:312,2,71.9999978027344
104,288,132723,1,0,0:0:0:0:
256,312,132881,6,0,B|336:288|360:336|440:304,1,180,4|0,0:0|0:0,0:0:0:0:
448,296,133355,2,0,L|432:192,1,90,8|0,0:0|0:0,0:0:0:0:
504,56,133671,2,0,P|500:112|488:160,1,90
288,240,133986,1,8,0:0:0:0:
248,128,134144,1,0,0:0:0:0:
312,32,134302,6,0,L|424:40,2,90,0|0|8,0:0|0:0|0:0,0:0:0:0:
224,16,134776,1,0,0:0:0:0:
376,160,134934,1,2,0:0:0:0:
192,240,135092,2,0,P|136:272|112:312,1,90
288,368,135408,6,2,B|304:320|352:280|352:280|320:200|224:160,1,270,6|8,0:0|0:0,0:0:0:0:
152,152,136039,1,0,0:0:0:0:
400,200,136197,2,0,P|456:208|512:200,1,90,2|0,0:0|0:0,0:0:0:0:
184,344,136513,1,8,0:0:0:0:
104,296,136671,6,2,B|88:256|104:224|104:224|56:224|32:232|32:232|56:168|40:104,1,270,4|8,0:0|0:0,0:0:0:0:
200,224,137302,2,2,P|264:296|352:280,1,180
400,360,137776,1,8,0:0:0:0:
248,144,137934,6,0,P|240:104|216:56,1,90,6|0,0:0|0:0,0:0:0:0:
480,160,138250,2,0,L|472:264,1,90,0|10,0:0|0:0,0:0:0:0:
336,88,138565,1,0,0:0:0:0:
371,218,138723,1,6,0:0:0:0:
264,301,138881,1,0,0:0:0:0:
152,224,139039,1,8,0:0:0:0:
152,224,139197,6,0,L|40:216,1,90,6|0,0:0|0:0,0:0:0:0:
16,136,139513,1,0,0:0:0:0:
16,136,139592,1,0,0:0:0:0:
16,136,139671,1,10,0:0:0:0:
264,216,139829,1,0,0:0:0:0:
80,304,139986,2,0,P|32:336|8:368,1,90,2|0,0:0|0:0,0:0:0:0:
200,376,140302,1,8,0:0:0:0:
152,224,140460,6,2,B|136:168|136:168|152:112|152:112|136:32,1,180,4|0,0:0|0:0,0:0:0:0:
64,216,140934,2,0,L|84:334,1,90,8|0,0:0|0:0,0:0:0:0:
304,356,141250,1,0,0:0:0:0:
352,144,141408,1,0,0:0:0:0:
156,235,141565,1,8,0:0:0:0:
488,232,141723,6,2,P|496:168|416:72,1,180,4|2,0:0|0:0,0:0:0:0:
72,240,142197,2,0,B|56:288|56:288|64:344,1,90,12|2,0:0|0:0,0:0:0:0:
248,176,142513,2,0,B|264:128|264:128|256:72,1,90,12|2,0:0|0:0,0:0:0:0:
8,48,142829,1,10,0:0:0:0:
168,248,142986,6,0,B|232:296|264:352|264:352|296:312|376:288,1,270,4|8,0:0|0:0,0:0:0:0:
464,288,143618,1,0,0:0:0:0:
248,176,143776,2,0,P|208:144|144:120,1,90
24,272,144092,1,8,0:0:0:0:
184,376,144250,6,2,B|208:320|264:320|264:320|320:232,1,180,4|2,0:0|0:0,0:0:0:0:
344,176,144723,1,8,0:0:0:0:
504,120,144881,2,0,L|496:216,1,90,2|0,0:0|0:0,0:0:0:0:
248,176,145197,1,0,0:0:0:0:
424,56,145355,1,8,0:0:0:0:
408,240,145513,6,0,P|384:296|256:280,1,180,6|0,0:0|0:0,0:0:0:0:
276,302,145908,1,0,0:0:0:0:
276,302,145986,1,8,0:0:0:0:
184,248,146144,1,0,0:0:0:0:
352,144,146302,1,0,0:0:0:0:
160,48,146460,1,2,0:0:0:0:
280,208,146618,1,8,0:0:0:0:
432,104,146776,6,2,P|376:40|272:48,1,180,6|0,0:0|0:0,0:0:0:0:
56,200,147250,1,8,0:0:0:0:
120,264,147408,2,0,P|144:320|152:360,1,90,6|0,0:1|0:0,0:0:0:0:
232,320,147723,2,0,P|288:296|344:280,1,90,0|12,0:0|0:1,0:0:0:0:
488,208,148039,6,2,B|432:192|432:192|376:208|376:208|296:192,1,180,4|0,0:0|0:0,0:0:0:0:
291,191,148434,1,0,0:0:0:0:
268,187,148513,1,8,0:0:0:0:
422,61,148671,1,0,0:0:0:0:
427,82,148750,1,0,0:0:0:0:
433,103,148829,2,0,L|481:136,3,45
353,98,149144,6,0,P|290:89|236:97,1,90,8|0,0:0|0:0,0:0:0:0:
241,95,149381,1,0,0:0:0:0:
220,103,149460,1,6,0:0:0:0:
297,333,149618,1,0,0:0:0:0:
388,298,149776,1,10,0:0:0:0:
399,278,149855,1,0,0:0:0:0:
405,256,149934,1,0,0:0:0:0:
406,233,150013,1,0,0:0:0:0:
402,210,150092,1,2,0:0:0:0:
128,180,150250,1,8,0:0:0:0:
250,266,150408,1,8,0:0:0:0:
399,126,150565,6,0,P|352:52|256:31,1,180,4|0,0:0|0:0,0:0:0:0:
40,136,151039,1,12,1:1:0:0:
272,200,151197,1,0,0:0:0:0:
24,292,151355,6,0,L|20:222,2,60,8|0|0,0:0|0:0|0:0,0:0:0:0:
104,288,151671,2,0,L|108:358,2,60,8|0|0,0:0|0:0|0:0,0:0:0:0:
176,256,151986,2,0,L|179:303,3,45
176,256,152302,1,8,0:0:0:0:
195,244,152380,1,0,0:0:0:0:
212,230,152459,1,0,0:0:0:0:
227,213,152538,1,0,0:0:0:0:
238,193,152617,1,0,0:0:0:0:
245,172,152696,1,0,0:0:0:0:
249,150,152775,1,0,0:0:0:0:
254,128,152854,1,0,0:0:0:0:
261,107,152933,1,8,0:0:0:0:
273,87,153012,1,0,0:0:0:0:
289,71,153091,1,0,0:0:0:0:
307,58,153170,1,0,0:0:0:0:
327,48,153250,6,0,L|439:57,1,107.999996704102,4|0,0:0|0:0,0:0:0:0:
166,103,153565,2,0,L|54:94,1,107.999996704102,8|0,0:0|0:0,0:0:0:0:
375,176,153881,1,4,0:0:0:0:
280,281,154039,2,0,L|391:272,1,107.999996704102,0|8,0:0|0:0,0:0:0:0:
102,234,154355,6,0,B|51:259|51:259|9:318,1,107.999996704102,6|0,0:0|0:0,0:0:0:0:
220,317,154671,2,0,B|271:292|271:292|313:233,1,107.999996704102,6|8,0:0|0:0,0:0:0:0:
325,173,154986,1,2,0:0:0:0:
121,119,155144,1,4,0:0:0:0:
352,78,155302,1,0,0:0:0:0:
352,78,155381,1,0,0:0:0:0:
352,78,155460,1,8,0:0:0:0:
200,232,155618,1,8,0:0:0:0:
120,120,155776,6,0,L|8:111,1,107.999996704102,4|0,0:0|0:0,0:0:0:0:
346,281,156092,2,0,L|457:289,1,107.999996704102,8|0,0:0|0:0,0:0:0:0:
432,192,156407,1,4,0:0:0:0:
168,352,156565,2,0,L|56:360,1,107.999996704102,0|8,0:0|0:0,0:0:0:0:
248,240,156881,6,0,B|299:215|299:215|341:156,1,107.999996704102,6|0,0:0|0:0,0:0:0:0:
96,128,157197,2,0,B|45:153|45:153|3:212,1,107.999996704102,6|8,0:0|0:0,0:0:0:0:
56,272,157512,1,2,0:0:0:0:
224,128,157670,1,4,0:0:0:0:
308,326,157828,1,4,0:0:0:0:
325,305,157907,1,0,0:0:0:0:
347,289,157986,1,8,0:0:0:0:
372,278,158065,1,0,0:0:0:0:
397,274,158144,1,0,0:0:0:0:
424,276,158223,1,0,0:0:0:0:
448,287,158302,6,0,L|451:171,1,107.999996704102,4|0,0:0|0:0,0:0:0:0:
140,254,158618,2,0,L|137:370,1,107.999996704102,8|0,0:0|0:0,0:0:0:0:
371,198,158934,1,4,0:0:0:0:
48,146,159092,2,0,P|38:205|51:262,1,107.999996704102,0|8,0:0|0:0,0:0:0:0:
254,110,159408,6,0,B|295:83|295:83|322:13,1,107.999996704102,6|0,0:0|0:0,0:0:0:0:
266,251,159723,2,0,B|225:278|225:278|198:348,1,107.999996704102,6|8,0:0|0:0,0:0:0:0:
371,198,160039,1,2,0:0:0:0:
166,63,160197,1,0,0:0:0:0:
139,67,160275,1,0,0:0:0:0:
114,78,160354,1,0,0:0:0:0:
93,94,160433,1,0,0:0:0:0:
75,115,160512,1,8,0:0:0:0:
63,138,160591,1,0,0:0:0:0:
56,164,160670,1,0,0:0:0:0:
55,191,160749,1,0,0:0:0:0:
60,218,160829,6,0,P|79:271|84:323,1,107.999996704102,4|0,0:0|0:0,0:0:0:0:
145,171,161144,2,0,P|198:175|249:194,1,107.999996704102,8|0,0:0|0:0,0:0:0:0:
409,320,161460,2,0,P|358:301|304:296,1,107.999996704102,4|0,0:0|0:0,0:0:0:0:
245,372,161776,1,8,0:0:0:0:
448,239,161934,5,2,0:0:0:0:
251,88,162092,1,12,0:0:0:0:
487,148,162250,1,10,0:0:0:0:
265,173,162408,1,8,0:0:0:0:
260,199,162486,1,0,0:0:0:0:
256,225,162565,1,2,0:0:0:0:
160,161,162723,1,8,0:0:0:0:
154,187,162801,1,0,0:0:0:0:
149,213,162880,1,0,0:0:0:0:
143,240,162959,1,0,0:0:0:0:
155,264,163038,1,8,0:0:0:0:
167,288,163117,1,0,0:0:0:0:
162,314,163196,1,0,0:0:0:0:
154,340,163275,1,0,0:0:0:0:
146,366,163355,6,0,P|100:337|28:327,1,107.999996704102,6|0,0:0|0:0,0:0:0:0:
266,323,163671,2,0,P|311:351|384:362,1,107.999996704102,8|0,0:0|0:0,0:0:0:0:
461,197,163986,1,4,0:0:0:0:
340,118,164144,2,0,P|287:129|241:157,1,107.999996704102,2|8,0:0|0:0,0:0:0:0:
44,274,164460,6,0,B|21:227|21:227|31:157,1,107.999996704102,6|0,0:0|0:0,0:0:0:0:
232,43,164776,2,4,B|255:90|255:90|245:160,1,107.999996704102,6|8,0:0|0:0,0:0:0:0:
117,230,165092,1,2,0:0:0:0:
341,118,165250,1,4,1:0:0:0:
357,138,165328,1,0,1:0:0:0:
369,163,165407,1,0,1:0:0:0:
375,188,165486,1,0,1:0:0:0:
375,216,165565,1,10,1:0:0:0:
370,241,165644,1,0,1:0:0:0:
358,266,165723,1,0,1:0:0:0:
342,287,165802,1,0,1:0:0:0:
321,304,165882,6,0,P|272:332|235:369,1,107.999996704102,6|0,0:0|0:0,1:0:0:0:
424,328,166197,2,0,P|472:299|509:262,1,107.999996704102,8|0,0:0|0:0,1:0:0:0:
272,160,166513,1,4,0:0:0:0:
124,236,166671,2,0,P|103:287|108:348,1,107.999996704102,2|8,0:0|0:0,0:0:0:0:
456,208,166986,6,0,B|479:161|479:161|469:91,1,107.999996704102,6|0,0:0|0:0,0:0:0:0:
288,56,167302,2,0,B|265:103|265:103|275:173,1,107.999996704102,6|8,0:0|0:0,0:0:0:0:
288,256,167618,1,2,0:0:0:0:
48,280,167776,1,4,1:0:0:0:
32,260,167854,1,0,1:0:0:0:
20,235,167933,1,0,1:0:0:0:
14,210,168012,1,0,1:0:0:0:
14,182,168091,1,10,1:0:0:0:
19,157,168170,1,0,1:0:0:0:
31,132,168249,1,0,1:0:0:0:
47,111,168328,1,0,1:0:0:0:
68,94,168408,6,0,B|112:88|112:88|176:112,1,107.999996704102,6|0,0:0|0:0,1:0:0:0:
272,336,168723,2,0,B|228:342|228:342|164:318,1,107.999996704102,8|0,0:0|0:0,1:0:0:0:
352,136,169039,1,4,0:0:0:0:
472,264,169197,2,0,B|428:270|428:270|364:246,1,107.999996704102,2|8,0:0|0:0,1:0:0:0:
432,24,169513,6,0,P|456:80|440:128,1,107.999996704102,6|0,0:0|0:0,0:0:0:0:
152,240,169829,2,0,P|128:184|144:136,1,107.999996704102,6|8,0:0|0:0,0:0:0:0:
200,80,170144,1,2,0:0:0:0:
304,224,170302,1,4,0:0:0:0:
301,250,170381,1,0,0:0:0:0:
298,276,170460,1,0,0:0:0:0:
294,302,170539,1,0,0:0:0:0:
292,328,170618,2,0,P|233:343|184:357,1,107.999996704102,8|0,0:0|0:0,0:0:0:0:
36,307,170934,5,6,0:0:0:0:
224,200,171092,1,0,0:0:0:0:
224,200,171171,1,0,0:0:0:0:
224,200,171250,1,12,0:0:0:0:
32,80,171408,1,0,0:0:0:0:
32,80,171486,1,0,0:0:0:0:
32,80,171565,1,14,0:0:0:0:
8,224,171723,2,0,P|68:220|120:208,1,107.999996704102,0|12,0:0|0:0,0:0:0:0:
296,88,172039,1,0,0:0:0:0:
448,280,172197,6,0,L|464:368,2,71.9999978027344
360,280,172513,2,0,L|376:368,2,71.9999978027344
280,224,172829,1,0,0:0:0:0:
184,208,172986,1,0,0:0:0:0:
88,240,173144,1,0,0:0:0:0:
32,320,173302,1,0,0:0:0:0:
183,375,173460,6,0,P|215:295|183:207,1,180,4|2,0:2|0:3,0:0:0:0:
186,209,174250,2,0,L|239:199,1,45
312,296,174565,2,0,P|325:343|344:384,1,90,4|4,0:3|0:3,0:0:0:0:
472,144,175197,5,4,0:3:0:0:
472,144,175355,1,2,0:3:0:0:
408,208,175513,1,0,0:0:0:0:
320,216,175671,1,0,0:0:0:0:
248,168,175828,1,0,0:0:0:0:
320,112,175986,6,0,P|325:65|344:8,1,90,4|0,0:2|0:0,0:0:0:0:
400,256,176618,2,0,P|413:300|417:344,1,90,2|0,0:3|0:0,0:0:0:0:
328,336,177092,6,0,L|224:327,1,90,4|4,0:3|0:3,0:0:0:0:
88,232,177723,2,0,L|192:240,1,90,4|0,0:2|0:0,0:0:0:0:
272,248,178197,1,0,0:0:0:0:
272,248,178355,1,0,0:0:0:0:
216,80,178513,6,0,P|136:48|48:80,1,180,4|2,0:2|0:3,0:0:0:0:
50,77,179302,2,0,L|56:136,1,45
136,160,179618,2,0,P|184:173|224:192,1,90,4|4,0:3|0:3,0:0:0:0:
384,344,180250,5,4,0:3:0:0:
384,344,180408,1,2,0:3:0:0:
320,280,180566,1,0,0:0:0:0:
312,192,180724,1,0,0:0:0:0:
360,120,180881,1,0,0:0:0:0:
408,200,181039,6,0,P|456:205|512:224,1,90,4|0,0:2|0:0,0:0:0:0:
160,264,181671,1,2,0:3:0:0:
160,264,181829,2,0,P|112:240|72:232,1,90
76,232,182223,1,0,0:0:0:0:
76,232,182302,1,0,0:0:0:0:
192,376,182460,5,8,0:0:0:0:
224,168,182618,2,0,P|209:119|200:72,1,90,8|0,0:0|0:0,0:0:0:0:
202,82,182855,1,0,0:0:0:0:
202,82,182934,1,8,0:0:0:0:
72,232,183092,1,8,0:0:0:0:
312,168,183565,6,0,B|392:192|416:144|496:176,1,180,4|8,0:0|0:0,0:0:0:0:
472,88,184039,1,0,0:0:0:0:
312,280,184197,2,0,P|280:328|264:360,1,90
104,232,184513,1,8,0:0:0:0:
184,352,184671,6,0,B|203:288|203:288|186:244|186:244|210:183,1,180,4|0,0:0|0:0,0:0:0:0:
360,312,185144,2,0,P|320:336|272:336,1,90,8|0,0:0|0:0,0:0:0:0:
104,160,185460,1,0,0:0:0:0:
272,88,185618,1,0,0:0:0:0:
304,240,185776,1,12,0:0:0:0:
136,312,185934,1,0,0:0:0:0:
184,192,186092,6,0,B|208:112|160:88|192:8,1,180,4|8,0:0|0:0,0:0:0:0:
104,32,186565,1,0,0:0:0:0:
304,240,186723,2,0,B|360:248|360:248|416:216|408:136,1,180,4|8,0:0|0:0,0:0:0:0:
72,184,187197,6,4,B|53:248|53:248|70:292|70:292|46:353,1,180,4|0,0:0|0:0,0:0:0:0:
208,280,187671,1,8,0:0:0:0:
304,152,187828,2,0,P|280:112|240:72,1,90,0|4,0:0|0:0,0:0:0:0:
304,280,188144,1,0,0:0:0:0:
319,295,188223,1,0,0:0:0:0:
337,308,188302,1,0,0:0:0:0:
356,318,188381,1,0,0:0:0:0:
377,325,188460,1,0,0:0:0:0:
398,331,188539,1,0,0:0:0:0:
420,330,188618,6,0,B|396:250|444:226|412:146,1,180,4|8,0:0|0:0,0:0:0:0:
186,65,189092,1,0,0:0:0:0:
46,196,189250,2,0,P|78:244|94:276,1,90,4|0,0:0|0:0,0:0:0:0:
239,174,189566,1,8,0:0:0:0:
377,242,189724,6,0,B|396:178|396:178|379:134|379:134|403:73,1,180,4|0,0:0|0:0,0:0:0:0:
512,309,190197,2,0,P|472:333|424:333,1,90,8|0,0:0|0:0,0:0:0:0:
259,272,190513,1,0,0:0:0:0:
91,337,190671,1,0,0:0:0:0:
191,187,190829,1,12,0:0:0:0:
25,258,190987,1,0,0:0:0:0:
201,183,191144,6,0,L|215:80,1,90,4|0,0:0|0:0,0:0:0:0:
43,85,191460,2,0,L|29:188,1,90,8|0,0:0|0:0,0:0:0:0:
30,174,191697,1,0,0:0:0:0:
30,174,191776,1,4,0:0:0:0:
285,131,191934,2,0,P|338:111|380:112,1,90,0|8,0:0|0:0,0:0:0:0:
422,302,192250,1,0,0:0:0:0:
146,325,192408,5,4,0:0:0:0:
129,310,192486,1,0,0:0:0:0:
115,293,192565,1,0,0:0:0:0:
102,274,192644,1,0,0:0:0:0:
93,254,192723,1,8,0:0:0:0:
87,232,192802,1,0,0:0:0:0:
83,210,192881,1,0,0:0:0:0:
83,187,192960,1,0,0:0:0:0:
86,165,193039,1,0,0:0:0:0:
92,143,193118,1,0,0:0:0:0:
101,123,193197,1,0,0:0:0:0:
113,104,193276,1,0,0:0:0:0:
127,85,193355,2,0,L|239:79,1,90,12|0,0:0|0:0,0:0:0:0:
369,341,193671,6,0,L|231:356,1,107.999996704102,6|0,0:0|0:0,0:0:0:0:
203,156,193986,1,8,0:0:0:0:
360,48,194144,2,0,B|380:115|404:131|404:131|372:139|348:155|348:155|364:163|380:203,1,215.999993408203,2|0,0:0|0:0,0:0:0:0:
88,192,194618,2,0,P|73:138|75:84,1,107.999996704102,10|0,0:0|0:0,0:0:0:0:
243,266,194934,5,4,0:0:0:0:
376,112,195092,2,0,P|400:64|408:0,1,107.999996704102,2|8,0:0|0:0,0:0:0:0:
176,128,195407,1,0,0:0:0:0:
356,316,195565,2,0,B|361:287|383:264|383:264|371:208,1,107.999996704102,6|0,1:0|1:0,3:0:0:0:
148,272,195881,2,0,B|142:300|120:323|120:323|132:379,1,107.999996704102,14|0,1:0|1:0,3:0:0:0:
116,76,196197,6,0,P|60:68|12:84,1,107.999996704102,6|0,0:0|0:0,0:0:0:0:
20,264,196513,1,8,0:0:0:0:
256,232,196671,2,0,B|226:155|190:127|190:127|158:143|122:187,1,215.999993408203,2|0,0:0|0:0,0:0:0:0:
288,356,197144,2,0,B|312:340|344:340|344:340|376:292,1,107.999996704102,10|0,0:0|0:0,0:0:0:0:
164,264,197460,5,4,0:0:0:0:
328,172,197618,2,0,B|383:202|416:236|416:236|447:202|504:172,1,215.999993408203,2|0,0:0|0:0,0:0:0:0:
320,28,198092,2,0,P|283:67|257:114,1,107.999996704102,6|0,0:0|0:0,0:0:0:0:
216,276,198407,1,10,0:0:0:0:
48,340,198565,5,0,0:0:0:0:
48,340,198644,1,0,0:0:0:0:
48,340,198723,2,0,B|29:300|29:300|40:216,1,107.999996704102,4|0,0:0|0:0,0:0:0:0:
200,184,199039,1,8,0:0:0:0:
344,248,199197,2,0,B|363:288|363:288|352:372,1,107.999996704102,6|0,0:0|0:0,0:0:0:0:
136,120,199513,1,0,0:0:0:0:
440,176,199671,2,0,B|448:136|448:136|432:56,1,107.999996704102,14|0,0:0|0:0,0:0:0:0:
144,240,199986,6,0,B|136:280|136:280|152:360,1,107.999996704102,6|0,0:0|0:0,0:0:0:0:
352,136,200302,1,8,0:0:0:0:
136,120,200460,2,0,L|8:104,1,107.999996704102,2|0,0:0|0:0,0:0:0:0:
232,192,200776,1,0,0:0:0:0:
312,336,200934,2,0,L|432:328,1,107.999996704102,14|0,0:0|0:0,0:0:0:0:
80,304,201250,6,0,P|62:251|78:182,1,107.999996704102,6|0,0:0|0:0,0:0:0:0:
200,96,201565,1,8,0:0:0:0:
304,256,201723,2,0,B|360:232|376:176|376:176|440:192|496:128,1,215.999993408203,2|2,0:0|0:0,0:0:0:0:
288,128,202197,2,0,L|296:8,1,107.999996704102,8|0,0:0|0:0,0:0:0:0:
104,256,202513,6,0,L|96:376,1,107.999996704102,6|0,0:0|0:0,0:0:0:0:
296,264,202828,1,8,0:0:0:0:
200,88,202986,1,2,0:0:0:0:
16,168,203144,2,0,B|0:208|0:208|24:280,1,107.999996704102,4|2,0:0|0:0,0:0:0:0:
320,144,203460,2,0,B|336:104|336:104|312:32,1,107.999996704102,12|8,0:0|0:0,0:0:0:0:
240,328,203776,6,0,B|304:368|304:368|360:304|440:328,1,215.999993408203,4|8,0:0|0:0,0:0:0:0:
176,240,204249,2,0,B|136:224|128:208|128:208|112:232|104:264|104:264|88:240|8:216,1,215.999993408203
320,120,204723,2,0,P|335:66|332:13,1,107.999996704102,8|0,0:0|0:0,0:0:0:0:
164,128,205039,5,4,0:0:0:0:
288,356,205197,2,0,P|341:347|389:323,1,107.999996704102,2|8,0:0|0:0,0:0:0:0:
320,120,205512,1,0,0:0:0:0:
160,256,205671,2,0,B|149:290|128:313|128:313|141:369,1,107.999996704102,6|0,0:0|0:0,0:0:0:0:
392,228,205986,2,0,B|402:193|423:170|423:170|410:114,1,107.999996704102,14|0,0:0|0:0,0:0:0:0:
512,240,206302,6,0,P|520:296|504:344,1,107.999996704102,6|0,0:0|0:0,0:0:0:0:
296,280,206618,1,8,0:0:0:0:
344,48,206776,2,0,P|440:40|496:144,1,215.999993408203,2|0,0:0|0:0,0:0:0:0:
440,304,207250,2,0,B|416:320|384:320|384:320|352:368,1,107.999996704102,10|0,0:0|0:0,0:0:0:0:
154,308,207565,6,0,B|124:253|90:220|90:220|124:189|154:132,1,215.999993408203,6|8,0:0|0:0,0:0:0:0:
296,24,208039,1,0,0:0:0:0:
385,87,208197,1,0,0:0:0:0:
400,110,208276,1,0,0:0:0:0:
409,136,208355,1,0,0:0:0:0:
417,162,208434,1,0,0:0:0:0:
420,189,208513,1,12,0:0:0:0:
153,135,208670,5,0,0:0:0:0:
153,135,208749,1,0,0:0:0:0:
153,135,208828,2,0,B|137:102|137:102|148:12,1,107.999996704102,14|0,0:0|0:0,0:0:0:0:
256,208,209144,1,8,0:0:0:0:
496,160,209302,2,0,B|505:125|505:125|488:40,1,107.999996704102,2|8,0:0|0:0,0:0:0:0:
304,280,209618,1,0,0:0:0:0:
472,352,209776,2,0,P|480:296|464:232,1,107.999996704102,14|0,0:0|0:0,0:0:0:0:
144,264,210092,6,0,P|136:320|152:384,1,107.999996704102,14|0,0:0|0:0,0:0:0:0:
368,112,210407,1,8,0:0:0:0:
152,176,210565,2,0,L|32:192,1,107.999996704102,2|8,0:0|0:0,0:0:0:0:
256,48,210881,1,0,0:0:0:0:
272,320,211039,2,0,L|392:312,1,107.999996704102,14|0,0:0|0:0,0:0:0:0:
480,144,211355,6,0,B|492:111|492:111|472:24,1,107.999996704102,14|0,0:0|0:0,0:0:0:0:
262,119,211671,2,0,B|245:149|245:149|270:239,1,107.999996704102,12|0,0:0|0:0,0:0:0:0:
264,220,211908,1,0,0:0:0:0:
264,220,211986,1,12,0:0:0:0:
480,288,212144,1,0,0:0:0:0:
424,48,212302,2,0,P|376:32|312:48,1,107.999996704102,12|0,0:0|0:0,0:0:0:0:
408,187,212618,6,0,P|456:203|520:187,1,107.999996704102,12|0,0:0|0:0,0:0:0:0:
256,142,212934,2,0,P|208:126|144:142,1,107.999996704102,12|0,0:0|0:0,0:0:0:0:
88,264,213250,1,8,0:0:0:0:
192,360,213408,1,8,0:0:0:0:
328,336,213565,1,8,0:0:0:0:
368,200,213723,1,4,0:0:0:0:
256,192,213802,12,4,215934,0:0:0:0:
256,192,216250,6,0,P|232:264|224:368,1,180
384,344,216723,1,8,0:0:0:0:
464,200,216881,1,2,0:2:0:0:
344,112,217039,2,0,P|296:104|248:112,1,90,4|0,0:0|0:0,0:0:0:0:
48,280,217355,1,8,0:0:0:0:
176,360,217513,6,0,L|192:248,1,90,2|0,0:0|0:0,0:0:0:0:
48,104,217829,2,0,L|64:216,1,90,2|8,0:0|0:0,0:0:0:0:
280,224,218144,2,0,L|296:112,1,90,2|0,0:0|0:0,0:0:0:0:
104,56,218460,1,10,0:0:0:0:
306,125,218618,1,8,0:0:0:0:
136,304,218776,6,0,P|192:344|304:336,1,180,4|0,0:0|0:0,0:0:0:0:
408,112,219250,1,8,0:0:0:0:
264,32,219408,1,2,0:2:0:0:
176,152,219566,2,0,P|168:200|176:248,1,90,4|0,0:0|0:0,0:0:0:0:
472,216,219882,2,0,P|424:208|376:216,1,90,8|2,0:0|0:2,0:0:0:0:
304,248,220198,5,4,0:0:0:0:
472,104,220356,1,0,0:0:0:0:
376,360,220514,1,12,0:0:0:0:
176,152,220672,1,2,0:0:0:0:
400,288,220829,2,0,P|448:296|496:328,1,90,0|10,0:0|0:0,0:0:0:0:
384,128,221145,1,8,0:0:0:0:
256,24,221302,6,0,B|242:88|242:88|266:128|266:128|256:200,1,180,4|0,0:0|0:0,0:0:0:0:
312,272,221776,1,8,0:0:0:0:
168,352,221934,1,2,0:2:0:0:
80,232,222092,2,0,P|72:184|80:136,1,90,4|0,0:0|0:0,0:0:0:0:
352,88,222408,2,0,P|360:136|352:184,1,90,8|2,0:0|0:2,0:0:0:0:
160,216,222723,5,4,0:0:0:0:
152,194,222801,1,0,0:0:0:0:
147,172,222880,1,0,0:0:0:0:
144,150,222959,1,0,0:0:0:0:
144,128,223038,1,0,0:0:0:0:
145,105,223117,1,0,0:0:0:0:
149,83,223196,1,0,0:0:0:0:
155,61,223275,1,0,0:0:0:0:
163,40,223355,2,0,L|216:16,5,45,4|0|0|0|0|0,0:0|0:0|0:0|0:0|0:0|0:0,0:0:0:0:
160,40,223829,6,0,P|216:80|328:72,1,180,4|0,0:0|0:0,0:0:0:0:
392,24,224303,1,8,0:0:0:0:
232,224,224461,1,2,0:2:0:0:
64,144,224619,2,0,P|56:96|64:48,1,90,4|0,0:0|0:0,0:0:0:0:
384,156,224935,2,0,P|392:204|384:252,1,90,8|2,0:0|0:2,0:0:0:0:
144,200,225250,1,0,0:0:0:0:
240,328,225408,2,0,L|336:352,1,90,0|8,0:0|0:0,0:0:0:0:
472,264,225723,1,2,0:0:0:0:
216,128,225881,1,0,0:0:0:0:
408,56,226039,2,0,P|384:104|376:144,1,90,2|8,0:0|0:0,0:0:0:0:
280,192,226355,6,0,P|304:264|312:368,1,180,4|0,0:0|0:0,0:0:0:0:
128,344,226828,1,8,0:0:0:0:
48,200,226986,1,2,0:2:0:0:
168,112,227144,2,0,P|216:104|264:112,1,90,4|0,0:0|0:0,0:0:0:0:
464,280,227460,1,8,0:0:0:0:
336,360,227618,6,0,L|320:248,1,90,2|4,0:0|0:0,0:0:0:0:
464,104,227934,2,0,L|448:216,1,90,2|8,0:0|0:0,0:0:0:0:
232,224,228250,2,0,L|216:112,1,90,2|0,0:0|0:0,0:0:0:0:
408,56,228565,1,10,0:0:0:0:
206,125,228723,1,8,0:0:0:0:
376,304,228881,6,0,P|320:344|208:336,1,180,4|0,0:0|0:0,0:0:0:0:
104,112,229355,1,8,0:0:0:0:
248,32,229513,1,2,0:2:0:0:
336,152,229671,2,0,P|344:200|336:248,1,90,4|0,0:0|0:0,0:0:0:0:
40,216,229987,2,0,P|88:208|136:216,1,90,8|2,0:0|0:2,0:0:0:0:
208,248,230303,5,4,0:0:0:0:
40,104,230461,1,0,0:0:0:0:
136,360,230619,1,12,0:0:0:0:
336,152,230777,1,0,0:0:0:0:
112,288,230934,2,0,P|64:296|16:328,1,90,0|10,0:0|0:0,0:0:0:0:
128,128,231250,1,8,0:0:0:0:
256,24,231407,6,0,B|270:88|270:88|246:128|246:128|256:200,1,180,4|0,0:0|0:0,0:0:0:0:
200,272,231881,1,8,0:0:0:0:
344,352,232039,1,2,0:2:0:0:
432,232,232197,2,0,P|440:184|432:136,1,90,4|0,0:0|0:0,0:0:0:0:
176,56,232513,1,8,0:0:0:0:
48,208,232671,6,0,B|34:272|34:272|58:312|58:312|48:384,1,180,4|0,0:0|0:0,0:0:0:0:
48,379,233065,1,0,0:0:0:0:
48,379,233144,1,8,0:0:0:0:
152,248,233302,1,0,0:0:0:0:
152,248,233381,1,0,0:0:0:0:
152,248,233460,2,0,L|160:184,3,45
152,248,233776,1,0,0:0:0:0:
208,320,233934,6,0,P|296:328|392:360,1,180,6|2,0:0|0:0,0:0:0:0:
368,264,234408,2,0,P|384:208|416:152,1,90,8|2,0:0|0:0,0:0:0:0:
397,179,234644,1,0,0:0:0:0:
397,179,234723,1,4,0:0:0:0:
480,328,234881,1,2,0:0:0:0:
280,208,235039,1,12,0:0:0:0:
512,64,235197,6,0,P|504:152|472:248,1,180,6|10,0:0|0:0,0:0:0:0:
176,176,235671,1,8,0:0:0:0:
336,24,235829,1,2,0:0:0:0:
336,24,235908,1,0,0:0:0:0:
336,24,235986,2,0,L|344:120,1,90,4|2,0:0|0:0,0:0:0:0:
104,304,236302,1,0,0:0:0:0:
256,384,236460,6,0,B|264:344|296:328|296:328|256:296|216:264|216:264|288:216|256:80,1,360,4|2,0:0|2:0,0:0:0:0:
