osu file format v14

[General]
AudioFilename: audio.mp3
AudioLeadIn: 0
PreviewTime: 271654
Countdown: 0
SampleSet: Soft
StackLeniency: 0.2
Mode: 0
LetterboxInBreaks: 0
WidescreenStoryboard: 0

[Editor]
Bookmarks: 5717,28310,50898,71191,82485,93779,105073,116368,138956,161544,184132,206720,227896,239190,250484,273072,295660,306948,316660,319660,342248,347891
DistanceSpacing: 1.3
BeatDivisor: 4
GridSize: 32
TimelineZoom: 2.050002

[Metadata]
Title:Hitoku Sareta Four Seasons ~ Hidden Seasons will pass you by
TitleUnicode:秘匿されたフォーシーズンズ ~ Hidden Seasons will pass you by
Artist:Demetori
ArtistUnicode:Demetori
Creator:Crissa
Version:The Ultimate, Absolute Secret God
Source:東方天空璋 ~ Hidden Star in Four Seasons.
Tags:収録曲 瑰狂鬱嵂 秘匿されたフォーシーズンズ 東方Project 16 touhou c94 comiket zun team shanghai alice matara okina 摩多羅 隠岐奈 instrumental metal stage 6 boss theme
BeatmapID:3205217
BeatmapSetID:1569597

[Difficulty]
HPDrainRate:5.4
CircleSize:4.3
OverallDifficulty:9
ApproachRate:9.3
SliderMultiplier:1.6
SliderTickRate:1

[Events]
//Background and Video events
0,0,"bg772.jpg",0,0
//Break Periods
2,139150,155337
//Storyboard Layer 0 (Background)
//Storyboard Layer 1 (Fail)
//Storyboard Layer 2 (Pass)
//Storyboard Layer 3 (Foreground)
//Storyboard Layer 4 (Overlay)
//Storyboard Sound Samples

[TimingPoints]
69,352.941176470588,4,2,2,40,1,0
4127,-100,4,2,2,40,0,0
4304,-100,4,2,2,50,0,0
4480,-100,4,2,2,60,0,0
4657,-100,4,2,2,70,0,0
5186,-100,4,2,2,5,0,0
5363,-100,4,2,2,80,0,0
5716,-71.4285714285714,4,2,30,70,0,0
5980,-71.4285714285714,4,2,2,70,0,0
6245,-55.5555555555556,4,2,2,70,0,0
6598,-71.4285714285714,4,2,2,70,0,0
7657,-55.5555555555556,4,2,2,70,0,0
8010,-71.4285714285714,4,2,2,70,0,0
9069,-55.5555555555556,4,2,2,70,0,0
9422,-71.4285714285714,4,2,2,70,0,0
10481,-55.5555555555556,4,2,2,70,0,0
10834,-71.4285714285714,4,2,2,70,0,0
11363,-71.4285714285714,4,2,30,70,0,0
11628,-71.4285714285714,4,2,2,70,0,0
11892,-55.5555555555556,4,2,2,70,0,0
12245,-71.4285714285714,4,2,2,70,0,0
13303,-55.5555555555556,4,2,2,70,0,0
13657,-71.4285714285714,4,2,2,70,0,0
14715,-55.5555555555556,4,2,2,70,0,0
15069,-71.4285714285714,4,2,2,70,0,0
17010,-71.4285714285714,4,2,30,70,0,0
17274,-71.4285714285714,4,2,2,70,0,0
17539,-55.5555555555556,4,2,2,70,0,0
18422,-71.4285714285714,4,2,2,70,0,0
18951,-55.5555555555556,4,2,2,70,0,0
19304,-71.4285714285714,4,2,2,70,0,0
20363,-55.5555555555556,4,2,2,70,0,0
20716,-71.4285714285714,4,2,2,70,0,0
21775,-55.5555555555556,4,2,2,70,0,0
22128,-71.4285714285714,4,2,2,70,0,0
22657,-71.4285714285714,4,2,30,70,0,0
22921,-71.4285714285714,4,2,2,70,0,0
23186,-55.5555555555556,4,2,2,70,0,0
23539,-71.4285714285714,4,2,2,70,0,0
24598,-55.5555555555556,4,2,2,70,0,0
24951,-71.4285714285714,4,2,2,70,0,0
25480,-71.4285714285714,4,2,30,70,0,0
25745,-71.4285714285714,4,2,2,70,0,0
26010,-55.5555555555556,4,2,2,70,0,0
26363,-71.4285714285714,4,2,2,70,0,0
26892,-62.5,4,2,2,70,0,0
27157,-62.5,4,2,30,70,0,0
27421,-62.5,4,2,2,70,0,0
28304,-83.3333333333333,4,2,30,70,0,0
28568,-83.3333333333333,4,2,2,60,0,0
29010,-83.3333333333333,4,2,2,50,0,0
31834,-166.666666666667,4,2,2,50,0,0
33245,-83.3333333333334,4,2,2,50,0,0
39598,-76.9230769230769,4,2,2,65,0,0
45245,-76.9230769230769,4,2,30,65,0,0
45510,-76.9230769230769,4,2,2,65,0,0
48774,-76.9230769230769,4,2,2,55,0,0
48951,-76.9230769230769,4,2,2,65,0,0
50892,-71.4285714285714,4,2,30,75,0,0
51068,-71.4285714285714,4,2,2,75,0,0
51422,-55.5555555555556,4,2,2,75,0,0
52304,-500,4,2,2,75,0,0
52657,352.941176470588,4,2,2,75,1,0
52657,-71.4285714285714,4,2,30,75,0,0
52833,-71.4285714285714,4,2,2,75,0,0
53186,-55.5555555555556,4,2,2,75,0,0
54068,-71.4285714285714,4,2,2,75,0,0
54597,-55.5555555555556,4,2,2,75,0,0
55480,-55.5555555555556,4,2,30,75,0,0
55657,-55.5555555555556,4,2,2,75,0,0
55833,-71.4285714285714,4,2,2,75,0,0
56009,-55.5555555555556,4,2,2,75,0,0
56892,-71.4285714285714,4,2,30,75,0,0
57068,-71.4285714285714,4,2,2,75,0,0
57421,-55.5555555555556,4,2,2,75,0,0
58127,352.941176470588,4,2,30,75,1,0
58127,-71.4285714285714,4,2,30,75,0,0
58391,-71.4285714285714,4,2,2,75,0,0
58656,-55.5555555555556,4,2,2,75,0,0
59803,-55.5555555555556,4,2,30,75,0,0
59979,-55.5555555555556,4,2,2,75,0,0
60950,-71.4285714285714,4,2,30,75,0,0
61215,-71.4285714285714,4,2,2,75,0,0
61479,-55.5555555555556,4,2,2,75,0,0
62362,-500,4,2,2,75,0,0
62627,-500,4,2,2,5,0,0
62715,352.941176470588,4,2,30,75,1,0
62715,-71.4285714285714,4,2,30,75,0,0
62979,-71.4285714285714,4,2,2,75,0,0
63244,-55.5555555555556,4,2,2,75,0,0
63597,-71.4285714285714,4,2,2,75,0,0
64126,-62.5,4,2,2,75,0,0
64391,-62.5,4,2,30,75,0,0
64567,-62.5,4,2,2,75,0,0
65538,-71.4285714285714,4,2,30,75,0,0
65803,-71.4285714285714,4,2,2,75,0,0
66067,-55.5555555555556,4,2,2,75,0,0
66950,-71.4285714285714,4,2,30,75,0,0
67215,-71.4285714285714,4,2,2,75,0,0
67479,-55.5555555555556,4,2,2,75,0,0
69597,-250,4,2,2,65,0,0
70832,-250,4,2,2,5,0,0
71009,-250,4,2,2,70,0,0
71185,-83.3333333333333,4,2,2,60,0,0
82479,-76.9230769230769,4,2,30,60,0,0
82744,-76.9230769230769,4,2,2,60,0,0
85303,-76.9230769230769,4,2,30,60,0,0
85479,-76.9230769230769,4,2,2,60,0,0
88126,-76.9230769230769,4,2,30,60,0,0
88391,-76.9230769230769,4,2,2,60,0,0
89538,-76.9230769230769,4,2,30,60,0,0
89803,-76.9230769230769,4,2,2,60,0,0
90950,-76.9230769230769,4,2,30,60,0,0
91126,-76.9230769230769,4,2,2,60,0,0
92362,-50,4,2,2,75,0,0
93156,-50,4,2,2,65,0,0
93420,-50,4,2,2,75,0,0
93773,-100,4,2,30,60,0,0
94038,-100,4,2,2,60,0,0
95009,-100,4,2,30,60,0,0
95273,-100,4,2,2,60,0,0
96420,-100,4,2,30,60,0,0
96684,-100,4,2,2,60,0,0
97479,-76.9230769230769,4,2,2,60,0,0
97832,-66.6666666666667,4,2,2,60,0,0
98362,-76.9230769230769,4,2,2,60,0,0
98891,-100,4,2,2,60,0,0
99420,-100,4,2,30,60,0,0
99684,-100,4,2,2,60,0,0
100656,-100,4,2,30,60,0,0
100920,-100,4,2,2,60,0,0
101714,-66.6666666666667,4,2,2,60,0,0
102067,-66.6666666666667,4,2,30,60,0,0
102331,-66.6666666666667,4,2,2,60,0,0
103126,-76.9230769230769,4,2,2,60,0,0
105067,-71.4285714285714,4,2,30,70,0,0
105332,-71.4285714285714,4,2,2,70,0,0
106479,-71.4285714285714,4,2,30,70,0,0
106744,-71.4285714285714,4,2,2,70,0,0
107891,-71.4285714285714,4,2,30,70,0,0
108156,-71.4285714285714,4,2,2,70,0,0
109303,-71.4285714285714,4,2,30,70,0,0
109568,-71.4285714285714,4,2,2,70,0,0
110714,-71.4285714285714,4,2,30,70,0,0
110979,-71.4285714285714,4,2,2,70,0,0
112126,-71.4285714285714,4,2,30,70,0,0
112391,-71.4285714285714,4,2,2,70,0,0
114950,-71.4285714285714,4,2,2,75,0,0
116362,-62.5,4,2,2,85,0,1
119538,-55.5555555555556,4,2,2,85,0,1
121832,-55.5555555555556,4,2,30,85,0,1
121920,-55.5555555555556,4,2,2,85,0,1
127656,-62.5,4,2,2,85,0,1
130832,-62.5,4,2,2,85,0,1
131714,-50,4,2,2,85,0,1
133126,-55.5555555555556,4,2,30,85,0,1
133214,-50,4,2,2,85,0,1
138244,-62.5,4,2,2,85,0,1
138950,-71.4285714285714,4,2,2,85,0,0
155891,-125,4,2,44,60,0,0
160244,-90.9090909090909,4,2,44,60,0,0
160832,-83.3333333333333,4,2,44,65,0,0
161185,-71.4285714285714,4,2,44,70,0,0
161538,-71.4285714285714,4,2,2,75,0,0
171420,-62.5,4,2,2,75,0,0
181303,-55.5555555555556,4,2,2,75,0,0
182009,-55.5555555555556,4,2,30,75,0,0
182185,-55.5555555555556,4,2,2,75,0,0
182362,-55.5555555555556,4,2,30,75,0,0
182450,-55.5555555555556,4,2,2,75,0,0
184126,-55.5555555555556,4,2,2,75,0,0
186950,-55.5555555555556,4,2,30,75,0,0
187038,-55.5555555555556,4,2,2,75,0,0
192597,-55.5555555555556,4,2,30,75,0,0
192685,-55.5555555555556,4,2,2,75,0,0
198244,-55.5555555555556,4,2,30,75,0,0
198332,-55.5555555555556,4,2,2,75,0,0
200714,-55.5555555555556,4,2,30,75,0,0
200802,-55.5555555555556,4,2,2,75,0,0
202479,-55.5555555555556,4,2,30,75,0,0
202567,-55.5555555555556,4,2,2,75,0,0
203891,-55.5555555555556,4,2,30,75,0,0
203979,-55.5555555555556,4,2,2,75,0,0
206009,-55.5555555555556,4,2,30,75,0,0
206097,-55.5555555555556,4,2,2,75,0,0
206714,352.941176470588,7,2,2,75,1,0
206714,-62.5,7,2,30,75,0,0
206802,-62.5,7,2,2,75,0,0
209184,-62.5,7,2,30,75,0,0
209272,-62.5,7,2,2,75,0,0
211655,352.941176470588,4,2,2,75,1,0
211655,-62.5,4,2,2,75,0,0
212890,-62.5,7,2,30,75,0,0
212978,-62.5,7,2,2,75,0,0
214007,-62.5,7,2,30,75,0,0
214478,-62.5,7,2,2,75,0,0
215713,-62.5,7,2,30,75,0,0
215801,-62.5,7,2,2,75,0,0
217302,352.941176470588,7,2,2,75,1,0
217302,-62.5,7,2,2,75,0,0
219419,-250.000000000001,7,2,2,75,0,0
219772,-62.5,7,2,30,75,0,0
219860,-62.5,7,2,2,75,0,0
222243,352.941176470588,4,2,2,75,1,0
222243,-62.5,4,2,2,75,0,0
222507,-62.5,7,2,30,75,0,0
222595,-62.5,7,2,2,75,0,0
223654,-62.5,7,2,30,75,0,0
223742,-62.5,7,2,2,75,0,0
226301,-62.5,7,2,30,75,0,0
226389,-62.5,7,2,2,75,0,0
227890,-71.4285714285714,4,2,2,60,0,0
238831,-71.4285714285714,4,2,2,65,0,0
239184,-66.6666666666667,4,2,30,75,0,0
239448,-66.6666666666667,4,2,2,75,0,0
239537,-58.8235294117647,4,2,2,75,0,0
240595,-66.6666666666667,4,2,30,75,0,0
240860,-66.6666666666667,4,2,2,75,0,0
240948,-58.8235294117647,4,2,2,75,0,0
242007,-66.6666666666667,4,2,30,75,0,0
242184,-66.6666666666667,4,2,2,75,0,0
243419,-66.6666666666667,4,2,30,75,0,0
243684,-66.6666666666667,4,2,2,75,0,0
244831,-58.8235294117647,4,2,2,75,0,0
245184,-52.6315789473684,4,2,2,75,0,0
246948,-52.6315789473684,4,2,30,75,0,0
247213,-52.6315789473684,4,2,2,75,0,0
248184,-58.8235294117647,4,2,2,75,0,0
250478,-66.6666666666667,4,2,30,70,0,0
250742,-66.6666666666667,4,2,2,70,0,0
251890,-66.6666666666667,4,2,30,70,0,0
252154,-66.6666666666667,4,2,2,70,0,0
253301,-66.6666666666667,4,2,30,70,0,0
253565,-66.6666666666667,4,2,2,70,0,0
256125,-66.6666666666667,4,2,30,70,0,0
256389,-66.6666666666667,4,2,2,70,0,0
257537,-66.6666666666667,4,2,30,70,0,0
257801,-66.6666666666667,4,2,2,70,0,0
258948,-58.8235294117647,4,2,30,70,0,0
259213,-58.8235294117647,4,2,2,70,0,0
259301,-66.6666666666667,4,2,2,70,0,0
261772,-66.6666666666667,4,2,30,70,0,0
262037,-66.6666666666667,4,2,2,70,0,0
263184,-66.6666666666667,4,2,30,70,0,0
263448,-66.6666666666667,4,2,2,70,0,0
264595,-66.6666666666667,4,2,30,70,0,0
264859,-66.6666666666667,4,2,2,70,0,0
266007,-58.8235294117647,4,2,2,70,0,0
266713,-66.6666666666667,4,2,2,70,0,0
267419,-66.6666666666667,4,2,30,70,0,0
267683,-66.6666666666667,4,2,2,70,0,0
268831,-66.6666666666667,4,2,30,70,0,0
269095,-66.6666666666667,4,2,2,70,0,0
270066,-52.6315789473684,4,2,2,70,0,0
273066,-52.6315789473684,4,2,2,85,0,1
276242,-47.6190476190476,4,2,2,85,0,1
278537,-47.6190476190476,4,2,30,85,0,1
278713,-47.6190476190476,4,2,2,85,0,1
284360,-52.6315789473684,4,2,2,85,0,1
288419,-47.6190476190476,4,2,2,85,0,1
289831,-47.6190476190476,4,2,30,85,0,1
289919,-47.6190476190476,4,2,2,85,0,1
294242,-58.8235294117647,4,2,2,85,0,1
295301,-66.6666666666667,4,2,2,85,0,0
295654,-50,4,2,30,85,0,1
295742,-50,4,2,2,85,0,1
298831,-45.4545454545455,4,2,2,85,0,1
306948,-50,4,2,30,85,0,1
307037,-50,4,2,2,85,0,1
310125,-47.6190476190476,4,2,2,85,0,1
311007,-43.4782608695652,4,2,2,90,0,1
315242,-50,4,2,2,80,0,1
315595,-55.5555555555556,4,2,2,80,0,1
316654,-333.333333333333,4,2,2,80,0,0
319301,-333.333333333333,4,2,2,5,0,0
319654,-62.5,4,2,30,70,0,0
319919,-62.5,4,2,2,70,0,0
320184,-50,4,2,2,70,0,0
320537,-62.5,4,2,2,70,0,0
321595,-50,4,2,2,70,0,0
321948,-62.5,4,2,2,70,0,0
323007,-50,4,2,2,70,0,0
323360,-62.5,4,2,2,70,0,0
324419,-50,4,2,2,70,0,0
324772,-62.5,4,2,2,70,0,0
325301,-62.5,4,2,30,70,0,0
325566,-62.5,4,2,2,70,0,0
325831,-50,4,2,2,70,0,0
326184,-62.5,4,2,2,70,0,0
327242,-50,4,2,2,70,0,0
327595,-62.5,4,2,2,70,0,0
328125,-62.5,4,2,30,70,0,0
328390,-62.5,4,2,2,70,0,0
328654,-50,4,2,2,70,0,0
329007,-62.5,4,2,2,70,0,0
329537,-55.5555555555556,4,2,2,70,0,0
330948,-62.5,4,2,30,70,0,0
331213,-62.5,4,2,2,70,0,0
331478,-50,4,2,2,70,0,0
331831,-62.5,4,2,2,70,0,0
332890,-50,4,2,2,70,0,0
333242,-62.5,4,2,2,70,0,0
334301,-50,4,2,2,70,0,0
334654,-62.5,4,2,2,70,0,0
336595,-55.5555555555556,4,2,2,75,0,0
342331,-55.5555555555556,4,2,2,40,0,0
347845,-55.5555555555556,4,2,2,10,0,0

[Colours]
Combo1 : 148,214,151
Combo2 : 255,193,79
Combo3 : 238,157,98
Combo4 : 247,87,91
Combo5 : 240,142,216
Combo6 : 162,194,234

[HitObjects]
256,192,4128,12,0,5186,0:0:0:0:
164,104,5363,6,0,L|169:128,1,20,8|8,0:0|0:0,0:0:0:0:
441,319,5716,6,0,B|366:359|363:281|277:319,1,167.999994873047,4|4,3:2|0:3,0:0:0:0:
402,255,6069,2,0,P|380:276|349:287,1,55.9999982910157,8|0,0:0|0:0,0:0:0:0:
128,224,6245,6,0,B|167:214|167:214|203:231|203:231|231:216|231:216|289:226|289:226|336:198,1,215.999993408203,6|0,0:3|0:0,0:0:0:0:
342,131,6598,2,0,L|331:197,1,55.9999982910157,4|4,0:3|0:3,0:0:0:0:
297,369,6775,1,8,0:0:0:0:
297,369,6863,1,4,0:3:0:0:
297,369,6951,1,4,0:3:0:0:
297,369,7039,1,4,0:3:0:0:
297,369,7128,6,0,P|275:316|363:315,1,167.999994873047,4|4,0:3|0:3,0:0:0:0:
213,271,7481,2,0,P|251:283|275:274,1,55.9999982910157,8|0,0:0|0:0,0:0:0:0:
397,206,7657,6,0,B|406:175|406:175|368:125|368:125|383:92|383:92|368:44|368:44|375:10,1,215.999993408203,6|0,0:3|0:0,0:0:0:0:
443,10,8010,2,0,L|382:22,1,55.9999982910157,4|4,0:3|0:3,0:0:0:0:
211,74,8186,1,8,0:0:0:0:
211,74,8275,1,4,0:3:0:0:
211,74,8363,1,4,0:3:0:0:
211,74,8451,1,4,0:3:0:0:
211,74,8539,6,0,B|248:148|168:154|208:236,1,167.999994873047,4|4,0:3|0:3,0:0:0:0:
142,110,8892,2,0,P|152:140|185:164,1,55.9999982910157,8|0,0:0|0:0,0:0:0:0:
315,264,9069,6,0,B|350:248|350:248|371:271|371:271|441:287|441:287|459:272|459:272|508:258,1,215.999993408203,6|0,0:3|0:0,0:0:0:0:
512,329,9422,2,0,L|503:273,1,55.9999982910157,4|4,0:3|0:3,0:0:0:0:
479,101,9598,1,8,0:0:0:0:
479,101,9686,1,4,0:3:0:0:
479,101,9775,1,4,0:3:0:0:
479,101,9863,1,4,0:3:0:0:
479,101,9951,6,0,P|420:128|397:45,1,167.999994873047,4|4,0:3|0:3,0:0:0:0:
393,205,10304,2,0,P|398:173|385:137,1,55.9999982910157,8|0,0:0|0:0,0:0:0:0:
244,37,10481,6,0,B|202:74|202:74|213:107|213:107|220:114|220:114|234:155|234:155|231:166|231:166|237:252,1,215.999993408203,6|0,0:3|0:0,0:0:0:0:
300,256,10834,2,0,L|244:243,1,55.9999982910157,4|4,0:3|0:3,0:0:0:0:
52,196,11010,1,8,0:0:0:0:
52,196,11098,1,4,0:3:0:0:
52,196,11186,1,4,0:3:0:0:
52,196,11275,1,4,0:3:0:0:
52,196,11363,6,0,B|123:140|53:106|122:49,1,167.999994873047,4|4,3:2|0:3,0:0:0:0:
14,131,11716,2,0,P|40:104|72:105,1,55.9999982910157,8|0,0:0|0:0,0:0:0:0:
228,140,11892,6,0,B|252:180|252:180|233:229|233:229|220:243|220:243|240:287|240:287|232:296|232:296|225:336,1,215.999993408203,6|0,0:3|0:0,0:0:0:0:
135,371,12245,1,4,0:3:0:0:
135,371,12334,1,4,0:3:0:0:
114,333,12422,1,8,3:2:0:0:
122,321,12510,1,4,0:3:0:0:
114,309,12598,1,4,0:3:0:0:
118,295,12686,1,4,0:3:0:0:
117,280,12775,6,0,P|36:274|63:349,1,167.999994873047,4|4,0:3|0:3,0:0:0:0:
6,201,13128,2,0,P|4:232|19:265,1,55.9999982910157,8|0,0:0|0:0,0:0:0:0:
151,380,13304,6,0,B|220:361|220:361|230:347|230:347|314:377|314:377|346:354,1,215.999993408203,6|0,0:3|0:0,0:0:0:0:
413,368,13657,2,0,L|344:347,1,55.9999982910157,4|4,0:3|0:3,0:0:0:0:
202,226,13834,1,8,0:0:0:0:
202,226,13922,1,4,0:3:0:0:
202,226,14010,1,4,0:3:0:0:
202,226,14098,1,4,0:3:0:0:
202,226,14186,6,0,B|282:185|282:264|364:220,1,167.999994873047,4|4,0:3|0:3,0:0:0:0:
243,290,14539,2,0,P|270:277|290:250,1,55.9999982910157,8|0,0:0|0:0,0:0:0:0:
278,68,14716,6,0,B|235:56|235:56|220:61|220:61|165:30|165:30|151:45|151:45|76:67,1,215.999993408203,6|0,0:3|0:0,0:0:0:0:
48,6,15069,2,0,L|69:74,1,55.9999982910157,4|4,0:3|0:3,0:0:0:0:
126,261,15245,1,8,0:0:0:0:
126,261,15334,1,4,0:3:0:0:
126,261,15422,1,4,0:3:0:0:
126,261,15510,1,4,0:3:0:0:
177,240,15598,5,8,0:0:0:0:
226,266,15686,1,8,0:0:0:0:
235,321,15775,1,8,0:3:0:0:
244,335,15863,1,8,0:3:0:0:
259,342,15951,1,4,0:3:0:0:
275,344,16039,1,4,0:3:0:0:
323,329,16128,2,0,P|335:301|328:257,1,55.9999982910157,8|0,0:0|0:0,0:0:0:0:
249,135,16304,5,8,0:0:0:0:
223,85,16392,1,8,0:0:0:0:
240,37,16481,1,4,0:3:0:0:
279,16,16569,1,4,0:3:0:0:
317,20,16657,5,8,0:0:0:0:
360,71,16745,1,8,0:0:0:0:
337,133,16834,1,8,0:0:0:0:
271,144,16921,1,8,0:0:0:0:
229,93,17010,6,0,P|237:40|338:48,1,167.999994873047,4|4,3:2|0:3,0:0:0:0:
174,0,17363,2,0,P|200:5|231:28,1,55.9999982910157,8|0,0:0|0:0,0:0:0:0:
306,206,17539,6,0,B|262:235|262:235|195:220|195:220|185:228|185:228|92:235,1,215.999993408203,6|0,0:3|0:0,0:0:0:0:
42,301,17892,1,4,0:3:0:0:
42,301,17981,1,4,0:3:0:0:
60,331,18069,1,8,0:0:0:0:
77,335,18157,1,4,0:3:0:0:
93,328,18245,1,4,0:3:0:0:
110,332,18334,1,4,0:3:0:0:
121,323,18422,6,0,B|205:285|209:358|284:322,1,167.999994873047,4|4,0:3|0:3,0:0:0:0:
163,384,18775,2,0,P|198:367|214:338,1,55.9999982910157,8|0,0:0|0:0,0:0:0:0:
234,169,18951,6,0,B|148:156|148:156|128:167|128:167|67:184|67:184|10:172,1,215.999993408203,6|0,0:3|0:0,0:0:0:0:
25,109,19304,2,0,L|35:180,1,55.9999982910157,4|4,0:3|0:3,0:0:0:0:
55,325,19481,1,8,0:0:0:0:
55,325,19569,1,4,0:3:0:0:
55,325,19657,1,4,0:3:0:0:
55,325,19745,1,4,0:3:0:0:
55,325,19834,6,0,P|111:322|65:251,1,167.999994873047,4|4,0:3|0:3,0:0:0:0:
192,330,20186,2,0,P|155:323|138:302,1,55.9999982910157,8|0,0:0|0:0,0:0:0:0:
83,132,20363,6,0,B|148:150|148:150|157:158|157:158|209:142|209:142|229:152|229:152|299:158,1,215.999993408203,6|0,0:3|0:0,0:0:0:0:
322,98,20716,2,0,L|305:155,1,55.9999982910157,4|4,0:3|0:3,0:0:0:0:
267,297,20892,1,8,0:0:0:0:
267,297,20981,1,4,0:3:0:0:
267,297,21069,1,4,0:3:0:0:
267,297,21157,1,4,0:3:0:0:
267,297,21245,6,0,B|350:262|348:329|431:293,1,167.999994873047,4|4,0:3|0:3,0:0:0:0:
311,361,21598,2,0,P|342:354|364:332,1,55.9999982910157,8|0,0:0|0:0,0:0:0:0:
355,152,21775,6,0,B|337:101|337:101|326:90|326:90|309:42|309:42|302:46|302:46|205:29,1,215.999993408203,6|0,0:3|0:0,0:0:0:0:
182,92,22128,2,0,L|202:36,1,55.9999982910157,4|4,0:3|0:3,0:0:0:0:
21,21,22304,1,8,0:0:0:0:
21,21,22392,1,4,0:3:0:0:
21,21,22481,1,4,0:3:0:0:
21,21,22569,1,4,0:3:0:0:
21,21,22657,6,0,P|76:44|25:117,1,167.999994873047,4|4,3:2|0:3,0:0:0:0:
149,41,23010,2,0,P|115:47|95:68,1,55.9999982910157,8|0,0:0|0:0,0:0:0:0:
47,228,23186,6,0,B|98:240|98:240|112:236|112:236|164:273|164:273|171:265|171:265|268:251,1,215.999993408203,6|0,0:3|0:0,0:0:0:0:
275,316,23539,2,0,L|258:252,1,55.9999982910157,4|4,0:3|0:3,0:0:0:0:
224,110,23716,1,8,3:2:0:0:
224,110,23804,1,4,0:3:0:0:
224,110,23892,1,4,0:3:0:0:
224,110,23981,1,4,0:3:0:0:
224,110,24069,6,0,B|302:148|300:76|389:115,1,167.999994873047,0|4,0:3|0:3,0:0:0:0:
266,47,24422,2,0,P|296:61|309:85,1,55.9999982910157,8|0,0:0|0:0,0:0:0:0:
329,276,24598,6,0,B|374:273|374:273|383:270|383:270|438:285|438:285|442:274|442:274|510:239|510:239|486:229,1,215.999993408203,6|0,0:3|0:0,0:0:0:0:
480,167,24951,2,0,L|485:241,1,55.9999982910157,4|4,0:3|0:3,0:0:0:0:
504,381,25128,1,8,0:0:0:0:
504,381,25216,1,4,0:3:0:0:
504,381,25304,1,4,0:3:0:0:
504,381,25392,1,4,0:3:0:0:
504,381,25481,6,0,P|444:367|512:320,1,167.999994873047,4|4,3:2|0:3,0:0:0:0:
366,364,25834,2,0,P|399:362|423:344,1,55.9999982910157,8|0,0:0|0:0,0:0:0:0:
469,167,26010,6,0,B|432:161|432:161|408:147|408:147|396:155|396:155|337:175|337:175|305:161|305:161|253:158,1,215.999993408203,6|0,0:3|0:0,0:0:0:0:
186,220,26363,1,4,0:3:0:0:
186,220,26451,1,4,0:3:0:0:
218,284,26539,2,0,L|204:206,1,55.9999982910157,8|4,0:0|0:3,0:0:0:0:
179,64,26716,1,4,0:3:0:0:
179,64,26804,1,4,0:3:0:0:
257,20,26892,6,0,P|205:19|209:87,1,128,12|0,0:0|0:0,0:0:0:0:
284,137,27157,2,0,B|348:157|339:100|408:122,1,128,12|0,0:0|0:0,0:0:0:0:
459,249,27422,2,0,L|475:175,1,64,12|0,0:0|0:0,0:0:0:0:
512,31,27598,1,4,0:3:0:0:
512,31,27686,1,4,0:3:0:0:
512,31,27775,1,8,0:0:0:0:
498,67,27863,1,8,0:0:0:0:
449,82,27951,5,8,0:0:0:0:
391,42,28039,1,8,0:0:0:0:
323,60,28128,1,8,0:0:0:0:
293,124,28215,1,8,0:0:0:0:
323,187,28304,6,0,P|314:124|294:20,1,143.999995605469,4|4,3:2|0:3,0:0:0:0:
246,198,28657,1,2,0:0:0:0:
248,208,28745,2,0,B|293:229|293:194|344:213,1,95.9999970703126,2|0,0:0|0:0,0:0:0:0:
387,303,29010,2,0,P|362:249|468:248,1,191.999994140625,2|2,0:0|0:0,0:0:0:0:
492,59,29539,6,0,P|446:91|385:-4,1,191.999994140625,2|0,0:0|0:0,0:0:0:0:
407,181,30069,1,2,0:0:0:0:
407,181,30157,2,0,B|362:197|363:165|312:180,1,95.9999970703126,2|0,0:0|0:0,0:0:0:0:
281,269,30422,2,0,P|291:215|218:197,1,143.999995605469,2|0,0:0|0:0,0:0:0:0:
193,282,30775,2,0,L|205:183,1,95.9999970703126,2|0,0:0|0:0,0:0:0:0:
62,370,31127,6,0,P|33:326|49:288,1,95.9999970703126,2|0,3:2|0:0,0:0:0:0:
104,240,31392,2,0,P|117:195|89:159,1,95.9999970703126,0|0,3:2|0:0,0:0:0:0:
19,140,31657,1,0,3:0:0:0:
211,55,31834,6,0,P|227:74|220:101,1,47.9999985351563,0|0,0:0|0:0,0:0:0:0:
240,56,32186,2,0,P|240:80|217:97,1,47.9999985351563,0|0,0:0|0:0,0:0:0:0:
261,75,32539,2,0,P|245:94|217:91,1,47.9999985351563,0|0,0:0|0:0,0:0:0:0:
265,103,32892,2,0,P|240:107|220:87,1,47.9999985351563,0|0,0:0|0:0,0:0:0:0:
249,127,33245,6,0,P|227:114|224:86,1,47.9999985351563,2|0,0:0|0:0,0:0:0:0:
265,5,33422,1,0,3:0:0:0:
323,256,33598,2,0,P|372:232|362:176,1,95.9999970703126,10|0,0:0|0:0,0:0:0:0:
75,237,33951,6,0,P|127:221|166:307,1,143.999995605469,2|0,3:2|3:0,0:0:0:0:
90,151,34304,2,0,P|150:203|143:228,1,95.9999970703126,2|0,0:0|3:0,0:0:0:0:
32,372,34657,6,0,B|6:306|63:309|29:233,1,143.999995605469,2|0,0:0|0:0,0:0:0:0:
101,372,35010,2,0,L|31:386,1,47.9999985351563,2|0,0:0|0:0,0:0:0:0:
206,309,35186,2,0,L|158:299,1,47.9999985351563,2|0,0:0|0:0,0:0:0:0:
8,147,35363,6,0,P|65:144|113:210,1,143.999995605469,0|0,3:0|3:0,0:0:0:0:
133,53,35716,2,0,P|120:109|76:124,1,95.9999970703126,2|0,0:0|3:0,0:0:0:0:
243,138,36069,2,0,P|221:156|185:159,1,47.9999985351563,2|0,0:0|0:0,0:0:0:0:
88,123,36245,1,0,3:0:0:0:
342,68,36422,1,8,0:0:0:0:
172,7,36598,2,0,P|201:16|221:40,1,47.9999985351563,2|0,0:0|0:0,0:0:0:0:
279,236,36774,6,0,P|225:250|193:217,1,95.9999970703126,2|0,3:2|0:0,0:0:0:0:
143,277,37039,2,0,P|89:263|57:296,1,95.9999970703126,2|0,3:2|0:0,0:0:0:0:
0,245,37304,2,0,P|4:186|47:165,1,95.9999970703126,2|0,3:2|0:0,0:0:0:0:
232,336,37657,6,0,B|225:304|225:304|227:297|227:297|212:236,1,95.9999970703126,2|0,0:0|0:0,0:0:0:0:
312,384,38010,2,0,L|324:338,1,47.9999985351563,2|0,0:0|0:0,0:0:0:0:
319,189,38186,6,0,P|349:219|414:206,1,95.9999970703126,2|0,3:2|0:0,0:0:0:0:
427,137,38451,2,0,P|397:107|332:120,1,95.9999970703126,2|0,3:2|0:0,0:0:0:0:
319,189,38716,1,2,3:2:0:0:
481,203,38892,1,0,0:0:0:0:
393,275,39069,1,0,3:0:0:0:
389,297,39157,1,0,3:0:0:0:
386,316,39245,1,8,0:2:0:0:
405,106,39422,5,2,0:0:0:0:
453,126,39510,1,2,0:0:0:0:
491,90,39598,2,0,P|432:58|409:143,1,155.999992858887,4|0,3:2|3:0,0:0:0:0:
358,0,39951,2,0,P|420:23|421:68,1,103.999995239258,2|8,0:0|0:0,0:0:0:0:
164,69,40304,1,2,0:0:0:0:
277,110,40481,1,0,3:0:0:0:
159,0,40657,2,0,L|177:66,1,51.999997619629,10|0,0:2|0:0,0:0:0:0:
200,149,40834,2,0,L|182:215,1,51.999997619629,2|0,0:0|0:0,0:0:0:0:
25,321,41010,6,0,P|56:274|159:299,1,155.999992858887,0|0,3:0|3:0,0:0:0:0:
169,366,41363,2,0,L|154:246,1,103.999995239258,2|8,0:0|0:0,0:0:0:0:
343,286,41716,1,2,0:0:0:0:
240,204,41892,1,0,3:0:0:0:
317,381,42068,2,0,L|380:368,1,51.999997619629,10|0,0:2|0:0,0:0:0:0:
195,317,42245,2,0,L|258:330,1,51.999997619629,2|0,0:0|0:0,0:0:0:0:
392,275,42421,6,0,P|328:287|304:257,1,103.999995239258,0|0,3:0|0:0,0:0:0:0:
278,191,42686,2,0,P|238:160|192:178,1,103.999995239258,0|0,3:0|0:0,0:0:0:0:
149,244,42951,1,8,0:0:0:0:
149,244,43304,1,0,3:0:0:0:
105,0,43481,1,8,0:0:0:0:
105,0,43834,6,0,L|84:104,1,103.999995239258,0|0,3:0|0:0,0:0:0:0:
65,178,44098,2,0,L|44:282,1,103.999995239258,0|0,3:0|0:0,0:0:0:0:
26,354,44363,1,8,0:0:0:0:
199,342,44539,6,0,P|217:320|216:287,1,51.999997619629,2|0,0:0|0:0,0:0:0:0:
144,269,44716,2,0,P|126:291|127:324,1,51.999997619629,2|0,3:2|0:0,0:0:0:0:
271,376,44892,6,0,B|295:380|295:380|324:356,1,51.999997619629,10|0,0:0|0:0,0:0:0:0:
279,165,45069,1,8,0:0:0:0:
279,165,45157,1,8,0:0:0:0:
279,165,45245,6,0,P|303:216|361:147,1,155.999992858887,4|0,3:2|3:0,0:0:0:0:
326,320,45598,2,0,P|294:262|314:232,1,103.999995239258,2|8,0:0|0:0,0:0:0:0:
512,301,45951,1,2,0:0:0:0:
401,264,46128,1,0,3:0:0:0:
512,73,46304,1,10,0:0:0:0:
482,212,46481,2,0,P|475:184|461:155,1,51.999997619629,2|0,0:0|0:0,0:0:0:0:
378,75,46657,6,0,P|321:85|268:121,1,103.999995239258,0|0,3:0|0:0,0:0:0:0:
206,107,46922,1,0,3:0:0:0:
206,107,47010,2,0,P|182:165|178:222,1,103.999995239258,2|8,0:0|0:0,0:0:0:0:
308,379,47363,1,2,0:0:0:0:
192,336,47539,1,0,3:0:0:0:
412,274,47716,1,10,0:0:0:0:
302,204,47892,2,0,L|315:263,1,51.999997619629,2|0,0:0|0:0,0:0:0:0:
395,376,48069,6,0,L|414:256,1,103.999995239258,2|0,3:0|0:0,0:0:0:0:
426,199,48333,2,0,L|445:79,1,103.999995239258,0|0,3:0|0:0,0:0:0:0:
457,22,48598,1,8,0:0:0:0:
324,68,48775,1,8,0:0:0:0:
329,82,48863,1,8,0:0:0:0:
334,96,48951,1,4,0:3:0:0:
106,162,49128,2,0,B|119:161|119:161|110:170,1,25.9999988098145,8|0,0:0|0:0,0:0:0:0:
300,208,49304,2,0,P|277:195|247:195,1,51.999997619629,2|0,0:0|0:0,0:0:0:0:
125,342,49480,6,0,P|113:278|140:250,1,103.999995239258,0|0,3:0|0:0,0:0:0:0:
217,219,49745,2,0,P|244:176|227:129,1,103.999995239258,0|0,3:0|0:0,0:0:0:0:
117,81,50010,2,0,L|175:65,1,51.999997619629,10|0,0:2|0:0,0:0:0:0:
357,24,50186,6,0,L|362:-3,2,25.9999988098145,10|8|8,0:3|0:3|0:3,0:0:0:0:
299,71,50363,1,8,0:3:0:0:
317,95,50451,1,8,0:3:0:0:
307,120,50539,1,4,0:3:0:0:
342,184,50628,5,8,0:3:0:0:
310,249,50716,1,8,0:3:0:0:
351,308,50804,1,8,0:3:0:0:
330,380,50892,6,0,B|293:377|293:377|282:382|282:382|210:375,1,111.999996582031,4|0,3:2|0:0,0:0:0:0:
128,360,51157,1,4,0:3:0:0:
156,298,51245,2,0,L|143:361,1,55.9999982910157,8|0,0:0|0:0,0:0:0:0:
6,384,51422,6,0,B|-6:333|-6:333|-12:330|-12:330|5:277|5:277|11:274|11:274|-7:220|-7:220|2:169,1,215.999993408203,6|0,0:3|0:0,0:0:0:0:
23,72,51774,1,4,0:3:0:0:
23,72,51862,1,4,0:3:0:0:
82,121,51951,1,8,0:0:0:0:
106,106,52039,1,4,0:3:0:0:
133,116,52128,1,4,0:3:0:0:
159,106,52216,1,4,0:3:0:0:
204,124,52304,6,0,L|199:98,1,24,12|0,0:0|0:0,0:0:0:0:
213,140,52657,6,0,B|204:177|204:177|211:197|211:197|192:267,1,111.999996582031,4|0,3:2|0:0,0:0:0:0:
173,336,52921,1,4,0:3:0:0:
107,311,53009,2,0,L|166:325,1,55.9999982910157,8|0,0:0|0:0,0:0:0:0:
303,384,53186,6,0,B|291:335|291:335|299:325|299:325|303:269|303:269|299:260|299:260|319:216|319:216|306:170,1,215.999993408203,6|0,0:3|0:0,0:0:0:0:
269,85,53539,1,4,0:3:0:0:
269,85,53627,1,4,0:3:0:0:
345,107,53715,1,8,0:2:0:0:
366,87,53804,1,4,0:3:0:0:
394,92,53892,1,4,0:3:0:0:
418,77,53980,1,4,0:3:0:0:
468,83,54068,6,0,B|459:119|459:119|463:128|463:128|445:203,1,111.999996582031,6|0,3:2|0:0,0:0:0:0:
427,277,54333,1,4,0:3:0:0:
498,278,54421,2,0,L|440:287,1,55.9999982910157,8|0,0:0|0:0,0:0:0:0:
283,369,54598,6,0,B|266:324|266:324|270:320|270:320|280:252|280:252|275:249|275:249|260:212|260:212|264:207|264:207|270:154,1,215.999993408203,6|0,0:3|0:0,0:0:0:0:
277,63,54951,1,4,0:3:0:0:
277,63,55039,1,4,0:3:0:0:
206,109,55127,1,8,0:2:0:0:
168,88,55215,1,4,0:3:0:0:
132,112,55304,1,4,0:3:0:0:
91,96,55392,1,4,0:3:0:0:
30,136,55480,6,0,B|37:176|37:176|57:197|57:197|74:287,1,143.999995605469,4|0,3:2|0:0,0:0:0:0:
89,358,55745,1,4,0:3:0:0:
19,344,55833,2,0,L|88:352,1,55.9999982910157,8|0,0:0|0:0,0:0:0:0:
278,282,56009,6,0,B|223:295|223:295|219:298|219:298|172:259|172:259|167:255|167:255|118:264|118:264|113:268|113:268|71:259,1,215.999993408203,6|0,0:3|0:0,0:0:0:0:
18,193,56362,1,4,0:3:0:0:
18,193,56451,1,4,0:3:0:0:
97,142,56539,1,8,0:0:0:0:
89,114,56627,1,4,0:3:0:0:
110,94,56715,1,4,0:3:0:0:
102,66,56804,1,4,0:3:0:0:
102,16,56892,6,0,B|156:25|156:25|162:22|162:22|227:33,1,111.999996582031,4|0,3:2|0:0,0:0:0:0:
300,46,57157,1,4,0:3:0:0:
294,117,57245,2,0,L|286:52,1,55.9999982910157,8|0,0:0|0:0,0:0:0:0:
407,3,57421,6,0,B|413:49|413:49|419:52|419:52|395:109|395:109|389:112|389:112|409:143|409:143|416:215,1,215.999993408203,6|0,0:3|0:0,0:0:0:0:
425,292,57774,1,4,0:3:0:0:
448,302,57862,1,4,0:3:0:0:
512,262,57951,1,8,0:0:0:0:
319,368,58127,6,0,B|280:360|280:360|264:348|264:348|216:373|216:373|162:377,1,167.999994873047,4|4,3:2|0:3,0:0:0:0:
76,329,58479,2,0,L|85:388,1,55.9999982910157,8|0,0:0|0:0,0:0:0:0:
166,268,58656,6,0,B|179:204|179:204|174:199|174:199|152:145|152:145|157:140|157:140|166:104|166:104|157:62,1,215.999993408203,6|0,0:3|0:0,0:0:0:0:
92,3,59009,1,4,0:3:0:0:
92,3,59097,1,4,0:3:0:0:
18,58,59185,1,8,0:0:0:0:
35,81,59274,1,4,0:3:0:0:
21,106,59362,1,4,0:3:0:0:
39,127,59450,1,4,0:3:0:0:
17,200,59538,6,0,B|52:208|52:208|81:193|81:193|86:198|86:198|167:219,1,143.999995605469,12|4,0:0|0:3,0:0:0:0:
205,297,59803,2,0,B|167:311|167:311|171:274|171:274|168:268|168:268|178:198,1,143.999995605469,12|4,0:0|0:3,0:0:0:0:
192,78,60068,1,8,0:0:0:0:
402,296,60244,5,8,0:0:0:0:
345,240,60332,1,8,0:0:0:0:
265,231,60421,1,8,0:0:0:0:
512,276,60597,1,8,0:0:0:0:
211,234,60774,5,8,0:0:0:0:
284,197,60862,1,8,0:0:0:0:
365,196,60950,6,0,B|317:184|317:184|306:169|306:169|206:147,1,167.999994873047,4|4,3:2|0:3,0:0:0:0:
134,79,61303,2,0,L|142:154,1,55.9999982910157,8|0,0:0|0:0,0:0:0:0:
76,319,61479,6,0,B|90:314|90:314|91:307|91:307|142:320|142:320|147:325|147:325|206:314|206:314|225:300|225:300|276:309,1,215.999993408203,6|0,0:3|0:0,0:0:0:0:
353,364,61832,1,4,0:3:0:0:
353,364,61921,1,4,0:3:0:0:
411,296,62009,1,8,0:0:0:0:
391,275,62097,1,4,0:3:0:0:
406,250,62185,1,4,0:3:0:0:
398,221,62274,1,4,0:3:0:0:
417,182,62362,6,0,L|391:178,1,24,12|0,0:0|0:0,0:0:0:0:
348,166,62715,6,0,B|414:158|414:158|421:151|421:151|529:139,1,167.999994873047,4|4,3:2|0:3,0:0:0:0:
438,64,63067,2,0,L|433:127,1,55.9999982910157,8|0,0:0|0:0,0:0:0:0:
416,311,63244,6,0,B|377:304|377:304|353:274|353:274|348:277|348:277|276:287|276:287|272:292|272:292|211:269,1,215.999993408203,6|0,0:3|0:0,0:0:0:0:
146,325,63597,1,4,0:3:0:0:
146,325,63685,1,4,0:3:0:0:
73,269,63773,1,8,0:0:0:0:
59,251,63862,1,4,0:3:0:0:
63,229,63950,1,4,0:3:0:0:
58,207,64038,1,4,0:3:0:0:
33,171,64126,6,0,P|53:112|125:125,1,128,12|0,0:0|0:0,0:0:0:0:
188,182,64391,2,0,B|247:207|245:157|311:178,1,128,4|0,0:0|0:0,0:0:0:0:
387,282,64656,6,0,B|381:238|381:238|376:232|376:232|398:173|398:173|392:168|392:168|380:86,1,192,12|0,0:0|0:0,0:0:0:0:
363,12,65009,1,4,0:3:0:0:
363,12,65097,1,4,0:3:0:0:
450,33,65185,5,8,0:0:0:0:
470,100,65273,1,8,0:0:0:0:
442,164,65362,1,8,0:0:0:0:
379,195,65449,1,8,0:0:0:0:
311,178,65538,6,0,B|255:171|255:171|243:179|243:179|140:164,1,167.999994873047,4|4,3:2|0:3,0:0:0:0:
76,215,65891,2,0,L|64:136,1,55.9999982910157,8|0,0:0|0:0,0:0:0:0:
8,8,66067,6,0,B|30:25|30:25|81:8|81:8|85:12|85:12|146:29|146:29|150:33|150:33|224:8,1,215.999993408203,6|0,0:3|0:0,0:0:0:0:
302,31,66420,1,4,0:3:0:0:
302,31,66509,1,4,0:3:0:0:
272,117,66597,1,8,0:0:0:0:
291,137,66685,1,4,0:3:0:0:
276,161,66773,1,4,0:3:0:0:
291,185,66862,1,4,0:3:0:0:
288,224,66950,6,0,B|267:308|267:308|270:319|270:319|249:395,1,167.999994873047,4|4,3:2|0:3,0:0:0:0:
120,361,67303,2,0,L|188:375,1,55.9999982910157,8|0,0:0|0:0,0:0:0:0:
376,346,67479,6,0,B|362:321|362:321|381:278|381:278|386:276|386:276|402:241|402:241|375:210|375:210|378:205|378:205|370:155,1,215.999993408203,6|0,0:3|0:0,0:0:0:0:
312,83,67832,1,4,0:3:0:0:
312,83,67920,1,4,0:3:0:0:
359,2,68009,5,8,0:0:0:0:
436,16,68097,1,8,0:0:0:0:
474,83,68185,1,8,0:0:0:0:
446,156,68273,1,8,0:0:0:0:
385,181,68362,6,0,L|338:171,3,47.9999985351563,8|8|8|8,0:0|0:3|0:3|0:3,0:0:0:0:
179,39,68626,1,8,0:0:0:0:
161,44,68715,2,0,P|140:76|156:113,1,71.9999978027344,8|8,0:3|0:3,0:0:0:0:
278,91,68891,2,0,L|230:100,2,47.9999985351563,8|8|8,0:0|0:3|0:3,0:0:0:0:
303,105,69067,5,4,0:3:0:0:
292,131,69156,1,4,0:3:0:0:
313,150,69244,1,4,0:3:0:0:
311,178,69332,1,4,0:3:0:0:
262,240,69420,5,8,0:0:0:0:
318,296,69509,1,8,0:0:0:0:
266,366,69597,6,0,B|223:385|223:385|148:365|154:274|154:274|195:286,1,224,4|0,0:0|0:0,0:0:0:0:
120,69,71009,5,8,0:0:0:0:
120,69,71097,1,8,0:0:0:0:
120,69,71185,2,0,P|195:55|292:34,1,143.999995605469,6|4,0:3|0:3,0:0:0:0:
182,136,71538,2,0,P|190:107|202:64,1,47.9999985351563,10|0,0:0|0:0,0:0:0:0:
113,195,71715,2,0,P|126:218|138:245,1,47.9999985351563,4|0,0:3|0:0,0:0:0:0:
279,285,71891,6,0,P|222:273|184:348,1,143.999995605469,2|0,0:0|0:0,0:0:0:0:
246,384,72244,1,10,0:0:0:0:
181,337,72420,2,0,P|142:271|212:194,1,191.999994140625,2|0,0:0|0:0,0:0:0:0:
430,275,72950,1,10,0:0:0:0:
352,174,73126,1,4,0:3:0:0:
352,174,73215,1,4,0:3:0:0:
352,174,73303,2,0,B|317:103|383:103|349:34,1,143.999995605469,2|0,0:0|0:0,0:0:0:0:
277,2,73656,1,10,0:0:0:0:
194,177,73832,5,6,0:3:0:0:
194,177,73920,1,4,0:3:0:0:
194,177,74009,2,0,P|145:183|116:146,1,95.9999970703126,4|2,0:3|0:0,0:0:0:0:
121,74,74273,1,4,0:3:0:0:
82,6,74362,2,0,P|62:17|53:52,1,47.9999985351563,8|0,0:0|0:0,0:0:0:0:
194,177,74538,2,0,L|306:152,2,95.9999970703126,4|0|0,0:3|0:0|0:0,0:0:0:0:
33,315,75067,6,0,P|56:310|83:367,1,95.9999970703126,8|0,0:0|0:0,0:0:0:0:
329,297,75420,1,4,0:3:0:0:
329,297,75509,1,4,0:3:0:0:
329,297,75597,1,4,0:3:0:0:
95,212,75773,1,8,0:0:0:0:
204,267,75950,2,0,P|219:246|213:216,1,47.9999985351563,4|0,0:3|0:0,0:0:0:0:
129,110,76126,6,0,P|143:133|155:157,1,47.9999985351563,2|0,0:0|0:0,0:0:0:0:
241,56,76303,2,0,P|226:79|215:103,1,47.9999985351563,2|0,0:0|0:0,0:0:0:0:
121,299,76479,1,10,0:0:0:0:
95,212,76656,1,4,0:3:0:0:
218,364,76832,6,0,P|284:349|364:326,1,143.999995605469,6|4,0:3|0:3,0:0:0:0:
252,277,77185,2,0,P|264:301|283:330,1,47.9999985351563,10|0,0:0|0:0,0:0:0:0:
351,209,77362,2,0,P|338:233|320:262,1,47.9999985351563,4|0,0:3|0:0,0:0:0:0:
176,130,77538,6,0,P|236:123|246:204,1,143.999995605469,2|0,0:0|0:0,0:0:0:0:
180,235,77891,1,10,0:0:0:0:
255,191,78067,2,0,P|274:167|283:138,1,47.9999985351563,2|0,0:0|0:0,0:0:0:0:
231,7,78244,6,0,B|266:38|266:38|348:34,1,95.9999970703126,6|0,0:3|0:0,0:0:0:0:
88,96,78597,2,0,L|187:78,1,95.9999970703126,6|0,0:3|0:0,0:0:0:0:
348,204,78950,2,0,L|292:125,1,95.9999970703126,6|0,0:3|0:0,0:0:0:0:
154,281,79303,2,0,L|174:234,1,47.9999985351563,6|0,0:3|0:0,0:0:0:0:
262,50,79479,1,4,0:3:0:0:
262,50,79567,1,4,0:3:0:0:
262,50,79656,6,0,P|211:18|199:96,1,143.999995605469,6|4,0:3|0:3,0:0:0:0:
220,146,80009,1,8,0:0:0:0:
182,78,80185,2,0,P|132:56|88:74,1,95.9999970703126,4|0,0:3|0:0,0:0:0:0:
94,68,80538,1,6,0:3:0:0:
145,243,80714,1,8,0:0:0:0:
52,259,80891,2,0,L|39:224,2,31.9999990234375,2|0|0,0:0|0:0|0:0,0:0:0:0:
45,274,81067,5,4,0:3:0:0:
133,233,81244,1,4,0:3:0:0:
363,346,81420,2,0,P|295:334|209:325,1,143.999995605469,8|0,0:0|0:0,0:0:0:0:
207,340,81773,1,4,0:3:0:0:
304,256,81950,1,4,0:3:0:0:
89,181,82126,5,8,0:0:0:0:
64,113,82214,1,8,0:0:0:0:
88,44,82303,1,10,0:0:0:0:
150,7,82390,1,10,0:0:0:0:
222,19,82479,6,0,B|291:46|346:-1|346:-1|333:19|327:50,1,155.999992858887,4|4,3:2|0:3,0:0:0:0:
408,53,82832,2,0,P|422:75|442:108,1,51.999997619629,2|0,0:0|0:0,0:0:0:0:
285,232,83009,1,8,0:0:0:0:
492,215,83185,2,0,B|447:183|441:224|392:198,1,103.999995239258,2|4,0:0|0:3,0:0:0:0:
512,328,83538,2,0,P|484:318|453:302,1,51.999997619629,10|0,0:0|0:0,0:0:0:0:
409,365,83714,2,0,P|381:375|350:391,1,51.999997619629,6|0,0:3|0:0,0:0:0:0:
181,307,83891,6,0,B|245:302|292:353|292:353|286:336|288:313,1,155.999992858887,4|4,0:3|0:3,0:0:0:0:
324,252,84244,2,0,P|344:227|371:199,1,51.999997619629,2|0,0:0|0:0,0:0:0:0:
268,40,84420,1,8,0:0:0:0:
226,217,84597,2,0,B|198:174|237:164|204:117,1,103.999995239258,2|4,0:0|0:3,0:0:0:0:
118,351,84950,1,10,0:0:0:0:
17,146,85126,1,10,0:0:0:0:
17,146,85214,1,8,0:0:0:0:
17,146,85303,6,0,B|66:145|82:95|82:95|59:102,1,103.999995239258,4|2,3:2|0:0,0:0:0:0:
79,206,85567,2,0,P|126:231|173:189,1,103.999995239258,4|0,0:3|0:0,0:0:0:0:
218,114,85832,2,0,B|192:116|192:116|151:140|160:188,1,103.999995239258,8|0,0:0|0:0,0:0:0:0:
159,181,86185,1,4,0:3:0:0:
407,97,86362,1,8,0:0:0:0:
357,19,86538,1,4,0:3:0:0:
302,212,86714,6,0,B|324:175|373:180|373:180|352:168,1,103.999995239258,4|0,0:3|0:0,0:0:0:0:
246,146,86979,2,0,P|208:181|146:174,1,103.999995239258,4|0,0:3|0:0,0:0:0:0:
113,98,87244,1,8,0:0:0:0:
39,261,87420,2,0,P|34:236|59:226,1,51.999997619629,2|0,0:0|0:0,0:0:0:0:
117,286,87597,2,0,P|138:273|132:249,1,51.999997619629,6|0,0:3|0:0,0:0:0:0:
0,118,87773,5,10,0:0:0:0:
71,132,87862,1,8,0:0:0:0:
126,113,87950,1,8,0:3:0:0:
169,125,88038,1,8,0:3:0:0:
187,112,88126,6,0,B|247:75|307:116|307:116|270:70,1,155.999992858887,4|4,3:2|0:3,0:0:0:0:
232,16,88479,2,0,P|206:14|159:6,1,51.999997619629,2|0,0:0|0:0,0:0:0:0:
71,173,88656,1,8,0:0:0:0:
80,0,88832,2,0,B|74:51|115:37|111:96,1,103.999995239258,2|4,0:0|0:3,0:0:0:0:
323,11,89185,1,8,0:0:0:0:
219,91,89362,1,6,0:3:0:0:
487,52,89538,6,0,B|453:43|453:43|513:81|497:157,1,155.999992858887,4|4,3:2|0:3,0:0:0:0:
451,224,89891,2,0,P|423:230|389:240,1,51.999997619629,2|0,0:0|0:0,0:0:0:0:
295,90,90067,1,8,0:0:0:0:
204,233,90244,2,0,B|248:198|258:234|300:203,1,103.999995239258,2|4,0:0|0:3,0:0:0:0:
103,43,90597,1,10,0:0:0:0:
50,166,90773,2,0,L|65:224,1,51.999997619629,6|4,0:3|0:3,0:0:0:0:
79,222,90950,6,0,B|71:170|112:143|112:143|140:147,1,103.999995239258,4|0,3:2|0:0,0:0:0:0:
189,77,91214,2,0,B|185:93|185:93|199:134|262:139,1,103.999995239258,4|0,0:3|0:0,0:0:0:0:
347,22,91479,2,0,B|366:69|331:112|331:112|307:113,1,103.999995239258,8|0,0:0|0:0,0:0:0:0:
442,44,91832,1,4,0:3:0:0:
462,37,91920,1,4,0:3:0:0:
512,91,92009,1,8,0:0:0:0:
347,228,92185,6,0,B|339:223|323:217|323:217|337:221|351:221,1,51.999997619629,2|0,0:0|0:0,0:0:0:0:
504,223,92362,6,0,B|472:214|434:230|418:270|426:304|426:304|453:337,1,160,12|0,0:0|0:0,0:0:0:0:
360,384,92626,2,0,B|365:363|365:363|278:383|248:304,1,160,12|0,0:0|0:0,0:0:0:0:
223,183,92891,2,0,B|234:195|234:195|215:267|137:252|137:252|133:230,1,160,12|4,0:0|0:3,0:0:0:0:
141,140,93156,1,8,0:0:0:0:
129,119,93244,1,8,0:0:0:0:
143,100,93332,1,8,0:0:0:0:
117,59,93420,5,8,0:0:0:0:
161,1,93509,1,8,0:0:0:0:
240,5,93597,1,8,0:0:0:0:
289,77,93685,1,8,0:0:0:0:
247,163,93773,6,0,B|239:184|239:184|239:235|286:269,1,120,4|0,3:2|0:0,0:0:0:0:
432,200,94126,2,0,B|431:222|431:222|411:269|354:282,1,120,6|4,0:3|0:3,0:0:0:0:
349,124,94479,2,0,B|349:144|349:144|356:125,1,40,10|0,0:0|0:0,0:0:0:0:
375,48,94656,2,0,B|375:28|375:28|368:47,1,40,4|0,0:3|0:0,0:0:0:0:
333,213,94832,1,2,0:0:0:0:
217,11,95009,6,0,B|200:41|183:58|183:58|148:67|117:64,1,120,4|0,3:2|0:0,0:0:0:0:
111,52,95362,1,4,0:3:0:0:
266,109,95538,2,0,B|247:114|247:114|213:149|219:207,1,120,6|4,0:3|0:3,0:0:0:0:
282,253,95891,1,10,0:0:0:0:
134,321,96067,2,0,B|154:320|154:320|138:331,1,40,4|0,0:3|0:0,0:0:0:0:
63,357,96244,2,0,B|43:358|43:358|59:347,1,40,6|0,0:3|0:0,0:0:0:0:
7,193,96420,6,0,B|20:227|63:247|63:247|90:241|111:223,1,120,4|0,3:2|0:0,0:0:0:0:
138,243,96773,1,4,0:3:0:0:
177,121,96950,2,0,B|232:103|275:142|275:142|266:123,1,120,6|4,0:3|0:3,0:0:0:0:
244,0,97303,2,0,B|250:12|250:12|244:41,1,40,8|0,0:2|0:0,0:0:0:0:
200,208,97479,2,0,B|204:234|204:234|218:205,1,51.999997619629,6|0,0:3|0:0,0:0:0:0:
300,362,97656,2,0,B|296:336|296:336|282:365,1,51.999997619629,2|0,0:0|0:0,0:0:0:0:
442,209,97832,6,0,B|428:208|419:204|419:204|378:231|365:279|365:279|332:247|293:243|293:243|320:242|332:232,1,240.000009155274,4|4,3:2|0:3,0:0:0:0:
443,384,98362,2,0,B|427:370|427:370|419:318|462:285|462:285|463:314,1,138.666660319011,6|4,0:3|0:3,0:0:0:0:
462,316,98656,1,4,0:3:0:0:
462,326,98714,1,10,0:0:0:0:
263,209,98891,2,0,B|265:189|265:189|273:208,1,40,6|0,0:3|0:0,0:0:0:0:
284,287,99067,2,0,B|282:307|282:307|274:288,1,40,4|0,0:3|0:0,0:0:0:0:
272,207,99244,2,0,B|280:188|280:188|281:209,1,40,6|0,0:3|0:0,0:0:0:0:
189,378,99420,6,0,B|139:387|97:369|97:369|83:334,1,120,4|0,3:2|0:0,0:0:0:0:
139,281,99773,2,0,B|157:268|157:268|171:215|129:177,1,120,4|4,0:3|0:3,0:0:0:0:
50,216,100126,1,8,0:0:0:0:
131,179,100303,1,4,0:3:0:0:
16,130,100479,2,0,P|7:111|0:93,1,40,2|0,0:0|0:0,0:0:0:0:
47,1,100656,2,0,B|56:11|56:11|50:62|23:145,1,120,4|0,3:2|0:0,0:0:0:0:
16,130,101009,1,4,0:3:0:0:
134,73,101185,6,0,B|145:62|145:62|194:51|194:85|248:65,1,120,4|4,0:3|0:3,0:0:0:0:
308,6,101538,2,0,B|316:0|316:0|312:52,1,40,10|0,0:0|0:0,0:0:0:0:
290,216,101714,2,0,B|294:246|294:246|303:215,1,60.0000022888184,6|0,0:3|0:0,0:0:0:0:
316,138,101891,2,0,B|312:108|312:108|303:139,1,60.0000022888184,4|0,0:3|0:0,0:0:0:0:
220,285,102067,6,0,B|228:331|285:338|285:338|285:345|285:345|304:300|349:294|349:294|321:276|289:295,1,240.000009155274,4|4,3:2|0:3,0:0:0:0:
205,384,102597,2,0,B|115:385|97:300|97:300|140:325,1,180.000006866455,6|4,0:3|0:3,0:0:0:0:
220,285,102950,1,10,0:0:0:0:
28,230,103126,2,0,B|38:215|38:215|87:194|89:239|138:218|138:218|127:208|102:212,1,155.999992858887,6|0,0:3|0:0,0:0:0:0:
17,83,103479,6,0,B|76:78|99:134|99:134|76:78|120:40,1,207.999990478516,12|4,0:0|0:3,0:0:0:0:
296,100,104009,2,0,L|191:78,1,103.999995239258,8|4,0:0|0:3,0:0:0:0:
166,99,104244,1,4,0:3:0:0:
168,105,104303,1,4,0:3:0:0:
170,111,104362,1,10,0:0:0:0:
334,232,104538,6,0,B|338:210|366:203|366:203|366:227,1,51.999997619629,6|0,0:3|0:0,0:0:0:0:
258,263,104714,2,0,B|275:277|267:305|267:305|246:293,1,51.999997619629,4|0,0:3|0:0,0:0:0:0:
269,181,104891,2,0,B|247:188|227:167|227:167|248:155,1,51.999997619629,4|0,0:3|0:0,0:0:0:0:
440,95,105067,6,0,B|425:106|425:106|348:114|368:52|283:64,1,167.999994873047,12|4,0:2|0:3,0:0:0:0:
147,112,105420,2,0,P|179:100|170:69,1,55.9999982910157,10|0,0:0|0:0,0:0:0:0:
129,26,105597,1,4,0:3:0:0:
69,275,105773,5,10,0:0:0:0:
49,254,105862,1,4,0:3:0:0:
68,233,105950,1,4,0:3:0:0:
46,215,106038,1,4,0:3:0:0:
93,228,106126,5,10,0:0:0:0:
81,202,106214,1,4,0:3:0:0:
96,178,106303,1,6,0:3:0:0:
77,156,106391,1,4,0:3:0:0:
100,112,106479,6,0,B|118:101|118:101|164:93|192:131|192:131|200:123|200:123|225:129|253:117,1,167.999994873047,12|0,0:0|0:0,0:0:0:0:
317,13,106832,2,0,P|313:37|339:59,1,55.9999982910157,10|0,0:0|0:0,0:0:0:0:
395,8,107009,1,4,0:3:0:0:
477,224,107185,5,10,0:0:0:0:
452,210,107273,1,4,0:3:0:0:
426,221,107362,1,4,0:3:0:0:
398,221,107450,1,4,0:3:0:0:
416,195,107538,5,10,0:0:0:0:
390,182,107626,1,4,0:3:0:0:
367,198,107714,1,6,0:3:0:0:
341,185,107803,1,4,0:3:0:0:
296,207,107891,6,0,B|272:225|272:225|200:219|191:155|191:155|211:180,1,167.999994873047,12|4,0:0|0:3,0:0:0:0:
141,285,108244,2,0,P|122:295|92:275,1,55.9999982910157,10|0,0:0|0:0,0:0:0:0:
117,369,108420,1,4,0:3:0:0:
28,158,108597,1,10,0:0:0:0:
53,168,108685,1,4,0:3:0:0:
76,153,108773,2,0,B|88:129|88:129|62:148,1,55.9999982910157,6|4,0:3|0:3,0:0:0:0:
203,171,108950,2,0,B|182:190|182:190|148:183,1,55.9999982910157,10|0,0:0|0:0,0:0:0:0:
292,180,109126,2,0,B|313:161|313:161|347:168,1,55.9999982910157,6|0,0:3|0:0,0:0:0:0:
220,84,109303,6,0,B|230:94|250:105|250:105|314:63|290:3|290:3|283:25,1,167.999994873047,12|4,3:2|0:3,0:0:0:0:
292,180,109656,2,0,P|311:164|346:170,1,55.9999982910157,10|0,0:0|0:0,0:0:0:0:
340,249,109832,1,4,0:3:0:0:
456,54,110009,5,10,0:0:0:0:
436,74,110097,1,4,0:3:0:0:
457,91,110185,1,6,0:3:0:0:
445,116,110273,1,4,0:3:0:0:
477,92,110362,5,8,0:0:0:0:
466,117,110450,1,4,0:3:0:0:
482,139,110538,1,6,0:3:0:0:
469,164,110626,1,4,0:3:0:0:
476,207,110714,6,0,B|508:288|428:326|428:326|414:297,1,167.999994873047,12|4,0:0|0:3,0:0:0:0:
340,238,111067,2,0,P|364:234|384:207,1,55.9999982910157,10|0,0:0|0:0,0:0:0:0:
320,158,111244,1,4,0:3:0:0:
244,370,111420,5,10,0:0:0:0:
222,351,111509,1,4,0:3:0:0:
195,358,111597,1,4,0:3:0:0:
167,350,111685,1,4,0:3:0:0:
202,343,111773,5,10,0:0:0:0:
182,322,111862,1,4,0:3:0:0:
154,325,111950,1,6,0:3:0:0:
141,300,112038,1,4,0:3:0:0:
103,304,112126,6,0,B|68:318|68:318|0:277|29:199,1,167.999994873047,12|4,3:2|0:3,0:0:0:0:
110,134,112479,2,0,P|93:130|67:99,1,55.9999982910157,10|0,0:0|0:0,0:0:0:0:
142,46,112656,1,4,0:3:0:0:
248,234,112832,6,0,B|258:271|258:271|262:254,1,55.9999982910157,10|4,0:0|0:3,0:0:0:0:
311,98,113009,2,0,B|321:61|321:61|325:78,1,55.9999982910157,6|4,0:3|0:3,0:0:0:0:
393,212,113185,2,0,B|364:212|364:212|341:193,1,55.9999982910157,8|4,0:0|0:3,0:0:0:0:
492,136,113362,2,0,B|516:150|516:150|458:147,1,55.9999982910157,6|4,0:3|0:3,0:0:0:0:
325,78,113538,6,0,L|318:34,2,37.3333321940105,8|8|8,0:0|0:0|0:0,0:0:0:0:
311,98,113714,1,4,0:3:0:0:
284,89,113803,1,4,0:3:0:0:
247,108,113891,2,0,B|240:118|240:118|185:134,1,55.9999982910157,10|0,0:0|0:0,0:0:0:0:
0,207,114067,2,0,B|7:217|7:217|62:233,1,55.9999982910157,8|0,0:0|0:0,0:0:0:0:
274,254,114244,6,0,P|246:248|230:274,1,55.9999982910157,6|4,0:3|0:3,0:0:0:0:
258,343,114420,2,0,P|286:349|302:323,1,55.9999982910157,6|4,0:3|0:3,0:0:0:0:
389,188,114597,1,8,0:0:0:0:
362,195,114685,1,4,0:3:0:0:
369,222,114773,1,4,0:3:0:0:
396,215,114862,1,4,0:3:0:0:
414,144,114950,5,10,0:0:0:0:
382,78,115038,1,8,0:0:0:0:
315,48,115126,1,8,0:0:0:0:
244,68,115215,1,8,0:0:0:0:
203,128,115303,2,0,B|195:149|210:168|210:168|215:155|209:132,1,55.9999982910157,4|4,0:3|0:3,0:0:0:0:
145,45,115479,2,0,B|153:24|138:5|138:5|133:18|139:41,1,55.9999982910157,6|4,0:3|0:3,0:0:0:0:
23,67,115656,5,8,0:3:0:0:
39,67,115744,1,8,0:3:0:0:
54,73,115832,1,8,0:3:0:0:
65,85,115920,1,8,0:3:0:0:
116,79,116009,5,6,0:3:0:0:
140,116,116097,1,4,0:3:0:0:
135,160,116185,1,4,0:3:0:0:
100,188,116273,1,4,0:3:0:0:
22,206,116362,6,0,B|-1:230|-1:230|44:235,1,64,4|0,3:2|0:0,0:0:0:0:
205,303,116538,1,8,0:0:0:0:
205,303,116626,1,4,0:3:0:0:
205,303,116714,2,0,P|206:274|177:253,1,64,4|0,0:3|0:0,0:0:0:0:
0,343,116891,2,0,B|51:332|51:332|57:335|57:335|128:319,1,128,8|4,0:0|0:3,0:0:0:0:
176,375,117156,1,4,0:3:0:0:
176,375,117244,2,0,L|259:387,1,64,8|0,0:0|0:0,0:0:0:0:
340,267,117420,6,0,B|320:290|320:290|323:253,1,64,6|0,0:3|0:0,0:0:0:0:
362,181,117597,2,0,B|382:158|382:158|379:195,1,64,10|0,0:0|0:0,0:0:0:0:
394,347,117773,1,4,0:3:0:0:
394,347,117862,1,4,0:3:0:0:
394,347,117950,2,0,L|466:357,1,64,8|0,0:0|0:0,0:0:0:0:
512,175,118126,6,0,B|497:204|497:204|497:211|497:211|465:271|465:271|467:235,1,128,4|8,0:3|0:0,0:0:0:0:
362,181,118391,1,4,0:3:0:0:
362,181,118479,2,0,L|425:189,1,64,4|0,0:3|0:0,0:0:0:0:
460,43,118656,1,8,0:0:0:0:
460,43,118744,1,4,0:3:0:0:
460,43,118832,2,0,B|443:70|443:70|457:108,1,64,6|0,0:3|0:0,0:0:0:0:
508,250,119009,6,0,B|492:254|492:254|467:281|467:281|459:278|459:278|399:295|399:295|393:303|393:303|318:289,1,192,10|4,0:0|0:3,0:0:0:0:
267,177,119362,2,0,L|276:254,1,64,8|0,0:0|0:0,0:0:0:0:
168,371,119538,6,0,B|140:358|140:358|121:291|175:252,1,143.999995605469,6|8,0:3|0:0,0:0:0:0:
189,261,119803,1,4,0:3:0:0:
59,298,119891,2,0,B|11:242|76:224|19:165,1,143.999995605469,6|8,0:3|0:0,0:0:0:0:
0,171,120156,1,4,0:3:0:0:
133,178,120244,6,0,B|151:180|168:173|168:173|182:157|186:140,1,71.9999978027344,6|0,0:3|0:0,0:0:0:0:
64,57,120420,1,10,0:0:0:0:
64,57,120509,1,4,0:3:0:0:
64,57,120597,2,0,B|101:68|109:100|109:100|105:67|148:41|148:41|148:33|148:33|181:54|220:31,1,215.999993408203,4|0,0:3|0:0,0:0:0:0:
327,24,120950,5,6,0:3:0:0:
327,24,121038,1,4,0:3:0:0:
327,24,121126,2,0,P|339:51|307:77,1,71.9999978027344,8|0,0:0|0:0,0:0:0:0:
427,140,121303,1,6,0:3:0:0:
427,140,121391,1,4,0:3:0:0:
427,140,121479,2,0,P|415:167|447:193,1,71.9999978027344,8|0,0:0|0:0,0:0:0:0:
265,175,121656,2,0,P|303:172|322:208,1,71.9999978027344,6|4,0:3|0:3,0:0:0:0:
287,367,121832,6,0,B|277:349|276:333|276:333|284:316|303:306,1,71.9999978027344,12|0,0:0|0:0,0:0:0:0:
435,370,122009,1,4,0:3:0:0:
435,370,122097,1,4,0:3:0:0:
435,370,122185,2,0,P|396:364|353:351,1,71.9999978027344,8|0,0:0|0:0,0:0:0:0:
512,229,122362,6,0,B|445:251|445:251|442:257|442:257|357:283,1,143.999995605469,4|8,0:3|0:0,0:0:0:0:
352,160,122626,1,4,0:3:0:0:
352,160,122714,2,0,L|426:172,1,71.9999978027344,4|0,0:3|0:0,0:0:0:0:
260,195,122891,1,8,0:0:0:0:
260,195,122979,1,4,0:3:0:0:
260,195,123067,2,0,B|234:165|234:165|242:127,1,71.9999978027344,6|0,0:3|0:0,0:0:0:0:
347,45,123244,2,0,B|381:58|381:58|339:60,1,71.9999978027344,10|0,0:0|0:0,0:0:0:0:
195,10,123420,5,4,0:3:0:0:
195,10,123509,1,4,0:3:0:0:
195,10,123597,2,0,P|231:9|247:47,1,71.9999978027344,8|0,0:0|0:0,0:0:0:0:
144,138,123773,2,0,B|135:148|135:148|136:125|130:103|130:103|93:90|82:51|82:51|105:65,1,143.999995605469,4|8,0:3|0:0,0:0:0:0:
53,163,124038,1,4,0:3:0:0:
53,163,124126,2,0,P|21:177|0:141,1,71.9999978027344,4|0,0:3|0:0,0:0:0:0:
146,258,124303,2,0,P|123:231|88:254,1,71.9999978027344,8|0,0:0|0:0,0:0:0:0:
256,215,124479,2,0,B|237:246|237:246|237:193,1,71.9999978027344,6|0,0:3|0:0,0:0:0:0:
282,64,124656,5,10,0:0:0:0:
282,64,124744,1,4,0:3:0:0:
282,64,124832,2,0,B|308:68|321:75|321:75|330:67|330:67|386:89|420:66|420:66|426:59|426:59|460:49|486:64,1,215.999993408203,4|0,0:3|0:0,0:0:0:0:
474,115,125185,2,0,P|460:98|490:62,1,71.9999978027344,4|0,0:3|0:3,0:0:0:0:
512,226,125362,1,10,0:0:0:0:
512,226,125450,1,4,0:3:0:0:
512,226,125538,2,0,B|478:217|478:217|419:230|409:294|409:294|397:286|397:286|373:304|343:294,1,215.999993408203,4|0,0:3|0:0,0:0:0:0:
273,259,125891,5,4,0:3:0:0:
273,259,125979,1,4,0:3:0:0:
273,259,126067,2,0,B|269:229|269:229|271:225|271:225|265:186,1,71.9999978027344,10|0,0:0|0:0,0:0:0:0:
353,39,126244,2,0,B|311:77|327:146|327:146|312:113,1,143.999995605469,6|8,0:3|0:0,0:0:0:0:
432,113,126509,1,4,0:3:0:0:
432,113,126597,2,0,B|453:165|408:220|408:220|436:197,1,143.999995605469,6|8,0:3|0:0,0:0:0:0:
206,57,126950,6,0,B|217:68|237:74|237:74|218:75|199:89,1,71.9999978027344,6|0,0:3|0:0,0:0:0:0:
12,123,127126,1,10,0:0:0:0:
7,106,127214,1,8,0:0:0:0:
56,52,127303,1,8,0:0:0:0:
128,54,127391,1,8,0:0:0:0:
172,111,127479,1,8,0:0:0:0:
158,182,127567,1,8,0:0:0:0:
94,216,127656,6,0,P|71:238|91:266,1,64,4|0,3:2|0:0,0:0:0:0:
133,360,127832,1,8,0:0:0:0:
133,360,127920,1,4,0:3:0:0:
133,360,128009,2,0,B|144:349|144:349|164:356|197:361,1,64,4|0,0:3|0:0,0:0:0:0:
320,342,128185,6,0,B|304:368|304:368|318:308|300:271,1,128,8|4,0:0|0:3,0:0:0:0:
329,196,128450,1,4,0:3:0:0:
329,196,128538,2,0,B|340:204|340:204|326:179|323:148,1,64,8|0,0:0|0:0,0:0:0:0:
481,130,128714,2,0,B|453:143|453:143|471:102,1,64,6|0,0:3|0:0,0:0:0:0:
505,0,128891,6,0,B|490:6|471:9|471:9|468:15|468:15|433:0|379:-4,1,128,10|4,0:0|0:3,0:0:0:0:
293,21,129156,1,4,0:3:0:0:
293,21,129244,2,0,P|316:29|324:64,1,64,8|0,0:0|0:0,0:0:0:0:
162,155,129420,2,0,B|146:160|146:160|215:169|242:114,1,128,4|8,0:3|0:0,0:0:0:0:
217,46,129685,1,4,0:3:0:0:
217,46,129773,2,0,P|202:63|228:100,1,64,4|0,0:3|0:0,0:0:0:0:
395,146,129950,2,0,P|362:141|342:166,1,64,8|0,0:0|0:0,0:0:0:0:
260,242,130126,2,0,B|281:266|281:266|241:257,1,64,6|0,0:3|0:0,0:0:0:0:
105,191,130303,6,0,B|176:237|144:324|144:324|137:304|120:285,1,192,10|4,0:0|0:3,0:0:0:0:
21,214,130656,2,0,B|14:200|14:200|22:181|24:148,1,64,8|0,0:0|0:0,0:0:0:0:
14,22,130832,6,0,B|10:5|10:5|48:53|110:42,1,128,6|8,0:3|0:0,0:0:0:0:
119,28,131097,1,4,0:3:0:0:
199,151,131185,2,0,B|179:142|179:142|155:92|205:44,1,128,6|8,0:3|0:0,0:0:0:0:
220,42,131450,1,4,0:3:0:0:
289,189,131538,2,0,B|267:227|267:227|270:197,1,64,6|0,0:3|0:0,0:0:0:0:
301,26,131714,6,0,B|316:18|316:18|350:19|374:57|374:57|376:52|376:52|448:66|495:21|495:21|492:51,1,240,10|4,0:0|0:3,0:0:0:0:
426,182,132067,2,0,B|407:165|415:129|415:129|470:155|454:222|454:222|458:225|458:225|431:252|437:288,1,240,8|4,0:0|0:3,0:0:0:0:
252,325,132420,2,0,B|288:329|299:366|299:366|282:286|356:233|356:233|312:239,1,240,8|4,0:0|0:3,0:0:0:0:
170,225,132773,2,0,P|200:233|227:193,1,80,8|0,0:0|0:0,0:0:0:0:
103,74,132950,6,0,B|86:87|66:93|66:93|85:96|108:115,1,80,6|0,0:3|0:0,0:0:0:0:
259,74,133126,1,12,0:0:0:0:
259,74,133214,1,4,0:3:0:0:
259,74,133303,2,0,B|229:80|229:80|228:83|228:83|180:94,1,80,4|0,0:3|0:0,0:0:0:0:
333,188,133479,2,0,P|341:158|289:141,1,80,8|0,0:0|0:0,0:0:0:0:
124,285,133656,6,0,B|110:289|89:282|89:282|111:296|117:315,1,80,4|0,0:3|0:0,0:0:0:0:
234,323,133832,2,0,B|241:335|261:344|261:344|236:339|218:350,1,80,8|0,0:0|0:0,0:0:0:0:
60,271,134009,2,0,B|73:269|73:269|105:280|117:316,1,80,4|0,0:3|0:0,0:0:0:0:
289,346,134185,2,0,B|280:337|280:337|247:327|217:349,1,80,8|0,0:0|0:0,0:0:0:0:
208,188,134362,6,0,B|210:203|205:227|205:227|214:207|236:195,1,80,6|0,0:3|0:0,0:0:0:0:
269,37,134538,1,10,0:0:0:0:
269,37,134626,1,4,0:3:0:0:
269,37,134714,2,0,B|258:70|258:70|260:74|260:74|243:123,1,80,4|0,0:3|0:0,0:0:0:0:
379,247,134891,2,0,P|342:245|335:197,1,80,8|0,0:0|0:0,0:0:0:0:
425,91,135067,6,0,B|431:104|431:104|415:124|403:163,1,80,4|0,0:3|0:0,0:0:0:0:
496,276,135244,2,0,B|502:262|502:262|486:242|474:203,1,80,8|0,0:0|0:0,0:0:0:0:
406,76,135420,2,0,B|398:91|398:91|414:118|425:154,1,80,4|0,0:3|0:0,0:0:0:0:
477,290,135597,2,0,B|469:275|469:275|485:248|496:212,1,80,8|0,0:0|0:0,0:0:0:0:
504,17,135773,6,0,B|517:35|532:44|532:44|517:39|490:39,1,80,6|0,0:3|0:0,0:0:0:0:
338,8,135950,1,10,0:0:0:0:
338,8,136038,1,4,0:3:0:0:
338,8,136126,2,0,B|373:4|373:4|379:7|379:7|432:0,1,80,4|0,0:3|0:0,0:0:0:0:
324,140,136303,2,0,P|326:99|370:86,1,80,8|0,0:0|0:0,0:0:0:0:
502,236,136479,6,0,B|493:228|493:228|477:263|522:295,1,80,4|0,0:3|0:0,0:0:0:0:
361,359,136656,2,0,B|400:340|422:372|422:372|411:376,1,80,8|0,0:0|0:0,0:0:0:0:
345,235,136832,2,0,B|359:246|381:248|381:248|387:226|371:207,1,80,4|0,0:3|0:0,0:0:0:0:
250,114,137009,1,8,0:0:0:0:
250,114,137097,1,4,0:3:0:0:
250,114,137185,2,0,P|229:147|251:185,1,80,4|0,0:3|0:0,0:0:0:0:
390,78,137362,2,0,B|411:46|411:46|371:29,1,80,10|0,0:0|0:0,0:0:0:0:
145,21,137538,5,4,0:3:0:0:
145,21,137626,1,4,0:3:0:0:
145,21,137714,2,0,P|186:20|199:64,1,80,8|0,0:0|0:0,0:0:0:0:
185,252,137891,2,0,B|250:202|182:172|252:110,1,160,4|8,0:3|0:0,0:0:0:0:
363,69,138156,1,8,0:3:0:0:
372,78,138244,5,8,0:3:0:0:
352,125,138332,1,8,0:3:0:0:
388,160,138420,1,8,0:3:0:0:
362,197,138509,1,8,0:3:0:0:
384,250,138597,5,4,0:3:0:0:
373,273,138685,1,4,0:3:0:0:
384,288,138773,1,4,0:3:0:0:
378,299,138862,1,4,0:3:0:0:
380,351,138950,5,4,3:2:0:0:
460,347,155891,6,0,P|469:309|452:286,1,64,4|0,0:3|0:0,0:0:0:0:
429,284,156156,1,4,0:3:0:0:
429,284,156244,1,2,0:2:0:0:
496,135,156420,6,0,P|477:172|382:150,1,128,8|4,0:0|0:3,0:0:0:0:
381,151,156862,1,4,0:3:0:0:
377,119,156950,1,8,0:0:0:0:
285,198,157126,1,0,0:0:0:0:
120,117,157303,6,0,P|161:105|185:121,1,64,4|0,0:3|0:0,0:0:0:0:
198,144,157567,1,4,0:3:0:0:
198,144,157656,1,2,0:2:0:0:
82,284,157832,2,0,P|69:241|122:210,1,96,8|0,0:0|0:0,0:0:0:0:
135,209,158185,2,0,L|178:221,1,32,4|0,0:3|0:0,0:0:0:0:
252,315,158362,1,8,0:0:0:0:
239,304,158450,2,0,L|258:231,1,64,4|0,0:3|0:0,0:0:0:0:
263,147,158714,6,0,P|291:171|320:167,1,64,4|0,0:3|0:0,0:0:0:0:
325,151,158979,2,0,P|297:127|268:131,1,64,4|0,0:3|0:0,0:0:0:0:
189,182,159244,2,0,P|142:191|97:132,1,128,8|4,0:0|0:3,0:0:0:0:
103,101,159685,1,4,0:3:0:0:
126,79,159773,1,8,0:0:0:0:
245,40,159950,1,4,0:3:0:0:
326,127,160126,5,4,0:3:0:0:
359,109,160244,2,0,B|360:73|360:73|327:100,1,73.3333355712891,2|4,0:0|0:3,0:0:0:0:
246,121,160479,2,0,L|262:182,1,44.0000013427735,6|0,0:3|0:0,0:0:0:0:
287,265,160656,1,10,0:0:0:0:
287,265,160744,1,0,0:0:0:0:
287,265,160832,6,0,B|276:281|276:281|268:248,1,47.9999985351563,2|0,0:0|0:0,0:0:0:0:
388,237,161009,2,0,B|405:245|405:245|396:212,1,47.9999985351563,6|0,0:3|0:0,0:0:0:0:
177,209,161185,6,0,B|189:201|189:201|203:173|203:173|214:166,1,55.9999982910157,10|0,0:0|0:0,0:0:0:0:
451,129,161362,2,0,B|436:127|436:127|410:110|410:110|400:109,1,55.9999982910157,2|0,0:0|0:0,0:0:0:0:
281,54,161538,5,4,3:2:0:0:
281,54,161626,1,4,0:3:0:0:
281,54,161714,2,0,P|298:75|288:106,1,55.9999982910157,4|0,0:3|0:0,0:0:0:0:
344,157,161891,2,0,P|334:182|302:189,1,55.9999982910157,4|0,0:3|0:0,0:0:0:0:
207,220,162067,1,4,0:3:0:0:
207,220,162156,1,4,0:3:0:0:
286,263,162244,2,0,P|259:267|237:243,1,55.9999982910157,8|0,0:0|0:0,0:0:0:0:
165,265,162420,2,0,P|148:244|158:213,1,55.9999982910157,4|0,0:3|0:0,0:0:0:0:
102,161,162597,1,4,0:3:0:0:
102,161,162685,1,4,0:3:0:0:
102,161,162773,2,0,P|111:135|143:128,1,55.9999982910157,4|0,0:3|0:0,0:0:0:0:
249,32,162950,5,4,0:3:0:0:
249,32,163038,1,4,0:3:0:0:
249,32,163126,2,0,B|260:57|260:57|236:77,1,55.9999982910157,4|0,0:3|0:0,0:0:0:0:
127,97,163303,2,0,B|116:122|116:122|140:142,1,55.9999982910157,4|0,0:3|0:0,0:0:0:0:
205,215,163479,1,4,0:3:0:0:
205,215,163567,1,4,0:3:0:0:
249,162,163656,2,0,B|260:187|260:187|236:207,1,55.9999982910157,8|0,0:0|0:0,0:0:0:0:
69,288,163832,6,0,B|83:281|83:281|101:291|124:295,1,55.9999982910157,6|0,0:3|0:0,0:0:0:0:
209,362,164009,2,0,B|201:373|201:373|200:349|192:328,1,55.9999982910157,6|0,0:3|0:0,0:0:0:0:
132,175,164185,2,0,B|124:164|124:164|123:188|115:209,1,55.9999982910157,6|0,0:3|0:0,0:0:0:0:
48,384,164362,5,4,3:2:0:0:
48,384,164450,1,4,0:3:0:0:
48,384,164538,2,0,P|35:360|60:341,1,55.9999982910157,4|0,0:3|0:0,0:0:0:0:
6,278,164714,2,0,P|20:254|49:266,1,55.9999982910157,4|0,0:3|0:0,0:0:0:0:
131,248,164891,1,4,0:3:0:0:
131,248,164979,1,4,0:3:0:0:
76,188,165067,2,0,P|103:188|107:219,1,55.9999982910157,8|0,0:0|0:0,0:0:0:0:
235,232,165244,6,0,B|244:240|249:251|249:251|234:240|215:239,1,55.9999982910157,6|0,0:3|0:0,0:0:0:0:
197,132,165420,2,0,B|188:140|183:151|183:151|198:140|217:139,1,55.9999982910157,6|0,0:3|0:0,0:0:0:0:
235,32,165597,2,0,B|244:40|249:51|249:51|234:40|215:39,1,55.9999982910157,6|2,0:3|0:0,0:0:0:0:
317,165,165773,5,4,0:3:0:0:
317,165,165862,1,4,0:3:0:0:
317,165,165950,2,0,P|348:154|365:130,1,55.9999982910157,4|0,0:3|0:0,0:0:0:0:
368,42,166126,2,0,B|358:7|358:7|375:25,1,55.9999982910157,4|0,0:3|0:0,0:0:0:0:
457,247,166303,6,0,B|427:248|407:226|407:226|413:234|413:234|350:244|340:303|340:303|333:293|333:293|306:322|268:321|268:321|232:302,1,279.999991455078,6|0,0:3|0:0,0:0:0:0:
180,289,166832,2,0,P|206:279|234:293,1,55.9999982910157,6|0,0:3|0:0,0:0:0:0:
111,366,167009,2,0,P|94:365|113:352,1,55.9999982910157,6|0,0:3|0:0,0:0:0:0:
13,233,167185,5,4,3:2:0:0:
13,233,167273,1,4,0:3:0:0:
13,233,167362,2,0,P|49:222|69:240,1,55.9999982910157,4|0,0:3|0:0,0:0:0:0:
81,135,167538,2,0,P|108:160|102:186,1,55.9999982910157,4|0,0:3|0:0,0:0:0:0:
176,219,167714,1,4,0:3:0:0:
176,219,167803,1,4,0:3:0:0:
199,144,167891,2,0,P|190:180|164:188,1,55.9999982910157,8|0,0:2|0:0,0:0:0:0:
198,307,168067,6,4,B|183:309|173:320|173:320|162:308|142:300,1,55.9999982910157,6|0,0:3|0:0,0:0:0:0:
301,282,168244,2,0,B|316:279|330:269|330:269|332:276|332:276|374:261|405:285,1,111.999996582031,4|4,0:3|0:3,0:0:0:0:
199,144,168597,5,6,0:3:0:0:
199,144,168685,1,6,0:3:0:0:
199,144,168773,2,0,B|207:144|220:146|220:146|200:152|183:172,1,55.9999982910157,6|0,0:3|0:0,0:0:0:0:
106,229,168950,2,0,B|98:229|85:231|85:231|105:237|122:257,1,55.9999982910157,6|0,0:3|0:0,0:0:0:0:
69,66,169126,1,6,0:3:0:0:
69,66,169214,1,4,0:3:0:0:
87,136,169303,2,0,B|108:155|108:155|107:125,1,55.9999982910157,10|0,0:0|0:0,0:0:0:0:
129,22,169479,2,0,B|150:3|150:3|149:33,1,55.9999982910157,6|0,0:3|0:0,0:0:0:0:
209,188,169656,1,6,0:3:0:0:
209,188,169744,1,6,0:3:0:0:
209,188,169832,2,0,P|242:193|249:162,1,55.9999982910157,6|0,0:3|0:0,0:0:0:0:
303,1,170009,5,4,3:2:0:0:
303,1,170097,1,4,0:3:0:0:
303,1,170185,1,4,0:3:0:0:
416,112,170362,2,0,P|403:138|389:178,1,55.9999982910157,6|0,0:3|0:0,0:0:0:0:
367,256,170538,1,6,0:3:0:0:
377,278,170626,1,6,0:3:0:0:
438,305,170714,6,0,B|451:291|451:291|445:273|440:246,1,55.9999982910157,10|0,0:0|0:0,0:0:0:0:
308,134,170891,1,6,0:3:0:0:
304,151,170979,2,0,P|364:184|402:139,1,111.999996582031,2|0,0:0|0:0,0:0:0:0:
418,79,171244,2,0,B|414:63|414:63|403:54|403:54|394:24,1,55.9999982910157,4|0,0:3|0:0,0:0:0:0:
198,42,171420,6,0,B|188:83|188:83|192:89|192:89|171:189,1,128,10|4,0:0|0:3,0:0:0:0:
65,278,171685,1,4,0:3:0:0:
82,281,171773,2,0,B|69:225|69:225|78:209|78:209|64:136,1,128,8|4,0:0|0:3,0:0:0:0:
5,27,172038,1,4,0:3:0:0:
18,34,172126,5,10,0:0:0:0:
70,11,172214,1,8,0:0:0:0:
116,45,172303,2,0,B|124:90|124:90|129:59,1,64,10|0,0:0|0:0,0:0:0:0:
320,152,172479,2,0,B|334:138|334:138|275:157,1,64,10|0,0:0|0:0,0:0:0:0:
60,280,172656,1,10,0:0:0:0:
140,299,172744,1,10,0:0:0:0:
184,230,172832,6,0,B|177:206|177:206|173:200|173:200|218:166|212:121|212:121|218:114|218:114|202:82|209:59,1,192,4|0,3:2|0:0,0:0:0:0:
291,151,173185,2,0,B|283:170|283:170|232:183,1,64,8|0,0:0|0:0,0:0:0:0:
80,110,173362,1,4,0:3:0:0:
80,110,173450,1,4,0:3:0:0:
80,110,173538,2,0,P|121:110|139:146,1,64,4|0,0:3|0:0,0:0:0:0:
111,205,173714,2,0,P|70:205|52:169,1,64,4|0,0:3|0:0,0:0:0:0:
12,2,173891,1,8,0:0:0:0:
12,2,173979,1,4,0:3:0:0:
12,2,174067,2,0,P|42:11|82:22,1,64,4|0,0:3|0:0,0:0:0:0:
233,22,174244,5,4,0:3:0:0:
233,22,174332,1,4,0:3:0:0:
233,22,174420,2,0,P|202:21|213:45,1,64,6|0,0:3|0:0,0:0:0:0:
397,113,174597,2,0,B|433:94|433:94|401:98,1,64,8|0,0:0|0:0,0:0:0:0:
206,138,174773,6,0,B|242:156|241:207|241:207|230:224|230:224|220:275|261:301|261:301|281:278|309:272|309:272|308:245|308:245|370:267|411:214,1,384,6|8,0:3|0:0,0:0:0:0:
396,143,175391,1,4,0:3:0:0:
396,143,175479,2,0,P|377:168|384:206,1,64,4|0,0:3|0:0,0:0:0:0:
491,347,175656,6,0,B|515:337|515:337|486:337|464:324|464:324|448:339|448:339|409:303|360:321,1,192,4|0,3:2|0:0,0:0:0:0:
256,363,176009,2,0,B|271:334|271:334|249:301,1,64,10|0,0:0|0:0,0:0:0:0:
110,259,176185,1,4,0:3:0:0:
110,259,176273,1,6,0:3:0:0:
110,259,176362,2,0,P|148:258|172:238,1,64,6|0,0:3|0:0,0:0:0:0:
249,112,176538,6,0,B|242:166|242:166|256:158|256:158|244:242,1,128,6|8,0:3|0:2,0:0:0:0:
266,326,176803,2,0,B|273:272|273:272|259:280|259:280|271:196,1,128,6|0,0:3|0:0,0:0:0:0:
348,175,177067,2,0,B|395:167|395:167|410:174|410:174|474:162,1,128,6|4,0:3|0:3,0:0:0:0:
425,66,177332,5,6,0:3:0:0:
425,66,177420,2,0,B|392:64|392:64|368:94,1,64,10|0,0:0|0:0,0:0:0:0:
242,133,177597,2,0,B|275:135|275:135|298:104,1,64,6|4,0:3|0:3,0:0:0:0:
150,107,177773,2,0,L|168:182,1,64,6|0,0:3|0:0,0:0:0:0:
203,312,177950,2,0,B|193:270|193:270|210:291,1,64,6|0,0:3|0:0,0:0:0:0:
52,88,178126,5,10,0:0:0:0:
0,135,178214,1,8,0:0:0:0:
2,205,178303,1,10,0:0:0:0:
57,248,178390,1,10,0:0:0:0:
125,233,178479,2,0,B|137:225|156:222|156:222|168:231|188:238,1,64,4|0,3:2|0:0,0:0:0:0:
284,325,178656,2,0,B|279:300|279:300|281:291|281:291|274:261,1,64,6|0,0:3|0:0,0:0:0:0:
231,77,178832,5,10,0:0:0:0:
266,122,178920,1,2,0:0:0:0:
317,126,179009,1,6,0:3:0:0:
357,107,179097,1,4,0:3:0:0:
373,72,179185,1,6,0:3:0:0:
400,55,179273,1,2,0:0:0:0:
425,56,179362,1,6,0:3:0:0:
440,67,179450,1,0,0:0:0:0:
471,101,179538,2,0,P|469:131|442:155,1,64,10|0,0:0|0:0,0:0:0:0:
340,209,179714,2,0,P|372:208|398:232,1,64,6|0,0:3|0:0,0:0:0:0:
443,344,179891,5,6,0:3:0:0:
443,344,179979,1,6,0:3:0:0:
443,344,180067,2,0,B|446:310|465:316|464:285,1,64,6|0,0:3|0:0,0:0:0:0:
397,120,180244,2,0,P|414:145|449:153,1,64,10|0,0:0|0:0,0:0:0:0:
340,209,180420,1,4,0:3:0:0:
340,209,180509,1,4,0:3:0:0:
340,209,180597,2,0,P|309:216|291:242,1,64,4|0,0:3|0:0,0:0:0:0:
217,212,180773,2,0,P|199:237|168:245,1,64,4|0,0:3|0:0,0:0:0:0:
77,204,180950,1,8,0:0:0:0:
77,204,181038,1,4,0:3:0:0:
77,204,181126,1,6,0:3:0:0:
339,46,181303,6,0,B|302:50|302:50|286:40|286:40|241:46|241:46|235:51|235:51|189:60,1,143.999995605469,12|4,0:0|0:3,0:0:0:0:
35,45,181567,1,4,0:3:0:0:
48,34,181656,2,0,B|76:62|76:62|68:104|68:104|78:111|78:111|93:176,1,143.999995605469,12|4,0:0|0:3,0:0:0:0:
114,312,181920,1,4,0:3:0:0:
100,301,182009,2,0,B|122:302|122:302|151:270|151:270|159:274|159:274|226:257,1,143.999995605469,12|4,0:0|0:3,0:0:0:0:
330,232,182273,1,4,0:3:0:0:
297,171,182362,2,0,L|316:247,1,71.9999978027344,12|0,3:2|0:0,0:0:0:0:
335,367,182538,2,0,P|352:383|340:359,1,71.9999978027344,6|0,0:3|0:0,0:0:0:0:
100,301,182714,5,12,0:0:0:0:
114,313,182803,2,0,P|141:290|118:248,1,71.9999978027344,4|0,0:3|0:0,0:0:0:0:
17,104,182979,1,8,0:0:0:0:
30,122,183067,2,0,P|62:130|97:105,1,71.9999978027344,4|0,0:3|0:0,0:0:0:0:
267,15,183244,1,8,0:0:0:0:
246,27,183332,2,0,L|238:111,1,71.9999978027344,4|2,0:3|0:0,0:0:0:0:
369,220,183509,1,8,0:2:0:0:
351,208,183597,2,0,P|315:215|298:250,1,71.9999978027344,4|0,0:3|0:0,0:0:0:0:
459,373,183773,5,8,0:0:0:0:
501,305,183862,1,8,0:0:0:0:
489,225,183950,1,8,0:0:0:0:
429,171,184038,1,8,0:0:0:0:
348,169,184126,6,0,B|308:172|288:203|288:203|279:197|279:197|197:222|163:141,1,215.999993408203,4|4,3:2|0:3,0:0:0:0:
191,26,184479,2,0,B|216:52|216:52|189:77,1,71.9999978027344,8|0,0:0|0:0,0:0:0:0:
49,56,184656,6,0,B|75:42|78:59|95:48,2,47.9999985351563,6|0|0,0:3|0:0|0:0,0:0:0:0:
31,46,184832,1,2,0:0:0:0:
18,71,184920,1,2,0:0:0:0:
35,94,185009,1,6,0:3:0:0:
20,126,185097,1,0,0:0:0:0:
47,159,185185,5,10,0:0:0:0:
30,206,185273,1,0,0:0:0:0:
60,255,185362,1,2,0:0:0:0:
123,265,185450,1,0,0:0:0:0:
169,210,185538,1,6,0:3:0:0:
247,211,185626,1,2,0:0:0:0:
299,279,185714,6,0,B|302:330|239:350|239:350|185:283|258:216|258:216|247:209|247:209|277:162|247:120,1,359.999989013672,2|0,0:0|0:0,0:0:0:0:
150,52,186244,2,0,B|166:60|175:78|175:78|173:59|180:41,1,71.9999978027344,2|0,0:0|0:0,0:0:0:0:
353,32,186420,2,0,B|317:24|317:24|287:56,1,71.9999978027344,6|0,0:3|0:0,0:0:0:0:
365,232,186597,2,0,B|338:177|392:175|349:109|349:109|390:152|443:115,1,215.999993408203,8|0,0:0|0:0,0:0:0:0:
480,27,186950,5,4,3:2:0:0:
493,249,187126,2,0,P|531:189|434:208,1,215.999993408203,2|0,0:0|0:0,0:0:0:0:
415,304,187479,2,0,B|397:303|381:310|381:310|388:296|386:272,1,71.9999978027344,6|0,0:3|0:0,0:0:0:0:
356,129,187656,6,0,B|279:120|301:186|222:172,1,143.999995605469,2|4,0:0|0:3,0:0:0:0:
126,216,187920,2,0,P|139:182|235:210,1,143.999995605469,2|0,0:0|0:0,0:0:0:0:
224,278,188185,2,0,P|213:301|209:273,1,71.9999978027344,2|0,0:0|0:0,0:0:0:0:
460,220,188362,6,0,B|458:257|495:278|495:278|452:268|426:303,1,143.999995605469,6|0,0:3|0:0,0:0:0:0:
333,265,188626,2,0,B|334:227|297:206|297:206|340:216|362:186,1,143.999995605469,6|0,0:3|0:0,0:0:0:0:
455,115,188891,2,0,P|433:132|443:105,1,71.9999978027344,6|0,0:3|0:0,0:0:0:0:
320,22,189067,2,0,B|289:7|260:26|260:26|250:17|250:17|216:47|158:31|158:31|177:41|186:62,1,215.999993408203,2|2,0:0|0:0,0:0:0:0:
184,197,189420,5,8,0:0:0:0:
124,237,189509,1,8,0:3:0:0:
59,205,189597,1,4,0:3:0:0:
54,133,189685,1,4,0:3:0:0:
114,92,189773,6,0,B|169:102|169:102|182:97|182:97|237:111|237:111|253:135|253:135|323:121,1,215.999993408203,4|4,3:2|0:3,0:0:0:0:
381,207,190126,2,0,B|352:247|352:247|353:218,1,71.9999978027344,10|0,0:0|0:0,0:0:0:0:
444,70,190303,2,0,B|456:113|456:113|447:143|447:143|465:193|465:193|477:200|477:200|452:259|452:259|462:268|462:268|481:345,1,287.999991210938,6|4,0:3|0:3,0:0:0:0:
361,86,190832,2,0,B|364:123|364:123|331:89,1,71.9999978027344,8|0,0:0|0:0,0:0:0:0:
232,224,191009,6,0,B|236:189|192:170|192:170|238:170|283:206|283:268|255:309|255:309|259:315|259:315|205:302|172:348,1,359.999989013672,2|4,0:0|0:3,0:0:0:0:
66,375,191538,1,10,0:0:0:0:
91,352,191626,1,2,0:0:0:0:
94,332,191714,2,0,B|91:288|41:275|41:275|48:268|48:268|36:193|105:174,1,215.999993408203,6|0,0:3|0:0,0:0:0:0:
182,208,192067,2,0,P|183:238|162:219,1,71.9999978027344,4|0,0:3|0:0,0:0:0:0:
68,10,192244,2,0,B|109:16|124:52|124:52|146:18|185:16,1,143.999995605469,8|2,0:0|0:0,0:0:0:0:
197,28,192509,1,2,0:0:0:0:
289,67,192597,6,0,B|287:32|287:32|320:71|320:71|284:139,1,143.999995605469,4|0,3:2|0:0,0:0:0:0:
361,221,192862,2,0,B|328:209|328:209|384:102,1,143.999995605469,6|0,0:3|0:0,0:0:0:0:
464,178,193126,2,0,B|423:184|423:184|458:161,1,71.9999978027344,6|0,0:3|0:0,0:0:0:0:
502,313,193303,6,0,B|485:325|485:325|448:318|448:318|438:312|438:312|355:331,1,143.999995605469,2|4,0:0|0:3,0:0:0:0:
259,363,193567,2,0,B|295:389|295:389|266:274,1,143.999995605469,2|0,0:0|0:0,0:0:0:0:
361,221,193832,2,0,B|341:249|341:249|330:201,1,71.9999978027344,2|0,0:0|0:0,0:0:0:0:
319,21,194009,6,0,P|316:92|246:101,1,143.999995605469,6|0,0:3|0:0,0:0:0:0:
249,91,194273,1,6,0:3:0:0:
180,34,194362,2,0,B|184:54|184:54|171:74|167:102,1,71.9999978027344,10|0,0:0|0:0,0:0:0:0:
233,224,194538,2,0,B|221:211|216:191|216:191|210:214|220:229,1,71.9999978027344,6|0,0:3|0:0,0:0:0:0:
81,330,194714,5,8,0:0:0:0:
27,280,194803,1,8,0:0:0:0:
30,205,194891,1,8,0:0:0:0:
88,160,194979,1,8,0:0:0:0:
161,176,195067,5,4,0:3:0:0:
175,177,195156,1,4,0:3:0:0:
188,173,195244,1,6,0:3:0:0:
199,163,195332,1,6,0:3:0:0:
209,120,195420,6,0,B|200:97|179:84|179:84|213:44|200:-3|200:-3|235:24|222:65,1,215.999993408203,4|4,3:2|0:3,0:0:0:0:
99,83,195773,1,10,0:0:0:0:
314,136,195950,2,0,B|347:123|347:123|303:123,1,71.9999978027344,6|0,0:3|0:0,0:0:0:0:
238,195,196126,5,2,0:0:0:0:
428,112,196303,2,0,B|439:199,1,71.9999978027344,2|0,0:0|0:0,0:0:0:0:
450,294,196479,2,0,L|466:179,2,95.9999970703126,10|2|2,0:0|0:0|0:0,0:0:0:0:
326,360,196832,5,6,0:3:0:0:
326,360,196920,1,2,0:0:0:0:
326,360,197009,2,0,B|305:328|305:328|316:291,1,71.9999978027344,2|4,0:0|0:3,0:0:0:0:
379,167,197185,2,0,B|348:211|348:211|337:169,1,71.9999978027344,10|0,0:0|0:0,0:0:0:0:
332,11,197362,2,0,B|351:41|351:41|333:85,1,71.9999978027344,6|2,0:3|0:0,0:0:0:0:
217,122,197538,2,0,L|368:90,1,143.999995605469,2|4,0:0|0:3,0:0:0:0:
468,83,197803,1,4,0:3:0:0:
451,62,197891,1,8,0:0:0:0:
462,37,197979,2,0,P|528:88|486:152,1,143.999995605469,6|0,0:3|0:0,0:0:0:0:
371,214,198244,6,0,B|316:204|316:204|309:188|309:188|234:171,1,143.999995605469,4|0,3:2|0:0,0:0:0:0:
147,177,198509,1,6,0:3:0:0:
160,190,198597,2,0,L|179:110,1,71.9999978027344,8|0,0:0|0:0,0:0:0:0:
72,41,198773,2,0,L|91:121,1,71.9999978027344,6|0,0:3|0:0,0:0:0:0:
47,279,198950,6,0,P|18:254|89:241,1,143.999995605469,2|4,0:0|0:3,0:0:0:0:
117,315,199214,2,0,P|50:359|3:259,1,215.999993408203,2|2,0:0|0:0,0:0:0:0:
223,206,199656,6,0,B|230:247|230:247|222:267|222:267|236:358,1,143.999995605469,6|0,0:3|0:0,0:0:0:0:
364,365,199920,1,6,0:3:0:0:
363,345,200009,2,0,P|348:322|306:313,1,71.9999978027344,8|0,0:0|0:0,0:0:0:0:
158,361,200185,2,0,P|68:321|154:294,1,215.999993408203,6|0,0:3|0:0,0:0:0:0:
234,346,200538,1,4,0:3:0:0:
267,348,200626,1,4,0:3:0:0:
306,313,200714,2,0,B|315:278|315:278|298:241,1,71.9999978027344,12|0,0:0|0:0,0:0:0:0:
191,171,200891,2,0,P|216:179|196:161,1,71.9999978027344,6|0,0:3|0:0,0:0:0:0:
383,119,201067,6,0,B|333:111|308:156|308:156|314:74|247:45,1,215.999993408203,4|4,3:2|0:3,0:0:0:0:
117,87,201420,2,0,B|137:97|137:97|160:83|191:77,1,71.9999978027344,8|0,0:0|0:0,0:0:0:0:
377,194,201597,6,0,B|394:272|281:303|281:303|286:263|270:226|270:226|290:241|325:239,1,287.999991210938,6|4,0:3|0:3,0:0:0:0:
487,349,202126,2,0,B|452:353|452:353|425:389,1,71.9999978027344,10|0,0:0|0:0,0:0:0:0:
343,360,202303,2,0,B|312:381|312:381|278:375,1,71.9999978027344,4|0,0:3|0:0,0:0:0:0:
98,375,202479,6,0,B|123:302|203:309|203:309|155:303|142:256,1,215.999993408203,4|4,3:2|0:3,0:0:0:0:
185,131,202832,2,0,B|191:150|191:150|163:161|152:188,1,71.9999978027344,8|0,0:0|0:0,0:0:0:0:
291,301,203009,6,0,B|332:293|341:247|341:247|292:198|221:227|221:227|266:208|269:160,1,287.999991210938,6|4,0:3|0:3,0:0:0:0:
102,357,203538,2,0,B|137:364|137:364|167:338,1,71.9999978027344,10|0,0:0|0:0,0:0:0:0:
143,261,203714,2,0,B|108:254|108:254|78:280,1,71.9999978027344,4|0,0:3|0:0,0:0:0:0:
284,372,203891,6,0,B|298:334|343:330|343:330|402:362|434:314|434:314|417:325|396:321,1,215.999993408203,4|4,3:2|0:3,0:0:0:0:
301,243,204244,2,0,B|322:230|322:230|341:242|378:258,1,71.9999978027344,8|0,0:0|0:0,0:0:0:0:
491,186,204420,6,0,B|451:208|416:165|423:156|424:150|424:121|392:84|340:96|315:125,1,215.999993408203,6|0,0:3|0:0,0:0:0:0:
246,180,204773,1,4,0:3:0:0:
224,188,204862,1,4,0:3:0:0:
186,178,204950,2,0,P|167:149|183:117,1,71.9999978027344,10|0,0:0|0:0,0:0:0:0:
285,0,205126,5,4,0:3:0:0:
265,9,205214,1,4,0:3:0:0:
248,18,205303,2,0,L|266:79,2,47.9999985351563,10|8|8,0:3|0:3|0:3,0:0:0:0:
171,15,205479,2,0,L|194:93,1,71.9999978027344,4|4,0:3|0:3,0:0:0:0:
150,332,205656,6,0,P|124:235|60:141,1,215.999993408203,12|0,0:0|0:0,0:0:0:0:
208,241,206009,2,0,P|211:150|234:78,1,143.999995605469,12|0,3:2|0:0,0:0:0:0:
290,188,206273,2,0,P|339:135|367:62,1,143.999995605469,12|0,3:2|0:0,0:0:0:0:
395,216,206538,1,8,0:0:0:0:
393,194,206626,1,8,0:0:0:0:
404,175,206714,6,0,P|423:162|464:175,2,64,4|0|0,3:2|0:0|0:0,0:0:0:0:
439,308,206978,1,4,0:3:0:0:
450,293,207066,2,0,B|423:298|423:298|413:305|413:305|384:312,1,64,8|0,0:0|0:0,0:0:0:0:
236,347,207243,1,4,0:3:0:0:
259,357,207331,1,0,0:0:0:0:
283,350,207419,2,4,P|288:318|261:299,1,64,0|4,0:3|0:3,0:0:0:0:
88,280,207596,2,0,B|154:289|154:289|196:232,1,128,8|0,0:0|0:0,0:0:0:0:
70,35,207949,5,4,3:2:0:0:
70,35,208037,1,0,0:0:0:0:
70,35,208125,2,0,P|62:66|86:90,1,64,0|0,0:0|0:0,0:0:0:0:
152,71,208302,2,0,P|160:40|136:16,1,64,4|0,0:3|0:0,0:0:0:0:
0,170,208478,6,0,B|60:177|60:177|69:182|69:182|132:189,1,128,8|0,0:0|0:0,0:0:0:0:
139,206,208743,1,4,0:3:0:0:
232,143,208831,2,0,L|204:280,1,128,8|0,0:0|0:0,0:0:0:0:
302,54,209184,6,0,P|325:85|351:88,2,64,4|0|0,3:2|0:0|0:0,0:0:0:0:
200,12,209449,1,4,0:3:0:0:
200,12,209537,2,0,B|222:36|222:36|225:68,1,64,8|0,0:0|0:0,0:0:0:0:
81,169,209714,1,4,0:3:0:0:
47,153,209802,1,0,0:0:0:0:
42,126,209890,2,0,P|52:99|85:86,1,64,0|4,0:0|0:3,0:0:0:0:
277,173,210066,2,0,B|245:147|245:147|214:158|150:173,1,128,8|0,0:0|0:0,0:0:0:0:
429,330,210419,5,4,3:2:0:0:
429,330,210508,1,0,0:0:0:0:
429,330,210596,2,0,B|459:333|459:333|489:308,1,64,0|0,0:0|0:0,0:0:0:0:
457,232,210772,2,0,B|427:229|427:229|397:254,1,64,4|0,0:3|0:0,0:0:0:0:
316,364,210949,6,0,B|324:303|324:303|316:289|316:289|324:233,1,128,8|0,0:0|0:0,0:0:0:0:
338,226,211214,1,4,0:3:0:0:
244,318,211302,2,0,B|212:322|212:322|184:303,1,64,8|0,0:0|0:0,0:0:0:0:
85,94,211478,1,8,0:0:0:0:
135,154,211566,1,8,0:0:0:0:
108,227,211655,6,0,P|77:227|57:204,2,64,4|0|0,3:2|0:0|0:0,0:0:0:0:
181,99,211919,1,4,0:3:0:0:
181,99,212007,2,0,B|177:125|177:125|181:131|181:131|174:166,1,64,8|0,0:0|0:0,0:0:0:0:
185,304,212184,1,4,0:3:0:0:
181,281,212272,1,0,0:0:0:0:
194,262,212360,2,0,P|227:249|258:261,1,64,0|4,0:0|0:3,0:0:0:0:
344,375,212537,2,0,B|329:350|329:350|348:278|348:278|332:245,1,128,8|0,0:0|0:0,0:0:0:0:
497,49,212890,5,4,3:2:0:0:
497,49,212978,1,0,0:0:0:0:
497,49,213066,2,0,P|460:55|448:79,1,64
371,74,213243,2,0,P|346:102|352:128,1,64,4|0,0:3|0:0,0:0:0:0:
512,210,213419,6,0,B|458:198|458:198|443:210|443:210|385:197,1,128,8|4,0:0|0:3,0:0:0:0:
375,210,213684,1,4,0:3:0:0:
451,289,213772,2,0,P|441:329|354:335,1,128,12|0,0:2|0:0,0:0:0:0:
354,331,214007,2,0,B|291:303|291:357|231:331,1,128,4|0,3:2|0:0,0:0:0:0:
221,319,214243,1,4,3:2:0:0:
227,26,214478,6,0,P|265:38|279:66,2,64,4|0|0,3:2|0:0|0:0,0:0:0:0:
139,125,214743,1,4,0:3:0:0:
139,125,214831,2,0,B|172:129|172:129|199:106,1,64,8|0,0:0|0:0,0:0:0:0:
72,16,215007,1,4,0:3:0:0:
48,17,215096,1,0,0:0:0:0:
29,31,215184,2,0,P|22:66|38:93,1,64,0|4,0:0|0:3,0:0:0:0:
80,216,215360,2,0,B|138:187|138:187|138:120,1,128,8|0,0:0|0:0,0:0:0:0:
3,353,215713,5,4,3:2:0:0:
3,353,215802,1,0,0:0:0:0:
3,353,215890,2,0,B|28:334|28:334|70:336,1,64,0|0,0:0|0:0,0:0:0:0:
128,286,216066,2,0,B|156:298|156:298|176:335,1,64,4|0,0:3|0:0,0:0:0:0:
17,244,216243,6,0,B|8:191|8:191|12:180|12:180|0:115,1,128,8|8,0:0|0:3,0:0:0:0:
12,93,216478,1,8,0:3:0:0:
22,89,216537,1,8,0:3:0:0:
33,85,216596,6,0,L|100:97,1,64,4|0,0:3|0:0,0:0:0:0:
184,116,216772,2,0,L|251:128,1,64,4|0,0:3|0:0,0:0:0:0:
131,19,216949,2,0,B|158:36|158:36|201:29,1,64,8|0,0:0|0:0,0:0:0:0:
334,61,217125,2,0,B|307:44|307:44|264:51,1,64,4|0,0:3|0:0,0:0:0:0:
102,213,217302,6,0,P|102:230|141:256,2,64,4|0|0,3:2|0:0|0:0,0:0:0:0:
172,339,217566,1,4,0:3:0:0:
172,339,217654,2,0,B|203:345|203:345|234:324,1,64,8|0,0:0|0:0,0:0:0:0:
306,172,217831,1,8,0:0:0:0:
284,182,217919,1,0,0:0:0:0:
276,203,218007,2,0,P|282:228|315:255,1,64,0|0,0:0|0:0,0:0:0:0:
405,329,218184,2,0,P|377:345|342:342,1,64,4|0,0:3|0:0,0:0:0:0:
249,261,218360,2,0,P|283:273|314:266,1,64,8|0,0:0|0:0,0:0:0:0:
503,155,218537,5,8,0:0:0:0:
481,142,218625,1,0,0:0:0:0:
459,155,218713,2,0,P|425:160|389:144,1,64,0|0,0:0|0:0,0:0:0:0:
322,91,218890,2,0,P|291:81|260:86,1,64,4|0,0:3|0:0,0:0:0:0:
176,224,219066,6,0,B|167:184|167:184|141:166|141:166|129:108,1,128,8|4,0:0|0:3,0:0:0:0:
140,98,219331,1,4,0:3:0:0:
95,239,219419,6,0,L|105:286,1,48,12|0,0:0|0:0,0:0:0:0:
48,353,219772,6,0,P|30:327|0:324,2,64,4|0|0,3:2|0:0|0:0,0:0:0:0:
145,376,220037,1,4,0:3:0:0:
145,376,220125,2,0,P|182:358|182:326,1,64,0|0,0:0|0:0,0:0:0:0:
186,153,220302,1,8,0:0:0:0:
164,166,220390,1,0,0:0:0:0:
158,187,220478,2,0,P|161:214|205:239,1,64,0|0,0:0|0:0,0:0:0:0:
311,200,220654,2,0,P|280:208|248:190,1,64,4|0,0:3|0:0,0:0:0:0:
256,112,220831,2,0,P|242:138|261:184,1,64,8|0,0:0|0:0,0:0:0:0:
456,257,221007,5,8,0:0:0:0:
471,235,221096,1,0,0:0:0:0:
458,212,221184,2,0,P|446:188|453:149,1,64,0|0,0:0|0:0,0:0:0:0:
486,60,221360,1,4,0:3:0:0:
496,29,221449,1,4,0:3:0:0:
442,6,221537,2,0,B|389:-1|389:-1|377:6|377:6|302:-1,1,128,8|4,0:0|0:3,0:0:0:0:
223,34,221802,1,4,0:3:0:0:
214,53,221890,2,0,L|229:107,2,42.6666666666667,4|4|4,0:3|0:3|0:3,0:0:0:0:
274,146,222066,2,0,L|262:104,2,42.6666666666667,4|4|4,0:3|0:3|0:3,0:0:0:0:
246,237,222243,6,0,P|180:245|149:184,1,128,12|0,0:0|0:0,0:0:0:0:
147,158,222507,2,0,P|109:109|49:120,1,128,4|0,3:2|0:0,0:0:0:0:
14,205,222772,2,0,B|14:269|62:251|60:320,1,128,12|0,0:0|0:0,0:0:0:0:
60,319,223125,1,4,0:3:0:0:
127,68,223301,2,0,B|143:49|143:49|134:95,1,64,8|0,0:0|0:0,0:0:0:0:
147,211,223478,2,0,B|137:180|137:180|161:152,1,64,4|0,0:3|0:0,0:0:0:0:
351,86,223654,6,0,B|312:90|312:90|290:78|290:78|214:85,1,128,4|0,3:2|0:0,0:0:0:0:
212,99,223919,1,4,0:3:0:0:
311,193,224007,2,0,B|331:205|331:205|347:197|369:190,1,64,8|0,0:0|0:0,0:0:0:0:
477,128,224184,2,0,P|461:115|468:140,1,64,4|0,0:3|0:0,0:0:0:0:
464,298,224360,2,0,B|471:266|471:266|450:237,1,64,8|0,0:0|0:0,0:0:0:0:
356,290,224537,1,4,0:3:0:0:
342,301,224625,1,4,0:3:0:0:
328,331,224713,2,0,B|341:368|341:368|348:332,1,64,8|0,0:0|0:0,0:0:0:0:
230,283,224890,5,4,0:3:0:0:
230,283,224978,1,4,0:3:0:0:
230,283,225066,2,0,L|171:277,2,42.6666666666667,8|8|8,0:3|0:3|0:3,0:0:0:0:
122,323,225243,2,0,L|108:251,1,64,4|4,0:3|0:3,0:0:0:0:
73,69,225419,1,8,0:0:0:0:
277,218,225595,5,8,0:3:0:0:
283,211,225654,1,8,0:3:0:0:
285,202,225713,1,8,0:3:0:0:
285,193,225772,2,0,P|272:166|226:166,1,64,4|0,0:3|0:0,0:0:0:0:
109,260,225948,2,0,P|78:262|54:232,1,64,8|0,0:0|0:0,0:0:0:0:
23,143,226125,1,4,0:3:0:0:
154,367,226301,6,0,B|252:398|233:308|336:338,1,192,4|0,3:2|0:0,0:0:0:0:
346,355,226654,1,4,0:3:0:0:
256,313,226831,1,4,0:3:0:0:
219,176,227007,5,8,0:0:0:0:
454,82,227184,1,8,0:0:0:0:
201,165,227360,5,8,0:0:0:0:
491,275,227537,2,0,P|512:252|511:215,1,64,10|0,0:0|0:0,0:0:0:0:
394,112,227713,5,10,0:0:0:0:
394,112,227801,1,10,0:0:0:0:
394,112,227890,2,0,P|325:95|306:194,1,167.999994873047,4|4,3:2|0:3,0:0:0:0:
254,287,228243,2,0,P|256:261|239:233,1,55.9999982910157,10|0,0:0|0:0,0:0:0:0:
163,215,228419,1,4,2:3:0:0:
321,364,228595,6,0,B|373:386|374:340|432:359,1,111.999996582031,2|4,0:0|0:3,0:0:0:0:
202,345,228948,2,0,P|217:324|267:325,1,55.9999982910157,10|0,0:0|0:0,0:0:0:0:
316,350,229125,1,2,0:0:0:0:
129,304,229301,6,0,P|95:260|175:211,1,167.999994873047,4|4,0:3|0:3,0:0:0:0:
206,317,229654,2,0,L|148:325,1,55.9999982910157,10|0,0:0|0:0,0:0:0:0:
48,340,229831,1,4,0:3:0:0:
273,263,230007,2,0,B|296:210|248:208|273:152,1,111.999996582031,2|4,0:0|0:3,0:0:0:0:
294,367,230360,1,10,0:0:0:0:
391,277,230537,5,2,0:0:0:0:
391,277,230625,1,0,0:0:0:0:
391,277,230713,2,0,P|394:216|352:207,1,111.999996582031,4|0,0:3|0:0,0:0:0:0:
337,220,230978,1,6,0:3:0:0:
236,248,231066,2,0,B|208:251|208:251|180:226,1,55.9999982910157,8|0,0:0|0:0,0:0:0:0:
60,211,231243,2,0,P|122:257|118:157,1,223.999993164063,4|4,0:3|0:3,0:0:0:0:
193,384,231772,1,8,0:0:0:0:
193,384,232125,6,0,B|213:330|213:330|183:268,1,111.999996582031,4|0,0:3|0:0,0:0:0:0:
164,276,232390,1,4,0:3:0:0:
253,207,232478,2,0,L|322:218,1,55.9999982910157,8|0,0:0|0:0,0:0:0:0:
181,157,232654,1,4,0:3:0:0:
370,96,232831,6,0,P|345:118|320:116,1,55.9999982910157,2|0,0:0|0:0,0:0:0:0:
308,215,233007,2,0,P|276:204|265:181,1,55.9999982910157,6|0,0:3|0:0,0:0:0:0:
261,25,233184,2,0,B|287:40|287:40|243:97|159:74,1,167.999994873047,10|0,0:0|0:0,0:0:0:0:
13,37,233537,6,0,B|30:30|30:30|57:100|-10:100|23:174,1,167.999994873047,4|4,3:2|0:3,0:0:0:0:
103,114,233890,2,0,L|33:101,1,55.9999982910157,10|0,0:0|0:0,0:0:0:0:
156,182,234066,1,4,0:3:0:0:
0,283,234243,2,0,B|20:266|20:266|68:267|95:306,1,111.999996582031,2|4,0:0|0:3,0:0:0:0:
191,106,234595,1,10,0:0:0:0:
280,246,234772,5,2,0:0:0:0:
280,246,234860,1,0,0:0:0:0:
280,246,234948,2,0,B|333:268|332:221|394:242,1,111.999996582031,4|0,0:3|0:0,0:0:0:0:
401,257,235213,1,4,0:3:0:0:
488,139,235301,6,0,B|495:103|495:103|474:127,1,55.9999982910157,10|0,0:0|0:0,0:0:0:0:
484,228,235478,1,4,0:3:0:0:
434,41,235654,2,0,P|380:50|382:105,1,111.999996582031,2|4,0:0|0:3,0:0:0:0:
499,328,236007,2,0,P|486:343|480:317,1,55.9999982910157,10|0,0:0|0:0,0:0:0:0:
375,327,236184,2,0,P|371:301|388:323,1,55.9999982910157,2|0,0:0|0:0,0:0:0:0:
290,380,236360,6,0,B|298:321|257:333|264:271,1,111.999996582031,6|0,0:3|0:0,0:0:0:0:
277,262,236625,1,4,0:3:0:0:
207,376,236713,2,0,B|179:381|179:381|152:364,1,55.9999982910157,8|0,0:0|0:0,0:0:0:0:
59,241,236890,2,0,B|37:280|70:315|119:321|148:290|152:240|116:230|114:231|113:233|112:235|85:192|120:165,1,223.999993164063,4|4,0:3|0:3,0:0:0:0:
155,366,237419,1,8,0:0:0:0:
155,366,237772,6,0,P|224:342|283:325,1,111.999996582031,6|0,0:3|0:0,0:0:0:0:
282,341,238037,1,4,0:3:0:0:
340,268,238125,2,0,P|321:222|269:239,1,111.999996582031,8|0,0:0|0:0,0:0:0:0:
456,371,238478,5,8,0:0:0:0:
470,362,238566,1,8,0:0:0:0:
484,345,238654,1,10,0:3:0:0:
492,317,238743,1,10,0:3:0:0:
483,284,238831,1,6,0:3:0:0:
449,259,238919,1,4,0:3:0:0:
400,260,239007,1,6,0:3:0:0:
360,216,239095,1,6,0:3:0:0:
382,149,239184,6,0,B|430:86|367:29|367:29|326:59,1,180.000006866455,4|4,3:2|0:3,0:0:0:0:
265,179,239537,2,0,B|257:190|262:204|262:204|239:152|185:160|185:160|155:156|141:127|141:127|142:100,1,204.000003890991,10|0,0:0|0:0,0:0:0:0:
241,28,239890,2,0,B|246:46|246:46|224:57|212:90,1,68.0000012969971,2|0,0:0|0:0,0:0:0:0:
126,222,240066,2,0,B|125:240|131:254|131:254|117:242|112:219,1,68.0000012969971,4|0,0:3|0:0,0:0:0:0:
62,37,240243,1,8,0:0:0:0:
148,128,240419,1,4,0:3:0:0:
8,299,240595,6,0,B|-10:277|-10:277|21:261|73:264|100:312|103:343,1,180.000006866455,4|4,3:2|0:3,0:0:0:0:
241,336,240948,2,0,B|214:342|204:372|204:372|228:317|187:269|187:269|202:253|204:213,1,204.000003890991,10|0,0:0|0:0,0:0:0:0:
97,186,241301,2,0,B|124:216|124:216|120:183,1,68.0000012969971,2|0,0:0|0:0,0:0:0:0:
137,44,241478,2,0,B|116:32|116:32|145:96,1,68.0000012969971,4|0,0:3|0:0,0:0:0:0:
210,255,241654,1,10,0:0:0:0:
265,140,241831,1,6,0:3:0:0:
327,333,242007,6,0,P|395:365|414:339,1,120.000004577637,4|2,3:2|0:0,0:0:0:0:
410,323,242272,1,4,0:3:0:0:
487,264,242360,2,0,B|504:289|504:289|500:325,1,60.0000022888184,10|0,0:0|0:0,0:0:0:0:
334,220,242537,2,0,B|431:236|403:162|499:174,1,180.000006866455,4|0,0:3|0:0,0:0:0:0:
512,192,242890,2,0,P|494:189|496:151,1,60.0000022888184,4|0,0:3|0:0,0:0:0:0:
511,8,243066,2,0,B|492:29|492:29|454:31,1,60.0000022888184,8|0,0:0|0:0,0:0:0:0:
351,0,243243,2,0,L|372:73,1,60.0000022888184,4|0,0:3|0:0,0:0:0:0:
334,220,243419,6,0,P|350:178|250:160,1,180.000006866455,0|4,3:2|0:3,0:0:0:0:
307,312,243772,2,0,L|378:296,1,60.0000022888184,8|0,0:0|0:0,0:0:0:0:
231,333,243948,1,4,0:3:0:0:
487,360,244125,6,0,P|505:338|507:293,1,60.0000022888184,2|0,0:0|0:0,0:0:0:0:
423,220,244301,1,6,0:3:0:0:
416,203,244390,1,4,0:3:0:0:
505,165,244478,2,0,P|507:130|484:106,1,60.0000022888184,10|0,0:0|0:0,0:0:0:0:
450,31,244654,2,0,P|436:59|408:71,1,60.0000022888184,4|0,0:3|0:0,0:0:0:0:
290,63,244831,6,0,B|261:67|245:91|245:91|240:84|240:84|188:89|163:44|163:44|164:37|164:37|139:46|116:40,1,204.000003890991,4|4,3:2|0:3,0:0:0:0:
22,109,245184,2,0,B|-3:66|32:29|32:29|117:36|104:127,1,227.999993911743,10|0,0:0|0:0,0:0:0:0:
102,256,245537,6,0,B|81:240|81:240|105:220|149:223|165:255|168:276|168:285|166:292|169:306|185:324|216:335|243:307,1,227.999993911743,2|0,0:0|0:0,0:0:0:0:
337,223,245890,2,0,P|300:232|300:267,1,75.9999979705811,10|0,0:0|0:0,0:0:0:0:
357,383,246066,2,0,P|376:354|347:325,1,75.9999979705811,6|0,0:3|0:0,0:0:0:0:
203,193,246243,6,0,B|270:182|300:238|300:238|285:173|337:137,1,227.999993911743,4|4,3:2|0:3,0:0:0:0:
449,72,246595,2,0,B|447:92|457:107|457:107|442:100|413:104,1,75.9999979705811,10|0,0:0|0:0,0:0:0:0:
355,50,246772,2,0,B|357:30|347:15|347:15|362:22|391:18,1,75.9999979705811,4|0,0:3|0:0,0:0:0:0:
512,258,246948,6,0,B|501:219|465:182|407:179|370:204|370:204|398:216|408:240,1,227.999993911743,4|4,3:2|0:3,0:0:0:0:
464,369,247301,2,0,P|469:337|434:319,1,75.9999979705811,10|0,0:0|0:0,0:0:0:0:
340,325,247478,2,0,P|335:357|370:375,1,75.9999979705811,6|0,0:3|0:0,0:0:0:0:
482,170,247654,6,0,B|448:128|383:144|383:144|379:156|379:156|308:180|273:131,1,227.999993911743,4|4,3:2|0:3,0:0:0:0:
389,47,248007,2,0,P|415:77|407:126,1,75.9999979705811,8|0,0:0|0:0,0:0:0:0:
282,243,248184,2,0,B|177:273|200:174|90:202,1,204.000003890991,4|0,0:3|0:0,0:0:0:0:
20,237,248537,1,4,0:3:0:0:
14,250,248625,1,4,0:3:0:0:
26,324,248713,1,8,0:0:0:0:
174,374,248890,5,4,0:3:0:0:
174,374,248978,1,4,0:3:0:0:
174,374,249066,2,0,L|233:362,2,45.3333341979981,10|8|8,0:3|0:3|0:3,0:0:0:0:
286,296,249242,5,4,0:3:0:0:
305,301,249331,1,4,0:3:0:0:
334,328,249419,1,8,0:3:0:0:
364,312,249507,1,8,0:3:0:0:
389,334,249596,1,10,0:3:0:0:
420,320,249684,1,8,0:3:0:0:
463,330,249772,5,10,0:0:0:0:
505,268,249860,1,8,0:0:0:0:
484,195,249948,1,8,0:0:0:0:
415,164,250037,1,8,0:0:0:0:
347,197,250125,1,8,0:3:0:0:
329,262,250213,1,8,0:3:0:0:
274,289,250301,1,8,0:3:0:0:
219,281,250390,1,8,0:3:0:0:
189,243,250478,6,0,P|206:132|224:43,1,180.000006866455,4|4,3:2|0:3,0:0:0:0:
108,181,250831,2,0,P|145:173|187:163,1,60.0000022888184,10|0,0:0|0:0,0:0:0:0:
290,133,251007,1,4,0:3:0:0:
70,292,251184,5,10,0:2:0:0:
92,283,251272,1,4,0:3:0:0:
115,286,251360,1,4,0:3:0:0:
134,299,251448,1,4,0:3:0:0:
143,274,251537,5,10,0:0:0:0:
161,289,251625,1,4,0:3:0:0:
184,294,251713,1,6,0:3:0:0:
207,293,251801,1,4,0:3:0:0:
279,260,251890,6,0,P|301:128|307:70,1,180.000006866455,12|4,0:0|0:3,0:0:0:0:
381,233,252242,2,0,P|353:217|313:197,1,60.0000022888184,10|0,0:0|0:0,0:0:0:0:
209,162,252419,1,4,0:3:0:0:
453,62,252595,5,10,0:0:0:0:
430,71,252684,1,4,0:3:0:0:
406,69,252772,1,4,0:3:0:0:
384,57,252860,1,4,0:3:0:0:
379,78,252948,5,10,0:0:0:0:
354,80,253037,1,4,0:3:0:0:
331,71,253125,1,6,0:3:0:0:
314,53,253213,1,4,0:3:0:0:
233,47,253301,6,0,P|141:81|63:118,1,180.000006866455,12|4,0:0|0:3,0:0:0:0:
120,0,253654,2,0,P|138:26|159:60,1,60.0000022888184,10|0,0:0|0:0,0:0:0:0:
215,160,253831,1,4,0:3:0:0:
30,267,254007,6,0,P|22:250|47:259,1,60.0000022888184,10|4,0:0|0:3,0:0:0:0:
127,366,254184,2,0,P|104:361|114:328,1,60.0000022888184,6|4,0:3|0:3,0:0:0:0:
262,303,254360,2,0,P|241:323|201:323,1,60.0000022888184,10|4,0:0|0:3,0:0:0:0:
139,187,254537,2,0,B|136:220|136:220|161:244,1,60.0000022888184,6|4,0:3|0:3,0:0:0:0:
365,331,254713,6,0,B|366:307|381:295|381:295|371:277|371:277|374:235|406:218|406:218|403:187|403:187|388:210,1,180.000006866455,12|4,0:0|0:3,0:0:0:0:
463,280,255066,2,0,B|493:282|493:282|518:254,1,60.0000022888184,10|0,0:0|0:0,0:0:0:0:
512,157,255242,1,4,0:3:0:0:
254,229,255419,5,10,0:0:0:0:
276,221,255507,1,4,0:3:0:0:
292,203,255595,1,6,0:3:0:0:
297,179,255684,1,4,0:3:0:0:
322,191,255772,5,8,0:0:0:0:
326,167,255860,1,4,0:3:0:0:
342,149,255948,1,6,0:3:0:0:
364,140,256037,1,4,0:3:0:0:
427,183,256125,6,0,P|440:275|447:378,1,180.000006866455,12|4,0:0|0:3,0:0:0:0:
512,217,256478,2,0,P|485:236|442:258,1,60.0000022888184,10|0,0:0|0:0,0:0:0:0:
334,291,256654,1,4,0:3:0:0:
266,34,256831,5,10,0:0:0:0:
272,57,256919,1,4,0:3:0:0:
265,79,257007,1,4,0:3:0:0:
248,95,257095,1,4,0:3:0:0:
276,117,257184,5,10,0:0:0:0:
265,138,257272,1,4,0:3:0:0:
267,161,257360,1,6,0:3:0:0:
280,180,257448,1,4,0:3:0:0:
364,217,257537,6,0,P|388:150|419:28,1,180.000006866455,12|4,0:0|0:3,0:0:0:0:
459,197,257889,2,0,P|434:176|403:156,1,60.0000022888184,10|0,0:0|0:0,0:0:0:0:
300,107,258066,1,4,0:3:0:0:
315,368,258242,6,0,B|325:337|325:337|311:307,1,60.0000022888184,10|4,0:0|0:3,0:0:0:0:
165,360,258419,1,6,0:3:0:0:
165,360,258507,1,4,0:3:0:0:
165,360,258595,2,0,B|193:354|193:354|202:355|202:355|239:347,1,60.0000022888184,8|4,0:0|0:3,0:0:0:0:
361,254,258772,2,0,B|338:236|338:236|296:237,1,60.0000022888184,6|4,0:3|0:3,0:0:0:0:
126,205,258948,6,0,B|139:211|153:227|153:227|165:170|111:130|111:130|142:119|151:90,1,204.000003890991,12|4,0:0|0:3,0:0:0:0:
151,11,259301,2,0,P|135:37|142:64,1,60.0000022888184,10|0,0:0|0:0,0:0:0:0:
258,119,259478,1,4,0:3:0:0:
16,184,259654,5,10,0:0:0:0:
39,183,259742,1,4,0:3:0:0:
60,193,259831,1,6,0:3:0:0:
71,213,259919,1,4,0:3:0:0:
94,203,260007,5,8,0:0:0:0:
106,223,260095,1,4,0:3:0:0:
104,247,260184,2,0,B|99:266|84:284|84:284|106:277,1,60.0000022888184,6|4,0:3|0:3,0:0:0:0:
299,145,260360,6,0,B|283:115|283:115|213:202|213:202|254:211,1,180.000006866455,12|4,0:0|0:3,0:0:0:0:
216,131,260713,1,10,0:0:0:0:
345,236,260890,1,4,0:3:0:0:
66,290,261066,5,10,0:0:0:0:
20,234,261154,1,8,0:0:0:0:
33,162,261242,1,10,0:0:0:0:
96,126,261331,1,8,0:0:0:0:
164,151,261419,2,0,L|180:225,1,60.0000022888184,8|8,0:3|0:3,0:0:0:0:
265,359,261595,5,4,0:3:0:0:
265,359,261684,1,4,0:3:0:0:
265,359,261772,2,0,P|282:297|302:180,1,180.000006866455,12|4,0:0|0:3,0:0:0:0:
369,333,262125,2,0,P|345:317|307:297,1,60.0000022888184,10|0,0:0|0:0,0:0:0:0:
190,294,262301,1,4,0:3:0:0:
474,192,262478,5,10,0:0:0:0:
452,201,262566,1,4,0:3:0:0:
428,203,262654,1,4,0:3:0:0:
404,197,262743,1,4,0:3:0:0:
392,232,262831,5,10,0:0:0:0:
368,232,262919,1,4,0:3:0:0:
346,241,263007,1,6,0:3:0:0:
333,261,263095,1,4,0:3:0:0:
254,321,263184,6,0,P|248:226|244:126,1,180.000006866455,12|4,0:0|0:3,0:0:0:0:
171,284,263537,2,0,P|199:267|230:253,1,60.0000022888184,10|0,0:0|0:0,0:0:0:0:
345,220,263713,1,4,0:3:0:0:
100,134,263890,5,10,0:0:0:0:
85,115,263978,1,4,0:3:0:0:
82,91,264066,1,4,0:3:0:0:
92,69,264154,1,4,0:3:0:0:
64,76,264243,5,10,0:0:0:0:
65,52,264331,1,4,0:3:0:0:
83,36,264419,1,6,0:3:0:0:
106,35,264507,1,4,0:3:0:0:
187,86,264595,6,0,P|253:96|386:105,1,180.000006866455,12|4,0:0|0:3,0:0:0:0:
236,176,264948,2,0,P|249:149|264:117,1,60.0000022888184,10|0,0:0|0:0,0:0:0:0:
288,0,265125,1,4,0:3:0:0:
407,234,265301,6,0,B|417:216|416:201|416:201|411:217|394:234,1,60.0000022888184,10|4,0:0|0:3,0:0:0:0:
314,305,265478,2,0,B|301:304|285:308|285:308|298:294|301:280,1,60.0000022888184,6|4,0:3|0:3,0:0:0:0:
362,92,265654,2,0,B|356:100|345:104|345:104|361:118|362:140,1,60.0000022888184,10|4,0:0|0:3,0:0:0:0:
187,228,265831,2,0,B|203:220|207:207|207:207|222:211|238:207,1,60.0000022888184,6|4,0:3|0:3,0:0:0:0:
508,166,266007,6,0,B|489:152|485:129|485:129|428:145|426:204|426:204|422:209|422:209|447:215|462:236,1,204.000003890991,12|4,0:0|0:3,0:0:0:0:
505,361,266360,2,0,B|517:350|517:350|494:347|467:331,1,68.0000012969971,10|0,0:0|0:0,0:0:0:0:
350,376,266537,1,4,0:3:0:0:
508,166,266713,5,10,0:0:0:0:
484,160,266801,1,4,0:3:0:0:
462,148,266890,1,6,0:3:0:0:
445,130,266978,1,4,0:3:0:0:
428,161,267066,5,8,0:0:0:0:
404,157,267154,1,4,0:3:0:0:
382,145,267243,1,6,0:3:0:0:
364,128,267331,1,4,0:3:0:0:
304,189,267419,6,0,P|246:168|127:138,1,180.000006866455,12|4,0:0|0:3,0:0:0:0:
286,95,267772,2,0,P|264:118|244:145,1,60.0000022888184,10|0,0:0|0:0,0:0:0:0:
183,257,267948,1,4,0:3:0:0:
110,30,268125,5,10,0:0:0:0:
86,28,268213,1,4,0:3:0:0:
66,41,268301,1,4,0:3:0:0:
61,64,268390,1,4,0:3:0:0:
41,40,268478,5,10,0:0:0:0:
22,55,268566,1,4,0:3:0:0:
22,78,268654,1,6,0:3:0:0:
37,96,268743,1,4,0:3:0:0:
128,130,268831,6,0,P|143:190|169:315,1,180.000006866455,12|4,0:0|0:3,0:0:0:0:
223,157,269184,2,0,P|196:172|159:199,1,60.0000022888184,10|0,0:0|0:0,0:0:0:0:
72,282,269360,1,4,0:3:0:0:
63,298,269448,1,4,0:3:0:0:
84,344,269537,6,0,L|75:308,1,30.0000011444092,10|0,0:0|0:0,0:0:0:0:
190,12,269713,2,0,L|180:44,1,30.0000011444092,10|0,0:0|0:0,0:0:0:0:
187,381,269890,2,0,L|216:362,1,30.0000011444092,8|0,0:0|0:0,0:0:0:0:
403,137,270066,6,0,B|390:130|383:112|383:112|395:167|344:202|344:202|337:197|337:197|336:211|336:211|326:202|326:202|327:216|327:216|318:209|318:209|370:244|357:302,1,303.999991882324,4|4,3:2|0:3,0:0:0:0:
215,229,270595,5,6,0:3:0:0:
357,298,270772,1,4,0:3:0:0:
106,308,270948,5,10,0:0:0:0:
286,252,271125,1,10,0:0:0:0:
44,223,271301,5,8,0:0:0:0:
345,315,271478,1,8,0:0:0:0:
198,126,271654,6,0,P|179:140|188:166,2,50.6666653137207,10|8|8,0:0|0:3|0:3,0:0:0:0:
266,164,271831,1,4,0:3:0:0:
263,178,271919,1,4,0:3:0:0:
260,192,272007,1,4,0:3:0:0:
257,207,272095,1,4,0:3:0:0:
286,252,272184,5,10,0:0:0:0:
66,327,273066,6,0,P|101:334|135:304,1,75.9999979705811,4|0,3:2|0:0,0:0:0:0:
65,175,273242,1,8,0:0:0:0:
65,175,273331,1,4,0:3:0:0:
65,175,273419,2,0,L|86:269,1,75.9999979705811,4|0,0:3|0:0,0:0:0:0:
235,355,273595,6,0,B|242:339|257:332|257:332|238:311|241:283|241:283|232:279|232:279|256:260|257:228,1,151.999995941162,8|4,0:0|0:3,0:0:0:0:
211,114,273860,1,4,0:3:0:0:
211,114,273948,2,0,P|182:145|203:186,1,75.9999979705811,8|0,0:0|0:0,0:0:0:0:
352,183,274125,6,0,P|330:149|286:151,1,75.9999979705811,6|0,0:3|0:0,0:0:0:0:
367,281,274301,2,0,P|405:281|430:248,1,75.9999979705811,10|0,0:0|0:0,0:0:0:0:
484,109,274478,5,4,0:3:0:0:
484,109,274566,1,4,0:3:0:0:
484,109,274654,2,0,B|443:114|443:114|428:157,1,75.9999979705811,8|0,0:0|0:0,0:0:0:0:
479,343,274831,2,0,B|483:303|483:303|470:278|470:278|466:280|466:280|491:205,1,151.999995941162,4|8,0:3|0:0,0:0:0:0:
372,285,275095,1,4,0:3:0:0:
372,285,275184,2,0,L|398:365,1,75.9999979705811,4|0,0:3|0:0,0:0:0:0:
232,377,275360,2,0,L|310:350,1,75.9999979705811,8|4,0:0|0:3,0:0:0:0:
345,179,275537,6,0,P|314:182|307:228,1,75.9999979705811,6|0,0:3|0:0,0:0:0:0:
488,305,275713,2,0,B|487:279|506:262|506:262|501:227|491:205|491:205|508:188|507:159,1,151.999995941162,10|4,0:0|0:3,0:0:0:0:
464,26,275978,1,4,0:3:0:0:
464,26,276066,2,0,B|467:73|467:73|440:42,1,75.9999979705811,8|0,0:0|0:0,0:0:0:0:
227,60,276242,6,0,B|247:45|247:45|255:49|255:49|289:53|311:32|311:32|356:50|357:92,1,167.999994873047,6|8,0:3|0:0,0:0:0:0:
353,105,276507,1,4,0:3:0:0:
261,181,276595,2,0,B|246:170|225:167|225:167|212:172|212:172|173:162|156:138|156:138|142:158|112:164,1,167.999994873047,6|8,0:3|0:0,0:0:0:0:
100,153,276860,1,4,0:3:0:0:
108,278,276948,6,0,P|147:272|133:220,1,83.9999974365235,6|0,0:3|0:0,0:0:0:0:
14,68,277125,1,10,0:0:0:0:
14,68,277213,1,4,0:3:0:0:
14,68,277301,2,0,B|30:89|68:85|68:85|85:63|119:60|119:60|128:52|128:52|148:100|211:96|211:96|204:86|198:75,1,251.999992309571,4|0,0:3|0:0,0:0:0:0:
259,6,277654,5,6,0:3:0:0:
259,6,277742,1,4,0:3:0:0:
259,6,277831,2,0,P|291:5|317:51,1,83.9999974365235,8|0,0:0|0:0,0:0:0:0:
320,213,278007,1,6,0:3:0:0:
320,213,278095,1,4,0:3:0:0:
320,213,278183,2,0,P|365:215|382:166,1,83.9999974365235,8|0,0:0|0:0,0:0:0:0:
435,61,278360,6,0,B|412:41|412:41|426:113,1,83.9999974365235,6|0,0:3|0:3,0:0:0:0:
468,261,278537,2,0,B|508:244|508:244|488:187,1,83.9999974365235,12|0,0:0|0:0,0:0:0:0:
342,109,278713,1,4,0:3:0:0:
342,109,278801,1,4,0:3:0:0:
342,109,278890,2,0,B|302:96|303:126|256:111,1,83.9999974365235,8|0,0:0|0:0,0:0:0:0:
132,84,279066,6,0,B|129:65|108:55|108:55|140:51|172:73|179:109|173:152,1,167.999994873047,4|8,0:3|0:0,0:0:0:0:
74,250,279331,1,4,0:3:0:0:
74,250,279419,2,0,P|70:221|120:200,1,83.9999974365235,4|0,0:3|0:0,0:0:0:0:
237,311,279595,2,0,B|219:304|195:311|195:311|186:291|160:282,1,83.9999974365235,8|0,0:0|0:3,0:0:0:0:
330,236,279772,6,0,B|380:264|380:264|327:266,1,83.9999974365235,6|0,0:3|0:0,0:0:0:0:
173,143,279948,1,10,0:0:0:0:
173,143,280037,1,4,0:3:0:0:
173,143,280125,2,0,P|152:104|176:71,1,83.9999974365235,4|0,0:3|0:3,0:0:0:0:
325,98,280301,2,0,P|277:92|242:130,1,83.9999974365235,8|0,0:0|0:0,0:0:0:0:
277,299,280478,6,0,B|268:293|254:291|254:291|282:286|299:270|299:270|308:271|308:271|333:234|377:230,1,167.999994873047,4|8,0:3|0:0,0:0:0:0:
497,316,280742,1,4,0:3:0:0:
497,316,280831,2,0,P|476:326|436:279,1,83.9999974365235,4|0,0:3|0:0,0:0:0:0:
470,130,281007,2,0,B|488:168|488:168|430:199,1,83.9999974365235,8|0,0:0|0:0,0:0:0:0:
300,119,281184,6,0,B|334:128|334:128|341:124|341:124|396:139,1,83.9999974365235,6|0,0:3|0:0,0:0:0:0:
199,228,281360,1,10,0:0:0:0:
199,228,281448,1,4,0:3:0:0:
199,228,281537,2,0,B|165:185|103:205|103:205|106:198|106:198|49:181|61:112|61:112|87:138,1,251.999992309571,4|0,0:3|0:0,0:0:0:0:
76,157,281890,2,0,P|30:147|36:113,1,83.9999974365235,4|0,0:3|0:3,0:0:0:0:
127,17,282066,5,10,0:0:0:0:
127,17,282154,1,4,0:3:0:0:
127,17,282242,2,0,B|163:31|163:31|168:39|168:39|188:13|221:10|221:10|236:17|236:17|296:11|319:65|319:65|292:67,1,251.999992309571,4|0,0:3|0:0,0:0:0:0:
225,116,282595,1,4,0:3:0:0:
225,116,282684,1,4,0:3:0:0:
225,116,282772,6,0,P|206:146|231:194,1,83.9999974365235,10|0,0:0|0:0,0:0:0:0:
444,245,282948,2,0,B|435:178|355:173|355:173|365:193|360:223,1,167.999994873047,6|8,0:3|0:0,0:0:0:0:
317,380,283213,1,4,0:3:0:0:
317,380,283301,2,0,B|262:339|297:267|297:267|309:283|338:295,1,167.999994873047,6|8,0:3|0:0,0:0:0:0:
96,359,283654,6,0,P|56:345|61:292,1,83.9999974365235,6|0,0:3|0:0,0:0:0:0:
171,217,283831,1,10,0:0:0:0:
189,219,283919,1,8,0:0:0:0:
218,288,284007,1,8,0:0:0:0:
289,310,284095,1,8,0:0:0:0:
351,269,284184,1,8,0:0:0:0:
361,195,284272,1,8,0:0:0:0:
310,139,284360,6,0,B|287:131|287:131|272:137|272:137|220:122,1,75.9999979705811,4|0,3:2|0:0,0:0:0:0:
135,54,284537,1,8,0:0:0:0:
135,54,284625,1,4,0:3:0:0:
135,54,284713,2,0,B|152:77|152:77|136:133,1,75.9999979705811,4|0,0:3|0:0,0:0:0:0:
87,222,284890,6,0,B|96:209|96:209|57:194|57:194|87:294,1,151.999995941162,8|4,0:0|0:3,0:0:0:0:
144,383,285154,1,4,0:3:0:0:
144,383,285242,2,0,L|169:299,1,75.9999979705811,8|0,0:0|0:0,0:0:0:0:
244,189,285419,6,0,P|206:192|192:234,1,75.9999979705811,6|0,0:3|0:0,0:0:0:0:
268,360,285595,2,0,B|288:358|304:367|304:367|303:347|314:327,1,75.9999979705811,10|0,0:0|0:0,0:0:0:0:
400,207,285772,1,4,0:3:0:0:
400,207,285860,1,4,0:3:0:0:
400,207,285948,2,0,B|379:252|379:252|365:218,1,75.9999979705811,8|0,0:0|0:0,0:0:0:0:
290,121,286125,6,0,B|322:134|354:108|354:108|357:98|357:98|390:70|424:80,1,151.999995941162,4|8,0:3|0:0,0:0:0:0:
512,190,286390,1,4,0:3:0:0:
512,190,286478,2,0,P|499:162|451:162,1,75.9999979705811,4|0,0:3|0:0,0:0:0:0:
447,311,286654,2,0,B|461:292|461:292|446:271|442:240,1,75.9999979705811,8|0,0:0|0:0,0:0:0:0:
434,25,286831,6,0,P|450:56|419:80,1,75.9999979705811,6|0,0:3|0:0,0:0:0:0:
236,66,287007,2,0,B|237:47|237:47|252:97|292:111|292:111|308:134|295:164,1,151.999995941162,10|4,0:0|0:3,0:0:0:0:
234,238,287272,1,4,0:3:0:0:
234,238,287360,2,0,P|208:215|216:175,1,75.9999979705811,8|0,0:0|0:0,0:0:0:0:
397,244,287537,6,0,B|363:264|325:244|325:244|334:288|300:317,1,151.999995941162,6|8,0:3|0:0,0:0:0:0:
283,309,287801,1,4,0:3:0:0:
387,374,287890,2,0,B|425:323|489:341|489:341|472:330|464:308,1,151.999995941162,6|8,0:3|0:0,0:0:0:0:
484,305,288154,1,4,0:3:0:0:
397,244,288242,2,0,P|381:206|397:168,1,75.9999979705811,6|0,0:3|0:0,0:0:0:0:
468,27,288419,6,0,B|477:45|496:53|496:53|449:47|414:85|414:85|414:73|414:73|351:84|315:36,1,251.999992309571,10|4,0:0|0:3,0:0:0:0:
170,62,288772,2,0,B|172:42|155:23|155:23|194:61|243:55|243:55|238:62|238:62|280:109|252:160,1,251.999992309571,8|4,0:0|0:3,0:0:0:0:
235,314,289125,2,0,B|226:336|226:336|213:285|169:273|169:273|243:290|294:236,1,251.999992309571,8|4,0:0|0:3,0:0:0:0:
157,149,289478,2,0,B|142:163|120:165|120:165|140:167|160:189,1,83.9999974365235,8|0,0:0|0:0,0:0:0:0:
388,139,289654,6,0,P|359:131|328:177,1,83.9999974365235,6|0,0:3|0:0,0:0:0:0:
407,351,289831,1,12,0:0:0:0:
407,351,289919,1,4,0:3:0:0:
407,351,290007,2,0,B|414:342|423:336|423:336|400:311|397:274,1,83.9999974365235,4|0,0:3|0:0,0:0:0:0:
503,176,290184,2,0,B|508:190|515:195|515:195|487:207|473:238,1,83.9999974365235,8|0,0:0|0:0,0:0:0:0:
305,375,290360,6,0,B|299:344|271:330|271:330|282:327|282:327|261:276|295:235,1,167.999994873047,4|8,0:3|0:0,0:0:0:0:
411,154,290625,1,4,0:3:0:0:
411,154,290713,2,0,P|409:190|363:196,1,83.9999974365235,4|0,0:3|0:0,0:0:0:0:
184,181,290890,2,0,B|225:184|225:184|257:136,1,83.9999974365235,8|0,0:0|0:0,0:0:0:0:
196,36,291066,6,0,P|169:65|188:111,1,83.9999974365235,6|0,0:3|0:0,0:0:0:0:
386,72,291242,1,10,0:0:0:0:
386,72,291331,1,4,0:3:0:0:
386,72,291419,2,0,B|407:61|400:36|400:36|390:56|354:68,1,83.9999974365235,4|0,0:3|0:0,0:0:0:0:
324,204,291595,1,8,0:0:0:0:
324,204,291684,1,4,0:3:0:0:
324,204,291772,2,0,B|348:206|358:183|358:183|337:179|324:161,1,83.9999974365235,4|0,0:3|0:0,0:0:0:0:
168,265,291948,1,8,0:0:0:0:
168,265,292037,1,4,0:3:0:0:
168,265,292125,2,0,B|172:287|193:295|193:295|213:281|234:283,1,83.9999974365235,4|0,0:3|0:0,0:0:0:0:
396,341,292301,2,0,B|378:337|356:345|356:345|351:322|334:309,1,83.9999974365235,8|0,0:0|0:0,0:0:0:0:
232,136,292478,6,0,P|210:150|231:198,1,83.9999974365235,6|0,0:3|0:0,0:0:0:0:
485,282,292654,2,0,B|496:241|466:208|466:208|458:213|458:213|421:179|433:135,1,167.999994873047,10|4,0:0|0:3,0:0:0:0:
459,29,292919,1,4,0:3:0:0:
459,29,293007,2,0,B|436:45|436:45|415:32|378:21,1,83.9999974365235,8|0,0:0|0:0,0:0:0:0:
239,60,293184,1,4,0:3:0:0:
239,60,293272,1,4,0:3:0:0:
239,60,293360,2,0,P|253:43|240:66,1,83.9999974365235,8|0,0:0|0:0,0:0:0:0:
191,177,293537,1,4,0:3:0:0:
191,177,293625,1,4,0:3:0:0:
191,177,293713,2,0,P|183:216|133:211,1,83.9999974365235,8|0,0:0|0:3,0:0:0:0:
34,130,293890,1,4,0:3:0:0:
34,130,293978,1,4,0:3:0:0:
34,130,294066,2,0,P|7:94|17:50,1,83.9999974365235,10|0,0:0|0:0,0:0:0:0:
164,39,294242,6,0,P|186:33|195:12,2,45.3333341979981,8|8|8,0:3|0:3|0:3,0:0:0:0:
121,112,294419,1,4,0:3:0:0:
118,139,294507,1,4,0:3:0:0:
128,163,294595,5,8,0:0:0:0:
187,208,294684,1,8,0:0:0:0:
261,204,294772,1,8,0:0:0:0:
316,152,294860,1,8,0:0:0:0:
324,78,294948,5,8,0:3:0:0:
346,43,295037,1,8,0:3:0:0:
384,28,295125,1,8,0:3:0:0:
424,32,295213,1,8,0:3:0:0:
449,56,295301,1,4,0:3:0:0:
461,102,295390,1,4,0:3:0:0:
430,153,295478,1,4,0:3:0:0:
358,161,295566,1,4,0:3:0:0:
300,98,295654,6,0,B|262:76|257:101|224:78,1,80,12|0,0:2|0:0,0:0:0:0:
93,16,295831,2,0,P|122:32|122:82,1,80,4|4,0:3|0:3,0:0:0:0:
5,186,296007,1,8,0:0:0:0:
2,237,296095,1,0,0:3:0:0:
33,278,296184,1,4,0:3:0:0:
83,289,296271,1,4,0:3:0:0:
129,265,296360,1,8,0:0:0:0:
149,216,296449,1,0,0:3:0:0:
193,192,296537,1,4,0:3:0:0:
243,204,296625,1,4,0:3:0:0:
260,251,296713,6,0,P|230:280|203:258,1,80,10|0,0:2|0:0,0:0:0:0:
143,71,296890,1,6,0:3:0:0:
143,71,296978,1,4,0:3:0:0:
143,71,297066,2,0,B|161:81|161:81|182:67|230:51,1,80,8|0,0:0|0:3,0:0:0:0:
390,86,297242,2,0,B|370:72|370:72|351:88|318:106,1,80,4|4,0:3|0:3,0:0:0:0:
204,261,297419,5,8,0:2:0:0:
156,235,297507,1,0,0:3:0:0:
135,185,297595,1,4,0:3:0:0:
152,133,297684,1,4,0:3:0:0:
198,103,297772,1,8,0:2:0:0:
251,110,297860,1,0,0:3:0:0:
287,151,297948,1,4,0:3:0:0:
289,204,298037,1,4,0:3:0:0:
260,251,298125,6,0,P|254:285|297:297,1,80,10|0,0:2|0:0,0:0:0:0:
451,222,298301,1,6,0:3:0:0:
451,222,298390,1,4,0:3:0:0:
451,222,298478,2,0,B|449:241|460:260|460:260|451:243|412:237,1,80,8|0,0:0|0:3,0:0:0:0:
358,152,298654,2,0,B|360:133|349:114|349:114|358:131|397:137,1,80,4|4,0:3|0:3,0:0:0:0:
397,342,298831,5,10,0:2:0:0:
343,372,298919,1,0,0:0:0:0:
284,350,299007,1,4,0:3:0:0:
262,291,299096,1,4,0:3:0:0:
294,238,299184,1,10,0:0:0:0:
285,168,299272,1,0,0:3:0:0:
232,121,299360,1,4,0:3:0:0:
161,124,299449,1,4,0:3:0:0:
119,181,299537,6,0,B|119:207|138:224|138:224|127:202|131:175,1,88.000002685547,10|0,0:0|0:3,0:0:0:0:
171,24,299713,1,6,0:3:0:0:
171,24,299801,1,4,0:3:0:0:
171,24,299890,2,0,B|123:31|92:-3|92:-3|123:34|112:92,1,176.000005371094,8|4,0:2|0:3,0:0:0:0:
19,192,300154,1,4,0:3:0:0:
19,192,300242,2,0,B|67:199|98:165|98:165|67:202|78:260,1,176.000005371094,10|4,0:0|0:3,0:0:0:0:
128,340,300507,5,4,0:3:0:0:
128,340,300595,2,0,P|160:344|171:297,1,88.000002685547,10|0,0:2|0:3,0:0:0:0:
280,213,300772,1,4,0:3:0:0:
280,213,300860,1,4,0:3:0:0:
280,213,300948,2,0,P|248:244|275:275,1,88.000002685547,10|0,0:2|0:3,0:0:0:0:
439,352,301125,6,0,B|419:368|397:365|397:365|373:347|375:317,1,88.000002685547,6|4,0:3|0:3,0:0:0:0:
451,191,301301,1,12,0:2:0:0:
479,144,301390,1,0,0:0:0:0:
470,90,301478,1,4,0:3:0:0:
430,54,301566,1,4,0:3:0:0:
375,53,301654,1,8,0:0:0:0:
332,86,301743,1,0,0:3:0:0:
321,140,301831,1,4,0:3:0:0:
277,174,301919,1,4,0:3:0:0:
221,172,302007,1,8,0:0:0:0:
179,133,302096,1,0,0:3:0:0:
171,78,302184,1,4,0:3:0:0:
201,30,302272,1,4,0:3:0:0:
255,16,302360,6,0,P|271:48|232:83,1,88.000002685547,10|0,0:2|0:0,0:0:0:0:
30,78,302537,1,6,0:3:0:0:
30,78,302625,1,4,0:3:0:0:
30,78,302713,2,0,B|30:57|17:40|17:40|41:51|45:84,1,88.000002685547,8|0,0:0|0:3,0:0:0:0:
55,235,302890,2,0,B|43:221|18:214|18:214|43:203|74:218,1,88.000002685547,4|4,0:3|0:3,0:0:0:0:
221,343,303066,5,8,0:2:0:0:
277,333,303154,1,0,0:3:0:0:
313,289,303242,1,4,0:3:0:0:
313,231,303331,1,4,0:3:0:0:
276,188,303419,1,8,0:2:0:0:
218,177,303507,1,0,0:3:0:0:
169,206,303595,1,4,0:3:0:0:
113,196,303684,1,4,0:3:0:0:
81,149,303772,6,0,B|66:129|79:104|79:104|80:129|95:148,1,88.000002685547,10|0,0:2|0:0,0:0:0:0:
130,359,303948,1,6,0:3:0:0:
130,359,304037,1,4,0:3:0:0:
130,359,304125,2,0,B|105:361|86:370|86:370|103:273|199:259|199:259|184:280|185:308,1,264.000008056641,8|4,0:0|0:3,0:0:0:0:
251,377,304478,5,8,0:2:0:0:
251,377,304566,1,0,0:0:0:0:
251,377,304654,2,0,P|288:364|284:318,1,88.000002685547,6|4,0:3|0:3,0:0:0:0:
122,209,304831,1,8,0:0:0:0:
104,158,304919,1,0,0:3:0:0:
114,105,305007,1,4,0:3:0:0:
148,64,305096,1,4,0:3:0:0:
199,46,305184,1,8,0:0:0:0:
250,56,305272,1,0,0:3:0:0:
286,92,305360,6,0,P|261:124|231:89,1,88.000002685547,6|4,0:3|0:3,0:0:0:0:
426,42,305537,1,10,0:2:0:0:
479,79,305625,1,0,0:0:0:0:
493,143,305713,1,4,0:3:0:0:
469,205,305802,1,4,0:3:0:0:
409,237,305890,5,10,0:0:0:0:
397,194,305978,1,0,0:0:0:0:
367,161,306066,1,4,0:3:0:0:
326,143,306154,1,4,0:3:0:0:
282,141,306242,5,10,0:0:0:0:
287,212,306331,1,8,0:0:0:0:
254,275,306419,1,10,0:0:0:0:
186,302,306507,1,8,0:0:0:0:
119,281,306595,1,8,0:0:0:0:
80,220,306684,1,8,0:0:0:0:
91,149,306772,1,8,0:0:0:0:
143,101,306860,1,8,0:0:0:0:
211,83,306948,6,0,B|242:96|258:125|258:125|254:112|263:96,1,80,4|0,3:2|0:0,0:0:0:0:
327,15,307125,1,8,0:0:0:0:
327,15,307213,1,4,0:3:0:0:
327,15,307301,2,0,P|362:10|390:63,1,80,4|0,0:3|0:0,0:0:0:0:
389,221,307478,6,0,B|375:209|346:208|346:208|413:209|440:155,1,160,8|4,0:0|0:3,0:0:0:0:
508,51,307742,1,4,0:3:0:0:
508,51,307831,2,0,B|482:54|482:54|503:73|518:111,1,80,8|0,0:0|0:0,0:0:0:0:
484,274,308007,2,0,P|507:263|499:207,1,80,6|0,0:3|0:0,0:0:0:0:
325,103,308184,5,10,0:0:0:0:
325,103,308272,1,4,0:3:0:0:
325,103,308360,2,0,B|305:113|285:109|285:109|291:124|286:152,1,80,4|0,0:3|0:3,0:0:0:0:
224,248,308537,2,0,B|237:253|244:273|244:273|248:249|230:222,1,80,8|0,0:0|0:0,0:0:0:0:
51,194,308713,6,0,B|73:177|102:181|102:181|111:167|111:167|158:176|193:140,1,160,4|8,0:3|0:0,0:0:0:0:
169,32,308978,1,4,0:3:0:0:
169,32,309066,2,0,P|130:53|134:92,1,80,4|0,0:3|0:0,0:0:0:0:
286,147,309242,2,0,B|320:128|320:128|274:132,1,80,8|0,0:0|0:0,0:0:0:0:
185,238,309419,2,0,P|218:257|232:224,1,80,6|0,0:3|0:0,0:0:0:0:
41,129,309595,6,0,B|23:151|23:151|13:211|66:248|66:248|49:269,1,160,10|4,0:0|0:3,0:0:0:0:
0,349,309860,1,4,0:3:0:0:
0,349,309948,2,0,B|19:337|19:337|42:354|80:362,1,80,8|0,0:0|0:0,0:0:0:0:
237,323,310125,6,0,B|212:330|201:350|201:350|229:287|184:237,1,167.999994873047,6|8,0:3|0:0,0:0:0:0:
162,238,310390,1,4,0:3:0:0:
299,255,310478,2,0,B|333:267|341:311|341:311|329:254|363:222,1,167.999994873047,6|8,0:3|0:0,0:0:0:0:
380,225,310742,1,4,0:3:0:0:
254,162,310831,2,0,B|233:153|226:131|226:131|239:115|273:113,1,83.9999974365235,6|0,0:3|0:0,0:0:0:0:
486,191,311007,6,0,B|501:91|413:61|413:61|407:91|385:118|385:118|409:126|423:154,1,276.000005264282,10|4,0:0|0:3,0:0:0:0:
467,280,311360,2,0,B|425:273|408:238|408:238|344:301|383:374|383:374|383:347|401:326,1,276.000005264282,8|4,0:0|0:3,0:0:0:0:
326,191,311713,2,0,B|307:205|282:208|282:208|207:152|248:69|248:69|225:97|184:96,1,276.000005264282,8|4,0:0|0:3,0:0:0:0:
137,189,312066,2,0,B|154:202|161:222|161:222|169:195|146:174,1,92.0000017547608,8|0,0:0|0:0,0:0:0:0:
32,63,312242,6,0,P|14:87|53:124,1,92.0000017547608,6|0,0:3|0:0,0:0:0:0:
249,62,312419,1,12,0:0:0:0:
249,62,312507,1,4,0:3:0:0:
249,62,312595,2,0,B|223:72|204:65|204:65|220:83|217:112,1,92.0000017547608,4|0,0:3|0:0,0:0:0:0:
254,210,312772,2,0,B|280:200|299:207|299:207|283:189|286:160,1,92.0000017547608,8|0,0:0|0:0,0:0:0:0:
42,140,312948,6,0,P|51:172|111:169,1,92.0000017547608,4|0,0:3|0:0,0:0:0:0:
111,296,313125,2,0,P|143:304|170:250,1,92.0000017547608,8|0,0:0|0:0,0:0:0:0:
143,3,313301,6,0,P|119:26|152:77,1,92.0000017547608,4|0,0:3|0:0,0:0:0:0:
42,140,313478,2,0,P|51:172|111:169,1,92.0000017547608,8|0,0:0|0:0,0:0:0:0:
315,136,313654,6,0,B|301:125|272:122|272:122|251:136|244:172,1,92.0000017547608,6|0,0:3|0:0,0:0:0:0:
327,319,313831,1,10,0:0:0:0:
327,319,313919,1,4,0:3:0:0:
327,319,314007,2,0,B|346:324|356:347|356:347|361:319|337:290,1,92.0000017547608,4|0,0:3|0:0,0:0:0:0:
184,238,314184,2,0,P|177:269|230:294,1,92.0000017547608,8|0,0:0|0:0,0:0:0:0:
459,223,314360,6,0,B|439:206|437:182|437:182|409:195|383:186,1,92.0000017547608,4|0,0:3|0:0,0:0:0:0:
203,120,314537,2,0,B|212:132|243:135|243:135|233:157|242:182,1,92.0000017547608,8|0,0:0|0:0,0:0:0:0:
414,369,314713,6,0,P|438:345|421:296,1,92.0000017547608,4|0,0:3|0:0,0:0:0:0:
184,238,314890,2,0,P|214:271|260:259,1,92.0000017547608,8|0,0:0|0:0,0:0:0:0:
390,33,315066,1,10,0:2:0:0:
291,364,315242,6,0,L|115:331,1,160,10|4,0:0|0:3,0:0:0:0:
97,342,315478,1,4,0:3:0:0:
89,349,315537,1,4,0:3:0:0:
81,356,315595,2,0,B|67:342|52:337|52:337|59:317|52:290,1,71.9999978027344,8|0,0:0|0:0,0:0:0:0:
160,228,315772,2,0,B|158:208|149:194|149:194|168:183|180:158,1,71.9999978027344,8|0,0:2|0:0,0:0:0:0:
148,69,315948,1,4,0:3:0:0:
126,67,316037,1,4,0:3:0:0:
84,99,316125,6,0,B|140:88|140:88|150:91|150:91|227:76,1,143.999995605469,8|4,0:2|0:3,0:0:0:0:
262,94,316360,1,4,0:3:0:0:
259,103,316419,1,4,0:3:0:0:
256,112,316478,1,4,0:3:0:0:
512,32,316654,5,12,0:0:0:0:
256,192,316742,12,0,319301,0:0:0:0:
400,326,319654,6,0,B|418:306|417:275|417:275|392:242|392:242|390:181|424:154,1,192,4|4,3:2|0:3,0:0:0:0:
314,236,320007,2,0,P|355:238|371:207,1,64,8|0,0:0|0:0,0:0:0:0:
485,61,320184,6,0,B|457:62|441:84|441:84|429:79|429:79|354:96|316:32|316:32|326:54|321:76,1,240,6|0,0:3|0:0,0:0:0:0:
331,148,320537,2,0,P|327:115|303:90,1,64,4|4,0:3|0:3,0:0:0:0:
148,39,320713,1,8,0:0:0:0:
148,39,320801,1,4,0:3:0:0:
148,39,320890,1,4,0:3:0:0:
148,39,320978,1,4,0:3:0:0:
148,39,321066,6,0,B|120:69|120:69|112:163|199:189,1,192,4|4,0:3|0:3,0:0:0:0:
48,164,321419,2,0,P|80:149|111:155,1,64,8|0,0:0|0:0,0:0:0:0:
257,281,321595,6,0,B|290:331|252:382|252:382|262:305|200:263,1,240,6|0,0:3|0:0,0:0:0:0:
128,292,321948,2,0,P|156:289|183:261,1,64,4|4,0:3|0:3,0:0:0:0:
227,83,322125,1,8,0:0:0:0:
227,83,322213,1,4,0:3:0:0:
227,83,322301,1,4,0:3:0:0:
227,83,322390,1,4,0:3:0:0:
227,83,322478,6,0,B|266:50|316:74|316:74|350:114|325:164,1,192,4|4,0:3|0:3,0:0:0:0:
292,229,322831,2,0,P|281:195|300:167,1,64,8|0,0:0|0:0,0:0:0:0:
469,85,323007,6,0,B|471:113|448:133|448:133|458:144|458:144|407:173|424:248|424:248|415:222|389:208,1,240,6|0,0:3|0:0,0:0:0:0:
362,290,323360,2,0,P|389:262|391:231,1,64,4|4,0:3|0:3,0:0:0:0:
317,94,323537,1,8,0:0:0:0:
317,94,323625,1,4,0:3:0:0:
317,94,323713,1,4,0:3:0:0:
317,94,323801,1,4,0:3:0:0:
317,94,323890,6,0,B|241:87|216:166|216:166|205:138|169:126,1,192,4|4,0:3|0:3,0:0:0:0:
248,26,324242,2,0,P|255:54|235:100,1,64,8|0,0:0|0:0,0:0:0:0:
56,163,324419,6,0,B|42:154|23:157|23:157|43:132|44:103|44:103|119:149|89:229,1,240,6|0,0:3|0:0,0:0:0:0:
60,303,324772,2,0,P|51:277|75:238,1,64,4|4,0:3|0:3,0:0:0:0:
208,184,324948,1,8,0:0:0:0:
208,184,325037,1,4,0:3:0:0:
208,184,325125,1,4,0:3:0:0:
208,184,325213,1,4,0:3:0:0:
208,184,325301,6,0,B|262:197|268:252|268:252|285:202|340:196,1,192,4|4,3:2|0:3,0:0:0:0:
212,307,325654,2,0,P|247:285|260:258,1,64,8|0,0:0|0:0,0:0:0:0:
288,72,325831,6,0,B|271:52|235:57|235:57|229:61|229:61|211:-1|122:4|122:4|143:10|158:42,1,240,6|0,0:3|0:0,0:0:0:0:
141,118,326184,1,4,0:3:0:0:
141,118,326272,1,4,0:3:0:0:
174,150,326360,1,8,3:2:0:0:
186,148,326448,1,4,0:3:0:0:
197,154,326537,1,4,0:3:0:0:
209,153,326625,1,4,0:3:0:0:
243,159,326713,6,0,B|263:260|172:234|192:335,1,192,4|4,0:3|0:3,0:0:0:0:
153,187,327066,2,0,P|164:217|191:239,1,64,8|0,0:0|0:0,0:0:0:0:
403,325,327242,6,0,B|468:306|464:231|464:231|480:226|480:226|420:231|402:175,1,240,6|0,0:3|0:0,0:0:0:0:
473,150,327595,2,0,P|456:172|419:182,1,64,4|4,0:3|0:3,0:0:0:0:
249,96,327772,1,8,0:0:0:0:
249,96,327860,1,4,0:3:0:0:
249,96,327948,1,4,0:3:0:0:
249,96,328037,1,4,0:3:0:0:
249,96,328125,6,0,B|258:110|258:110|223:147|236:205|236:205|226:168|180:156,1,192,4|4,3:2|0:3,0:0:0:0:
305,169,328478,2,0,P|270:170|242:195,1,64,8|0,0:0|0:0,0:0:0:0:
135,302,328654,6,0,B|184:318|194:370|194:370|217:281|132:251,1,240,6|0,0:3|0:0,0:0:0:0:
69,281,329007,2,0,P|97:280|124:253,1,64,4|4,0:3|0:3,0:0:0:0:
161,98,329184,1,8,0:0:0:0:
161,98,329272,1,4,0:3:0:0:
161,98,329360,1,4,0:3:0:0:
161,98,329448,1,4,0:3:0:0:
161,98,329537,6,0,B|63:61|63:61|102:38,1,143.999995605469,8|4,0:0|0:3,0:0:0:0:
226,39,329801,2,0,B|272:33|272:33|277:22|277:22|376:8,1,143.999995605469,8|4,0:2|0:3,0:0:0:0:
445,91,330066,2,0,B|451:51|451:51|420:75,1,71.9999978027344,8|0,0:0|0:0,0:0:0:0:
207,224,330242,5,8,0:0:0:0:
268,161,330331,1,8,0:0:0:0:
354,159,330419,1,8,0:0:0:0:
433,337,330595,1,8,0:0:0:0:
211,169,330772,5,8,0:0:0:0:
300,143,330860,1,8,0:0:0:0:
384,181,330948,6,0,B|438:89|334:91|385:-8,1,192,4|4,3:2|0:3,0:0:0:0:
322,149,331301,2,0,P|324:120|353:94,1,64,8|0,0:0|0:0,0:0:0:0:
507,161,331478,6,0,B|523:185|523:185|483:190|456:239|456:239|462:245|462:245|434:287|462:334|462:334|470:307,1,240,6|0,0:3|0:0,0:0:0:0:
448,215,331831,2,0,P|422:195|373:200,1,64,4|4,0:3|0:3,0:0:0:0:
257,250,332007,1,8,0:0:0:0:
257,250,332095,1,4,0:3:0:0:
257,250,332184,1,4,0:3:0:0:
257,250,332272,1,4,0:3:0:0:
257,250,332360,6,0,B|245:260|244:282|244:282|296:308|308:373|308:373|306:349|319:330,1,192,4|4,0:3|0:3,0:0:0:0:
204,351,332713,2,0,P|230:323|259:309,1,64,8|0,0:0|0:0,0:0:0:0:
449,264,332890,6,0,B|419:258|396:288|396:288|422:251|419:212|419:212|427:205|427:205|387:176|393:125,1,240,6|0,0:3|0:0,0:0:0:0:
419,36,333242,1,4,0:3:0:0:
419,36,333331,1,4,0:3:0:0:
378,10,333419,1,8,0:0:0:0:
368,18,333507,1,4,0:3:0:0:
355,16,333595,1,4,0:3:0:0:
342,18,333684,1,4,0:3:0:0:
308,31,333772,6,0,B|323:56|348:56|348:56|342:85|302:114|257:119|223:95,1,192,4|4,0:3|0:3,0:0:0:0:
351,163,334125,2,0,P|334:130|295:110,1,64,8|0,0:0|0:0,0:0:0:0:
110,204,334301,6,0,B|99:239|99:239|151:264|151:264|177:243|204:190|174:152|140:134,1,240,6|0,0:3|0:0,0:0:0:0:
46,98,334654,1,4,0:3:0:0:
46,98,334742,1,4,0:3:0:0:
59,69,334831,1,8,0:0:0:0:
95,76,334919,1,4,0:3:0:0:
123,54,335007,1,4,0:3:0:0:
156,59,335095,1,4,0:3:0:0:
194,47,335184,6,0,B|217:35|217:35|275:47|288:112|288:112|297:85|329:67,1,192,4|4,0:3|0:3,0:0:0:0:
212,137,335537,2,0,P|245:129|268:108,1,64,8|0,0:2|0:0,0:0:0:0:
377,0,335713,5,8,0:3:0:0:
427,3,335801,1,8,0:3:0:0:
457,44,335890,1,4,0:3:0:0:
457,88,335978,1,4,0:3:0:0:
433,118,336066,1,4,0:3:0:0:
428,149,336154,1,4,0:3:0:0:
447,182,336242,1,8,0:0:0:0:
276,269,336419,5,4,0:3:0:0:
276,269,336507,1,4,0:3:0:0:
276,269,336595,2,0,P|257:163|235:43,1,215.999993408203,12|4,0:0|0:3,0:0:0:0:
145,247,336948,2,0,P|158:212|177:167,1,71.9999978027344,8|0,0:0|0:0,0:0:0:0:
237,56,337125,1,4,0:3:0:0:
381,320,337301,5,8,0:0:0:0:
380,290,337390,1,4,0:3:0:0:
394,265,337478,1,4,0:3:0:0:
419,252,337566,1,4,0:3:0:0:
371,258,337654,5,8,0:0:0:0:
352,236,337742,1,4,0:3:0:0:
349,207,337831,1,4,0:3:0:0:
359,180,337919,1,4,0:3:0:0:
431,131,338007,6,0,P|332:156|183:187,1,215.999993408203,12|4,0:0|0:3,0:0:0:0:
376,29,338360,2,0,P|354:54|314:97,1,71.9999978027344,8|0,0:0|0:0,0:0:0:0:
220,179,338537,1,4,0:3:0:0:
480,223,338713,5,8,0:0:0:0:
451,224,338801,1,4,0:3:0:0:
424,236,338890,1,4,0:3:0:0:
408,260,338978,1,4,0:3:0:0:
417,204,339066,5,8,0:0:0:0:
389,194,339154,1,4,0:3:0:0:
360,197,339242,1,4,0:3:0:0:
337,215,339331,1,4,0:3:0:0:
317,306,339419,6,0,P|283:167|250:9,1,287.999991210938,12|4,0:0|0:3,0:0:0:0:
253,25,339948,1,4,0:3:0:0:
183,136,340125,5,8,0:0:0:0:
262,233,340301,1,8,0:0:0:0:
253,25,340478,5,8,0:0:0:0:
127,195,340654,1,8,0:0:0:0:
310,82,340831,5,8,0:0:0:0:
52,134,341007,1,8,0:0:0:0:
166,308,341184,5,8,0:0:0:0:
421,152,341360,1,8,0:0:0:0:
113,61,341537,5,8,0:0:0:0:
72,125,341625,1,8,0:0:0:0:
96,199,341713,1,8,0:0:0:0:
167,229,341802,1,8,0:0:0:0:
236,191,341890,1,8,0:0:0:0:
248,113,341977,1,8,0:0:0:0:
319,76,342066,1,8,0:0:0:0:
394,100,342154,1,8,0:0:0:0:
393,116,342242,5,0,0:0:0:0:
256,192,342331,12,2,347845,0:0:0:0:
