osu file format v14

[General]
AudioFilename: audio.mp3
AudioLeadIn: 0
PreviewTime: 23841
Countdown: 0
SampleSet: Drum
StackLeniency: 0.5
Mode: 0
LetterboxInBreaks: 0
WidescreenStoryboard: 0

[Editor]
Bookmarks: 569,12205,23841,47114,70387,82023,93659,116932,128569,140205,163478,186750,198387,210023,221659,230387,233296,244932,246387,269659,292932,316205,339478
DistanceSpacing: 0.3
BeatDivisor: 4
GridSize: 4
TimelineZoom: 2.2

[Metadata]
Title:Higashi no Kuni no Nemuranai Yoru
TitleUnicode:東の国の眠らない夜
Artist:Demetori
ArtistUnicode:Demetori
Creator:Mismagius
Version:Wind God Girl
Source:東方文花帖 ~ Shoot the Bullet.
Tags:如臨深遠 ~雨縒煙柳~ touhou project Aya Shameimaru zun video game instrumental sleepless night of the eastern country Shin'en ni Nozomu ga Gotoshi
BeatmapID:3852994
BeatmapSetID:1872478

[Difficulty]
HPDrainRate:3.5
CircleSize:4
OverallDifficulty:9
ApproachRate:9.2
SliderMultiplier:2
SliderTickRate:1

[Events]
//Background and Video events
0,0,"Untitled-1.jpg",0,0
//Break Periods
2,186945,197812
2,221854,229812
//Storyboard Layer 0 (Background)
//Storyboard Layer 1 (Fail)
//Storyboard Layer 2 (Pass)
//Storyboard Layer 3 (Foreground)
//Storyboard Layer 4 (Overlay)
//Storyboard Sound Samples

[TimingPoints]
564,363.636363636364,4,2,0,70,1,0
7836,-100,4,2,0,60,0,0
8382,-100,4,2,0,65,0,0
8927,-100,4,2,0,70,0,0
9291,-100,4,3,0,70,0,0
11473,-86.9565217391304,4,2,0,70,0,0
12200,-90.9090909090909,4,2,0,70,0,0
23836,-80,4,2,0,80,0,1
47109,-90.9090909090909,4,2,0,70,0,0
68745,-80,4,2,0,70,0,0
69291,-133.333333333333,4,2,0,70,0,0
70382,-111.111111111111,4,3,1,50,0,0
72382,-111.111111111111,4,3,0,50,0,0
72564,-111.111111111111,4,3,1,50,0,0
74927,-111.111111111111,4,3,0,50,0,0
75109,-111.111111111111,4,3,1,50,0,0
76927,-111.111111111111,4,3,0,50,0,0
77109,-111.111111111111,4,3,1,50,0,0
86018,-111.111111111111,4,3,0,50,0,0
86382,-111.111111111111,4,3,1,50,0,0
93382,-111.111111111111,4,3,0,50,0,0
93654,-80,4,2,0,70,0,1
116927,-111.111111111111,4,2,0,70,0,0
128564,-100,4,2,0,70,0,0
140200,-80,4,2,0,70,0,1
163473,-74.0740740740741,4,2,0,70,0,1
186745,-133.333333333333,4,2,0,70,0,0
198382,-133.333333333333,4,3,1,70,0,0
232382,-133.333333333333,4,3,0,70,0,0
233291,-117.647058823529,4,2,0,70,0,0
246382,-80,4,2,0,70,0,1
291473,-100,4,2,0,70,0,0
292927,-90.9090909090909,4,2,0,70,0,0
327836,-90.9090909090909,4,2,0,80,0,0
330745,-90.9090909090909,4,2,0,70,0,0
333654,-90.9090909090909,4,2,0,60,0,0
336564,-90.9090909090909,4,2,0,50,0,0
337927,-90.9090909090909,4,2,0,40,0,0

[Colours]
Combo1 : 213,204,234
Combo2 : 187,225,253
Combo3 : 131,124,205
Combo4 : 143,183,222
Combo5 : 172,145,208
Combo6 : 107,132,188

[HitObjects]
39,256,564,6,0,P|31:302|63:360,1,100,4|0,2:1|0:0,0:0:0:0:
99,187,927,1,0,0:0:0:0:
183,335,1109,2,0,P|190:288|159:231,1,100,2|0,0:0|0:0,0:0:0:0:
15,127,1473,1,2,0:0:0:0:
110,294,1654,1,0,0:0:0:0:
207,128,1836,1,2,0:0:0:0:
0,43,2018,6,0,P|57:32|113:25,1,100,0|2,0:0|0:0,0:0:0:0:
322,84,2382,2,0,P|265:95|209:102,1,100,2|0,0:0|0:0,0:0:0:0:
0,43,2745,1,2,0:0:0:0:
42,228,2927,1,0,0:0:0:0:
228,186,3109,1,2,0:0:0:0:
185,3,3291,1,0,0:0:0:0:
185,3,3382,1,0,0:0:0:0:
185,3,3473,6,0,P|176:64|169:101,1,100,2|0,0:0|0:0,0:0:0:0:
141,256,3836,1,0,0:0:0:0:
303,202,4018,2,0,P|253:193|204:186,2,100,2|0|2,0:0|0:0|0:0,0:0:0:0:
231,339,4564,1,0,0:0:0:0:
110,249,4745,6,0,P|60:257|11:264,1,100,2|0,0:0|0:0,0:0:0:0:
13,254,5018,1,0,0:0:0:0:
15,244,5109,1,2,0:0:0:0:
116,334,5291,1,2,0:0:0:0:
224,275,5473,1,0,0:0:0:0:
326,360,5654,2,0,P|375:351|424:344,1,100,2|0,0:0|0:0,0:0:0:0:
276,162,6018,2,0,P|325:170|374:177,1,100,2|2,0:0|0:0,0:0:0:0:
442,130,6291,1,0,0:0:0:0:
451,126,6382,6,0,L|464:236,1,100,4|0,0:1|0:0,0:0:0:0:
311,98,6745,2,0,L|298:208,1,100,0|2,3:0|0:0,0:0:0:0:
219,303,7109,1,0,3:0:0:0:
216,293,7200,1,0,0:0:0:0:
213,283,7291,1,2,0:0:0:0:
89,249,7473,1,0,3:0:0:0:
130,111,7654,2,0,P|154:117|178:123,1,50,2|0,0:0|0:0,0:0:0:0:
193,130,7836,5,4,3:0:0:0:
38,183,8018,1,4,3:0:0:0:
69,17,8200,1,4,3:0:0:0:
192,247,8382,5,4,3:0:0:0:
14,159,8564,1,4,3:0:0:0:
182,47,8746,1,4,3:0:0:0:
91,345,8927,5,4,3:0:0:0:
14,118,9109,1,4,3:0:0:0:
252,166,9291,1,2,0:0:0:0:
283,181,9382,1,0,0:0:0:0:
317,181,9473,1,4,0:0:0:0:
348,166,9564,1,0,0:0:0:0:
370,140,9654,2,0,P|376:90|373:78,1,50,4|0,0:0|0:0,0:0:0:0:
213,3,9836,5,4,0:0:0:0:
215,12,9927,1,0,0:0:0:0:
217,21,10018,2,0,L|225:88,1,50,4|0,0:0|0:0,0:0:0:0:
282,215,10200,5,4,0:0:0:0:
280,224,10291,1,0,0:0:0:0:
278,233,10382,2,0,L|272:282,1,50,4|0,0:0|0:0,0:0:0:0:
164,303,10564,1,4,0:0:0:0:
166,312,10654,2,0,L|171:361,2,50,4|0|0,0:0|0:0|0:0,0:0:0:0:
75,240,10927,2,0,L|69:190,1,50,4|0,0:0|0:0,0:0:0:0:
12,105,11109,1,4,0:0:0:0:
18,85,11200,1,0,0:0:0:0:
24,66,11291,1,0,0:0:0:0:
30,47,11382,1,0,0:0:0:0:
42,3,11473,5,4,3:0:0:0:
84,37,11564,1,4,3:0:0:0:
137,46,11654,2,0,P|180:42|220:34,1,57.5000010967255,4|0,3:0|0:0,0:0:0:0:
296,133,11836,2,0,P|324:128|353:126,1,57.5000010967255,4|0,3:0|0:0,0:0:0:0:
452,10,12018,1,12,3:0:0:0:
456,20,12109,1,12,3:0:0:0:
491,50,12200,6,0,P|478:134|474:180,1,110.000003356934,6|0,0:0|0:0,0:0:0:0:
312,247,12564,2,0,P|305:189|296:133,1,110.000003356934,2|0,1:2|0:0,0:0:0:0:
272,107,12836,1,0,0:0:0:0:
275,96,12927,1,2,0:0:0:0:
145,148,13109,1,2,0:0:0:0:
148,158,13200,1,0,0:0:0:0:
151,168,13291,1,0,0:0:0:0:
108,22,13473,6,0,L|-4:5,1,110.000003356934,2|0,1:2|0:0,0:0:0:0:
10,55,13745,1,0,0:0:0:0:
13,65,13836,1,2,0:0:0:0:
33,156,14018,1,2,0:0:0:0:
187,103,14200,1,2,1:2:0:0:
231,246,14382,2,0,P|221:300|210:354,1,110.000003356934,2|0,0:0|0:0,0:0:0:0:
173,370,14654,1,0,0:0:0:0:
162,374,14745,1,2,0:0:0:0:
11,312,14927,1,2,1:2:0:0:
147,206,15109,5,2,0:0:0:0:
144,195,15200,1,0,0:0:0:0:
140,184,15291,1,2,0:0:0:0:
10,96,15473,1,2,1:2:0:0:
38,238,15654,1,2,0:0:0:0:
41,227,15745,1,0,0:0:0:0:
45,216,15836,1,0,0:0:0:0:
130,78,16018,2,0,L|191:89,1,55.0000016784668,2|0,0:0|0:0,0:0:0:0:
224,64,16200,1,2,0:0:0:0:
323,209,16382,6,0,P|255:227|211:241,1,110.000003356934,2|0,1:2|0:0,0:0:0:0:
168,214,16654,1,0,0:0:0:0:
164,224,16745,1,2,0:0:0:0:
291,323,16927,1,2,0:0:0:0:
139,384,17109,1,0,1:2:0:0:
164,224,17291,2,0,P|205:236|227:245,1,55.0000016784668,2|0,0:0|0:0,0:0:0:0:
210,111,17473,2,0,P|230:148|239:170,1,55.0000016784668,2|0,0:0|0:0,0:0:0:0:
304,93,17654,1,6,1:2:0:0:
78,43,17836,1,0,0:0:0:0:
143,274,18018,6,0,P|133:213|173:158,1,110.000003356934,6|0,1:2|0:0,0:0:0:0:
313,127,18382,1,2,1:2:0:0:
246,257,18564,1,2,0:0:0:0:
252,266,18654,1,0,0:0:0:0:
258,275,18745,2,0,P|332:294|375:307,1,110.000003356934,0|2,0:0|0:0,0:0:0:0:
411,273,19018,1,0,0:0:0:0:
419,280,19109,1,2,0:0:0:0:
261,365,19291,1,2,1:2:0:0:
278,191,19473,5,0,0:0:0:0:
282,181,19564,1,0,0:0:0:0:
286,171,19654,1,2,0:0:0:0:
292,161,19745,1,0,0:0:0:0:
299,153,19836,1,2,0:0:0:0:
454,117,20018,1,2,1:2:0:0:
304,34,20200,1,2,0:0:0:0:
293,36,20291,1,0,0:0:0:0:
282,38,20382,1,2,0:0:0:0:
271,40,20473,1,0,0:0:0:0:
260,42,20564,2,0,P|164:62|146:66,1,110.000003356934,2|2,0:0|1:2,0:0:0:0:
59,230,20927,6,0,P|155:250|173:254,1,110.000003356934,6|0,1:2|0:0,0:0:0:0:
76,77,21291,1,2,1:2:0:0:
216,181,21473,1,2,0:0:0:0:
220,171,21564,1,0,0:0:0:0:
224,161,21654,2,0,P|238:112|240:89,1,55.0000016784668,2|0,0:0|0:0,0:0:0:0:
311,2,21836,2,0,P|334:47|341:69,1,55.0000016784668,2|0,0:0|0:0,0:0:0:0:
388,176,22018,2,0,P|452:192|509:205,1,110.000003356934,4|0,1:1|0:0,0:0:0:0:
501,282,22291,1,0,0:0:0:0:
497,292,22382,5,4,1:2:0:0:
458,323,22473,1,0,0:0:0:0:
408,321,22564,1,2,0:0:0:0:
370,287,22654,1,0,1:0:0:0:
363,238,22745,1,2,1:2:0:0:
325,204,22836,1,0,0:0:0:0:
275,202,22927,1,2,0:0:0:0:
236,233,23018,1,0,0:0:0:0:
236,292,23109,5,2,0:0:0:0:
284,337,23200,1,0,1:0:0:0:
349,340,23291,1,2,1:2:0:0:
401,300,23382,1,2,0:0:0:0:
415,237,23473,5,12,3:0:0:0:
397,188,23564,1,8,3:0:0:0:
360,166,23654,1,8,3:0:0:0:
334,162,23745,1,8,3:0:0:0:
316,166,23836,5,4,1:2:0:0:
187,0,24018,6,0,P|153:60|161:125,1,125,2|0,0:0|1:2,0:0:0:0:
221,289,24382,1,2,0:0:0:0:
191,322,24473,1,0,0:0:0:0:
146,309,24564,1,2,0:0:0:0:
116,343,24655,1,0,0:0:0:0:
72,329,24745,1,2,0:0:0:0:
0,167,24927,2,0,P|76:184|131:198,1,125,0|2,1:2|0:0,0:0:0:0:
193,158,25200,1,0,0:0:0:0:
189,144,25291,5,4,0:0:0:0:
346,92,25473,1,2,0:0:0:0:
398,249,25654,1,0,1:2:0:0:
236,300,25836,1,2,0:0:0:0:
206,267,25927,1,0,0:0:0:0:
161,280,26018,1,2,0:0:0:0:
131,246,26109,1,0,0:0:0:0:
87,260,26199,1,2,0:0:0:0:
57,226,26291,1,0,0:0:0:0:
13,240,26382,2,0,P|29:309|40:367,1,125,0|2,1:2|0:0,0:0:0:0:
157,162,26745,5,4,0:0:0:0:
16,74,26927,1,2,0:0:0:0:
13,61,27018,1,0,0:0:0:0:
9,48,27109,2,0,P|52:18|129:18,1,125,0|2,1:2|0:0,0:0:0:0:
246,138,27473,1,2,0:0:0:0:
213,168,27564,1,0,0:0:0:0:
226,213,27655,1,2,0:0:0:0:
192,243,27746,1,0,0:0:0:0:
206,287,27836,1,2,1:2:0:0:
327,361,28018,1,2,0:0:0:0:
332,349,28109,1,0,0:0:0:0:
344,317,28200,5,4,0:0:0:0:
486,191,28382,2,0,P|502:260|514:319,1,125,2|0,0:0|1:2,0:0:0:0:
303,199,28745,1,2,0:0:0:0:
363,28,28927,1,2,0:0:0:0:
393,61,29018,1,0,0:0:0:0:
438,48,29109,1,2,0:0:0:0:
468,82,29200,1,0,0:0:0:0:
511,71,29290,1,2,1:2:0:0:
478,107,29382,1,0,0:0:0:0:
428,93,29473,1,2,0:0:0:0:
395,130,29564,1,0,0:0:0:0:
347,115,29654,5,4,0:0:0:0:
298,294,29836,2,0,P|365:268|427:254,1,125,2|0,0:0|1:2,0:0:0:0:
221,171,30200,1,2,0:0:0:0:
178,184,30291,1,0,0:0:0:0:
146,150,30382,1,2,0:0:0:0:
103,165,30473,1,0,0:0:0:0:
71,134,30563,1,2,0:0:0:0:
186,5,30745,1,0,1:2:0:0:
146,150,30927,1,2,0:0:0:0:
143,162,31018,1,0,0:0:0:0:
132,205,31109,5,4,0:0:0:0:
323,130,31291,2,0,P|256:104|194:90,1,125,2|0,0:0|1:2,0:0:0:0:
107,321,31654,1,2,0:0:0:0:
74,291,31745,1,0,0:0:0:0:
87,246,31836,1,2,0:0:0:0:
53,216,31927,1,0,0:0:0:0:
67,172,32017,1,2,0:0:0:0:
33,142,32109,1,0,0:0:0:0:
47,98,32200,2,0,L|63:29,1,62.5,0|0,1:2|0:0,0:0:0:0:
37,0,32382,1,2,0:0:0:0:
212,36,32564,5,4,0:0:0:0:
128,165,32745,2,0,P|152:239|162:289,1,125,2|0,0:0|1:2,0:0:0:0:
296,183,33109,1,2,0:0:0:0:
339,350,33291,1,2,0:0:0:0:
369,317,33382,1,0,0:0:0:0:
414,330,33473,1,2,0:0:0:0:
444,296,33564,1,0,0:0:0:0:
488,310,33654,1,2,1:2:0:0:
303,250,33836,1,2,0:0:0:0:
447,119,34018,6,0,P|458:171|461:186,1,62.5,4|0,0:0|0:0,0:0:0:0:
365,138,34200,2,0,P|387:34|393:4,2,125,2|0|2,0:0|1:2|0:0,0:0:0:0:
343,191,34654,1,0,3:0:0:0:
338,202,34745,1,4,3:0:0:0:
335,214,34836,1,0,3:0:0:0:
334,226,34927,1,0,3:0:0:0:
175,278,35109,1,0,1:2:0:0:
131,292,35199,1,0,0:0:0:0:
101,258,35290,1,2,0:0:0:0:
56,271,35381,1,0,0:0:0:0:
26,238,35473,5,4,1:2:0:0:
70,81,35654,2,0,L|202:54,1,125,2|0,0:0|1:2,0:0:0:0:
261,200,36018,1,2,0:0:0:0:
247,156,36108,1,0,0:0:0:0:
281,126,36199,1,2,0:0:0:0:
268,81,36290,1,0,0:0:0:0:
301,51,36382,1,2,0:0:0:0:
367,237,36564,1,0,1:2:0:0:
165,173,36745,1,2,0:0:0:0:
401,104,36927,5,4,0:0:0:0:
357,261,37108,2,0,L|225:288,1,125,2|0,0:0|1:2,0:0:0:0:
79,158,37473,1,2,0:0:0:0:
65,202,37563,1,0,0:0:0:0:
99,232,37654,1,2,0:0:0:0:
86,277,37745,1,0,0:0:0:0:
119,307,37837,1,2,0:0:0:0:
106,352,37927,1,0,0:0:0:0:
139,382,38018,1,0,1:2:0:0:
255,266,38200,1,2,0:0:0:0:
265,272,38291,1,0,0:0:0:0:
298,289,38382,5,4,0:0:0:0:
440,196,38564,2,0,P|475:254|472:319,1,125,2|0,0:0|1:2,0:0:0:0:
350,384,38927,1,2,0:0:0:0:
339,376,39018,1,0,0:0:0:0:
298,346,39110,1,2,0:0:0:0:
254,360,39200,1,0,0:0:0:0:
224,326,39291,1,2,0:0:0:0:
179,339,39382,1,0,0:0:0:0:
149,306,39474,1,0,1:2:0:0:
291,231,39654,1,2,0:0:0:0:
295,219,39745,1,0,0:0:0:0:
299,207,39836,5,4,0:0:0:0:
144,164,40018,2,0,P|62:143|19:130,1,125,2|0,0:0|1:2,0:0:0:0:
158,25,40382,1,2,0:0:0:0:
317,86,40564,1,2,0:0:0:0:
350,116,40655,1,0,0:0:0:0:
337,161,40746,1,2,0:0:0:0:
371,191,40837,1,0,0:0:0:0:
360,234,40927,1,2,1:2:0:0:
396,201,41019,1,0,0:0:0:0:
382,151,41110,1,2,0:0:0:0:
419,118,41201,1,0,0:0:0:0:
404,70,41291,5,4,0:0:0:0:
231,154,41473,2,0,P|255:226|270:283,1,125,2|0,0:0|1:2,0:0:0:0:
131,95,41836,1,2,0:0:0:0:
161,62,41927,1,0,0:0:0:0:
206,75,42018,1,2,0:0:0:0:
236,41,42109,1,0,0:0:0:0:
279,52,42199,1,2,0:0:0:0:
164,201,42382,1,0,1:2:0:0:
351,240,42564,1,2,0:0:0:0:
267,369,42745,5,4,0:0:0:0:
454,281,42927,2,0,P|430:209|415:152,1,125,2|0,0:0|1:2,0:0:0:0:
275,0,43291,1,6,0:0:0:0:
289,44,43381,1,0,0:0:0:0:
255,74,43472,1,2,0:0:0:0:
268,119,43563,1,4,0:0:0:0:
235,149,43655,1,2,0:0:0:0:
248,194,43745,1,0,0:0:0:0:
215,224,43836,1,0,1:2:0:0:
36,170,44018,1,4,0:1:0:0:
100,352,44200,5,4,0:0:0:0:
155,139,44382,2,0,P|174:214|186:268,1,125,2|0,0:0|1:2,0:0:0:0:
331,321,44745,1,2,0:0:0:0:
444,169,44927,1,2,0:0:0:0:
400,183,45017,1,0,0:0:0:0:
370,149,45108,1,2,0:0:0:0:
325,162,45199,1,0,0:0:0:0:
295,129,45291,1,6,1:2:0:0:
406,0,45473,1,2,0:0:0:0:
455,247,45654,5,4,0:1:0:0:
222,189,45836,2,0,P|206:255|194:325,1,125,2|0,1:2|0:0,0:0:0:0:
356,80,46200,1,2,0:0:0:0:
358,92,46291,1,0,0:0:0:0:
360,104,46382,6,0,P|370:148|373:177,1,62.5,2|0,1:2|0:0,0:0:0:0:
431,248,46564,1,2,1:2:0:0:
427,259,46654,1,0,1:0:0:0:
424,271,46745,5,12,3:0:0:0:
405,301,46836,1,8,3:0:0:0:
362,311,46927,1,8,3:0:0:0:
311,287,47018,1,8,3:0:0:0:
282,238,47109,6,0,P|266:185|284:128,1,110.000003356934,4|0,1:2|0:0,0:0:0:0:
445,91,47473,2,0,P|461:144|443:201,1,110.000003356934,2|0,1:2|0:0,0:0:0:0:
358,334,47836,1,2,0:0:0:0:
358,334,48018,2,0,P|427:313|471:303,1,110.000003356934,2|0,0:0|1:2,0:0:0:0:
477,171,48382,6,0,P|346:210|263:229,1,220.000006713867,2|2,0:0|0:0,0:0:0:0:
109,197,48927,2,0,L|141:315,1,110.000003356934,2|0,1:2|0:0,0:0:0:0:
277,339,49291,1,2,0:2:0:0:
58,384,49473,1,0,0:0:0:0:
62,373,49564,1,0,0:0:0:0:
66,362,49654,1,2,1:2:0:0:
109,197,49836,1,2,0:0:0:0:
215,384,50018,6,0,P|200:315|185:269,1,110.000003356934,6|0,0:2|0:0,0:0:0:0:
320,124,50382,2,0,P|305:193|290:239,1,110.000003356934,2|0,1:2|0:0,0:0:0:0:
387,349,50745,1,2,0:2:0:0:
504,220,50927,2,0,P|439:217|399:242,1,110.000003356934,2|0,0:0|1:0,0:0:0:0:
310,99,51291,6,0,P|435:104|512:56,1,220.000006713867,2|2,0:2|0:2,0:0:0:0:
445,214,51836,1,2,1:2:0:0:
401,33,52018,1,2,0:2:0:0:
398,22,52109,1,0,0:0:0:0:
395,11,52200,1,0,0:0:0:0:
321,156,52382,1,0,0:0:0:0:
318,167,52473,1,0,0:0:0:0:
315,178,52564,2,0,P|237:193|205:199,1,110.000003356934,0|2,1:2|0:0,0:0:0:0:
51,31,52927,5,6,0:2:0:0:
204,58,53109,1,0,0:0:0:0:
177,211,53291,1,2,1:2:0:0:
24,184,53473,1,0,0:0:0:0:
117,113,53654,1,2,0:2:0:0:
90,266,53836,1,2,0:0:0:0:
243,293,54018,1,0,1:0:0:0:
270,140,54200,6,0,P|201:152|155:161,1,110.000003356934,2|0,0:2|0:0,0:0:0:0:
368,245,54564,2,0,P|437:233|483:224,1,110.000003356934,2|0,0:2|1:0,0:0:0:0:
370,46,54927,1,2,0:2:0:0:
370,46,55018,1,0,0:0:0:0:
370,46,55109,2,0,P|395:96|397:155,1,110.000003356934
251,183,55382,1,0,0:0:0:0:
251,183,55473,2,0,P|226:133|224:74,1,110.000003356934,0|2,1:2|0:2,0:0:0:0:
310,115,55836,5,2,0:2:0:0:
136,69,56018,1,0,0:0:0:0:
183,242,56200,1,2,1:2:0:0:
236,42,56382,1,0,0:0:0:0:
283,215,56564,1,2,0:2:0:0:
109,169,56746,1,2,0:0:0:0:
310,115,56927,1,0,1:2:0:0:
256,315,57109,6,0,P|234:253|241:193,1,110.000003356934,6|0,0:2|0:0,0:0:0:0:
221,165,57382,1,0,0:0:0:0:
217,154,57473,1,2,0:2:0:0:
84,22,57654,2,0,P|69:98|61:141,1,110.000003356934,0|2,1:0|0:2,0:0:0:0:
30,177,57927,1,0,0:0:0:0:
33,187,58018,1,0,0:0:0:0:
36,197,58109,1,0,0:0:0:0:
40,207,58200,1,2,0:2:0:0:
212,148,58382,1,2,1:2:0:0:
116,307,58564,1,2,0:2:0:0:
147,79,58745,6,0,P|201:54|254:64,1,110.000003356934,6|0,0:0|0:0,0:0:0:0:
225,228,59109,1,2,1:2:0:0:
391,146,59291,2,0,P|375:209|366:259,1,110.000003356934,2|0,0:0|0:2,0:0:0:0:
153,191,59654,2,0,P|194:240|225:281,1,110.000003356934,2|0,0:2|1:0,0:0:0:0:
437,73,60018,6,0,B|397:45|308:56|352:107|263:122|218:92,1,220.000006713867,2|2,0:0|0:0,0:0:0:0:
48,41,60564,1,2,1:2:0:0:
168,1,60745,1,0,0:2:0:0:
172,10,60836,1,0,0:0:0:0:
176,19,60927,2,0,P|157:90|149:133,1,110.000003356934,2|0,0:2|0:0,0:0:0:0:
231,99,61200,1,0,0:0:0:0:
235,108,61291,2,0,P|216:179|208:222,1,110.000003356934,0|2,1:0|0:2,0:0:0:0:
117,355,61654,5,2,0:2:0:0:
306,323,61836,1,0,0:0:0:0:
312,177,62018,1,2,1:2:0:0:
123,209,62200,1,0,0:0:0:0:
209,287,62382,2,0,P|219:233|234:180,1,110.000003356934,2|2,0:2|0:2,0:0:0:0:
144,82,62745,1,0,1:0:0:0:
288,0,62927,6,0,P|298:53|313:106,1,110.000003356934,2|0,0:2|0:0,0:0:0:0:
457,74,63291,2,0,P|426:119|399:167,1,110.000003356934,2|0,0:2|1:0,0:0:0:0:
439,282,63654,1,2,0:2:0:0:
429,276,63745,1,0,0:0:0:0:
419,270,63836,2,0,P|341:263|293:289,1,110.000003356934,2|0,0:2|0:0,0:0:0:0:
274,339,64109,1,0,0:0:0:0:
264,345,64200,2,0,P|186:352|138:326,1,110.000003356934,0|2,1:0|0:2,0:0:0:0:
55,156,64564,5,6,0:2:0:0:
148,327,64745,1,0,0:0:0:0:
231,240,64927,1,2,1:2:0:0:
173,134,65109,1,0,0:0:0:0:
39,275,65291,1,2,0:2:0:0:
55,156,65473,1,2,0:0:0:0:
148,327,65654,1,0,1:2:0:0:
173,134,65836,6,0,P|261:119|295:111,1,110.000003356934,2|0,0:2|0:0,0:0:0:0:
311,72,66109,1,0,0:0:0:0:
308,61,66200,1,2,0:2:0:0:
343,201,66382,1,0,1:0:0:0:
453,108,66564,1,2,0:2:0:0:
456,97,66654,1,0,0:0:0:0:
459,86,66745,1,0,0:0:0:0:
511,245,66927,1,2,0:2:0:0:
352,297,67109,1,0,1:0:0:0:
300,138,67291,1,2,0:2:0:0:
485,239,67473,6,0,P|416:227|367:218,1,110.000003356934,2|0,0:2|0:0,0:0:0:0:
335,249,67745,1,0,0:0:0:0:
325,254,67836,1,2,1:2:0:0:
372,96,68018,1,0,0:0:0:0:
230,154,68200,1,2,0:2:0:0:
258,10,68382,5,4,3:0:0:0:
258,10,68442,5,4,3:0:0:0:
258,10,68503,5,4,3:0:0:0:
258,10,68564,5,0,1:0:0:0:
368,139,68745,6,0,B|397:181|386:276|331:229|315:324|347:372,1,250,2|4,3:2|3:0,0:0:0:0:
362,371,69170,1,4,3:0:0:0:
426,355,69291,6,0,P|477:365|516:377,1,75.0000028610231,8|0,3:0|0:0,0:0:0:0:
505,220,69654,1,12,3:0:0:0:
497,220,69745,1,0,0:0:0:0:
489,221,69836,1,0,0:0:0:0:
481,223,69927,1,0,0:0:0:0:
474,226,70018,1,12,3:0:0:0:
296,192,70200,6,0,L|281:147,1,37.5000014305115,2|0,0:0|0:0,0:0:0:0:
318,81,70382,6,0,P|263:76|224:99,1,89.9999972534181,6|0,0:0|0:0,0:0:0:0:
193,156,70654,2,0,P|151:172|107:165,1,89.9999972534181,4|0,0:0|0:0,0:0:0:0:
56,187,70927,1,4,0:0:0:0:
53,179,71018,1,4,0:0:0:0:
37,141,71109,1,8,0:0:0:0:
140,67,71291,2,0,P|148:39|156:19,1,44.999998626709,4|0,0:0|0:0,0:0:0:0:
280,69,71564,1,6,0:0:0:0:
276,60,71654,1,0,0:0:0:0:
378,3,71836,5,2,0:0:0:0:
484,66,72018,2,0,L|491:116,2,44.999998626709,4|0|0,0:0|0:0|0:0,0:0:0:0:
378,130,72382,2,0,L|392:230,1,89.9999972534181,8|0,0:0|0:0,0:0:0:0:
511,256,72745,1,6,0:0:0:0:
507,264,72836,1,4,0:0:0:0:
504,272,72927,1,4,0:0:0:0:
457,384,73109,1,0,0:0:0:0:
367,322,73291,6,0,P|308:315|261:313,1,89.9999972534181,6|4,0:0|0:0,0:0:0:0:
230,298,73564,1,4,0:0:0:0:
221,300,73654,1,2,0:0:0:0:
135,370,73836,2,0,L|84:363,2,44.999998626709,4|4|0,0:0|0:0|0:0,0:0:0:0:
117,254,74200,1,0,0:0:0:0:
115,245,74291,1,0,0:0:0:0:
113,236,74382,1,0,0:0:0:0:
111,227,74473,1,0,0:0:0:0:
109,218,74564,1,2,0:2:0:0:
204,127,74745,5,6,0:0:0:0:
35,84,74927,2,0,P|20:138|8:179,1,89.9999972534181,8|2,0:0|0:0,0:0:0:0:
133,59,75291,1,2,0:2:0:0:
179,213,75473,2,0,P|194:159|206:118,1,89.9999972534181,10|2,0:0|0:0,0:0:0:0:
237,96,75745,1,0,0:0:0:0:
246,93,75836,2,0,P|261:39|273:-2,1,89.9999972534181,2|2,0:0|0:0,0:0:0:0:
298,164,76139,5,2,0:2:0:0:
298,164,76200,6,0,P|332:183|388:178,1,89.9999972534181,4|0,0:2|0:0,0:0:0:0:
429,112,76473,2,0,P|473:108|512:128,1,89.9999972534181,6|0,0:0|0:0,0:0:0:0:
457,184,76745,1,6,0:0:0:0:
491,339,76927,1,8,0:0:0:0:
364,281,77109,1,2,0:0:0:0:
356,275,77200,2,0,P|330:279|306:281,1,44.999998626709
265,323,77382,1,0,0:0:0:0:
256,319,77473,1,0,0:0:0:0:
127,368,77654,6,0,P|134:311|142:270,1,89.9999972534181,6|2,0:0|0:0,0:0:0:0:
96,237,77927,1,0,0:0:0:0:
102,230,78018,2,0,P|109:173|117:132,1,89.9999972534181,6|4,0:0|0:0,0:0:0:0:
6,212,78382,1,12,0:0:0:0:
60,59,78564,2,0,P|123:43|209:112,1,179.999994506836,4|4,0:2|0:0,0:0:0:0:
333,120,79109,6,0,P|303:168|290:205,1,89.9999972534181,6|0,0:0|0:0,0:0:0:0:
294,256,79382,1,0,0:0:0:0:
296,264,79473,1,2,0:0:0:0:
414,209,79654,1,4,0:0:0:0:
414,209,79745,1,4,0:0:0:0:
414,209,79836,2,0,P|415:265|425:303,1,89.9999972534181,12|2,0:0|0:0,0:0:0:0:
492,131,80200,1,2,0:0:0:0:
430,50,80382,1,2,0:0:0:0:
347,129,80564,6,0,L|311:119,5,29.9999990844727,4|0|0|0|0|0,0:0|0:0|0:0|0:0|0:0|0:0,0:0:0:0:
260,67,80927,6,0,L|224:77,5,29.9999990844727,4|0|0|0|0|4,0:0|0:0|0:0|0:0|0:0|0:0,0:0:0:0:
182,132,81291,5,12,0:0:0:0:
73,22,81473,2,0,P|54:86|40:135,1,89.9999972534181,6|0,0:0|0:0,0:0:0:0:
66,116,81745,2,0,P|47:180|33:229,1,89.9999972534181,6|0,0:0|0:0,0:0:0:0:
0,260,82018,6,0,P|81:244|155:313,1,179.999994506836,4|4,0:2|0:0,0:0:0:0:
236,366,82564,1,6,0:0:0:0:
244,363,82654,1,4,0:0:0:0:
289,353,82745,2,0,P|303:293|315:256,1,89.9999972534181,14|0,0:0|0:0,0:0:0:0:
322,190,83018,2,0,P|345:237|410:312,1,134.999995880127,2|2,0:0|0:0,0:0:0:0:
452,305,83382,1,0,0:0:0:0:
460,302,83473,5,4,0:2:0:0:
487,183,83654,1,4,0:0:0:0:
368,156,83836,1,6,0:0:0:0:
365,147,83927,1,4,0:0:0:0:
362,138,84018,1,6,0:0:0:0:
462,5,84200,2,0,P|451:60|441:103,1,89.9999972534181,14|0,0:0|0:0,0:0:0:0:
480,106,84473,2,0,P|470:149|461:194,1,89.9999972534181,2|0,0:0|0:0,0:0:0:0:
483,226,84745,1,2,0:0:0:0:
393,337,84927,6,0,L|286:312,1,89.9999972534181,6|0,0:0|0:0,0:0:0:0:
296,299,85200,2,0,L|456:336,1,134.999995880127,4|4,0:0|0:0,0:0:0:0:
500,169,85654,5,6,0:0:0:0:
491,170,85744,1,0,0:0:0:0:
482,171,85835,1,4,0:0:0:0:
473,172,85926,1,0,0:0:0:0:
424,201,86018,6,0,L|384:195,3,29.9999990844727,8|0|0|8,0:0|0:0|0:0|0:0,0:0:0:0:
256,14,86382,6,0,P|285:79|281:133,1,119.999996337891,4|0,0:2|0:0,0:0:0:0:
261,162,86745,5,12,0:0:0:0:
208,193,86867,5,12,0:0:0:0:
139,177,86988,5,4,0:0:0:0:
96,113,87109,5,12,0:0:0:0:
114,39,87230,5,4,0:0:0:0:
177,11,87351,5,4,0:0:0:0:
231,22,87473,5,6,0:0:0:0:
247,45,87594,5,2,0:0:0:0:
253,63,87715,5,2,0:0:0:0:
253,74,87836,6,0,P|318:63|360:57,1,89.9999972534181,4|0,0:2|0:0,0:0:0:0:
377,104,88109,2,0,P|442:93|484:87,1,89.9999972534181,4|0,0:0|0:0,0:0:0:0:
493,52,88382,1,6,0:0:0:0:
411,199,88564,1,14,0:0:0:0:
508,263,88745,2,0,L|494:314,2,44.999998626709,2|0|2,0:0|0:0|0:0,0:0:0:0:
403,339,89109,1,2,0:0:0:0:
315,253,89291,6,0,P|247:263|209:269,1,89.9999972534181,6|0,0:0|0:0,0:0:0:0:
187,232,89564,1,0,0:0:0:0:
178,233,89654,1,2,0:0:0:0:
46,307,89836,1,14,0:0:0:0:
0,149,90018,2,0,P|68:159|106:165,1,89.9999972534181,6|0,0:0|0:0,0:0:0:0:
129,125,90291,1,0,0:0:0:0:
124,113,90382,1,2,0:0:0:0:
222,3,90564,2,0,P|211:40|206:60,1,44.999998626709,2|0,0:0|0:0,0:0:0:0:
234,14,90745,6,0,P|216:71|209:102,1,89.9999972534181,4|0,0:2|0:0,0:0:0:0:
226,115,91018,2,0,P|243:172|250:203,1,89.9999972534181,4|0,0:0|0:0,0:0:0:0:
232,245,91291,1,4,0:0:0:0:
369,160,91473,1,6,0:0:0:0:
377,162,91564,1,4,0:0:0:0:
405,169,91654,1,8,0:0:0:0:
500,41,91836,2,0,P|446:54|409:70,1,89.9999972534181,2|0,0:2|0:0,0:0:0:0:
301,202,92200,5,6,0:0:0:0:
294,223,92291,1,4,0:0:0:0:
290,244,92382,1,4,0:0:0:0:
290,266,92473,1,4,0:3:0:0:
295,287,92564,2,0,P|301:317|307:349,2,44.999998626709,12|0|0,0:0|0:0|0:0,0:0:0:0:
193,247,92836,1,4,0:0:0:0:
183,234,92927,5,12,0:0:0:0:
139,221,93018,1,4,0:0:0:0:
95,209,93109,1,4,0:0:0:0:
51,197,93200,1,4,0:0:0:0:
7,185,93291,5,14,0:0:0:0:
57,147,93382,1,4,0:0:0:0:
119,150,93473,1,12,0:0:0:0:
165,192,93564,1,4,0:0:0:0:
172,254,93654,5,6,1:2:0:0:
314,333,93836,2,0,P|334:253|346:193,1,125,2|0,0:0|1:2,0:0:0:0:
298,37,94200,1,2,0:0:0:0:
328,70,94291,1,0,0:0:0:0:
373,57,94382,1,2,0:0:0:0:
403,91,94473,1,0,0:0:0:0:
447,77,94563,1,2,0:0:0:0:
492,235,94745,1,0,1:2:0:0:
320,164,94927,1,2,0:0:0:0:
316,152,95018,1,0,0:0:0:0:
306,116,95109,6,0,P|248:143|187:130,1,125,4|2,0:0|0:0,0:0:0:0:
59,46,95473,1,0,1:2:0:0:
9,254,95654,1,2,0:0:0:0:
39,221,95745,1,0,0:0:0:0:
84,234,95836,1,2,0:0:0:0:
114,200,95927,1,0,0:0:0:0:
158,214,96017,1,2,0:0:0:0:
188,180,96109,1,0,0:0:0:0:
232,194,96200,2,0,P|216:263|205:321,1,125,0|2,1:2|0:0,0:0:0:0:
119,119,96564,5,6,0:0:0:0:
210,24,96745,2,0,P|268:-3|329:10,1,125,2|0,0:0|1:2,0:0:0:0:
366,38,97018,1,0,0:0:0:0:
377,32,97109,1,2,0:0:0:0:
303,145,97291,1,2,0:0:0:0:
336,175,97382,1,0,0:0:0:0:
323,220,97473,1,2,0:0:0:0:
357,250,97564,1,0,0:0:0:0:
343,294,97654,2,0,L|333:357,2,62.5,0|0|2,1:2|0:0|0:0,0:0:0:0:
480,226,98018,5,4,0:0:0:0:
349,161,98200,1,2,0:0:0:0:
352,148,98291,1,0,0:0:0:0:
380,125,98382,2,0,L|402:-11,1,125,0|2,1:2|0:0,0:0:0:0:
224,63,98745,1,2,0:0:0:0:
191,93,98836,1,0,0:0:0:0:
204,138,98927,1,2,0:0:0:0:
170,168,99018,1,0,0:0:0:0:
181,211,99108,1,0,1:2:0:0:
145,178,99200,1,0,0:0:0:0:
159,128,99291,1,2,0:0:0:0:
122,95,99382,1,0,0:0:0:0:
137,47,99472,5,4,0:0:0:0:
293,102,99654,2,0,P|378:81|430:74,1,125,2|0,0:0|1:2,0:0:0:0:
512,254,100018,1,2,0:0:0:0:
482,221,100109,1,0,0:0:0:0:
437,234,100200,1,2,0:0:0:0:
407,200,100291,1,0,0:0:0:0:
364,211,100381,1,2,0:0:0:0:
263,384,100564,2,0,P|230:334|232:270,1,125,0|2,1:2|0:0,0:2:0:0:
251,219,100836,1,0,0:0:0:0:
263,216,100927,5,4,0:0:0:0:
65,170,101109,2,0,P|79:241|91:300,1,125,2|0,0:0|1:2,0:0:0:0:
8,92,101473,1,2,0:0:0:0:
38,59,101564,1,0,0:0:0:0:
83,72,101655,1,2,0:0:0:0:
113,38,101746,1,0,0:0:0:0:
157,52,101836,1,2,0:0:0:0:
187,18,101928,1,0,0:0:0:0:
231,32,102019,2,0,P|215:101|204:159,1,125,0|2,1:2|0:0,0:0:0:0:
179,344,102382,5,4,0:0:0:0:
324,246,102564,1,2,0:0:0:0:
327,234,102654,1,0,0:0:0:0:
337,185,102745,2,0,L|474:163,1,125,0|2,1:2|0:0,0:0:0:0:
360,58,103109,1,2,0:0:0:0:
330,24,103200,1,0,0:0:0:0:
286,38,103290,1,2,0:0:0:0:
256,4,103382,1,0,0:0:0:0:
212,18,103473,2,0,P|185:47|178:80,2,62.5,0|0|2,1:2|0:0|0:0,0:0:0:0:
256,177,103836,5,4,0:0:0:0:
58,140,104018,1,2,0:0:0:0:
21,338,104200,1,0,1:2:0:0:
135,253,104382,2,0,L|211:270,1,62.5,2|0,0:0|0:0,0:0:0:0:
237,308,104564,1,4,3:0:0:0:
249,305,104654,1,4,3:0:0:0:
261,302,104745,1,4,3:0:0:0:
458,378,104927,1,0,1:2:0:0:
492,348,105018,1,0,0:0:0:0:
478,304,105108,1,2,0:0:0:0:
512,274,105200,1,0,0:0:0:0:
498,230,105291,5,4,1:2:0:0:
292,171,105473,2,0,P|362:150|417:136,1,125,2|0,0:0|1:2,0:0:0:0:
171,102,105836,1,2,0:0:0:0:
157,146,105927,1,0,0:0:0:0:
191,176,106019,1,2,0:0:0:0:
177,220,106109,1,0,0:0:0:0:
211,250,106200,1,2,0:0:0:0:
49,323,106382,1,0,1:2:0:0:
251,378,106564,1,2,0:0:0:0:
257,367,106654,1,0,0:0:0:0:
274,332,106745,6,0,P|327:319|408:369,1,125,4|2,0:0|0:0,0:0:0:0:
432,375,107018,1,0,0:0:0:0:
444,372,107109,1,0,1:2:0:0:
391,223,107291,1,2,0:0:0:0:
358,193,107382,1,0,0:0:0:0:
371,148,107473,1,2,0:0:0:0:
337,118,107564,1,0,0:0:0:0:
351,74,107654,1,2,0:0:0:0:
317,44,107746,1,0,0:0:0:0:
331,0,107837,2,0,P|400:16|458:27,1,125,0|2,1:2|0:0,0:0:0:0:
494,39,108109,1,0,0:0:0:0:
500,49,108200,5,4,0:0:0:0:
308,130,108382,2,0,P|294:187|332:249,2,125,2|0|2,0:0|1:2|0:0,0:0:0:0:
341,89,108836,1,0,0:0:0:0:
352,74,108927,1,2,0:0:0:0:
322,41,109018,1,0,0:0:0:0:
277,54,109109,1,2,0:0:0:0:
247,20,109200,1,0,0:0:0:0:
203,34,109290,1,0,1:2:0:0:
40,95,109473,1,2,0:0:0:0:
195,169,109654,5,4,0:0:0:0:
145,331,109836,1,2,0:0:0:0:
134,324,109927,1,0,0:0:0:0:
91,301,110018,2,0,P|77:234|63:180,1,125,0|2,1:2|0:0,0:0:0:0:
16,1,110382,1,2,0:0:0:0:
46,34,110473,1,0,0:0:0:0:
91,21,110564,1,2,0:0:0:0:
121,55,110655,1,0,0:0:0:0:
164,44,110745,1,0,1:2:0:0:
131,80,110837,1,0,0:0:0:0:
81,66,110928,1,2,0:0:0:0:
48,103,111019,1,0,0:0:0:0:
0,88,111109,5,4,0:0:0:0:
198,169,111291,2,0,P|182:230|170:291,1,125,2|0,0:0|1:2,0:0:0:0:
18,233,111655,1,2,0:0:0:0:
51,203,111746,1,0,0:0:0:0:
38,158,111837,1,2,0:0:0:0:
72,128,111928,1,0,0:0:0:0:
61,85,112018,1,2,0:0:0:0:
236,13,112200,1,0,1:2:0:0:
196,149,112382,1,2,0:0:0:0:
193,136,112473,1,0,0:0:0:0:
156,101,112564,5,4,0:0:0:0:
341,142,112745,2,0,P|426:123|481:114,1,125,2|0,0:0|1:2,0:0:0:0:
337,318,113109,1,2,0:0:0:0:
307,285,113200,1,0,0:0:0:0:
262,298,113291,1,2,0:0:0:0:
232,264,113382,1,0,0:0:0:0:
189,275,113472,1,2,0:0:0:0:
159,241,113564,1,0,0:0:0:0:
116,252,113654,1,0,1:2:0:0:
222,130,113836,1,2,0:0:0:0:
274,364,114018,5,4,1:2:0:0:
433,266,114200,2,0,P|372:255|311:241,1,125,2|0,0:0|1:2,0:0:0:0:
119,194,114564,1,2,0:0:0:0:
306,121,114745,1,2,0:0:0:0:
336,88,114836,1,0,0:0:0:0:
381,101,114927,1,2,0:0:0:0:
411,67,115018,1,0,0:0:0:0:
454,78,115108,1,4,1:2:0:0:
242,2,115291,1,2,0:0:0:0:
120,177,115473,6,0,P|137:226|146:255,1,62.5,4|0,1:2|0:0,0:0:0:0:
256,238,115654,2,0,P|239:287|230:316,1,62.5,0|0,1:0|0:0,0:0:0:0:
186,372,115836,1,4,3:0:0:0:
174,367,115927,1,4,3:0:0:0:
133,347,116018,1,4,3:0:0:0:
121,342,116109,1,0,1:0:0:0:
73,312,116200,5,0,1:0:0:0:
63,256,116291,1,12,3:0:0:0:
95,209,116382,1,12,3:0:0:0:
151,199,116473,1,4,3:0:0:0:
198,231,116564,6,0,P|203:271|199:298,1,62.5,8|0,3:0|3:0,0:0:0:0:
288,335,116745,2,0,P|263:367|241:383,1,62.5,4|0,3:0|3:0,0:0:0:0:
335,224,116927,6,0,B|379:203|444:223|473:273|473:273|465:277|465:277|361:345|203:222|310:27|472:64|505:165,1,629.999980773926,4|0,1:1|0:0,0:0:0:0:
506,17,118382,6,0,B|412:-30|301:-1|240:74|240:74|240:74|240:74|277:124|211:211|103:140|149:50|207:56,1,539.999983520508,4|0,1:0|0:0,0:0:0:0:
336,110,119654,1,2,0:0:0:0:
336,110,119836,6,0,B|288:143|183:130|235:69|130:52|77:87,1,269.999991760254,4|0,1:1|0:0,0:0:0:0:
1,153,120564,2,0,P|-8:225|70:288,1,179.999994506836,2|0,0:0|0:0,0:0:0:0:
74,199,121109,1,2,0:0:0:0:
186,149,121291,6,0,P|216:189|218:253,1,89.9999972534181,4|0,1:0|0:0,0:0:0:0:
237,369,121654,5,4,3:3:0:0:
245,365,121745,1,0,3:0:0:0:
253,361,121836,1,0,3:0:0:0:
261,357,121927,1,0,3:0:0:0:
316,352,122018,5,12,3:0:0:0:
324,348,122109,1,0,3:0:0:0:
332,344,122200,1,0,3:0:0:0:
340,340,122291,1,0,3:0:0:0:
368,292,122382,6,0,L|465:312,1,89.9999972534181,4|0,3:0|0:0,0:0:0:0:
464,306,122654,1,0,0:0:0:0:
512,317,122745,6,0,P|523:222|463:157,1,179.999994506836,4|2,1:0|0:0,0:0:0:0:
344,187,123291,1,0,0:0:0:0:
340,178,123382,1,0,0:0:0:0:
336,169,123473,2,0,L|357:72,1,89.9999972534181,0|0,1:0|0:0,0:0:0:0:
221,37,123836,2,0,L|231:85,2,44.999998626709,2|0|0,0:0|0:0|0:0,0:0:0:0:
75,13,124200,6,0,P|51:15|29:24,2,44.999998626709,4|0|0,3:0|0:0|0:0,0:0:0:0:
75,91,124473,2,0,P|99:93|121:102,2,44.999998626709,4|0|0,3:0|0:0|0:0,0:0:0:0:
10,147,124745,1,4,3:0:0:0:
131,209,124927,2,0,P|116:271|108:315,1,89.9999972534181,0|0,1:0|0:0,0:0:0:0:
79,318,125200,1,0,0:0:0:0:
81,326,125291,1,2,0:0:0:0:
173,380,125473,1,0,0:0:0:0:
254,288,125654,6,0,P|336:294|451:339,2,179.999994506836,4|2|0,0:0|0:0|1:0,0:0:0:0:
133,210,126564,1,0,0:0:0:0:
129,201,126654,1,0,0:0:0:0:
125,192,126745,2,0,L|138:89,1,89.9999972534181,2|0,0:0|0:0,0:0:0:0:
249,0,127109,6,0,L|527:61,1,269.999991760254,4|4,1:0|3:0,0:0:0:0:
509,63,127715,5,0,3:0:0:0:
506,68,127776,5,0,3:0:0:0:
503,73,127836,6,0,P|486:120|503:170,1,89.9999972534181,0|0,1:0|1:0,0:0:0:0:
411,339,128200,5,4,3:0:0:0:
361,359,128291,1,0,3:0:0:0:
309,342,128382,1,12,3:0:0:0:
280,296,128473,1,0,3:0:0:0:
288,242,128564,6,0,P|343:226|394:207,1,100,4|0,0:2|0:0,0:0:0:0:
371,122,128836,1,0,0:0:0:0:
378,115,128927,2,0,P|425:131|473:145,1,100,0|0,1:0|0:0,0:0:0:0:
500,70,129200,2,0,P|452:56|405:40,1,100,2|0,0:0|0:0,0:0:0:0:
336,0,129473,2,0,L|301:98,2,100,2|0|0,0:0|1:0|0:0,0:0:0:0:
150,77,130018,6,0,L|185:175,1,100,2|0,0:0|0:0,0:0:0:0:
212,244,130291,1,0,0:0:0:0:
204,250,130382,2,0,P|156:251|109:280,1,100,0|0,1:0|0:0,0:0:0:0:
30,280,130654,1,2,0:0:0:0:
30,280,130745,2,0,P|36:308|51:337,1,50,2|0,0:0|0:0,0:0:0:0:
85,164,130927,2,0,P|80:188|70:211,1,50,2|0,0:0|0:0,0:0:0:0:
30,48,131109,2,0,P|34:72|44:95,1,50,0|0,1:0|0:0,0:0:0:0:
138,96,131291,1,2,0:0:0:0:
147,93,131382,1,0,0:0:0:0:
190,83,131473,6,0,L|315:102,1,100,2|0,0:0|0:0,0:0:0:0:
341,43,131745,1,0,0:0:0:0:
349,37,131836,2,0,L|474:56,1,100,0|0,1:0|0:0,0:0:0:0:
486,127,132109,1,0,0:0:0:0:
490,136,132200,5,2,0:0:0:0:
478,189,132291,1,0,0:0:0:0:
434,221,132382,1,2,0:2:0:0:
379,218,132473,1,0,0:0:0:0:
340,180,132564,1,2,1:2:0:0:
285,177,132654,1,0,0:3:0:0:
241,209,132745,1,2,0:0:0:0:
229,262,132836,1,0,0:0:0:0:
255,310,132927,6,0,P|292:323|323:321,1,50,2|0,0:0|0:0,0:0:0:0:
197,233,133109,2,0,P|232:216|252:192,1,50,2|0,0:0|0:0,0:0:0:0:
101,219,133291,2,0,P|113:182|112:151,1,50,2|0,1:2|0:0,0:0:0:0:
24,277,133473,2,0,P|7:241|-16:221,1,50,2|0,0:0|0:0,0:0:0:0:
37,118,133654,5,2,0:0:0:0:
68,73,133745,1,0,0:0:0:0:
121,61,133836,1,0,0:3:0:0:
171,85,133927,1,0,0:0:0:0:
192,136,134018,1,2,1:2:0:0:
241,160,134108,1,0,0:3:0:0:
294,148,134199,1,2,0:0:0:0:
326,103,134290,1,0,0:0:0:0:
325,47,134382,6,0,P|374:38|450:26,1,100,4|0,0:0|0:0,0:0:0:0:
491,100,134654,1,0,0:0:0:0:
491,100,134745,2,0,L|482:162,1,50,0|0,1:0|0:0,0:0:0:0:
369,136,134927,1,0,0:0:0:0:
369,136,135018,2,0,L|378:198,2,50,2|0|0,0:0|0:0|0:0,0:0:0:0:
272,107,135291,1,2,0:0:0:0:
258,101,135382,1,0,0:0:0:0:
204,78,135473,2,0,P|154:86|79:99,1,100,0|0,1:0|0:0,0:0:0:0:
155,314,135836,6,0,P|183:257|156:164,1,150,2|0,0:0|0:0,0:0:0:0:
88,193,136200,2,0,P|96:143|109:68,1,100,0|0,1:0|0:0,0:0:0:0:
57,37,136473,1,2,0:0:0:0:
70,31,136564,1,2,0:0:0:0:
121,23,136654,1,0,0:0:0:0:
134,17,136745,1,0,0:0:0:0:
185,7,136836,1,0,0:0:0:0:
198,13,136927,1,0,1:0:0:0:
249,21,137017,1,0,0:0:0:0:
262,27,137109,2,0,P|272:58|276:91,1,50,4|0,0:0|0:0,0:0:0:0:
238,152,137291,6,0,P|296:159|345:129,1,100,4|0,0:1|0:0,0:0:0:0:
375,79,137564,1,0,0:0:0:0:
380,65,137654,2,0,P|425:46|474:54,1,100,0|0,1:0|0:0,0:0:0:0:
388,233,138018,1,2,0:0:0:0:
274,75,138200,1,0,0:0:0:0:
222,291,138382,5,0,1:0:0:0:
180,334,138473,1,4,3:0:0:0:
119,334,138564,1,0,1:0:0:0:
76,292,138654,1,0,1:0:0:0:
76,231,138745,5,12,3:0:0:0:
118,188,138836,1,4,3:0:0:0:
179,188,138927,1,0,1:0:0:0:
222,230,139017,1,4,3:0:0:0:
222,291,139108,5,12,3:0:0:0:
247,342,139200,2,0,L|239:381,2,25,0|0|0,3:0|3:0|3:0,3:0:0:0:
343,332,139382,1,4,3:0:0:0:
343,332,139473,5,0,1:0:0:0:
360,274,139564,1,4,3:0:0:0:
377,216,139654,1,12,3:0:0:0:
394,158,139745,1,4,3:0:0:0:
436,157,139836,5,4,3:0:0:0:
445,123,139927,1,4,3:0:0:0:
455,90,140017,1,4,3:0:0:0:
465,56,140108,1,4,3:0:0:0:
449,15,140200,5,4,0:2:0:0:
239,64,140382,2,0,P|261:133|276:192,1,125,2|0,0:0|1:0,0:0:0:0:
164,319,140745,1,2,0:0:0:0:
131,282,140836,1,0,0:0:0:0:
81,297,140927,1,2,0:0:0:0:
48,259,141018,1,0,0:0:0:0:
0,275,141108,1,2,0:0:0:0:
78,88,141291,1,0,1:0:0:0:
240,209,141473,1,2,0:0:0:0:
258,204,141564,1,0,0:0:0:0:
276,199,141654,5,4,0:0:0:0:
196,338,141836,2,0,L|336:361,1,125,2|0,0:0|1:0,0:0:0:0:
486,310,142200,1,2,0:0:0:0:
449,277,142291,1,0,0:0:0:0:
464,227,142382,1,2,0:0:0:0:
426,194,142473,1,0,0:0:0:0:
442,146,142563,1,2,0:0:0:0:
404,113,142654,1,0,0:0:0:0:
420,65,142744,1,0,1:0:0:0:
267,12,142927,1,2,0:0:0:0:
253,25,143018,1,0,0:0:0:0:
239,38,143109,5,4,0:0:0:0:
335,157,143291,2,0,P|362:229|351:283,1,125,2|0,0:0|1:0,0:0:0:0:
235,137,143654,1,2,0:0:0:0:
182,309,143836,1,2,0:0:0:0:
134,293,143926,1,0,0:0:0:0:
101,331,144017,1,2,0:0:0:0:
51,316,144108,1,0,0:0:0:0:
18,353,144199,1,0,1:0:0:0:
80,204,144382,1,2,0:0:0:0:
74,185,144473,1,0,0:0:0:0:
69,166,144564,5,4,0:0:0:0:
207,261,144745,2,0,P|234:189|223:135,1,125,2|0,0:0|1:0,0:0:0:0:
137,13,145109,1,2,0:0:0:0:
62,187,145291,1,2,0:0:0:0:
110,203,145381,1,0,0:0:0:0:
143,165,145472,1,2,0:0:0:0:
193,180,145563,1,0,0:0:0:0:
226,143,145654,1,0,1:0:0:0:
259,180,145745,1,0,0:0:0:0:
309,165,145836,1,2,0:0:0:0:
342,203,145927,1,0,0:0:0:0:
390,187,146017,5,4,0:0:0:0:
477,357,146200,2,0,P|401:340|336:330,1,125,2|0,0:0|1:0,0:0:0:0:
211,208,146564,1,2,0:0:0:0:
163,192,146654,1,0,0:0:0:0:
130,230,146745,1,2,0:0:0:0:
80,215,146836,1,0,0:0:0:0:
47,252,146927,1,2,0:0:0:0:
216,350,147109,1,0,1:0:0:0:
148,165,147291,1,2,0:0:0:0:
154,147,147382,1,0,0:0:0:0:
160,129,147473,5,4,0:0:0:0:
0,35,147654,2,0,P|18:108|30:166,1,125,2|0,0:0|1:0,0:0:0:0:
137,287,148018,1,2,0:0:0:0:
170,324,148109,1,0,0:0:0:0:
220,309,148200,1,2,0:0:0:0:
253,347,148291,1,0,0:0:0:0:
301,331,148381,1,2,0:0:0:0:
334,369,148473,1,0,0:0:0:0:
382,353,148563,1,0,1:0:0:0:
481,195,148745,1,2,0:0:0:0:
458,185,148836,1,0,0:0:0:0:
435,175,148927,6,0,P|408:119|426:52,2,125,4|2|0,0:0|0:0|1:0,0:0:0:0:
482,369,149473,1,2,0:0:0:0:
314,252,149654,1,2,0:0:0:0:
266,236,149744,1,0,0:0:0:0:
233,274,149835,1,2,0:0:0:0:
183,259,149926,1,0,0:0:0:0:
150,296,150018,2,0,L|75:280,1,62.5,0|0,1:0|0:0,0:0:0:0:
1,263,150200,5,6,0:0:0:0:
206,380,150382,1,4,0:0:0:0:
130,141,150564,2,0,P|153:78|169:17,1,125,2|0,0:0|1:0,0:0:0:0:
219,5,150836,1,0,0:0:0:0:
242,13,150927,1,2,0:0:0:0:
296,188,151109,1,2,0:0:0:0:
471,134,151291,1,0,1:0:0:0:
382,353,151473,5,0,1:0:0:0:
334,369,151563,1,0,0:0:0:0:
301,331,151655,1,2,0:0:0:0:
253,347,151745,1,0,0:0:0:0:
220,309,151836,5,4,0:0:0:0:
407,234,152018,2,0,P|423:163|439:108,1,125,2|0,0:0|1:0,0:0:0:0:
276,0,152382,1,2,0:0:0:0:
238,33,152473,1,0,0:0:0:0:
254,81,152563,1,2,0:0:0:0:
216,114,152655,1,0,0:0:0:0:
232,162,152745,1,2,0:0:0:0:
89,232,152927,1,0,1:0:0:0:
225,350,153109,1,2,0:0:0:0:
248,342,153200,1,0,0:0:0:0:
271,334,153291,5,4,0:0:0:0:
369,190,153473,2,0,P|446:205|505:217,1,125,2|0,0:0|1:0,0:0:0:0:
224,105,153836,1,2,0:0:0:0:
262,138,153927,1,0,0:0:0:0:
246,186,154017,1,2,0:0:0:0:
284,219,154109,1,0,0:0:0:0:
268,267,154199,1,2,0:0:0:0:
306,300,154291,1,0,0:0:0:0:
290,348,154381,1,0,1:0:0:0:
123,297,154564,1,2,0:0:0:0:
113,274,154654,1,0,0:0:0:0:
103,250,154745,5,4,0:0:0:0:
222,130,154927,2,0,P|236:60|250:0,1,125,2|0,0:0|1:0,0:0:0:0:
71,85,155291,1,2,0:0:0:0:
190,229,155473,1,2,0:0:0:0:
238,245,155563,1,0,0:0:0:0:
271,207,155655,1,2,0:0:0:0:
319,223,155745,1,0,0:0:0:0:
352,185,155836,2,0,L|367:118,2,62.5,0|0|2,1:0|0:0|0:0,0:0:0:0:
446,354,156200,5,4,0:0:0:0:
266,283,156382,2,0,P|191:301|140:315,1,125,2|0,0:0|1:0,0:0:0:0:
0,242,156745,1,2,0:0:0:0:
119,100,156927,1,2,0:0:0:0:
167,84,157017,1,0,0:0:0:0:
200,122,157108,1,2,0:0:0:0:
250,107,157199,1,0,0:0:0:0:
283,144,157290,1,0,1:0:0:0:
316,107,157381,1,0,0:0:0:0:
366,122,157472,1,2,0:0:0:0:
399,84,157563,1,0,0:0:0:0:
447,100,157653,5,4,0:0:0:0:
253,6,157836,2,0,P|178:21|122:30,1,125,2|0,0:0|1:0,0:0:0:0:
0,171,158200,1,2,0:0:0:0:
33,208,158291,1,0,0:0:0:0:
83,193,158382,1,2,0:0:0:0:
116,231,158473,1,0,0:0:0:0:
164,215,158563,1,2,0:0:0:0:
298,104,158745,1,0,1:0:0:0:
279,303,158927,1,2,0:0:0:0:
270,279,159018,1,0,0:0:0:0:
261,255,159109,5,4,0:0:0:0:
398,338,159291,2,0,P|465:336|515:298,1,125,2|0,0:0|1:0,0:0:0:0:
508,100,159654,1,2,0:0:0:0:
460,84,159744,1,0,0:0:0:0:
427,122,159835,1,2,0:0:0:0:
377,107,159926,1,0,0:0:0:0:
344,144,160017,1,2,0:0:0:0:
294,129,160109,1,0,0:0:0:0:
261,166,160200,1,4,1:2:0:0:
40,107,160382,1,2,0:0:0:0:
50,84,160473,1,0,0:0:0:0:
67,42,160564,5,4,0:0:0:0:
115,251,160745,2,0,P|201:274|276:303,1,125,2|0,0:0|1:0,0:0:0:0:
376,145,161109,1,2,0:0:0:0:
509,324,161291,1,2,0:0:0:0:
476,361,161382,1,0,0:0:0:0:
426,346,161473,1,2,0:0:0:0:
393,384,161564,1,0,0:0:0:0:
345,368,161654,1,0,1:0:0:0:
160,294,161836,1,6,0:0:0:0:
314,162,162018,5,0,1:0:0:0:
338,166,162109,1,0,1:0:0:0:
363,171,162200,1,0,0:0:0:0:
387,176,162291,1,0,0:0:0:0:
442,191,162382,5,0,1:0:0:0:
489,160,162473,1,0,0:0:0:0:
505,106,162564,1,2,0:0:0:0:
482,54,162654,1,0,1:0:0:0:
425,31,162745,6,0,P|391:38|338:52,1,62.5,0|0,1:0|0:0,0:0:0:0:
279,132,162927,1,2,0:0:0:0:
224,116,163018,1,0,0:0:0:0:
169,100,163109,6,0,P|138:92|108:85,1,62.5,0|0,1:0|0:0,0:0:0:0:
1,62,163291,1,2,1:2:0:0:
13,47,163382,1,0,0:0:0:0:
43,7,163473,5,4,0:0:0:0:
119,240,163654,2,0,P|185:255|250:216,1,135.000000514984,2|0,0:0|1:0,0:0:0:0:
320,54,164018,1,2,0:0:0:0:
372,36,164108,1,0,0:0:0:0:
409,78,164199,1,2,0:0:0:0:
464,61,164290,1,0,0:0:0:0:
500,102,164381,1,2,0:0:0:0:
309,187,164564,1,0,1:0:0:0:
484,359,164745,6,0,P|465:279|446:225,1,135.000000514984,4|2,0:0|0:0,0:0:0:0:
415,175,165018,1,0,0:0:0:0:
420,155,165109,1,2,0:0:0:0:
338,324,165291,1,0,1:0:0:0:
273,115,165473,1,2,0:0:0:0:
221,97,165563,1,0,0:0:0:0:
184,139,165654,1,2,0:0:0:0:
129,122,165745,1,0,0:0:0:0:
93,163,165836,1,2,0:0:0:0:
38,146,165927,1,0,0:0:0:0:
2,187,166018,1,0,1:0:0:0:
61,9,166200,1,2,0:0:0:0:
80,13,166291,1,0,0:0:0:0:
126,24,166382,5,4,0:0:0:0:
274,122,166564,2,0,P|296:195|314:255,1,135.000000514984,2|0,0:0|1:0,0:0:0:0:
102,303,166927,1,2,0:0:0:0:
137,82,167109,1,2,0:0:0:0:
189,64,167199,1,0,0:0:0:0:
226,106,167290,1,2,0:0:0:0:
281,89,167381,1,0,0:0:0:0:
317,130,167472,1,0,1:0:0:0:
479,46,167654,1,2,0:0:0:0:
459,40,167745,1,0,0:0:0:0:
410,27,167836,6,0,P|365:32|337:50,2,67.5000002574921,4|0|2,0:0|0:0|0:0,0:0:0:0:
511,170,168200,2,0,P|486:247|470:309,1,135.000000514984,0|2,1:0|0:0,0:0:0:0:
456,346,168473,1,0,0:0:0:0:
451,364,168564,5,2,0:0:0:0:
399,382,168654,1,0,0:0:0:0:
362,340,168745,1,2,0:0:0:0:
307,357,168836,1,0,0:0:0:0:
271,316,168927,1,0,1:0:0:0:
219,334,169018,1,0,0:0:0:0:
182,292,169109,1,2,0:0:0:0:
127,309,169200,1,0,0:0:0:0:
91,268,169291,5,4,0:0:0:0:
186,99,169473,2,0,P|265:80|333:65,1,135.000000514984,2|0,0:0|1:0,0:0:0:0:
29,0,169836,5,2,0:0:0:0:
11,52,169926,1,0,0:0:0:0:
53,89,170017,1,2,0:0:0:0:
36,144,170108,1,0,0:0:0:0:
77,180,170199,1,2,0:0:0:0:
270,227,170382,1,0,1:0:0:0:
58,328,170564,1,2,0:0:0:0:
190,165,170745,5,4,0:0:0:0:
196,145,170836,1,0,0:0:0:0:
213,91,170927,1,2,0:0:0:0:
288,300,171109,1,0,1:0:0:0:
482,163,171291,5,2,0:0:0:0:
446,122,171382,1,0,0:0:0:0:
391,139,171473,1,2,0:0:0:0:
354,97,171564,1,0,0:0:0:0:
302,115,171654,1,2,0:0:0:0:
265,73,171745,1,0,0:0:0:0:
213,91,171835,1,0,1:0:0:0:
109,246,172018,1,2,0:0:0:0:
90,238,172109,1,0,0:0:0:0:
44,220,172200,6,0,L|64:295,2,67.5000002574921,4|0|2,0:0|0:0|0:0,0:0:0:0:
116,30,172564,1,0,1:0:0:0:
204,225,172745,2,0,P|159:210|126:202,1,67.5000002574921,2|0,0:0|0:0,0:0:0:0:
78,153,172927,5,2,0:0:0:0:
114,112,173018,1,0,0:0:0:0:
169,129,173109,1,2,0:0:0:0:
206,87,173200,1,0,0:0:0:0:
258,105,173290,1,0,1:0:0:0:
399,27,173473,1,6,0:0:0:0:
471,232,173654,5,0,1:0:0:0:
490,282,173745,1,0,0:0:0:0:
468,330,173836,1,0,1:0:0:0:
418,349,173927,1,0,1:0:0:0:
369,327,174018,2,0,P|349:291|350:259,1,67.5000002574921,12|0,3:0|0:0,0:0:0:0:
421,175,174200,1,2,0:0:0:0:
421,175,174291,1,12,3:0:0:0:
421,175,174382,5,2,1:2:0:0:
483,150,174473,1,0,0:0:0:0:
509,88,174563,1,4,3:0:0:0:
484,26,174654,1,0,1:0:0:0:
422,0,174745,1,2,1:2:0:0:
360,25,174836,1,4,3:0:0:0:
334,87,174926,1,12,3:0:0:0:
359,149,175017,1,4,3:0:0:0:
421,175,175108,5,4,0:0:0:0:
360,363,175291,2,0,P|281:342|216:324,1,135.000000514984,2|0,0:0|1:0,0:0:0:0:
8,228,175654,1,2,0:0:0:0:
60,246,175744,1,0,0:0:0:0:
97,204,175835,1,2,0:0:0:0:
152,221,175926,1,0,0:0:0:0:
188,180,176017,1,2,0:0:0:0:
53,45,176200,1,0,1:0:0:0:
265,2,176382,1,6,0:0:0:0:
188,180,176564,5,4,0:0:0:0:
195,198,176654,1,0,0:0:0:0:
212,247,176745,1,2,0:0:0:0:
377,143,176927,1,0,1:0:0:0:
472,360,177109,1,2,0:0:0:0:
420,378,177199,1,0,0:0:0:0:
383,336,177290,1,2,0:0:0:0:
328,353,177381,1,0,0:0:0:0:
292,312,177472,1,2,0:0:0:0:
237,329,177564,1,0,0:0:0:0:
201,288,177655,1,0,1:0:0:0:
377,143,177836,1,6,0:0:0:0:
137,79,178018,5,6,0:0:0:0:
102,260,178200,2,0,P|170:233|244:218,1,135.000000514984,2|0,0:0|1:0,0:0:0:0:
315,384,178564,1,2,0:0:0:0:
458,266,178745,1,2,0:0:0:0:
476,214,178835,1,0,0:0:0:0:
434,177,178926,1,2,0:0:0:0:
451,122,179017,1,0,0:0:0:0:
410,86,179108,1,0,1:0:0:0:
227,6,179291,1,2,0:0:0:0:
207,12,179382,1,0,0:0:0:0:
158,27,179473,6,0,L|84:46,1,67.5000002574921,4|0,0:0|0:0,0:0:0:0:
20,65,179654,1,2,0:0:0:0:
188,156,179836,2,0,P|170:221|154:304,1,135.000000514984,0|2,1:0|0:0,0:0:0:0:
20,65,180200,1,2,0:0:0:0:
72,83,180290,1,0,0:0:0:0:
109,41,180381,1,2,0:0:0:0:
164,58,180472,1,0,0:0:0:0:
200,17,180563,1,0,1:0:0:0:
236,58,180654,1,0,0:0:0:0:
291,41,180745,1,2,0:0:0:0:
328,83,180836,1,0,0:0:0:0:
380,65,180926,5,4,0:0:0:0:
286,253,181109,2,0,P|387:288|444:318,1,135.000000514984,2|0,0:0|1:0,0:0:0:0:
512,75,181473,1,2,0:0:0:0:
476,116,181564,1,0,0:0:0:0:
421,99,181655,1,2,0:0:0:0:
384,141,181746,1,0,0:0:0:0:
332,123,181836,1,2,0:0:0:0:
181,16,182018,1,0,1:0:0:0:
218,190,182200,1,2,0:0:0:0:
208,207,182291,1,0,0:0:0:0:
178,253,182382,6,0,P|111:273|96:278,1,67.5000002574921,4|0,0:0|0:0,0:0:0:0:
44,248,182564,1,2,0:0:0:0:
209,373,182745,1,0,1:0:0:0:
240,132,182927,1,2,0:0:0:0:
292,114,183017,1,0,0:0:0:0:
329,156,183108,1,2,0:0:0:0:
384,139,183199,1,0,0:0:0:0:
420,180,183290,1,2,0:0:0:0:
475,163,183382,1,0,0:0:0:0:
511,204,183473,1,4,1:2:0:0:
305,280,183654,1,2,0:0:0:0:
286,271,183745,1,0,0:0:0:0:
234,248,183836,5,4,0:0:0:0:
127,383,184018,2,0,P|59:357|-8:338,1,135.000000514984,2|0,0:0|1:0,0:0:0:0:
106,164,184382,1,2,0:0:0:0:
262,299,184564,1,2,0:0:0:0:
314,317,184654,1,0,0:0:0:0:
351,275,184745,1,2,0:0:0:0:
406,292,184836,1,0,0:0:0:0:
442,251,184927,2,0,P|447:215|454:178,1,67.5000002574921,0|0,1:0|0:0,0:0:0:0:
463,105,185109,1,6,0:0:0:0:
247,214,185291,5,2,1:2:0:0:
194,201,185382,1,0,0:0:0:0:
141,188,185473,1,2,0:0:0:0:
88,176,185564,1,0,1:0:0:0:
35,164,185654,6,0,P|28:126|17:94,1,67.5000002574921,0|0,1:0|0:0,0:0:0:0:
99,47,185836,1,2,1:2:0:0:
99,47,185927,1,0,0:0:0:0:
99,47,186018,5,12,3:0:0:0:
146,277,186200,1,4,3:0:0:0:
376,230,186382,1,12,3:0:0:0:
405,184,186473,1,0,0:0:0:0:
378,136,186564,1,2,0:0:0:0:
407,90,186655,1,0,0:0:0:0:
380,42,186745,5,4,0:1:0:0:
289,15,198382,5,6,0:0:0:0:
381,67,198564,1,0,0:0:0:0:
298,139,198745,2,0,P|238:123|204:116,1,75.0000028610231,2|0,0:2|0:0,0:0:0:0:
302,158,199018,2,0,P|338:166|374:176,1,75.0000028610231,2|0,0:2|0:0,0:0:0:0:
401,162,199291,1,2,0:2:0:0:
392,190,199382,1,0,0:0:0:0:
391,220,199473,1,2,0:0:0:0:
394,249,199564,1,0,0:0:0:0:
403,277,199654,1,2,0:2:0:0:
416,303,199745,1,0,0:0:0:0:
456,346,199836,6,0,P|417:352|373:366,1,75.0000028610231,6|0,0:0|0:0,0:0:0:0:
337,338,200109,1,0,0:0:0:0:
326,342,200200,1,2,0:0:0:0:
241,269,200382,5,2,0:2:0:0:
207,292,200473,1,0,0:0:0:0:
168,305,200564,1,2,0:2:0:0:
127,307,200654,1,0,0:0:0:0:
100,342,200745,5,2,0:2:0:0:
63,324,200836,1,0,0:0:0:0:
32,296,200927,1,6,0:0:0:0:
10,262,201017,1,0,0:0:0:0:
39,217,201109,5,0,0:0:0:0:
36,175,201200,1,0,0:0:0:0:
44,135,201291,1,2,0:2:0:0:
63,99,201381,1,0,0:0:0:0:
92,69,201473,2,0,L|79:22,1,37.5000014305115
271,292,201745,5,2,0:2:0:0:
214,358,201897,5,0,0:0:0:0:
156,369,202018,5,0,0:0:0:0:
112,356,202139,5,2,0:2:0:0:
90,333,202260,5,0,0:0:0:0:
83,312,202382,6,0,P|47:343|17:366,2,50.0000019073487,0|2|0,0:0|0:2|0:0,0:0:0:0:
49,212,202745,5,2,0:0:0:0:
85,202,202836,1,0,0:0:0:0:
121,192,202927,1,8,0:0:0:0:
157,183,203018,1,0,0:0:0:0:
204,174,203109,5,0,0:0:0:0:
240,184,203200,1,0,0:0:0:0:
276,194,203291,1,4,0:0:0:0:
312,203,203382,1,0,0:0:0:0:
354,235,203473,1,0,0:0:0:0:
390,245,203564,1,0,0:0:0:0:
426,255,203654,1,4,0:0:0:0:
426,255,203715,2,0,P|442:277|452:305,2,50.0000019073487,0|4|0,0:0|0:0|0:0,0:0:0:0:
429,154,204079,5,0,0:0:0:0:
429,154,204139,5,0,0:0:0:0:
429,154,204200,6,0,P|420:117|407:51,1,75.0000028610231,4|0,0:1|0:0,0:0:0:0:
345,44,204473,2,0,P|336:81|323:147,1,75.0000028610231
270,168,204745,1,2,0:2:0:0:
174,54,204927,6,0,P|165:91|152:157,1,75.0000028610231,10|0,0:0|0:0,0:0:0:0:
90,164,205200,2,0,P|81:127|68:61,1,75.0000028610231
24,30,205472,1,2,0:2:0:0:
24,30,205564,1,0,0:0:0:0:
24,30,205654,6,0,L|71:14,2,37.5000014305115,6|0|0,0:0|0:0|0:0,0:0:0:0:
74,91,205927,2,0,P|110:101|169:121,1,75.0000028610231,0|0,0:2|0:0,0:0:0:0:
213,77,206200,2,0,P|231:71|260:61,1,37.5000014305115,2|0,0:2|0:0,0:0:0:0:
312,105,206382,1,2,0:0:0:0:
433,20,206564,1,4,0:0:0:0:
433,20,206654,1,0,0:0:0:0:
433,20,206745,2,0,P|451:77|458:105,1,75.0000028610231,10|0,0:0|0:0,0:0:0:0:
512,329,207109,6,0,B|469:343|402:315|359:323,3,150.000005722046,6|2|2|2,0:2|0:0|0:0|0:0,0:0:0:0:
316,350,208291,1,0,0:0:0:0:
279,340,208382,1,8,0:0:0:0:
242,331,208473,1,0,0:0:0:0:
205,322,208564,2,0,P|160:332|115:355,1,75.0000028610231,6|0,0:0|0:0,0:0:0:0:
58,273,208836,1,0,0:0:0:0:
58,273,208927,2,0,P|99:292|139:323,1,75.0000028610231,6|0,0:0|0:0,0:0:0:0:
205,322,209200,2,0,P|221:285|237:248,1,75.0000028610231,2|0,0:0|0:0,0:0:0:0:
165,121,209533,5,10,0:0:0:0:
108,101,209654,5,0,0:0:0:0:
51,81,209776,6,0,L|44:46,3,25.0000009536744
127,12,210018,6,0,P|133:57|144:93,1,75.0000028610231,6|0,0:2|0:0,0:0:0:0:
168,116,210291,1,0,0:0:0:0:
168,116,210382,2,0,P|160:165|148:204,1,75.0000028610231,2|0,0:2|0:0,0:0:0:0:
147,200,210624,2,0,L|156:236,1,25.0000009536744
222,257,210745,5,2,0:2:0:0:
264,271,210836,1,0,0:0:0:0:
306,285,210927,1,0,0:0:0:0:
348,299,211018,1,0,0:0:0:0:
368,332,211109,5,8,0:0:0:0:
334,343,211200,1,0,0:0:0:0:
300,354,211291,1,0,0:0:0:0:
267,365,211382,1,0,0:0:0:0:
220,346,211473,5,2,0:0:0:0:
200,338,211564,1,0,0:0:0:0:
180,331,211654,1,0,0:0:0:0:
245,172,211836,6,0,P|212:180|169:186,1,75.0000028610231,4|4,0:0|0:0,0:0:0:0:
130,127,212109,1,0,0:0:0:0:
142,114,212200,2,0,P|147:88|154:64,1,37.5000014305115,2|0,0:2|0:0,0:0:0:0:
211,22,212382,1,8,0:0:0:0:
243,52,212473,1,0,0:0:0:0:
256,95,212564,1,2,0:0:0:0:
251,139,212654,1,0,0:0:0:0:
219,170,212745,1,4,0:0:0:0:
179,188,212835,1,0,0:0:0:0:
179,188,212927,6,0,P|175:232|166:296,1,75.0000028610231,6|0,0:2|0:0,0:0:0:0:
190,339,213200,1,0,0:0:0:0:
190,339,213291,5,6,0:0:0:0:
244,372,213382,1,0,0:0:0:0:
303,351,213473,1,0,0:0:0:0:
326,292,213564,1,4,0:0:0:0:
295,237,213655,1,10,0:0:0:0:
318,178,213745,1,0,0:0:0:0:
377,157,213836,1,0,0:0:0:0:
431,190,213927,1,0,0:0:0:0:
440,252,214018,5,2,0:2:0:0:
435,274,214109,1,0,0:0:0:0:
431,296,214200,1,8,0:0:0:0:
377,284,214291,5,2,0:2:0:0:
372,306,214382,1,2,0:0:0:0:
368,328,214473,1,0,0:0:0:0:
395,375,214564,6,0,L|445:361,1,37.5000014305115,2|0,0:2|0:0,0:0:0:0:
509,272,214745,5,6,0:2:0:0:
450,257,214836,1,0,0:0:0:0:
391,242,214927,1,0,0:0:0:0:
332,226,215018,1,0,0:0:0:0:
303,168,215109,5,2,0:2:0:0:
362,153,215200,1,0,0:0:0:0:
421,138,215291,1,0,0:0:0:0:
480,122,215382,1,0,0:0:0:0:
509,64,215473,5,2,0:2:0:0:
450,49,215564,1,0,0:0:0:0:
391,34,215655,1,0,0:0:0:0:
332,18,215746,1,2,0:2:0:0:
342,42,215836,1,4,0:1:0:0:
182,358,216382,5,2,0:0:0:0:
182,358,216473,1,0,0:0:0:0:
182,358,216564,2,0,P|163:308|164:288,1,75.0000028610231,10|0,0:0|0:0,0:0:0:0:
0,183,216927,5,2,0:2:0:0:
77,165,217048,5,0,0:0:0:0:
154,147,217170,5,0,0:0:0:0:
154,147,217291,6,0,P|161:110|168:87,2,50.0000019073487,2|0|0,0:2|0:0|0:0,0:0:0:0:
235,151,217654,6,0,P|238:132|242:120,3,25.0000009536744,2|0|0|0,0:2|0:0|0:0|0:0,0:0:0:0:
392,2,218018,5,2,0:2:0:0:
421,118,218200,2,0,P|436:174|447:211,1,75.0000028610231,2|0,0:2|0:0,0:0:0:0:
302,346,218564,1,2,0:2:0:0:
302,346,218654,1,0,0:0:0:0:
302,346,218745,6,0,B|342:318|430:329|386:380|474:394|518:365,1,225.000008583069,4|0,0:2|0:0,0:0:0:0:
452,234,219473,1,4,0:0:0:0:
391,99,219654,1,0,0:0:0:0:
391,99,219836,2,0,P|448:77|474:66,1,75.0000028610231,4|0,0:0|0:0,0:0:0:0:
255,8,220200,5,4,0:1:0:0:
256,192,220291,12,6,221654,0:2:0:0:
85,12,230382,5,4,0:0:0:0:
91,37,230473,1,0,0:0:0:0:
98,62,230564,1,0,0:0:0:0:
105,87,230654,1,0,0:0:0:0:
138,110,230745,5,0,0:0:0:0:
148,139,230836,1,0,0:0:0:0:
148,139,230927,2,0,L|135:203,1,37.5000014305115,2|2,0:2|0:0,0:0:0:0:
497,249,231291,1,4,0:0:0:0:
454,119,231473,5,8,0:0:0:0:
410,129,231564,1,0,0:0:0:0:
366,138,231654,1,2,0:2:0:0:
322,148,231745,1,8,0:0:0:0:
284,188,231836,5,8,0:0:0:0:
240,178,231927,1,0,0:0:0:0:
196,169,232017,1,0,0:0:0:0:
152,159,232108,1,8,0:0:0:0:
108,149,232200,2,0,P|98:104|95:94,1,37.5000014305115,8|0,0:0|0:0,0:0:0:0:
73,250,232382,2,0,P|83:295|86:305,1,37.5000014305115,12|0,0:0|0:0,0:0:0:0:
146,358,232564,5,0,0:0:0:0:
192,320,232654,1,0,0:0:0:0:
249,305,232745,1,4,0:0:0:0:
307,315,232836,1,0,0:0:0:0:
355,349,232927,2,0,P|444:358|489:368,1,112.500004291535,4|0,0:2|0:0,0:0:0:0:
503,236,233291,6,0,P|431:262|344:203,1,170.000003242493,4|0,0:1|0:0,0:0:0:0:
439,95,233836,1,0,0:0:0:0:
433,79,233927,1,0,0:0:0:0:
426,63,234018,2,0,P|332:42|280:37,1,127.50000243187,2|0,1:2|0:0,0:0:0:0:
284,35,234382,1,0,0:0:0:0:
226,177,234564,1,2,1:2:0:0:
110,74,234745,6,0,P|90:53|79:42,2,28.3333338737488,4|0|0,3:2|3:0|3:0,3:0:0:0:
107,101,234927,2,0,P|127:122|138:133,2,28.3333338737488,0|0|0,3:0|3:0|3:0,3:0:0:0:
32,102,235109,5,8,0:3:0:0:
26,131,235200,1,4,3:3:0:0:
20,160,235291,1,4,3:3:0:0:
15,189,235382,1,4,3:3:0:0:
27,241,235473,5,12,0:3:0:0:
21,270,235564,1,0,3:3:0:0:
15,299,235655,1,2,3:2:0:0:
10,328,235746,1,0,3:3:0:0:
43,368,235836,5,4,3:0:0:0:
43,368,235927,2,0,P|105:354|140:352,1,85.0000016212464,4|0,0:0|0:0,0:0:0:0:
180,269,236200,6,0,P|127:270|90:247,1,85.0000016212464,4|0,0:0|0:0,0:0:0:0:
152,191,236473,1,0,0:0:0:0:
152,191,236564,2,0,P|205:190|242:213,1,85.0000016212464,4|0,3:0|0:0,0:0:0:0:
276,295,236836,1,12,3:0:0:0:
276,295,236927,2,0,P|315:312|357:309,1,85.0000016212464,4|4,3:0|3:0,0:0:0:0:
409,244,237200,1,0,3:0:0:0:
409,244,237291,2,0,P|370:227|328:231,1,85.0000016212464,4|4,3:0|3:0,0:0:0:0:
288,163,237564,1,4,3:0:0:0:
288,163,237654,6,0,P|276:117|260:74,1,85.0000016212464,4|0,0:1|0:0,0:0:0:0:
450,9,238018,5,0,1:0:0:0:
420,70,238139,5,0,1:0:0:0:
406,136,238260,5,4,3:2:0:0:
428,200,238382,5,0,1:0:0:0:
398,261,238503,5,0,1:0:0:0:
384,327,238624,5,4,3:0:0:0:
384,327,238745,6,0,P|394:356|400:382,2,56.6666677474976,4|0|0,0:0|0:0|0:0,0:0:0:0:
235,254,239109,6,0,P|180:264|125:274,1,85.0000016212464,4|0,0:1|0:0,0:0:0:0:
130,249,239382,2,0,P|75:259|20:269,1,85.0000016212464,4|0,3:0|0:0,0:0:0:0:
5,233,239654,1,4,3:0:0:0:
164,172,239836,1,0,1:0:0:0:
104,341,240018,1,0,1:0:0:0:
63,139,240200,2,0,P|72:92|85:42,1,85.0000016212464,4|0,0:1|0:0,0:0:0:0:
153,15,240473,1,0,0:0:0:0:
153,15,240564,6,0,L|165:70,2,42.5000008106232,4|0|0,0:0|0:0|0:0,0:0:0:0:
236,90,240836,2,0,L|248:35,2,42.5000008106232,4|0|0,3:0|0:0|0:0,0:0:0:0:
319,15,241109,2,0,L|331:70,1,42.5000008106232,4|0,3:0|0:0,0:0:0:0:
402,93,241291,5,0,1:0:0:0:
263,140,241473,1,2,0:0:0:0:
140,221,241654,1,0,0:0:0:0:
42,331,241836,1,2,0:0:0:0:
42,331,241927,1,0,0:0:0:0:
42,331,242018,6,0,P|51:279|17:202,1,127.50000243187,4|0,0:1|0:0,0:0:0:0:
14,202,242382,1,4,3:0:0:0:
178,137,242564,1,0,0:0:0:0:
143,309,242745,1,0,1:0:0:0:
200,324,242836,1,0,0:0:0:0:
257,339,242927,1,0,1:0:0:0:
314,355,243018,1,0,1:0:0:0:
371,371,243109,6,0,L|359:314,1,42.5000008106232,4|0,3:0|0:0,0:0:0:0:
436,239,243291,2,0,L|448:296,1,42.5000008106232,12|0,3:0|0:0,0:0:0:0:
512,384,243473,5,4,0:0:0:0:
512,384,243836,5,4,3:0:0:0:
436,239,244018,5,4,3:0:0:0:
436,239,244079,5,0,3:0:0:0:
436,239,244139,5,0,3:0:0:0:
436,239,244200,5,0,1:0:0:0:
248,328,244382,1,0,1:0:0:0:
299,91,244564,5,4,0:1:0:0:
339,80,244654,1,0,0:0:0:0:
380,68,244745,1,4,3:0:0:0:
421,57,244836,1,0,1:0:0:0:
457,21,244927,5,0,1:0:0:0:
499,50,245018,1,0,0:0:0:0:
512,99,245109,1,0,1:0:0:0:
490,145,245200,1,0,1:0:0:0:
444,166,245291,1,12,3:0:0:0:
444,166,245382,2,0,L|437:196,2,21.2500004053116
378,114,245564,5,0,1:0:0:0:
328,124,245654,1,0,1:0:0:0:
278,135,245745,1,12,3:0:0:0:
228,146,245836,2,0,L|235:116,2,21.2500004053116,0|0|0,3:0|3:0|3:0,3:0:0:0:
265,214,246018,2,0,L|258:244,2,21.2500004053116,0|0|0,3:0|3:0|3:0,3:0:0:0:
342,188,246200,1,4,3:0:0:0:
342,188,246291,1,0,0:0:0:0:
342,188,246382,5,4,0:0:0:0:
253,47,246564,2,0,P|176:33|104:26,1,125,2|0,0:0|1:0,0:0:0:0:
0,190,246927,1,2,0:0:0:0:
44,204,247017,1,0,0:0:0:0:
74,170,247108,1,2,0:0:0:0:
119,183,247199,1,0,0:0:0:0:
149,150,247290,1,2,0:0:0:0:
186,337,247473,1,0,1:0:0:0:
330,212,247654,1,2,0:0:0:0:
342,209,247745,1,0,0:0:0:0:
378,220,247836,5,4,0:0:0:0:
512,91,248018,2,0,P|498:168|491:240,1,125,2|0,0:0|1:0,0:0:0:0:
299,87,248382,1,2,0:0:0:0:
269,54,248473,1,0,0:0:0:0:
224,67,248564,1,2,0:0:0:0:
194,33,248655,1,0,0:0:0:0:
150,47,248745,1,2,0:0:0:0:
120,13,248836,1,0,0:0:0:0:
76,27,248926,1,0,1:0:0:0:
119,170,249109,2,0,P|99:227|95:246,1,62.5,2|0,0:0|0:0,0:0:0:0:
27,264,249291,5,4,0:0:0:0:
214,210,249473,2,0,P|235:284|221:333,1,125,2|0,0:0|1:0,0:0:0:0:
13,158,249836,1,2,0:0:0:0:
197,83,250018,1,2,0:0:0:0:
241,69,250108,1,0,0:0:0:0:
271,103,250199,1,2,0:0:0:0:
316,90,250290,1,0,0:0:0:0:
346,123,250381,1,0,1:0:0:0:
512,66,250564,1,2,0:0:0:0:
501,60,250654,1,0,0:0:0:0:
454,44,250745,6,0,P|473:115|489:170,1,125,4|2,0:0|0:0,0:0:0:0:
410,355,251109,1,0,1:0:0:0:
257,270,251291,1,2,0:0:0:0:
260,258,251382,1,0,0:0:0:0:
274,194,251473,5,2,0:0:0:0:
230,180,251563,1,0,0:0:0:0:
200,214,251654,1,2,0:0:0:0:
155,201,251745,1,0,0:0:0:0:
125,234,251836,1,0,1:0:0:0:
95,268,251927,1,0,0:0:0:0:
50,255,252018,1,2,0:0:0:0:
20,288,252109,1,0,0:0:0:0:
7,307,252200,5,4,0:0:0:0:
52,134,252382,2,0,P|123:119|184:105,1,125,2|0,0:0|1:0,0:0:0:0:
350,64,252745,1,2,0:0:0:0:
336,108,252835,1,0,0:0:0:0:
370,138,252926,1,2,0:0:0:0:
357,183,253017,1,0,0:0:0:0:
390,213,253108,1,2,0:0:0:0:
240,336,253291,1,0,1:0:0:0:
466,373,253473,1,2,0:0:0:0:
476,366,253564,1,0,0:0:0:0:
512,338,253654,6,0,P|503:265|492:200,1,125,4|2,0:0|0:0,0:0:0:0:
445,172,253927,1,0,0:0:0:0:
448,160,254018,1,0,1:0:0:0:
290,25,254200,1,2,0:0:0:0:
304,69,254290,1,0,0:0:0:0:
270,99,254381,1,2,0:0:0:0:
283,144,254472,1,0,0:0:0:0:
250,174,254563,1,2,0:0:0:0:
263,219,254654,1,0,0:0:0:0:
230,249,254745,1,0,1:0:0:0:
370,381,254927,1,2,0:0:0:0:
409,174,255109,5,4,0:0:0:0:
261,351,255291,2,0,P|176:332|110:324,1,125,2|0,0:0|1:0,0:0:0:0:
100,282,255564,1,0,0:0:0:0:
88,286,255654,1,2,0:0:0:0:
0,113,255836,1,2,0:0:0:0:
30,146,255927,1,0,0:0:0:0:
75,133,256018,1,2,0:0:0:0:
105,167,256109,1,0,0:0:0:0:
149,153,256200,2,0,P|209:147|226:146,1,62.5,0|0,1:0|0:0,0:0:0:0:
229,69,256382,2,0,P|169:75|152:76,1,62.5,2|0,0:0|0:0,0:0:0:0:
109,29,256564,5,4,0:0:0:0:
64,228,256745,2,0,P|82:313|91:363,1,125,2|0,0:0|1:0,0:0:0:0:
146,348,257018,1,0,0:0:0:0:
149,360,257109,1,2,0:0:0:0:
331,250,257291,5,2,0:0:0:0:
342,254,257382,1,4,3:0:0:0:
353,258,257473,1,4,3:0:0:0:
216,139,257654,5,0,1:0:0:0:
172,153,257744,1,0,0:0:0:0:
142,119,257835,1,2,0:0:0:0:
97,132,257926,1,0,0:0:0:0:
67,99,258017,5,4,0:0:0:0:
212,12,258200,2,0,P|290:27|343:38,1,125,2|0,0:0|1:0,0:0:0:0:
357,212,258564,1,2,0:0:0:0:
401,226,258654,1,0,0:0:0:0:
431,192,258745,1,2,0:0:0:0:
476,205,258836,1,0,0:0:0:0:
506,172,258927,1,2,0:0:0:0:
307,122,259109,1,0,1:0:0:0:
242,294,259291,1,2,0:0:0:0:
246,305,259382,1,0,0:0:0:0:
263,353,259473,5,4,0:0:0:0:
345,157,259654,2,0,P|267:172|214:183,1,125,2|0,0:0|1:0,0:0:0:0:
26,39,260018,1,2,0:0:0:0:
70,25,260108,1,0,0:0:0:0:
100,59,260199,1,2,0:0:0:0:
145,46,260290,1,0,0:0:0:0:
175,79,260381,1,2,0:0:0:0:
220,66,260472,1,0,0:0:0:0:
250,99,260563,1,0,1:0:0:0:
58,187,260745,1,2,0:0:0:0:
60,199,260836,1,0,0:0:0:0:
67,239,260927,5,4,0:0:0:0:
210,346,261109,1,2,0:0:0:0:
210,346,261200,1,0,0:0:0:0:
210,346,261291,2,0,P|285:354|342:316,1,125,0|2,1:0|0:0,0:0:0:0:
318,282,261564,1,0,0:0:0:0:
312,268,261654,5,2,0:0:0:0:
298,224,261744,1,0,0:0:0:0:
332,194,261835,1,2,0:0:0:0:
319,149,261926,1,0,0:0:0:0:
352,119,262017,1,0,1:0:0:0:
339,74,262108,1,0,0:0:0:0:
372,44,262200,2,0,P|431:32|445:28,1,62.5,2|0,0:0|0:0,0:0:0:0:
492,77,262382,5,4,0:0:0:0:
290,26,262564,1,2,0:0:0:0:
278,22,262654,1,0,0:0:0:0:
227,10,262745,2,0,P|241:80|247:138,1,125,0|2,1:0|0:0,0:0:0:0:
286,180,263018,1,0,0:0:0:0:
277,197,263109,5,2,0:0:0:0:
233,183,263199,1,0,0:0:0:0:
203,217,263290,1,2,0:0:0:0:
158,204,263381,1,0,0:0:0:0:
128,237,263472,1,0,1:0:0:0:
83,224,263563,1,0,0:0:0:0:
53,257,263654,1,2,0:0:0:0:
8,244,263745,1,0,0:0:0:0:
17,227,263836,5,4,0:0:0:0:
168,339,264018,2,0,P|239:354|299:368,1,125,2|0,0:0|1:0,0:0:0:0:
336,195,264382,1,2,0:0:0:0:
380,209,264472,1,0,0:0:0:0:
410,175,264563,1,2,0:0:0:0:
455,188,264654,1,0,0:0:0:0:
485,155,264745,1,2,0:0:0:0:
443,327,264927,1,0,1:0:0:0:
263,221,265109,1,2,0:0:0:0:
259,209,265200,1,0,0:0:0:0:
267,156,265291,5,4,0:0:0:0:
73,102,265473,2,0,P|56:173|37:235,1,125,2|0,0:0|1:0,0:0:0:0:
94,272,265745,1,0,0:0:0:0:
105,268,265836,5,4,0:0:0:0:
135,301,265927,1,0,0:0:0:0:
180,288,266018,1,2,0:0:0:0:
210,322,266109,1,0,0:0:0:0:
254,308,266199,1,2,0:0:0:0:
284,342,266291,1,0,0:0:0:0:
328,328,266381,1,0,1:0:0:0:
498,268,266564,1,4,0:0:0:0:
275,178,266745,5,4,0:0:0:0:
473,104,266927,2,0,P|411:84|337:58,1,125,2|0,0:0|1:0,0:0:0:0:
319,16,267200,1,0,0:0:0:0:
306,19,267291,1,2,0:0:0:0:
118,54,267473,1,2,0:0:0:0:
85,84,267564,1,0,0:0:0:0:
98,129,267655,1,2,0:0:0:0:
64,159,267746,1,0,0:0:0:0:
78,203,267836,1,4,1:2:0:0:
136,366,268018,1,2,0:0:0:0:
140,354,268109,1,0,0:0:0:0:
153,305,268200,5,4,3:0:0:0:
199,272,268291,1,0,0:0:0:0:
255,276,268382,1,4,3:0:0:0:
295,315,268473,1,4,3:0:0:0:
351,319,268564,1,0,1:0:0:0:
397,286,268655,1,0,0:0:0:0:
410,231,268745,1,0,1:0:0:0:
385,179,268836,1,0,1:0:0:0:
332,155,268927,5,12,3:0:0:0:
308,162,269018,1,0,3:0:0:0:
284,169,269109,1,4,3:0:0:0:
260,176,269200,1,0,3:0:0:0:
206,152,269291,5,12,3:0:0:0:
187,179,269382,1,4,3:0:0:0:
158,166,269473,1,2,0:0:0:0:
139,193,269564,1,0,0:0:0:0:
110,180,269654,5,4,0:0:0:0:
178,29,269836,1,2,0:0:0:0:
0,0,270018,2,0,P|24:68|40:125,1,125,0|2,1:0|0:0,0:0:0:0:
76,159,270291,1,0,0:0:0:0:
43,189,270382,1,2,0:0:0:0:
56,234,270473,1,0,0:0:0:0:
22,264,270564,1,2,0:0:0:0:
91,373,270745,1,0,1:0:0:0:
284,273,270927,1,4,0:0:0:0:
56,234,271109,5,2,0:0:0:0:
146,116,271291,1,2,0:0:0:0:
157,111,271382,1,0,0:0:0:0:
193,99,271473,2,0,P|224:165|210:228,1,125,0|2,1:0|0:0,0:0:0:0:
181,260,271745,1,0,0:0:0:0:
211,293,271836,1,2,0:0:0:0:
256,280,271927,1,0,0:0:0:0:
286,314,272018,1,2,0:0:0:0:
331,301,272109,1,0,0:0:0:0:
361,335,272200,1,0,1:0:0:0:
512,282,272382,1,2,0:0:0:0:
324,181,272564,5,4,0:0:0:0:
489,123,272745,2,0,P|498:46|507:-12,1,125,2|0,0:0|1:0,0:0:0:0:
447,10,273018,1,0,0:0:0:0:
434,8,273109,1,2,0:0:0:0:
298,110,273291,1,2,0:0:0:0:
253,123,273382,1,0,0:0:0:0:
223,89,273473,1,2,0:0:0:0:
178,102,273564,1,0,0:0:0:0:
148,68,273654,2,0,P|90:89|74:94,1,62.5,0|0,1:0|0:0,0:0:0:0:
23,49,273836,1,4,0:0:0:0:
105,238,274018,5,2,0:0:0:0:
105,238,274109,1,0,0:0:0:0:
105,238,274200,1,2,0:0:0:0:
267,190,274382,2,0,P|247:262|241:319,1,125,0|2,1:0|0:0,0:0:0:0:
286,350,274654,1,0,0:0:0:0:
300,359,274745,5,2,0:0:0:0:
330,325,274836,1,0,0:0:0:0:
375,338,274927,1,2,0:0:0:0:
405,304,275018,1,0,0:0:0:0:
450,317,275109,1,0,1:0:0:0:
420,283,275200,1,0,0:0:0:0:
375,296,275291,1,2,0:0:0:0:
345,262,275382,1,0,0:0:0:0:
300,275,275473,5,4,0:0:0:0:
368,114,275654,2,0,P|394:46|425:-11,1,125,2|0,0:0|1:0,0:0:0:0:
220,66,276018,1,2,0:0:0:0:
254,96,276109,1,0,0:0:0:0:
241,141,276200,1,2,0:0:0:0:
275,171,276291,1,0,0:0:0:0:
262,216,276382,1,2,0:0:0:0:
64,304,276564,1,0,1:0:0:0:
152,114,276745,1,2,0:0:0:0:
213,345,276927,5,4,0:0:0:0:
377,378,277109,2,0,P|477:355|521:343,1,125,2|0,0:0|1:0,0:0:0:0:
506,149,277473,1,2,0:0:0:0:
476,183,277564,1,0,0:0:0:0:
431,170,277655,1,4,0:0:0:0:
401,204,277746,1,0,0:0:0:0:
356,191,277837,1,2,0:0:0:0:
326,225,277927,1,0,0:0:0:0:
281,212,278018,2,0,P|211:214|160:187,1,125,0|2,1:0|0:0,0:0:0:0:
139,132,278291,1,0,0:0:0:0:
144,120,278382,5,4,0:0:0:0:
25,218,278564,2,0,P|15:145|-1:83,1,125,2|0,0:0|1:0,0:0:0:0:
160,0,278927,1,2,0:0:0:0:
213,199,279109,1,2,0:0:0:0:
243,233,279200,1,0,0:0:0:0:
288,220,279291,1,2,0:0:0:0:
318,254,279382,1,0,0:0:0:0:
363,241,279473,1,0,1:0:0:0:
512,204,279654,1,4,0:0:0:0:
283,132,279836,5,2,0:0:0:0:
357,364,280018,2,0,P|450:380|496:386,1,125,2|0,0:0|1:0,0:0:0:0:
507,330,280291,1,0,0:0:0:0:
503,317,280382,1,2,0:0:0:0:
274,270,280564,1,2,0:0:0:0:
244,236,280655,1,0,0:0:0:0:
199,249,280746,1,4,3:0:0:0:
169,215,280837,1,4,3:0:0:0:
124,228,280928,1,0,1:0:0:0:
94,194,281018,1,0,0:0:0:0:
49,207,281109,1,4,3:0:0:0:
19,173,281200,1,0,0:0:0:0:
8,157,281291,6,0,P|20:79|34:21,1,125,4|2,0:0|0:0,0:0:0:0:
192,0,281654,1,0,1:0:0:0:
143,182,281836,1,2,0:0:0:0:
173,216,281927,1,0,0:0:0:0:
218,203,282018,1,2,0:0:0:0:
248,237,282108,1,0,0:0:0:0:
293,224,282199,1,2,0:0:0:0:
507,168,282382,1,0,1:0:0:0:
263,103,282564,1,2,0:0:0:0:
421,257,282745,5,4,0:0:0:0:
424,268,282836,1,0,0:0:0:0:
428,279,282927,1,2,0:0:0:0:
268,351,283109,2,0,P|185:322|116:304,1,125,0|2,1:0|0:0,0:0:0:0:
106,333,283382,1,0,0:0:0:0:
72,303,283473,1,2,0:0:0:0:
85,258,283564,1,0,0:0:0:0:
51,228,283655,1,2,0:0:0:0:
64,183,283746,1,0,0:0:0:0:
30,153,283836,1,0,1:0:0:0:
76,4,284018,1,2,0:0:0:0:
208,119,284200,5,4,0:0:0:0:
148,268,284382,1,2,0:0:0:0:
328,207,284564,2,0,P|398:204|461:235,1,125,0|2,1:0|0:0,0:0:0:0:
466,277,284836,1,0,0:0:0:0:
472,293,284927,1,2,0:0:0:0:
442,327,285018,1,0,0:0:0:0:
397,314,285109,1,2,0:0:0:0:
367,348,285200,1,0,0:0:0:0:
322,335,285291,1,0,1:0:0:0:
133,302,285473,1,2,0:0:0:0:
253,171,285654,5,4,0:0:0:0:
256,158,285745,1,0,0:0:0:0:
259,143,285836,2,0,P|244:67|234:15,2,125,2|0|2,0:0|1:0|0:0,0:0:0:0:
301,128,286291,1,0,0:0:0:0:
315,123,286382,5,2,0:0:0:0:
345,157,286473,1,0,0:0:0:0:
390,144,286564,1,2,0:0:0:0:
420,178,286655,1,0,0:0:0:0:
465,165,286746,1,0,1:0:0:0:
435,199,286836,1,0,0:0:0:0:
390,186,286927,1,2,0:0:0:0:
360,220,287018,1,0,0:0:0:0:
315,207,287109,5,4,0:0:0:0:
211,336,287291,2,0,P|142:315|83:299,1,125,2|0,0:0|1:0,0:0:0:0:
0,159,287654,1,2,0:0:0:0:
30,125,287744,1,0,0:0:0:0:
75,138,287835,1,2,0:0:0:0:
105,104,287926,1,0,0:0:0:0:
150,117,288017,1,2,0:0:0:0:
211,336,288200,1,0,1:0:0:0:
298,197,288382,1,2,0:0:0:0:
53,285,288564,5,4,0:0:0:0:
41,280,288654,1,0,0:0:0:0:
29,274,288745,1,2,0:0:0:0:
73,86,288927,2,0,P|146:68|211:52,1,125,0|2,1:0|0:0,0:0:0:0:
230,25,289200,1,0,0:0:0:0:
260,59,289290,1,2,0:0:0:0:
305,46,289381,1,0,0:0:0:0:
335,80,289472,1,2,0:0:0:0:
380,67,289563,1,0,0:0:0:0:
410,101,289654,1,0,1:0:0:0:
239,197,289836,1,2,0:0:0:0:
239,197,289927,1,0,0:0:0:0:
239,197,290018,6,0,P|249:266|271:319,1,125,4|2,0:0|0:0,0:0:0:0:
459,366,290382,2,0,P|449:297|427:244,1,125,0|2,1:0|0:0,0:0:0:0:
239,197,290745,1,2,0:0:0:0:
209,231,290836,1,0,0:0:0:0:
164,218,290927,1,2,0:0:0:0:
134,252,291018,1,0,1:0:0:0:
89,239,291109,1,0,1:0:0:0:
15,108,291291,1,4,0:0:0:0:
155,17,291473,5,2,0:0:0:0:
256,192,291564,12,0,292745,0:0:0:0:
437,35,292927,6,0,P|424:100|420:150,1,110.000003356934,6|0,0:0|0:0,0:0:0:0:
247,83,293291,2,0,P|273:143|287:191,1,110.000003356934,2|0,1:2|0:0,0:0:0:0:
318,215,293564,1,0,0:0:0:0:
315,225,293654,1,2,0:2:0:0:
266,384,293836,1,2,0:2:0:0:
142,273,294018,1,0,1:0:0:0:
191,113,294200,5,2,0:2:0:0:
186,103,294291,1,0,0:0:0:0:
181,93,294382,2,0,P|131:64|71:73,1,110.000003356934,2|0,0:2|0:2,0:0:0:0:
37,230,294745,2,0,P|87:259|147:250,1,110.000003356934,2|0,1:2|0:2,0:0:0:0:
177,210,295018,1,0,0:0:0:0:
186,204,295109,2,0,P|214:210|249:222,2,55.0000016784668,2|0|2,0:0|0:0|0:2,0:0:0:0:
53,145,295473,1,0,1:2:0:0:
208,77,295654,1,2,0:2:0:0:
213,67,295745,1,0,0:0:0:0:
218,57,295836,5,4,0:2:0:0:
368,85,296018,1,0,0:0:0:0:
343,226,296200,1,2,1:2:0:0:
193,198,296382,1,0,0:0:0:0:
198,188,296473,1,0,0:0:0:0:
203,178,296564,5,2,0:2:0:0:
178,319,296745,1,2,0:2:0:0:
28,291,296927,1,0,1:0:0:0:
112,215,297109,1,6,0:2:0:0:
112,215,297200,1,0,0:0:0:0:
112,215,297291,2,0,P|196:234|238:248,1,110.000003356934,2|0,0:0|0:2,0:0:0:0:
293,336,297654,2,0,P|345:320|399:309,1,110.000003356934,2|0,1:2|0:2,0:0:0:0:
455,335,297927,1,0,0:0:0:0:
464,339,298018,6,0,P|487:334|516:323,1,55.0000016784668,2|0,0:2|0:0,0:0:0:0:
465,249,298200,2,0,P|477:229|490:200,1,55.0000016784668,2|0,0:2|0:3,0:3:0:0:
402,184,298382,2,0,P|397:161|386:132,3,55.0000016784668,2|0|2|0,1:2|0:3|0:2|0:3,0:3:0:0:
327,65,298745,6,0,P|377:46|440:62,1,110.000003356934,6|0,0:0|0:0,0:0:0:0:
337,240,299109,2,0,P|287:259|224:243,1,110.000003356934,2|0,1:2|0:0,0:0:0:0:
200,221,299382,1,0,0:0:0:0:
189,224,299473,1,2,0:2:0:0:
178,227,299564,1,0,0:2:0:0:
167,230,299654,1,2,0:2:0:0:
14,188,299836,1,0,1:0:0:0:
152,77,300018,2,0,P|263:102|368:128,1,220.000006713867,2|2,0:2|0:2,0:0:0:0:
273,307,300564,6,0,P|249:228|236:183,1,110.000003356934,0|2,1:0|0:2,0:0:0:0:
197,175,300836,1,0,0:0:0:0:
186,172,300927,1,2,0:2:0:0:
175,169,301018,1,0,0:0:0:0:
164,166,301109,1,2,0:2:0:0:
132,33,301291,1,0,1:0:0:0:
0,117,301473,1,2,0:2:0:0:
2,127,301564,1,0,0:0:0:0:
4,137,301654,6,0,P|2:201|22:243,1,110.000003356934,6|0,0:2|0:0,0:0:0:0:
193,136,302018,2,0,P|213:186|210:240,1,110.000003356934,2|0,1:2|0:0,0:0:0:0:
176,281,302291,1,0,0:0:0:0:
179,291,302382,1,2,0:2:0:0:
392,215,302564,1,2,0:2:0:0:
207,60,302745,1,0,1:0:0:0:
297,336,302927,6,0,P|386:354|431:365,1,110.000003356934,6|0,1:2|0:0,0:0:0:0:
481,162,303291,1,2,0:2:0:0:
265,225,303473,1,0,1:0:0:0:
383,46,303654,1,4,3:0:0:0:
362,236,303836,5,4,3:0:0:0:
364,246,303927,1,4,3:0:0:0:
402,280,304018,1,0,1:0:0:0:
238,373,304200,2,0,P|181:362|169:359,1,55.0000016784668,4|0,3:0|0:0,0:0:0:0:
204,274,304382,2,0,P|147:285|135:288,1,55.0000016784668,4|0,3:0|0:0,0:0:0:0:
74,351,304564,6,0,P|63:287|47:232,1,110.000003356934,6|0,0:2|0:0,0:0:0:0:
165,74,304927,2,0,P|154:138|138:193,1,110.000003356934,2|0,1:2|0:0,0:0:0:0:
163,219,305200,1,0,0:0:0:0:
165,229,305291,1,2,0:2:0:0:
318,198,305473,1,2,0:2:0:0:
252,360,305654,1,0,1:0:0:0:
405,329,305836,1,2,0:2:0:0:
411,320,305927,1,0,0:0:0:0:
417,311,306018,6,0,P|403:248|397:189,1,110.000003356934,2|0,0:2|0:0,0:0:0:0:
510,148,306382,2,0,P|503:93|490:39,1,110.000003356934,2|0,1:2|0:0,0:0:0:0:
442,15,306654,1,0,0:0:0:0:
431,18,306745,1,2,0:2:0:0:
420,21,306836,1,0,0:0:0:0:
409,24,306927,1,2,0:2:0:0:
330,121,307109,2,0,P|259:104|211:99,1,110.000003356934,0|2,1:0|0:2,0:0:0:0:
184,60,307382,1,0,0:0:0:0:
173,63,307473,5,6,0:2:0:0:
136,218,307654,1,0,0:0:0:0:
0,136,307836,1,2,1:2:0:0:
37,291,308017,1,0,0:0:0:0:
152,164,308200,1,2,0:2:0:0:
162,161,308291,1,0,0:0:0:0:
172,158,308382,2,0,P|250:158|287:175,1,110.000003356934,2|0,0:2|1:0,0:0:0:0:
396,304,308745,5,2,0:2:0:0:
386,308,308836,1,0,0:0:0:0:
358,340,308927,2,0,L|294:328,2,55.0000016784668,2|0|0,0:2|0:0|0:0,0:0:0:0:
405,202,309291,2,0,P|485:183|520:175,1,110.000003356934,2|0,1:2|0:0,0:0:0:0:
428,51,309654,1,2,0:2:0:0:
417,48,309745,1,0,0:0:0:0:
406,45,309836,1,2,0:2:0:0:
395,42,309927,1,0,0:0:0:0:
353,35,310018,2,0,P|281:52|171:83,1,165.000005035401,4|0,1:2|0:0,0:0:0:0:
141,10,310382,6,0,P|114:59|122:116,1,110.000003356934,6|0,0:2|0:0,0:0:0:0:
160,159,310654,1,0,0:0:0:0:
170,154,310745,2,0,P|238:162|294:173,1,110.000003356934,2|0,1:2|0:0,0:0:0:0:
324,188,311018,1,0,0:0:0:0:
334,185,311109,1,2,0:2:0:0:
390,78,311291,2,0,P|468:66|511:57,1,110.000003356934,2|0,0:2|1:0,0:0:0:0:
512,233,311654,6,0,P|406:233|308:302,1,220.000006713867,2|2,0:2|0:2,0:0:0:0:
186,218,312200,1,0,1:0:0:0:
231,360,312382,1,2,0:2:0:0:
221,354,312473,1,0,0:0:0:0:
211,348,312564,2,0,P|123:362|91:368,1,110.000003356934,2|0,0:2|0:0,0:0:0:0:
59,346,312836,1,0,0:0:0:0:
49,340,312927,6,0,P|16:279|80:299,1,165.000005035401,4|0,1:2|0:0,0:0:0:0:
152,279,313291,6,0,P|164:211|176:162,1,110.000003356934,4|4,0:0|3:0,0:0:0:0:
178,161,313564,1,4,3:0:0:0:
196,140,313654,1,12,3:0:0:0:
228,132,313745,1,0,0:0:0:0:
260,137,313836,1,0,0:0:0:0:
289,161,313927,1,8,3:0:0:0:
306,201,314018,1,12,3:0:0:0:
341,235,314109,1,0,0:0:0:0:
395,242,314200,1,4,3:0:0:0:
450,218,314291,1,4,3:0:0:0:
468,160,314382,1,0,1:0:0:0:
444,104,314473,1,0,0:0:0:0:
379,72,314564,6,0,P|308:67|222:53,2,110.000003356934,4|0|8,0:0|0:0|3:0,0:0:0:0:
498,191,315109,5,8,3:0:0:0:
484,215,315200,1,0,0:0:0:0:
492,229,315291,1,8,3:0:0:0:
478,253,315382,1,0,0:0:0:0:
481,267,315473,1,8,3:0:0:0:
467,291,315564,1,8,3:0:0:0:
475,305,315655,1,8,3:0:0:0:
461,329,315746,1,8,3:0:0:0:
468,348,315836,2,0,P|403:363|342:380,1,110.000003356934,8|4,3:0|0:0,0:0:0:0:
191,325,316200,6,0,P|169:267|183:205,1,110.000003356934,6|0,0:2|0:0,0:0:0:0:
231,164,316473,1,0,0:0:0:0:
231,164,316564,2,0,P|236:109|215:59,1,110.000003356934,2|0,1:2|0:0,0:0:0:0:
168,30,316836,1,0,0:0:0:0:
157,28,316927,1,2,0:2:0:0:
146,26,317018,1,0,0:0:0:0:
135,24,317109,1,2,0:2:0:0:
0,161,317291,2,0,P|22:152|53:144,1,55.0000016784668,0|0,1:0|0:0,0:0:0:0:
126,110,317473,6,0,P|96:187|82:228,2,110.000003356934,4|2|0,0:0|0:2|0:0,0:0:0:0:
247,63,318018,1,2,1:2:0:0:
325,179,318200,1,2,0:2:0:0:
334,184,318291,1,0,0:0:0:0:
343,189,318382,2,0,P|421:176|461:167,1,110.000003356934,2|0,0:2|0:0,0:0:0:0:
475,155,318654,1,0,0:0:0:0:
484,149,318745,1,2,1:2:0:0:
461,24,318927,1,2,0:2:0:0:
450,19,319018,1,0,0:0:0:0:
403,6,319109,6,0,P|325:19|285:28,1,110.000003356934,6|0,0:2|0:0,0:0:0:0:
195,188,319473,1,2,1:2:0:0:
360,157,319654,1,0,0:0:0:0:
193,85,319836,2,0,P|156:75|126:73,2,55.0000016784668,2|0|2,0:2|0:0|0:2,0:0:0:0:
290,228,320200,1,0,1:0:0:0:
177,335,320382,5,6,0:2:0:0:
166,330,320473,1,0,0:0:0:0:
155,326,320564,1,2,0:2:0:0:
144,324,320654,1,0,0:0:0:0:
133,323,320745,1,2,0:2:0:0:
11,217,320927,1,2,1:2:0:0:
147,135,321109,2,0,P|128:196|114:253,1,110.000003356934,2|0,0:2|0:0,0:0:0:0:
32,99,321473,1,2,0:2:0:0:
226,217,321654,2,0,P|303:198|399:183,1,165.000005035401,6|0,1:2|0:0,0:0:0:0:
451,131,322018,6,0,P|468:198|446:247,1,110.000003356934,6|0,0:2|0:0,0:0:0:0:
259,65,322382,2,0,P|242:132|264:181,1,110.000003356934,2|0,1:2|0:0,0:0:0:0:
291,199,322654,1,0,0:0:0:0:
289,209,322745,1,2,0:2:0:0:
287,219,322836,1,0,0:0:0:0:
285,229,322927,1,2,0:2:0:0:
118,277,323109,1,0,1:0:0:0:
253,356,323291,2,0,L|315:340,1,55.0000016784668,6|0,0:2|0:0,0:0:0:0:
346,306,323473,5,2,0:0:0:0:
356,309,323564,1,0,0:0:0:0:
366,312,323654,1,2,0:2:0:0:
499,259,323836,2,0,P|486:198|479:143,1,110.000003356934,2|2,1:2|0:2,0:0:0:0:
446,109,324109,1,0,0:0:0:0:
449,98,324200,1,2,0:2:0:0:
452,87,324291,1,0,0:0:0:0:
455,76,324382,1,0,0:0:0:0:
291,17,324564,1,2,1:2:0:0:
369,187,324745,1,2,0:2:0:0:
369,187,324836,1,0,0:0:0:0:
369,187,324927,6,0,P|306:196|256:188,1,110.000003356934,6|0,0:2|0:0,0:0:0:0:
149,107,325291,2,0,P|86:98|36:106,1,110.000003356934,2|0,1:2|0:0,0:0:0:0:
2,147,325564,1,0,0:0:0:0:
2,147,325654,2,0,L|21:214,2,55.0000016784668,2|0|0,0:2|0:0|0:0,0:0:0:0:
137,7,326018,1,0,1:0:0:0:
222,219,326200,5,6,0:2:0:0:
76,122,326382,1,2,0:2:0:0:
289,46,326564,1,8,3:0:0:0:
210,246,326745,1,4,3:0:0:0:
206,256,326836,1,4,3:0:0:0:
202,266,326927,1,0,1:0:0:0:
199,276,327018,1,0,1:0:0:0:
189,316,327109,6,0,L|198:350,2,27.5000008392334,12|0|0,3:0|0:0|0:0,0:0:0:0:
144,296,327291,2,0,P|92:283|30:268,1,110.000003356934,12|4,3:0|3:0,0:0:0:0:
13,219,327564,1,0,3:0:0:0:
16,208,327654,1,4,3:0:0:0:
19,197,327745,1,0,3:0:0:0:
22,186,327836,5,6,0:2:0:0:
189,152,328018,1,0,0:0:0:0:
41,48,328200,2,0,P|114:32|157:22,1,110.000003356934,2|0,1:2|0:0,0:0:0:0:
293,111,328564,1,2,0:2:0:0:
300,102,328654,1,0,0:0:0:0:
307,93,328745,1,0,0:0:0:0:
461,27,328927,1,0,1:2:0:0:
396,180,329109,2,0,P|420:249|445:352,1,165.000005035401,6|0,0:2|0:0,0:0:0:0:
417,371,329473,6,0,P|483:330|523:313,2,110.000003356934,2|0|2,0:2|1:0|0:2,0:0:0:0:
294,305,330018,1,2,0:2:0:0:
187,384,330200,1,0,0:0:0:0:
45,331,330382,2,0,P|16:275|34:166,1,165.000005035401,2|0,1:2|0:0,0:0:0:0:
55,138,330745,5,6,0:2:0:0:
138,260,330927,1,0,0:0:0:0:
249,162,331109,2,0,P|201:94|181:62,1,110.000003356934,2|0,1:2|0:0,0:0:0:0:
76,186,331473,1,2,0:2:0:0:
86,189,331564,1,0,0:0:0:0:
96,192,331654,1,0,0:0:0:0:
181,342,331836,1,2,1:2:0:0:
303,275,332018,2,0,L|363:264,1,55.0000016784668,6|0,0:2|0:0,0:0:0:0:
396,288,332200,6,0,L|456:277,2,55.0000016784668,2|0|2,0:2|0:0|0:2,0:0:0:0:
307,171,332564,2,0,P|242:159|196:151,1,110.000003356934,2|2,1:2|0:2,0:0:0:0:
152,119,332836,1,0,0:0:0:0:
141,121,332927,1,2,0:2:0:0:
130,123,333018,1,0,0:0:0:0:
119,125,333109,1,2,0:2:0:0:
42,238,333291,1,0,1:0:0:0:
160,311,333473,1,2,0:2:0:0:
167,302,333564,1,0,0:0:0:0:
174,294,333654,6,0,P|257:274|289:282,1,110.000003356934,6|0,0:2|0:0,0:0:0:0:
252,139,334018,2,0,P|169:159|137:151,1,110.000003356934,2|0,1:2|0:0,0:0:0:0:
111,109,334291,1,0,0:0:0:0:
100,106,334382,1,2,0:2:0:0:
89,103,334473,1,0,0:0:0:0:
78,100,334564,1,2,0:2:0:0:
222,14,334745,1,0,1:0:0:0:
262,197,334927,2,0,P|277:270|300:367,1,165.000005035401,6|0,0:2|0:0,0:0:0:0:
327,382,335291,5,2,0:2:0:0:
136,331,335473,1,0,1:0:0:0:
262,197,335654,1,2,0:2:0:0:
262,197,335745,1,0,0:0:0:0:
262,197,335836,2,0,P|326:192|375:186,1,110.000003356934,2|0,0:2|0:0,0:0:0:0:
421,157,336109,1,0,0:0:0:0:
431,160,336200,2,0,P|402:227|428:332,1,165.000005035401,6|0,1:2|0:0,0:0:0:0:
476,365,336564,6,0,P|405:347|330:335,1,110.000003356934,4|0,0:0|0:0,0:0:0:0:
274,246,336927,2,0,P|203:264|128:276,1,110.000003356934,2|0,1:2|0:0,0:0:0:0:
120,251,337200,1,0,0:0:0:0:
109,248,337291,1,2,0:2:0:0:
230,137,337473,1,2,0:2:0:0:
262,343,337654,1,2,1:2:0:0:
424,183,337836,5,6,0:2:0:0:
256,192,337927,12,4,339473,0:0:0:0:
