osu file format v14

[General]
AudioFilename: styx.mp3
AudioLeadIn: 0
PreviewTime: 197128
Countdown: 0
SampleSet: Normal
StackLeniency: 0.7
Mode: 0
LetterboxInBreaks: 0
WidescreenStoryboard: 1

[Editor]
Bookmarks: -10,51088,61637,72186,79109,100537,100867,101196,101526,121306,121389,181963,187238,192512,197787,219216,219545,219875,220205,265041,307569,307899,308228,308558,320426,323063,325701,328338,348448,348778,349107,349437,349520,354712,359987,365261,370536,413063,413393,413723,414052
DistanceSpacing: 0.8
BeatDivisor: 4
GridSize: 4
TimelineZoom: 1.7

[Metadata]
Title:Higan Retour ~ View of The River Styx
TitleUnicode:彼岸帰航 ~ View of The River Styx
Artist:Demetori
ArtistUnicode:Demetori
Creator:maxandcheese
Version:Riverside View
Source:東方Project
Tags:Riverside View Phantasmagoria of Flower View Nada Upasana Pundarika
BeatmapID:800239
BeatmapSetID:364576

[Difficulty]
HPDrainRate:7.4
CircleSize:4
OverallDifficulty:9
ApproachRate:9
SliderMultiplier:1.9
SliderTickRate:1

[Events]
//Background and Video events
0,0,"HiganSLW.png",0,0
//Break Periods
//Storyboard Layer 0 (Background)
//Storyboard Layer 1 (Fail)
//Storyboard Layer 2 (Pass)
//Storyboard Layer 3 (Foreground)
//Storyboard Sound Samples

[TimingPoints]
-10,329.67032967033,4,2,1,70,1,0
21748,-133.333333333333,4,2,1,65,0,0
22077,-133.333333333333,4,1,1,5,0,0
22160,-133.333333333333,4,1,1,65,0,0
22242,-133.333333333333,4,2,1,70,0,0
22407,-100,4,1,1,65,0,0
23561,-133.333333333333,4,1,1,65,0,0
23726,-100,4,1,1,65,0,0
26198,-133.333333333333,4,1,1,65,0,0
26363,-100,4,1,1,65,0,0
28836,-133.333333333333,4,1,1,65,0,0
29000,-100,4,1,1,65,0,0
31473,-133.333333333333,4,1,1,65,0,0
31638,-100,4,1,1,65,0,0
33121,-133.333333333333,4,1,1,65,0,0
33286,-100,4,1,1,65,0,0
34110,-133.333333333333,4,1,1,65,0,0
34275,-100,4,1,1,65,0,0
35759,-133.333333333333,4,1,1,65,0,0
35924,-100,4,1,1,65,0,0
36748,-133.333333333333,4,1,1,65,0,0
36913,-100,4,1,1,65,0,0
38393,-133.333333333333,4,1,1,65,0,0
38561,-100,4,1,1,65,0,0
39385,-133.333333333333,4,1,1,65,0,0
39550,-100,4,1,1,65,0,0
41033,-133.333333333333,4,1,1,65,0,0
41198,-100,4,1,1,65,0,0
42022,-133.333333333333,4,1,1,65,0,0
42187,-100,4,1,1,65,0,0
43671,-133.333333333333,4,1,1,65,0,0
43836,-100,4,1,1,65,0,0
44660,-133.333333333333,4,1,1,65,0,0
44825,-100,4,1,1,65,0,0
45814,-133.333333333333,4,1,1,65,0,0
46143,-100,4,1,1,65,0,0
46308,-133.333333333333,4,1,1,65,0,0
46473,-100,4,1,1,65,0,0
47297,-133.333333333333,4,1,1,65,0,0
47462,-100,4,1,1,65,0,0
50429,-100,4,1,1,5,0,0
50594,-100,4,1,1,65,0,0
50924,-100,4,1,1,5,0,0
51088,329.67032967033,4,1,1,65,1,0
63450,-100,4,1,42,65,0,0
63615,-100,4,1,1,65,0,0
63780,-100,4,1,42,65,0,0
63945,-100,4,1,1,65,0,0
66417,-100,4,1,42,65,0,0
66582,-100,4,1,1,65,0,0
68725,-100,4,1,42,65,0,0
68890,-100,4,1,1,65,0,0
69055,-100,4,1,42,65,0,0
69219,-100,4,1,1,65,0,0
69549,-100,4,1,42,65,0,0
71197,-100,4,1,42,35,0,0
71362,-100,4,1,42,40,0,0
71527,-100,4,1,42,45,0,0
71692,-100,4,1,42,50,0,0
71857,-100,4,1,42,55,0,0
72022,-100,4,1,42,60,0,0
72186,-133.333333333333,4,1,1,65,0,0
74989,-133.333333333333,4,2,1,65,0,0
75813,-133.333333333333,4,1,1,65,0,0
75895,-133.333333333333,4,2,1,65,0,0
76307,-133.333333333333,4,1,42,65,0,0
76390,-133.333333333333,4,2,1,65,0,0
76802,-133.333333333333,4,1,1,65,0,0
76884,-133.333333333333,4,2,1,65,0,0
77461,-200,4,2,1,45,0,0
78615,-100,4,2,1,45,0,0
79109,329.67032967033,4,1,2,65,1,1
100207,-100,4,1,1,65,0,0
142405,329.67032967033,6,1,1,65,1,0
144383,329.67032967033,4,1,1,65,1,0
149657,329.67032967033,5,1,1,65,1,0
151305,329.67032967033,4,1,1,65,1,0
161854,329.67032967033,5,1,1,65,1,0
163502,329.67032967033,4,1,1,65,1,0
197787,-100,4,1,1,65,0,1
218886,-100,4,1,1,65,0,0
238010,329.67032967033,4,2,1,65,1,0
247570,329.67032967033,4,1,1,65,1,0
249548,329.67032967033,4,1,1,65,1,0
251855,329.67032967033,4,1,1,65,1,0
265042,329.67032967033,4,1,1,65,1,1
307239,-100,4,1,1,65,0,0
328338,-100,4,1,1,65,0,1
348118,-100,4,1,1,65,0,0
370536,-100,4,1,1,65,0,1
412734,329.67032967033,6,1,1,65,1,0
414712,329.67032967033,4,1,1,65,1,0
419986,329.67032967033,6,1,1,65,1,0
421964,329.67032967033,4,1,1,65,1,0
424601,329.67032967033,6,1,1,65,1,0
428557,329.67032967033,4,1,1,65,1,0
436140,329.67032967033,5,1,1,65,1,0
447678,329.67032967033,6,1,1,65,1,0
449656,329.67032967033,4,1,1,65,1,0

[Colours]
Combo1 : 63,63,63
Combo2 : 127,127,127

[HitObjects]
151,228,21748,6,0,P|176:136|274:173,1,213.750008153916,2|2,0:0|0:0,0:0:0:0:
210,194,22407,5,6,0:0:0:0:
212,198,22490,1,0,0:0:0:0:
214,202,22572,1,0,0:0:0:0:
254,277,22737,1,10,0:0:0:0:
296,192,22902,1,0,0:0:0:0:
296,192,22984,1,0,0:0:0:0:
296,192,23066,1,2,0:0:0:0:
440,240,23396,5,10,0:0:0:0:
416,244,23479,1,0,0:0:0:0:
392,248,23561,2,0,L|312:280,1,71.2500027179719,0|2,0:0|0:0,0:0:0:0:
280,344,23891,1,0,0:0:0:0:
280,344,23973,1,0,0:0:0:0:
280,344,24055,1,10,0:0:0:0:
440,240,24220,1,0,0:0:0:0:
472,216,24303,1,0,0:0:0:0:
484,180,24385,1,2,0:0:0:0:
484,140,24468,1,0,0:0:0:0:
472,104,24550,1,0,0:0:0:0:
444,76,24632,1,0,0:0:0:0:
408,64,24715,2,0,L|304:72,1,95,10|0,0:0|0:0,0:0:0:0:
176,224,25044,5,2,0:0:0:0:
176,224,25127,1,0,0:0:0:0:
176,224,25209,1,0,0:0:0:0:
324,156,25374,1,10,0:0:0:0:
275,341,25539,2,0,P|227:325|203:269,1,95,0|2,0:0|0:0,0:0:0:0:
264,224,25869,1,0,0:0:0:0:
244,208,25951,1,0,0:0:0:0:
220,200,26033,1,10,0:0:0:0:
196,208,26116,1,0,0:0:0:0:
176,224,26198,2,0,L|212:304,1,71.2500027179719,0|2,0:0|0:0,0:0:0:0:
184,104,26528,5,0,0:0:0:0:
220,200,26693,1,10,0:0:0:0:
272,84,26858,1,0,0:0:0:0:
312,112,26940,1,0,0:0:0:0:
336,152,27022,1,2,0:0:0:0:
344,200,27105,1,0,0:0:0:0:
340,248,27187,1,0,0:0:0:0:
316,288,27270,1,0,0:0:0:0:
276,312,27352,2,0,L|160:280,1,95,10|0,0:0|0:0,0:0:0:0:
260,200,27682,5,2,0:0:0:0:
260,200,27764,1,0,0:0:0:0:
260,200,27847,1,0,0:0:0:0:
420,200,28011,1,10,0:0:0:0:
344,316,28176,1,0,0:0:0:0:
344,316,28259,1,0,0:0:0:0:
344,316,28341,1,2,0:0:0:0:
380,96,28671,5,10,0:0:0:0:
396,76,28753,1,0,0:0:0:0:
412,60,28836,2,0,L|472:108,1,71.2500027179719,0|2,0:0|0:0,0:0:0:0:
260,200,29165,1,0,0:0:0:0:
260,200,29248,1,0,0:0:0:0:
260,200,29330,1,10,0:0:0:0:
212,344,29495,1,0,0:0:0:0:
192,312,29577,1,0,0:0:0:0:
160,288,29660,1,2,0:0:0:0:
124,280,29742,1,0,0:0:0:0:
104,248,29825,1,0,0:0:0:0:
104,212,29907,1,0,0:0:0:0:
116,176,29990,2,0,P|99:137|116:76,1,95,10|0,0:0|0:0,0:0:0:0:
260,200,30319,5,2,0:0:0:0:
256,224,30402,1,0,0:0:0:0:
252,248,30484,1,0,0:0:0:0:
384,312,30649,1,10,0:0:0:0:
332,152,30814,2,0,B|308:116|308:116|296:56,1,95,0|2,0:0|0:0,0:0:0:0:
408,156,31143,1,0,0:0:0:0:
428,144,31226,1,0,0:0:0:0:
440,124,31308,1,10,0:0:0:0:
448,100,31391,1,0,0:0:0:0:
448,76,31473,2,0,L|392:20,1,71.2500027179719,0|2,0:0|0:0,0:0:0:0:
332,152,31803,5,0,0:0:0:0:
332,152,31885,1,0,0:0:0:0:
332,152,31968,1,10,0:0:0:0:
408,280,32132,1,0,0:0:0:0:
360,280,32215,1,0,0:0:0:0:
312,280,32297,1,2,0:0:0:0:
264,276,32380,1,0,0:0:0:0:
216,276,32462,1,0,0:0:0:0:
168,272,32544,1,0,0:0:0:0:
120,268,32627,2,0,L|20:260,1,95,10|0,0:0|0:0,0:0:0:0:
144,52,32957,5,6,0:0:0:0:
144,52,33039,1,0,0:0:0:0:
144,52,33121,2,0,L|104:112,1,71.2500027179719,0|10,0:0|0:0,0:0:0:0:
228,148,33451,1,0,0:0:0:0:
236,172,33533,1,0,0:0:0:0:
244,196,33616,1,2,0:0:0:0:
360,280,33946,5,10,0:0:0:0:
372,260,34028,1,0,0:0:0:0:
380,240,34110,2,0,L|412:164,1,71.2500027179719,0|2,0:0|0:0,0:0:0:0:
244,196,34440,2,0,B|212:236|212:236|156:252,1,95,0|10,0:0|0:0,0:0:0:0:
104,140,34770,1,0,0:0:0:0:
120,104,34852,1,0,0:0:0:0:
148,76,34935,1,2,0:0:0:0:
184,64,35017,1,0,0:0:0:0:
220,64,35099,1,0,0:0:0:0:
256,76,35182,1,0,0:0:0:0:
280,104,35264,2,0,L|344:180,1,95,10|0,0:0|0:0,0:0:0:0:
212,236,35594,5,2,0:0:0:0:
224,256,35676,1,0,0:0:0:0:
244,268,35759,2,0,L|336:276,1,71.2500027179719,0|10,0:0|0:0,0:0:0:0:
435,184,36088,2,0,L|335:176,1,95,0|2,0:0|0:0,0:0:0:0:
410,34,36418,1,0,0:0:0:0:
426,50,36500,1,0,0:0:0:0:
438,70,36583,1,10,0:0:0:0:
446,90,36665,1,0,0:0:0:0:
450,114,36748,6,0,L|430:202,1,71.2500027179719,0|2,0:0|0:0,0:0:0:0:
320,308,37077,2,0,P|300:263|292:208,1,95,0|10,0:0|0:0,0:0:0:0:
356,84,37407,1,0,0:0:0:0:
324,120,37490,1,0,0:0:0:0:
280,140,37572,1,2,0:0:0:0:
232,140,37654,1,0,0:0:0:0:
188,120,37737,1,0,0:0:0:0:
112,16,37902,5,10,0:0:0:0:
88,56,37984,1,0,0:0:0:0:
76,100,38066,1,0,0:0:0:0:
88,148,38149,1,0,0:0:0:0:
112,188,38231,5,2,0:0:0:0:
112,188,38314,1,0,0:0:0:0:
112,188,38396,2,0,L|176:236,1,71.2500027179719,0|10,0:0|0:0,0:0:0:0:
272,356,38726,1,0,0:0:0:0:
272,356,38808,1,0,0:0:0:0:
272,356,38891,1,2,0:0:0:0:
376,224,39220,5,10,0:0:0:0:
392,208,39303,1,0,0:0:0:0:
408,192,39385,2,0,L|412:116,1,71.2500027179719,0|2,0:0|0:0,0:0:0:0:
288,60,39715,1,0,0:0:0:0:
288,60,39797,1,0,0:0:0:0:
288,60,39880,1,10,0:0:0:0:
208,208,40044,1,0,0:0:0:0:
220,244,40127,1,0,0:0:0:0:
244,276,40209,1,2,0:0:0:0:
276,300,40292,1,0,0:0:0:0:
312,312,40374,1,0,0:0:0:0:
352,316,40457,1,0,0:0:0:0:
392,308,40539,2,0,L|460:212,1,95,10|0,0:0|0:0,0:0:0:0:
315,174,40869,5,2,0:0:0:0:
295,166,40951,1,0,0:0:0:0:
271,174,41033,2,0,L|195:214,1,71.2500027179719,0|10,0:0|0:0,0:0:0:0:
104,124,41363,2,0,B|80:168|80:168|80:220,1,95,0|2,0:0|0:0,0:0:0:0:
156,344,41693,1,0,0:0:0:0:
180,340,41775,1,0,0:0:0:0:
204,336,41858,1,10,0:0:0:0:
228,332,41940,1,0,0:0:0:0:
252,328,42022,6,0,L|328:312,1,71.2500027179719,0|2,0:0|0:0,0:0:0:0:
295,166,42352,1,0,0:0:0:0:
295,166,42435,1,0,0:0:0:0:
295,166,42517,1,10,0:0:0:0:
404,272,42682,1,0,0:0:0:0:
436,240,42764,1,0,0:0:0:0:
456,196,42847,1,2,0:0:0:0:
460,148,42929,1,0,0:0:0:0:
448,104,43011,1,0,0:0:0:0:
416,72,43094,1,0,0:0:0:0:
372,56,43176,2,0,L|320:40,3,47.5,10|0|0|0,0:0|0:0|0:0|0:0,0:0:0:0:
224,48,43506,5,2,0:0:0:0:
224,48,43588,1,0,0:0:0:0:
224,48,43671,2,0,L|192:116,1,71.2500027179719,0|10,0:0|0:0,0:0:0:0:
334,141,44000,1,0,0:0:0:0:
334,141,44083,1,0,0:0:0:0:
334,141,44165,1,2,0:0:0:0:
168,288,44495,5,10,0:0:0:0:
156,268,44577,1,0,0:0:0:0:
152,244,44660,2,0,L|188:180,1,71.2500027179719,0|2,0:0|0:0,0:0:0:0:
280,240,44990,2,0,B|325:256|325:256|384:236,1,95,0|10,0:0|0:0,0:0:0:0:
334,141,45319,1,0,0:0:0:0:
372,148,45402,1,0,0:0:0:0:
404,168,45484,1,2,0:0:0:0:
428,200,45566,1,0,0:0:0:0:
440,236,45649,1,0,0:0:0:0:
436,272,45731,1,0,0:0:0:0:
412,304,45814,6,0,B|376:324|376:324|308:308|308:308|268:324,1,142.500005435944,10|2,0:0|0:0,0:0:0:0:
256,332,46226,1,0,0:0:0:0:
236,344,46308,2,0,L|160:284,1,71.2500027179719,0|10,0:0|0:0,0:0:0:0:
72,216,46638,2,0,B|116:200|116:200|152:164,1,95,0|2,0:0|0:0,0:0:0:0:
268,228,46968,1,0,0:0:0:0:
288,220,47050,1,0,0:0:0:0:
304,204,47132,1,10,0:0:0:0:
312,184,47215,1,0,0:0:0:0:
308,160,47297,6,0,L|244:108,1,71.2500027179719,0|2,0:0|0:0,0:0:0:0:
150,165,47627,2,0,L|170:265,1,95,0|10,0:0|0:0,0:0:0:0:
308,160,47957,1,0,0:0:0:0:
348,124,48039,1,0,0:0:0:0:
384,84,48121,5,10,0:0:0:0:
344,344,48341,1,10,0:0:0:0:
150,165,48561,1,10,0:0:0:0:
150,165,49770,5,8,0:0:0:0:
344,344,49935,1,2,0:0:0:0:
384,84,50099,1,2,0:0:0:0:
150,165,50264,2,0,L|104:260,1,95,8|0,0:0|0:0,0:0:0:0:
312,236,50594,5,0,0:0:0:0:
348,236,50676,1,0,0:0:0:0:
388,236,50759,2,0,B|428:212|428:212|452:164,1,95,12|0,0:0|0:0,0:0:0:0:
384,84,51088,5,4,0:0:0:0:
312,236,51252,1,0,0:0:0:0:
180,128,51417,1,10,0:0:0:0:
370,5,51582,2,0,P|446:51|423:153,1,190
265,93,52077,1,10,0:0:0:0:
199,229,52241,6,0,P|245:236|299:231,1,95
435,141,52571,1,0,0:0:0:0:
393,326,52736,1,10,0:0:0:0:
287,179,52901,1,0,0:0:0:0:
401,316,53066,5,0,0:0:0:0:
237,326,53230,1,0,0:0:0:0:
348,199,53395,1,10,0:0:0:0:
319,315,53560,1,0,0:0:0:0:
143,242,53725,6,0,P|144:194|172:148,1,95
250,257,54055,1,10,0:0:0:0:
339,159,54219,2,0,P|296:131|157:162,1,190
311,28,54714,1,10,0:0:0:0:
338,159,54879,6,0,P|312:228|371:323,1,190
182,303,55373,1,10,0:0:0:0:
261,144,55538,1,0,0:0:0:0:
382,234,55703,1,0,0:0:0:0:
286,364,55868,1,0,0:0:0:0:
181,229,56033,1,10,0:0:0:0:
353,151,56197,1,0,0:0:0:0:
296,303,56362,6,0,P|243:300|188:276,1,95
261,144,56692,1,10,0:0:0:0:
417,196,56857,2,0,L|355:292,1,95
231,203,57186,1,0,0:0:0:0:
219,364,57351,1,10,0:0:0:0:
96,250,57516,6,0,P|155:190|151:71,1,190
231,203,58011,1,10,0:0:0:0:
101,167,58175,1,0,0:0:0:0:
160,322,58340,2,0,P|218:337|260:333,1,95
323,215,58670,2,0,P|265:200|223:204,1,95,10|0,0:0|0:0,0:0:0:0:
360,336,59000,5,0,0:0:0:0:
443,216,59164,1,0,0:0:0:0:
292,138,59329,1,10,0:0:0:0:
231,308,59494,2,0,P|278:295|317:263,1,95
390,137,59824,1,0,0:0:0:0:
451,290,59989,1,10,0:0:0:0:
314,267,60153,6,0,P|239:213|152:280,1,190
268,107,60648,1,10,0:0:0:0:
373,178,60813,1,0,0:0:0:0:
283,313,60978,1,0,0:0:0:0:
165,231,61142,2,0,B|183:190|183:190|176:137,1,95,0|10,0:0|0:0,0:0:0:0:
168,104,61390,1,0,0:0:0:0:
144,76,61472,1,0,0:0:0:0:
108,68,61555,1,0,0:0:0:0:
72,76,61637,6,0,P|53:127|59:172,1,95,4|0,0:0|0:0,0:0:0:0:
165,231,61967,1,10,0:0:0:0:
55,328,62131,2,0,L|60:210,1,95
143,142,62461,1,0,0:0:0:0:
310,182,62626,1,10,0:0:0:0:
221,309,62791,6,0,P|208:217|236:126,1,190
371,223,63285,2,0,P|320:225|265:214,1,95,10|8,0:0|0:0,0:0:0:0:normal-hitclap42.wav
324,337,63615,1,0,0:0:0:0:normal-hitclap42.wav
461,272,63780,1,8,0:0:0:0:
386,128,63945,1,10,0:0:0:0:
277,218,64109,1,0,0:0:0:0:
130,307,64274,6,0,P|180:296|222:309,1,95
329,272,64604,1,10,0:0:0:0:
179,216,64769,2,0,P|200:117|181:31,1,190
268,0,65263,1,10,0:0:0:0:
426,181,65428,6,0,P|405:280|424:366,1,190
296,364,65923,1,10,0:0:0:0:
166,257,66088,1,0,0:0:0:0:
388,200,66252,1,0,0:0:0:0:
296,364,66417,1,8,0:0:0:0:
264,174,66582,1,10,0:0:0:0:
268,138,66664,1,0,0:0:0:0:
292,106,66747,1,0,0:0:0:0:
328,98,66829,1,0,0:0:0:0:
364,110,66912,6,0,P|385:153|387:204,1,95,4|0,0:0|0:0,0:0:0:0:
289,287,67241,1,10,0:0:0:0:
131,199,67406,2,0,P|181:187|230:198,1,95
172,92,67736,2,0,P|122:104|73:93,1,95,0|10,0:0|0:0,0:0:0:0:
128,8,68066,6,0,P|215:10|275:113,1,190
131,199,68560,1,10,0:0:0:0:
289,287,68725,1,8,0:0:0:0:
276,128,68890,1,0,0:0:0:0:
146,256,69055,1,8,0:0:0:0:
260,364,69219,1,10,0:0:0:0:
299,357,69302,1,0,0:0:0:0:
331,337,69384,1,0,0:0:0:0:
355,305,69467,1,0,0:0:0:0:
367,269,69549,6,0,P|376:224|368:164,1,95,14|0,0:0|0:0,0:0:0:0:
171,303,69879,2,0,P|216:312|276:304,1,95,10|0,0:0|0:0,0:0:0:0:
137,107,70208,2,0,P|128:152|136:211,1,95,10|0,0:0|0:0,0:0:0:0:
333,73,70538,2,0,P|288:64|228:72,1,95,10|0,0:0|0:0,0:0:0:0:
256,192,70868,5,12,0:0:0:0:
144,192,71197,5,8,0:0:0:0:
360,192,71362,1,8,0:0:0:0:
104,192,71527,1,8,0:0:0:0:
400,192,71692,1,8,0:0:0:0:
64,192,71857,1,8,0:0:0:0:
440,192,72022,1,8,0:0:0:0:
256,192,72186,6,0,P|268:260|256:336,1,142.500005435944,12|0,0:0|0:0,0:0:0:0:
256,192,72681,2,0,P|244:124|256:48,1,142.500005435944,8|0,0:0|0:0,0:0:0:0:
257,332,73175,1,8,0:0:0:0:
254,51,73505,1,0,0:0:0:70:soft-hitnormal.wav
256,192,73835,6,0,P|188:204|112:192,1,142.500005435944,8|0,0:0|0:0,0:0:0:0:
256,192,74329,2,0,P|324:180|400:192,1,142.500005435944,8|0,0:0|0:0,0:0:0:0:
115,193,74824,1,8,0:0:0:0:
256,192,74989,1,0,0:0:0:0:
272,188,75071,1,0,0:0:0:0:
288,184,75153,6,0,P|336:180|388:192,1,71.2500027179719
296,264,75483,2,0,P|342:275|388:302,1,71.2500027179719
288,184,75813,1,12,0:0:0:0:
288,168,75895,1,0,0:0:0:0:
288,152,75978,6,0,L|288:100,3,35.625001358986
180,60,76307,2,0,L|143:96,4,35.625001358986,12|0|0|0|0,0:0|0:0|0:0|0:0|0:0,0:0:0:65:normal-hitclap42.wav
192,48,76719,1,0,0:0:0:0:
208,36,76802,6,0,L|248:-4,4,35.625001358986,12|0|0|0|0,0:0|0:0|0:0|0:0|0:0,0:0:0:0:
344,236,77461,6,0,L|240:244,1,95
176,276,77956,2,0,L|88:232,1,95
36,176,78450,2,0,L|76:128,1,47.5,0|8,0:0|0:0,0:0:0:0:
84,120,78697,1,8,0:0:0:0:
100,104,78780,1,8,0:0:0:0:
100,104,79109,6,0,P|141:151|181:173,1,95,4|0,0:0|0:0,0:0:0:0:
188,180,79356,1,0,0:0:0:0:
188,180,79438,1,10,0:0:0:0:
319,121,79603,2,0,P|361:194|327:287,1,190
198,373,80098,1,10,0:0:0:0:
258,241,80262,1,0,0:0:0:0:
352,352,80427,6,0,B|393:323|393:323|420:261,1,95
420,261,80674,1,0,0:0:0:0:
420,261,80757,1,10,0:0:0:0:
320,120,80922,2,0,P|249:181|139:202,1,190
74,318,81416,2,0,B|120:303|120:303|164:318,1,95,10|0,0:0|0:0,0:0:0:0:
156,202,81746,6,0,P|168:149|160:87,1,95,2|0,0:0|0:0,0:0:0:0:
160,84,81993,1,0,0:0:0:0:
160,84,82076,1,10,0:0:0:0:
243,145,82240,2,0,L|343:180,1,95,2|0,0:0|0:0,0:0:0:0:
268,256,82570,2,0,L|168:270,1,95,2|10,0:0|0:0,0:0:0:0:
248,350,82900,6,0,L|438:368,1,190,2|0,0:0|0:0,0:0:0:0:
460,372,83312,1,0,0:0:0:0:
460,372,83394,1,10,0:0:0:0:
383,245,83559,1,0,0:0:0:0:
480,168,83724,1,10,0:0:0:70:normal-hitclap42.wav
476,132,83806,1,8,0:0:0:70:normal-hitclap42.wav
460,96,83889,2,0,L|433:53,1,47.5,10|0,0:0|0:0,0:0:0:70:normal-hitclap42.wav
350,27,84054,2,0,L|334:125,1,95,10|0,0:0|0:0,0:0:0:0:
405,192,84383,6,0,B|361:212|361:212|271:206,1,95,6|0,0:0|0:0,0:0:0:0:
232,132,84712,1,10,0:0:0:0:
108,240,84878,2,0,B|156:283|231:309|319:291,1,190
232,132,85372,1,10,0:0:0:0:
221,168,85455,1,0,0:0:0:0:
210,204,85537,1,0,0:0:0:0:
282,369,85702,6,0,B|326:354|326:354|363:309,1,95
371,297,85949,1,0,0:0:0:0:
371,297,86032,1,10,0:0:0:0:
409,40,86196,2,0,P|437:129|407:251,1,190
271,277,86691,2,0,L|280:172,1,95,10|0,0:0|0:0,0:0:0:0:
409,40,87021,6,0,L|386:175,1,95,2|0,0:0|0:0,0:0:0:0:
390,158,87268,1,0,0:0:0:0:
390,158,87350,1,10,0:0:0:0:
258,63,87515,1,2,0:0:0:0:
168,196,87680,1,0,0:0:0:0:
152,64,87845,1,2,0:0:0:0:
296,160,88010,1,10,0:0:0:0:
409,40,88174,6,0,P|381:101|417:219,1,190,2|0,0:0|0:0,0:0:0:0:
431,230,88587,1,0,0:0:0:0:
431,230,88669,1,10,0:0:0:0:
296,160,88834,1,0,0:0:0:0:
296,160,88917,1,0,0:0:0:0:
296,160,88999,5,10,0:0:0:0:
272,132,89081,1,0,0:0:0:0:
236,116,89163,1,10,0:0:0:0:
196,120,89246,1,0,0:0:0:0:
164,104,89328,2,0,L|116:52,1,47.5,2|0,0:0|0:0,0:0:0:0:
128,194,89493,2,0,L|76:242,1,47.5,10|8,0:0|0:0,0:0:0:0:
164,308,89658,6,0,P|199:342|258:343,1,95,12|0,0:0|0:0,0:0:0:0:
268,344,89905,1,0,0:0:0:0:
268,344,89988,1,10,0:0:0:0:
246,52,90152,2,0,L|187:237,1,190
400,217,90647,2,0,B|388:174|388:174|330:120,1,95,10|0,0:0|0:0,0:0:0:0:
189,234,90977,5,0,0:0:0:0:
337,274,91141,1,0,0:0:0:0:
334,104,91306,1,10,0:0:0:0:
160,131,91471,1,0,0:0:0:0:
260,289,91636,1,0,0:0:0:0:
299,195,91801,1,0,0:0:0:0:
400,216,91966,2,0,B|395:264|395:264|368:317,1,95,10|0,0:0|0:0,0:0:0:0:
137,288,92295,6,0,P|178:268|236:269,1,95,2|0,0:0|0:0,0:0:0:0:
248,276,92543,1,0,0:0:0:0:
248,276,92625,1,10,0:0:0:0:
204,130,92790,2,0,P|183:174|143:224,1,95,2|0,0:0|0:0,0:0:0:0:
292,104,93119,2,0,P|300:149|343:216,1,95,2|10,0:0|0:0,0:0:0:0:
395,296,93449,6,0,L|396:95,1,190,2|0,0:0|0:0,0:0:0:0:
396,84,93861,1,0,0:0:0:0:
396,84,93944,1,10,0:0:0:0:
204,128,94109,1,0,0:0:0:0:
240,136,94191,1,0,0:0:0:0:
268,160,94273,1,10,0:0:0:70:normal-hitclap42.wav
284,196,94356,1,8,0:0:0:70:normal-hitclap42.wav
288,232,94438,2,0,L|284:288,1,47.5,10|0,0:0|0:0,0:0:0:0:
200,324,94603,2,0,L|164:221,1,95,10|0,0:0|0:0,0:0:0:0:
204,128,94933,6,0,P|160:119|105:80,1,95,4|0,0:0|0:0,0:0:0:0:
100,76,95180,1,0,0:0:0:0:
100,76,95262,1,10,0:0:0:0:
38,198,95427,2,0,B|53:250|53:250|83:297,1,95
191,224,95757,1,0,0:0:0:0:
312,350,95922,2,0,B|265:364|265:364|204:361,1,95,10|0,0:0|0:0,0:0:0:0:
81,305,96251,5,0,0:0:0:0:
195,148,96416,1,0,0:0:0:0:
269,315,96581,1,10,0:0:0:0:
78,219,96746,1,0,0:0:0:0:
240,126,96911,2,0,L|311:102,3,47.5
320,120,97240,1,10,0:0:0:0:
344,148,97323,1,0,0:0:0:0:
356,184,97405,1,0,0:0:0:0:
352,224,97488,1,0,0:0:0:0:
332,256,97570,6,0,L|212:272,1,95,2|0,0:0|0:0,0:0:0:0:
78,219,97900,1,8,0:0:0:0:
78,219,98065,2,0,P|106:185|122:134,1,95,2|0,0:0|0:0,0:0:0:0:
434,165,98394,2,0,P|406:198|390:250,1,95,2|10,0:0|0:0,0:0:0:0:
190,129,98724,6,0,B|282:96|282:96|376:136,1,190,2|0,0:0|0:0,0:0:0:0:
388,144,99136,1,0,0:0:0:0:
388,144,99218,1,10,0:0:0:0:
225,294,99383,2,0,L|169:290,2,47.5,0|0|10,0:0|0:0|0:0,0:0:0:0:
263,285,99630,5,8,0:0:0:0:
295,265,99713,1,10,0:0:0:0:
315,233,99795,1,0,0:0:0:0:
319,197,99878,1,0,0:0:0:0:
319,197,99960,1,0,0:0:0:0:
319,197,100043,1,10,0:0:0:0:
319,197,100125,1,8,0:0:0:0:
319,197,100207,6,0,L|255:153,2,47.5,12|0|0,0:0|0:0|0:0,0:0:0:0:
388,144,100537,1,10,0:0:0:0:
401,233,100702,2,0,L|421:279,2,47.5
401,233,101196,1,10,0:0:0:0:
401,233,101279,1,0,0:0:0:0:
405,237,101361,6,0,L|386:138,1,95
274,75,101691,1,0,0:0:0:0:
264,96,101773,1,0,0:0:0:0:
264,120,101856,1,10,0:0:0:0:
216,288,102021,1,0,0:0:0:0:
196,256,102103,1,0,0:0:0:0:
160,244,102185,1,0,0:0:0:0:
120,248,102268,1,0,0:0:0:0:
92,224,102350,1,0,0:0:0:0:
88,184,102433,1,0,0:0:0:0:
100,148,102515,2,0,L|124:96,2,47.5,10|0|0,0:0|0:0|0:0,0:0:0:0:
274,75,102845,5,0,0:0:0:0:
274,75,102927,1,0,0:0:0:0:
274,75,103010,1,0,0:0:0:0:
322,188,103174,1,10,0:0:0:0:
403,31,103339,2,0,B|425:75|425:75|479:127,1,95
415,306,103669,1,0,0:0:0:0:
428,288,103751,1,0,0:0:0:0:
432,264,103834,1,10,0:0:0:0:
428,240,103916,1,0,0:0:0:0:
412,220,103999,6,0,L|288:176,1,95
264,320,104328,1,0,0:0:0:0:
264,320,104411,1,0,0:0:0:0:
264,320,104493,1,10,0:0:0:0:
322,188,104658,1,0,0:0:0:0:
344,156,104740,1,0,0:0:0:0:
336,120,104823,1,0,0:0:0:0:
312,92,104905,1,0,0:0:0:0:
276,88,104988,1,0,0:0:0:0:
244,112,105070,1,0,0:0:0:0:
236,148,105152,2,0,L|224:220,2,47.5,10|0|0,0:0|0:0|0:0,0:0:0:0:
112,240,105482,6,0,L|44:212,2,47.5
124,48,105812,2,0,P|128:112|156:168,1,95,10|0,0:0|0:0,0:0:0:0:
148,160,106059,1,0,0:0:0:0:
148,160,106141,1,0,0:0:0:0:
296,280,106471,1,10,0:0:0:0:
284,260,106554,1,0,0:0:0:0:
284,236,106636,6,0,P|292:193|331:152,1,95
450,102,106966,1,0,0:0:0:0:
450,102,107048,1,0,0:0:0:0:
450,102,107130,1,10,0:0:0:0:
209,157,107295,1,0,0:0:0:0:
221,135,107378,1,0,0:0:0:0:
241,123,107460,1,0,0:0:0:0:
265,119,107543,1,0,0:0:0:0:
289,123,107625,1,0,0:0:0:0:
309,135,107707,1,0,0:0:0:0:
325,155,107790,2,0,L|340:200,2,47.5,10|0|0,0:0|0:0|0:0,0:0:0:0:
217,294,108119,5,0,0:0:0:0:
195,282,108202,1,0,0:0:0:0:
174,270,108284,1,0,0:0:0:0:
328,221,108449,1,10,0:0:0:0:
302,335,108614,2,0,L|204:287,1,95
328,221,108944,1,0,0:0:0:0:
348,208,109026,1,0,0:0:0:0:
368,196,109109,1,10,0:0:0:0:
380,176,109191,1,0,0:0:0:0:
384,152,109273,6,0,L|352:44,1,95
256,156,109603,1,0,0:0:0:0:
256,156,109685,1,0,0:0:0:0:
256,156,109768,1,10,0:0:0:0:
189,47,109933,2,0,P|135:76|107:119,1,95
112,128,110180,1,0,0:0:0:0:
120,152,110262,1,0,0:0:0:0:
140,168,110345,1,0,0:0:0:0:
152,188,110427,1,10,0:0:0:0:
156,212,110510,1,0,0:0:0:0:
152,236,110592,1,0,0:0:0:0:
256,156,110757,5,4,0:0:0:0:
