osu file format v14

[General]
AudioFilename: view.mp3
AudioLeadIn: 0
PreviewTime: 79087
Countdown: 0
SampleSet: Normal
StackLeniency: 0.7
Mode: 3
LetterboxInBreaks: 0
SpecialStyle: 0
WidescreenStoryboard: 0

[Editor]
DistanceSpacing: 0.8
BeatDivisor: 4
GridSize: 32
TimelineZoom: 1

[Metadata]
Title:Higan Kikou ~ View of The River Styx
TitleUnicode:彼岸帰航 ~ View of The River Styx
Artist:Demetori
ArtistUnicode:Demetori
Creator:riktoi
Version:Sanzu
Source:東方花映塚 ~ Phantasmagoria of Flower View.
Tags:marathon trills 曼衍珠汝華 ~ Nada Upasana Pundarika Man'enjushaka ~ Nada Upasana Pundarika doujin DECD-0006 Comiket 77 c77 コミケ77 コミックマーケット77 Arrangement Remix doujin indie 徳南 Tokunan Masaru Teramae 寺前甲 九宝時 Kyuuhouji Kyuhouji 寺前直 Tadashi Teramae 彼岸帰航 ~ Riverside View Higan Kikou ~ Riverside View Higan Retour 小野塚小町 Komachi Onozuka Touhou Kaeidzuka th09 2hu 東方Project toho Touhou Project video game 上海アリス幻樂団 Shanhai Arisu Gengakudan Team Shangai Alice Jun'ya Ota 太田順也 ZUN Progressive Metal Power Metal Djent instrumental
BeatmapID:1710681
BeatmapSetID:815683

[Difficulty]
HPDrainRate:8
CircleSize:4
OverallDifficulty:8
ApproachRate:5
SliderMultiplier:1.4
SliderTickRate:1

[Events]
//Background and Video events
0,0,"bgkomachi.png",0,0
//Break Periods
//Storyboard Layer 0 (Background)
//Storyboard Layer 1 (Fail)
//Storyboard Layer 2 (Pass)
//Storyboard Layer 3 (Foreground)
//Storyboard Layer 4 (Overlay)
//Storyboard Sound Samples

[TimingPoints]
52,329.67033,13,1,1,60,1,0
8623,-100,4,1,1,65,0,0
17194,329.67033,8,1,1,65,1,0
22468,-100,4,1,1,80,0,0
49831,329.67033,4,1,1,80,1,0
72248,329.67033,5,1,1,80,1,0
73896,329.67033,6,1,1,80,1,0
75874,329.67033,5,1,1,80,1,0
79170,329.67033,4,1,1,80,1,0
79170,-100,4,1,1,80,0,1
100268,-100,4,1,1,80,0,0
121367,-100,4,1,1,80,0,1
142466,329.67033,6,1,1,80,1,0
142466,-100,4,1,1,80,0,0
144444,329.67033,8,1,1,80,1,0
149718,329.67033,5,1,1,80,1,0
151366,329.67033,8,1,1,80,1,0
154662,329.67033,6,1,1,80,1,0
156640,329.67033,8,1,1,80,1,0
161914,329.67033,5,1,1,80,1,0
163562,329.67033,8,1,1,80,1,0
166199,-100,4,1,1,80,0,1
175430,329.67033,4,1,1,80,1,0
197847,-100,4,1,1,80,0,1
213342,-100,4,1,1,80,0,0
213677,329.67033,8,1,1,80,1,0
213677,-100,4,1,1,80,0,1
218951,-100,4,1,1,80,0,0
220929,329.67033,13,1,1,60,1,0
236918,-100,4,1,1,65,0,0
238071,329.67033,8,1,1,80,1,0
243345,329.67033,13,1,1,80,1,0
251916,329.67033,4,1,1,80,1,0
262465,329.67033,8,1,1,80,1,0
265102,329.67033,4,1,1,80,1,0
265102,-100,4,1,1,80,0,1
307299,-100,4,1,1,80,0,0
328398,-100,4,1,1,80,0,1
348178,-100,4,1,1,80,0,0
370596,-100,4,1,1,80,0,1
391695,-100,4,1,1,80,0,0
407519,-100,4,1,1,80,0,1
412794,329.67033,6,1,1,80,1,0
412794,-100,4,1,1,80,0,0
414772,329.67033,8,1,1,80,1,0
420046,329.67033,6,1,1,80,1,0
422024,329.67033,8,1,1,80,1,0
424661,329.67033,6,1,1,80,1,0
428617,329.67033,8,1,1,80,1,0
433891,329.67033,7,1,1,80,1,0
436198,329.67033,5,1,1,80,1,0
447736,329.67033,6,1,1,80,1,0
449714,360.902255639098,4,1,1,80,1,0
449714,-91.743119266055,4,1,1,80,0,0
455486,517.241379310345,4,1,1,40,1,0
455486,-63.6942675159236,4,1,1,40,0,0
456524,504.201680672269,4,1,1,40,1,0
456524,-65.359477124183,4,1,1,40,0,0
457030,588.235294117647,4,1,1,40,1,0
457030,-57.1428571428571,4,1,1,40,0,0
457607,625,4,1,1,40,1,0
457607,-52.6315789473684,4,1,1,40,0,0
458232,638.297872340426,4,1,1,40,1,0
458232,-50.761421319797,4,1,1,40,0,0

[HitObjects]
64,192,52,5,0,0:0:0:0:
448,192,52,1,0,0:0:0:0:
320,192,216,1,0,0:0:0:0:
192,192,381,1,0,0:0:0:0:
448,192,546,1,0,0:0:0:0:
192,192,876,1,0,0:0:0:0:
192,192,1205,1,0,0:0:0:0:
64,192,1370,1,0,0:0:0:0:
192,192,1700,1,0,0:0:0:0:
448,192,2030,1,0,0:0:0:0:
320,192,2194,1,0,0:0:0:0:
192,192,2359,1,0,0:0:0:0:
448,192,2524,1,0,0:0:0:0:
192,192,2854,1,0,0:0:0:0:
320,192,3183,1,0,0:0:0:0:
448,192,3348,1,0,0:0:0:0:
320,192,3513,1,0,0:0:0:0:
448,192,3678,1,0,0:0:0:0:
320,192,3843,1,0,0:0:0:0:
192,192,4008,1,0,0:0:0:0:
320,192,4172,1,0,0:0:0:0:
448,192,4337,1,0,0:0:0:0:
64,192,4337,1,0,0:0:0:0:
320,192,4502,1,0,0:0:0:0:
192,192,4667,1,0,0:0:0:0:
448,192,4832,1,0,0:0:0:0:
192,192,5161,1,0,0:0:0:0:
192,192,5491,1,0,0:0:0:0:
64,192,5656,1,0,0:0:0:0:
192,192,5986,1,0,0:0:0:0:
448,192,6315,1,0,0:0:0:0:
320,192,6480,1,0,0:0:0:0:
192,192,6645,1,0,0:0:0:0:
448,192,6810,1,0,0:0:0:0:
192,192,7139,1,0,0:0:0:0:
320,192,7469,1,0,0:0:0:0:
448,192,7634,1,0,0:0:0:0:
320,192,7799,1,0,0:0:0:0:
448,192,7964,1,0,0:0:0:0:
320,192,8128,1,0,0:0:0:0:
192,192,8293,1,0,0:0:0:0:
320,192,8458,1,0,0:0:0:0:
448,192,8623,1,0,0:0:0:0:
64,192,8623,1,0,0:0:0:0:
448,192,8788,1,0,0:0:0:0:
64,192,8788,1,0,0:0:0:0:
192,192,8953,1,0,0:0:0:0:
448,192,9117,1,0,0:0:0:0:
192,192,9282,1,0,0:0:0:0:
320,192,9365,1,0,0:0:0:0:
192,192,9447,1,0,0:0:0:0:
64,192,9612,1,0,0:0:0:0:
192,192,9777,1,0,0:0:0:0:
448,192,9942,1,0,0:0:0:0:
64,192,9942,1,0,0:0:0:0:
448,192,10106,1,0,0:0:0:0:
64,192,10106,1,0,0:0:0:0:
192,192,10271,1,0,0:0:0:0:
320,192,10436,1,0,0:0:0:0:
448,192,10601,1,0,0:0:0:0:
64,192,10601,1,0,0:0:0:0:
320,192,10766,1,0,0:0:0:0:
192,192,10931,1,0,0:0:0:0:
448,192,11095,1,0,0:0:0:0:
320,192,11260,1,0,0:0:0:0:
64,192,11260,1,0,0:0:0:0:
192,192,11425,1,0,0:0:0:0:
64,192,11590,1,0,0:0:0:0:
320,192,11755,1,0,0:0:0:0:
448,192,11920,1,0,0:0:0:0:
64,192,11920,1,0,0:0:0:0:
320,192,12084,1,0,0:0:0:0:
448,192,12249,1,0,0:0:0:0:
320,192,12414,1,0,0:0:0:0:
192,192,12579,1,0,0:0:0:0:
320,192,12744,1,0,0:0:0:0:
448,192,12909,1,0,0:0:0:0:
64,192,12909,1,0,0:0:0:0:
448,192,13073,1,0,0:0:0:0:
64,192,13073,1,0,0:0:0:0:
192,192,13238,1,0,0:0:0:0:
448,192,13403,1,0,0:0:0:0:
192,192,13568,1,0,0:0:0:0:
320,192,13568,1,0,0:0:0:0:
192,192,13733,1,0,0:0:0:0:
64,192,13898,1,0,0:0:0:0:
192,192,14062,1,0,0:0:0:0:
448,192,14227,1,0,0:0:0:0:
64,192,14227,1,0,0:0:0:0:
448,192,14392,1,0,0:0:0:0:
64,192,14392,1,0,0:0:0:0:
192,192,14557,1,0,0:0:0:0:
320,192,14722,1,0,0:0:0:0:
448,192,14887,1,0,0:0:0:0:
64,192,14887,1,0,0:0:0:0:
320,192,15052,1,0,0:0:0:0:
192,192,15216,1,0,0:0:0:0:
448,192,15381,1,0,0:0:0:0:
320,192,15546,1,0,0:0:0:0:
64,192,15546,1,0,0:0:0:0:
320,192,15711,1,0,0:0:0:0:
64,192,15711,1,0,0:0:0:0:
448,192,15876,1,0,0:0:0:0:
320,192,16041,1,0,0:0:0:0:
448,192,16205,1,0,0:0:0:0:
64,192,16205,1,0,0:0:0:0:
320,192,16370,1,0,0:0:0:0:
448,192,16535,1,0,0:0:0:0:
320,192,16700,1,0,0:0:0:0:
192,192,16865,1,0,0:0:0:0:
64,192,16865,1,0,0:0:0:0:
320,192,17030,1,0,0:0:0:0:
448,192,17030,1,0,0:0:0:0:
448,192,17194,1,0,0:0:0:0:
64,192,17194,1,0,0:0:0:0:
448,192,17358,1,0,0:0:0:0:
64,192,17358,1,0,0:0:0:0:
192,192,17523,1,0,0:0:0:0:
448,192,17688,1,0,0:0:0:0:
192,192,17853,1,0,0:0:0:0:
320,192,17853,1,0,0:0:0:0:
192,192,18018,1,0,0:0:0:0:
64,192,18183,1,0,0:0:0:0:
192,192,18347,1,0,0:0:0:0:
448,192,18512,1,0,0:0:0:0:
64,192,18512,1,0,0:0:0:0:
320,192,18677,1,0,0:0:0:0:
448,192,18759,1,0,0:0:0:0:
64,192,18759,1,0,0:0:0:0:
192,192,18842,1,0,0:0:0:0:
320,192,19007,1,0,0:0:0:0:
448,192,19172,1,0,0:0:0:0:
64,192,19172,1,0,0:0:0:0:
320,192,19336,1,0,0:0:0:0:
192,192,19501,1,0,0:0:0:0:
448,192,19666,1,0,0:0:0:0:
192,192,19831,1,0,0:0:0:0:
64,192,19831,1,0,0:0:0:0:
320,192,19996,1,0,0:0:0:0:
192,192,20161,1,0,0:0:0:0:
320,192,20325,1,0,0:0:0:0:
192,192,20490,1,0,0:0:0:0:
448,192,20655,1,0,0:0:0:0:
64,192,20655,1,0,0:0:0:0:
192,192,20820,1,0,0:0:0:0:
320,192,20985,1,0,0:0:0:0:
192,192,21150,1,0,0:0:0:0:
64,192,21150,1,0,0:0:0:0:
320,192,21314,1,0,0:0:0:0:
192,192,21479,1,0,0:0:0:0:
320,192,21644,1,0,0:0:0:0:
448,192,21809,128,0,22468:0:0:0:0:
320,192,22468,1,0,0:0:0:0:
192,192,22468,1,0,0:0:0:0:
64,192,22468,1,0,0:0:0:0:
448,192,22551,1,0,0:0:0:0:
192,192,22633,1,0,0:0:0:0:
448,192,22798,1,0,0:0:0:0:
64,192,22798,1,0,0:0:0:0:
320,192,22963,1,0,0:0:0:0:
192,192,23045,1,0,0:0:0:0:
320,192,23128,1,0,0:0:0:0:
448,192,23457,1,0,0:0:0:0:
64,192,23457,1,0,0:0:0:0:
320,192,23540,1,0,0:0:0:0:
64,192,23622,1,0,0:0:0:0:
320,192,23952,1,0,0:0:0:0:
448,192,24117,1,0,0:0:0:0:
64,192,24117,1,0,0:0:0:0:
320,192,24281,1,0,0:0:0:0:
192,192,24364,1,0,0:0:0:0:
320,192,24446,1,0,0:0:0:0:
192,192,24529,1,0,0:0:0:0:
320,192,24611,1,0,0:0:0:0:
192,192,24694,1,0,0:0:0:0:
448,192,24776,1,0,0:0:0:0:
320,192,24776,128,0,25106:0:0:0:0:
192,192,25106,1,0,0:0:0:0:
448,192,25188,1,0,0:0:0:0:
192,192,25270,1,0,0:0:0:0:
448,192,25435,1,0,0:0:0:0:
64,192,25435,1,0,0:0:0:0:
320,192,25600,1,0,0:0:0:0:
320,192,25930,1,0,0:0:0:0:
64,192,26012,1,0,0:0:0:0:
448,192,26095,1,0,0:0:0:0:
320,192,26095,1,0,0:0:0:0:
64,192,26177,1,0,0:0:0:0:
320,192,26259,1,0,0:0:0:0:
192,192,26589,1,0,0:0:0:0:
448,192,26754,1,0,0:0:0:0:
64,192,26754,1,0,0:0:0:0:
192,192,26919,1,0,0:0:0:0:
320,192,27001,1,0,0:0:0:0:
192,192,27084,1,0,0:0:0:0:
320,192,27166,1,0,0:0:0:0:
192,192,27248,1,0,0:0:0:0:
320,192,27331,1,0,0:0:0:0:
192,192,27413,1,0,0:0:0:0:
64,192,27413,128,0,27743:0:0:0:0:
192,192,27743,1,0,0:0:0:0:
448,192,27825,1,0,0:0:0:0:
192,192,27908,1,0,0:0:0:0:
448,192,28073,1,0,0:0:0:0:
64,192,28073,1,0,0:0:0:0:
320,192,28237,1,0,0:0:0:0:
192,192,28320,1,0,0:0:0:0:
320,192,28402,1,0,0:0:0:0:
448,192,28732,1,0,0:0:0:0:
64,192,28732,1,0,0:0:0:0:
320,192,28814,1,0,0:0:0:0:
64,192,28897,1,0,0:0:0:0:
320,192,29226,1,0,0:0:0:0:
448,192,29391,1,0,0:0:0:0:
64,192,29391,1,0,0:0:0:0:
320,192,29556,1,0,0:0:0:0:
192,192,29639,1,0,0:0:0:0:
320,192,29721,1,0,0:0:0:0:
192,192,29803,1,0,0:0:0:0:
320,192,29886,1,0,0:0:0:0:
192,192,29968,1,0,0:0:0:0:
448,192,30051,1,0,0:0:0:0:
320,192,30051,128,0,30380:0:0:0:0:
192,192,30380,1,0,0:0:0:0:
448,192,30463,1,0,0:0:0:0:
192,192,30545,1,0,0:0:0:0:
448,192,30710,1,0,0:0:0:0:
64,192,30710,1,0,0:0:0:0:
320,192,30875,1,0,0:0:0:0:
320,192,31204,1,0,0:0:0:0:
64,192,31287,1,0,0:0:0:0:
448,192,31369,1,0,0:0:0:0:
320,192,31369,1,0,0:0:0:0:
64,192,31452,1,0,0:0:0:0:
320,192,31534,1,0,0:0:0:0:
192,192,31864,1,0,0:0:0:0:
448,192,32029,1,0,0:0:0:0:
64,192,32029,1,0,0:0:0:0:
192,192,32194,1,0,0:0:0:0:
320,192,32276,1,0,0:0:0:0:
192,192,32358,1,0,0:0:0:0:
320,192,32441,1,0,0:0:0:0:
192,192,32523,1,0,0:0:0:0:
320,192,32606,1,0,0:0:0:0:
192,192,32688,128,0,33018:0:0:0:0:
64,192,32688,1,0,0:0:0:0:
448,192,33018,1,0,0:0:0:0:
320,192,33018,1,0,0:0:0:0:
64,192,33018,1,0,0:0:0:0:
192,192,33100,1,0,0:0:0:0:
320,192,33183,1,0,0:0:0:0:
448,192,33347,1,0,0:0:0:0:
64,192,33347,1,0,0:0:0:0:
192,192,33512,1,0,0:0:0:0:
320,192,33595,1,0,0:0:0:0:
192,192,33677,1,0,0:0:0:0:
448,192,34007,1,0,0:0:0:0:
64,192,34007,1,0,0:0:0:0:
192,192,34089,1,0,0:0:0:0:
448,192,34172,1,0,0:0:0:0:
192,192,34501,1,0,0:0:0:0:
448,192,34666,1,0,0:0:0:0:
64,192,34666,1,0,0:0:0:0:
192,192,34831,1,0,0:0:0:0:
320,192,34913,1,0,0:0:0:0:
192,192,34996,1,0,0:0:0:0:
320,192,35078,1,0,0:0:0:0:
192,192,35161,1,0,0:0:0:0:
320,192,35243,1,0,0:0:0:0:
192,192,35325,128,0,35655:0:0:0:0:
64,192,35325,1,0,0:0:0:0:
320,192,35655,1,0,0:0:0:0:
64,192,35737,1,0,0:0:0:0:
320,192,35820,1,0,0:0:0:0:
448,192,35985,1,0,0:0:0:0:
64,192,35985,1,0,0:0:0:0:
192,192,36150,1,0,0:0:0:0:
192,192,36479,1,0,0:0:0:0:
448,192,36562,1,0,0:0:0:0:
192,192,36644,1,0,0:0:0:0:
64,192,36644,1,0,0:0:0:0:
448,192,36726,1,0,0:0:0:0:
192,192,36809,1,0,0:0:0:0:
320,192,37139,1,0,0:0:0:0:
448,192,37303,1,0,0:0:0:0:
64,192,37303,1,0,0:0:0:0:
320,192,37468,1,0,0:0:0:0:
192,192,37551,1,0,0:0:0:0:
320,192,37633,1,0,0:0:0:0:
192,192,37715,1,0,0:0:0:0:
320,192,37798,1,0,0:0:0:0:
192,192,37880,1,0,0:0:0:0:
448,192,37963,1,0,0:0:0:0:
320,192,37963,1,0,0:0:0:0:
192,192,38045,1,0,0:0:0:0:
64,192,38128,1,0,0:0:0:0:
448,192,38210,1,0,0:0:0:0:
320,192,38292,1,0,0:0:0:0:
192,192,38292,1,0,0:0:0:0:
64,192,38292,1,0,0:0:0:0:
448,192,38375,1,0,0:0:0:0:
192,192,38457,1,0,0:0:0:0:
448,192,38622,1,0,0:0:0:0:
64,192,38622,1,0,0:0:0:0:
320,192,38787,1,0,0:0:0:0:
192,192,38869,1,0,0:0:0:0:
320,192,38952,1,0,0:0:0:0:
448,192,39281,1,0,0:0:0:0:
64,192,39281,1,0,0:0:0:0:
320,192,39364,1,0,0:0:0:0:
64,192,39446,1,0,0:0:0:0:
320,192,39776,1,0,0:0:0:0:
448,192,39941,1,0,0:0:0:0:
64,192,39941,1,0,0:0:0:0:
320,192,40106,1,0,0:0:0:0:
192,192,40188,1,0,0:0:0:0:
320,192,40270,1,0,0:0:0:0:
192,192,40353,1,0,0:0:0:0:
320,192,40435,1,0,0:0:0:0:
192,192,40518,1,0,0:0:0:0:
448,192,40600,1,0,0:0:0:0:
320,192,40600,128,0,40930:0:0:0:0:
192,192,40930,1,0,0:0:0:0:
448,192,41012,1,0,0:0:0:0:
192,192,41095,1,0,0:0:0:0:
448,192,41259,1,0,0:0:0:0:
64,192,41259,1,0,0:0:0:0:
320,192,41424,1,0,0:0:0:0:
320,192,41754,1,0,0:0:0:0:
64,192,41836,1,0,0:0:0:0:
448,192,41919,1,0,0:0:0:0:
320,192,41919,1,0,0:0:0:0:
64,192,42001,1,0,0:0:0:0:
320,192,42084,1,0,0:0:0:0:
192,192,42413,1,0,0:0:0:0:
448,192,42578,1,0,0:0:0:0:
64,192,42578,1,0,0:0:0:0:
192,192,42743,1,0,0:0:0:0:
320,192,42825,1,0,0:0:0:0:
192,192,42908,1,0,0:0:0:0:
320,192,42990,1,0,0:0:0:0:
192,192,43073,1,0,0:0:0:0:
320,192,43155,1,0,0:0:0:0:
192,192,43237,1,0,0:0:0:0:
64,192,43237,1,0,0:0:0:0:
448,192,43320,1,0,0:0:0:0:
320,192,43320,1,0,0:0:0:0:
192,192,43402,1,0,0:0:0:0:
64,192,43402,1,0,0:0:0:0:
448,192,43485,1,0,0:0:0:0:
320,192,43567,1,0,0:0:0:0:
192,192,43567,1,0,0:0:0:0:
64,192,43567,1,0,0:0:0:0:
448,192,43650,1,0,0:0:0:0:
320,192,43732,1,0,0:0:0:0:
448,192,43897,1,0,0:0:0:0:
64,192,43897,1,0,0:0:0:0:
192,192,44062,1,0,0:0:0:0:
320,192,44144,1,0,0:0:0:0:
192,192,44226,1,0,0:0:0:0:
448,192,44556,1,0,0:0:0:0:
64,192,44556,1,0,0:0:0:0:
192,192,44639,1,0,0:0:0:0:
448,192,44721,1,0,0:0:0:0:
192,192,45051,1,0,0:0:0:0:
448,192,45215,1,0,0:0:0:0:
64,192,45215,1,0,0:0:0:0:
192,192,45380,1,0,0:0:0:0:
320,192,45463,1,0,0:0:0:0:
192,192,45545,1,0,0:0:0:0:
320,192,45628,1,0,0:0:0:0:
192,192,45710,1,0,0:0:0:0:
320,192,45792,1,0,0:0:0:0:
448,192,45875,1,0,0:0:0:0:
192,192,45875,128,0,46204:0:0:0:0:
64,192,45875,1,0,0:0:0:0:
448,192,46204,1,0,0:0:0:0:
320,192,46204,1,0,0:0:0:0:
64,192,46204,1,0,0:0:0:0:
192,192,46287,1,0,0:0:0:0:
320,192,46369,1,0,0:0:0:0:
448,192,46534,1,0,0:0:0:0:
64,192,46534,1,0,0:0:0:0:
192,192,46699,1,0,0:0:0:0:
64,192,47029,1,0,0:0:0:0:
448,192,47111,1,0,0:0:0:0:
192,192,47194,1,0,0:0:0:0:
64,192,47194,1,0,0:0:0:0:
448,192,47276,1,0,0:0:0:0:
64,192,47358,1,0,0:0:0:0:
320,192,47688,1,0,0:0:0:0:
448,192,47853,1,0,0:0:0:0:
192,192,47853,1,0,0:0:0:0:
64,192,47853,1,0,0:0:0:0:
320,192,48018,1,0,0:0:0:0:
192,192,48100,1,0,0:0:0:0:
448,192,48183,1,0,0:0:0:0:
320,192,48183,1,0,0:0:0:0:
192,192,48402,1,0,0:0:0:0:
64,192,48402,1,0,0:0:0:0:
448,192,48622,1,0,0:0:0:0:
320,192,48622,1,0,0:0:0:0:
320,192,49831,1,0,0:0:0:0:
192,192,49831,1,0,0:0:0:0:
64,192,49831,1,0,0:0:0:0:
448,192,49995,1,0,0:0:0:0:
192,192,50160,1,0,0:0:0:0:
448,192,50325,1,0,0:0:0:0:
320,192,50325,1,0,0:0:0:0:
64,192,50325,1,0,0:0:0:0:
64,192,50655,1,0,0:0:0:0:
320,192,50737,1,0,0:0:0:0:
448,192,50820,1,0,0:0:0:0:
192,192,50820,128,0,51149:0:0:0:0:
64,192,50820,1,0,0:0:0:0:
448,192,51149,1,0,0:0:0:0:
320,192,51149,1,0,0:0:0:0:
64,192,51149,1,0,0:0:0:0:
320,192,51314,1,0,0:0:0:0:
448,192,51479,1,0,0:0:0:0:
64,192,51479,1,0,0:0:0:0:
448,192,51644,1,0,0:0:0:0:
192,192,51809,1,0,0:0:0:0:
192,192,51973,1,0,0:0:0:0:
448,192,52138,1,0,0:0:0:0:
64,192,52138,1,0,0:0:0:0:
64,192,52303,1,0,0:0:0:0:
320,192,52468,1,0,0:0:0:0:
320,192,52633,1,0,0:0:0:0:
448,192,52798,1,0,0:0:0:0:
64,192,52798,1,0,0:0:0:0:
448,192,52962,1,0,0:0:0:0:
192,192,53127,1,0,0:0:0:0:
192,192,53292,1,0,0:0:0:0:
448,192,53457,1,0,0:0:0:0:
64,192,53457,1,0,0:0:0:0:
64,192,53622,1,0,0:0:0:0:
320,192,53787,1,0,0:0:0:0:
320,192,53951,1,0,0:0:0:0:
448,192,54116,1,0,0:0:0:0:
64,192,54116,1,0,0:0:0:0:
448,192,54281,1,0,0:0:0:0:
192,192,54446,1,0,0:0:0:0:
192,192,54611,1,0,0:0:0:0:
448,192,54776,1,0,0:0:0:0:
64,192,54776,1,0,0:0:0:0:
64,192,54940,1,0,0:0:0:0:
320,192,55105,1,0,0:0:0:0:
320,192,55270,1,0,0:0:0:0:
448,192,55435,1,0,0:0:0:0:
64,192,55435,1,0,0:0:0:0:
448,192,55600,1,0,0:0:0:0:
192,192,55765,1,0,0:0:0:0:
192,192,55929,1,0,0:0:0:0:
448,192,56094,1,0,0:0:0:0:
64,192,56094,1,0,0:0:0:0:
64,192,56259,1,0,0:0:0:0:
192,192,56424,1,0,0:0:0:0:
192,192,56589,1,0,0:0:0:0:
448,192,56754,1,0,0:0:0:0:
64,192,56754,1,0,0:0:0:0:
448,192,56918,1,0,0:0:0:0:
320,192,57083,1,0,0:0:0:0:
320,192,57248,1,0,0:0:0:0:
448,192,57413,1,0,0:0:0:0:
64,192,57413,1,0,0:0:0:0:
64,192,57578,1,0,0:0:0:0:
192,192,57743,1,0,0:0:0:0:
192,192,57907,1,0,0:0:0:0:
448,192,58072,1,0,0:0:0:0:
64,192,58072,1,0,0:0:0:0:
448,192,58237,1,0,0:0:0:0:
192,192,58402,1,0,0:0:0:0:
192,192,58567,1,0,0:0:0:0:
448,192,58732,1,0,0:0:0:0:
64,192,58732,1,0,0:0:0:0:
64,192,58896,1,0,0:0:0:0:
320,192,59061,1,0,0:0:0:0:
320,192,59226,1,0,0:0:0:0:
448,192,59391,1,0,0:0:0:0:
64,192,59391,1,0,0:0:0:0:
448,192,59556,1,0,0:0:0:0:
320,192,59721,1,0,0:0:0:0:
320,192,59885,1,0,0:0:0:0:
448,192,60050,1,0,0:0:0:0:
64,192,60050,1,0,0:0:0:0:
64,192,60215,1,0,0:0:0:0:
192,192,60380,1,0,0:0:0:0:
192,192,60545,1,0,0:0:0:0:
448,192,60710,1,0,0:0:0:0:
64,192,60710,1,0,0:0:0:0:
64,192,60874,1,0,0:0:0:0:
192,192,61039,1,0,0:0:0:0:
448,192,61204,1,0,0:0:0:0:
448,192,61369,1,0,0:0:0:0:
64,192,61369,1,0,0:0:0:0:
320,192,61451,1,0,0:0:0:0:
192,192,61534,1,0,0:0:0:0:
320,192,61616,1,0,0:0:0:0:
448,192,61699,1,0,0:0:0:0:
192,192,61699,1,0,0:0:0:0:
64,192,61699,1,0,0:0:0:0:
320,192,61863,1,0,0:0:0:0:
448,192,62028,1,0,0:0:0:0:
64,192,62028,1,0,0:0:0:0:
448,192,62193,1,0,0:0:0:0:
192,192,62358,1,0,0:0:0:0:
192,192,62523,1,0,0:0:0:0:
448,192,62688,1,0,0:0:0:0:
64,192,62688,1,0,0:0:0:0:
64,192,62852,1,0,0:0:0:0:
320,192,63017,1,0,0:0:0:0:
320,192,63182,1,0,0:0:0:0:
448,192,63347,1,0,0:0:0:0:
64,192,63347,1,0,0:0:0:0:
448,192,63512,1,0,0:0:0:0:
320,192,63677,1,0,0:0:0:0:
320,192,63841,1,0,0:0:0:0:
448,192,64006,1,0,0:0:0:0:
64,192,64006,1,0,0:0:0:0:
64,192,64171,1,0,0:0:0:0:
320,192,64336,1,0,0:0:0:0:
320,192,64501,1,0,0:0:0:0:
448,192,64666,1,0,0:0:0:0:
64,192,64666,1,0,0:0:0:0:
448,192,64831,1,0,0:0:0:0:
192,192,64995,1,0,0:0:0:0:
192,192,65160,1,0,0:0:0:0:
448,192,65325,1,0,0:0:0:0:
64,192,65325,1,0,0:0:0:0:
64,192,65490,1,0,0:0:0:0:
320,192,65655,1,0,0:0:0:0:
320,192,65820,1,0,0:0:0:0:
448,192,65984,1,0,0:0:0:0:
64,192,65984,1,0,0:0:0:0:
448,192,66149,1,0,0:0:0:0:
192,192,66314,1,0,0:0:0:0:
192,192,66479,1,0,0:0:0:0:
448,192,66644,1,0,0:0:0:0:
64,192,66644,1,0,0:0:0:0:
320,192,66726,1,0,0:0:0:0:
192,192,66809,1,0,0:0:0:0:
320,192,66891,1,0,0:0:0:0:
192,192,66973,1,0,0:0:0:0:
64,192,66973,1,0,0:0:0:0:
448,192,66973,1,0,0:0:0:0:
192,192,67138,1,0,0:0:0:0:
448,192,67303,1,0,0:0:0:0:
64,192,67303,1,0,0:0:0:0:
448,192,67468,1,0,0:0:0:0:
320,192,67633,1,0,0:0:0:0:
320,192,67798,1,0,0:0:0:0:
448,192,67962,1,0,0:0:0:0:
64,192,67962,1,0,0:0:0:0:
64,192,68127,1,0,0:0:0:0:
192,192,68292,1,0,0:0:0:0:
192,192,68457,1,0,0:0:0:0:
448,192,68622,1,0,0:0:0:0:
64,192,68622,1,0,0:0:0:0:
448,192,68787,1,0,0:0:0:0:
192,192,68951,1,0,0:0:0:0:
192,192,69116,1,0,0:0:0:0:
448,192,69281,1,0,0:0:0:0:
64,192,69281,1,0,0:0:0:0:
320,192,69281,1,0,0:0:0:0:
192,192,69363,1,0,0:0:0:0:
320,192,69446,1,0,0:0:0:0:
192,192,69528,1,0,0:0:0:0:
64,192,69611,1,0,0:0:0:0:
448,192,69611,1,0,0:0:0:0:
320,192,69776,1,0,0:0:0:0:
192,192,69940,1,0,0:0:0:0:
320,192,70105,1,0,0:0:0:0:
64,192,70270,1,0,0:0:0:0:
448,192,70270,1,0,0:0:0:0:
64,192,70435,1,0,0:0:0:0:
448,192,70600,1,0,0:0:0:0:
320,192,70600,1,0,0:0:0:0:
192,192,70765,1,0,0:0:0:0:
320,192,70847,1,0,0:0:0:0:
448,192,70929,1,0,0:0:0:0:
192,192,70929,1,0,0:0:0:0:
64,192,70929,1,0,0:0:0:0:
448,192,71259,1,0,0:0:0:0:
448,192,71424,1,0,0:0:0:0:
320,192,71424,1,0,0:0:0:0:
192,192,71589,1,0,0:0:0:0:
192,192,71754,1,0,0:0:0:0:
320,192,71754,1,0,0:0:0:0:
320,192,71918,1,0,0:0:0:0:
320,192,72083,1,0,0:0:0:0:
64,192,72083,1,0,0:0:0:0:
448,192,72248,1,0,0:0:0:0:
192,192,72248,1,0,0:0:0:0:
64,192,72248,1,0,0:0:0:0:
192,192,72577,1,0,0:0:0:0:
320,192,72742,1,0,0:0:0:0:
64,192,72742,1,0,0:0:0:0:
320,192,73072,1,0,0:0:0:0:
448,192,73237,1,0,0:0:0:0:
64,192,73237,1,0,0:0:0:0:
448,192,73566,1,0,0:0:0:0:
320,192,73566,1,0,0:0:0:0:
448,192,73896,1,0,0:0:0:0:
320,192,73896,128,0,74885:0:0:0:0:
192,192,73896,1,0,0:0:0:0:
64,192,74225,1,0,0:0:0:0:
448,192,74390,1,0,0:0:0:0:
192,192,74390,1,0,0:0:0:0:
192,192,74720,1,0,0:0:0:0:
448,192,74885,1,0,0:0:0:0:
64,192,74885,1,0,0:0:0:0:
192,192,75049,1,0,0:0:0:0:
320,192,75132,1,0,0:0:0:0:
448,192,75214,1,0,0:0:0:0:
192,192,75214,1,0,0:0:0:0:
320,192,75379,1,0,0:0:0:0:
448,192,75544,1,0,0:0:0:0:
192,192,75544,1,0,0:0:0:0:
320,192,75709,1,0,0:0:0:0:
448,192,75874,1,0,0:0:0:0:
192,192,75874,1,0,0:0:0:0:
64,192,75874,1,0,0:0:0:0:
320,192,75956,1,0,0:0:0:0:
192,192,76038,1,0,0:0:0:0:
320,192,76121,1,0,0:0:0:0:
192,192,76203,1,0,0:0:0:0:
320,192,76286,1,0,0:0:0:0:
448,192,76368,1,0,0:0:0:0:
192,192,76368,1,0,0:0:0:0:
64,192,76368,1,0,0:0:0:0:
320,192,76450,1,0,0:0:0:0:
64,192,76533,1,0,0:0:0:0:
320,192,76615,1,0,0:0:0:0:
64,192,76698,1,0,0:0:0:0:
192,192,76780,1,0,0:0:0:0:
448,192,76863,1,0,0:0:0:0:
320,192,76863,1,0,0:0:0:0:
64,192,76863,1,0,0:0:0:0:
192,192,76945,1,0,0:0:0:0:
320,192,77027,1,0,0:0:0:0:
192,192,77110,1,0,0:0:0:0:
448,192,77192,1,0,0:0:0:0:
64,192,77192,1,0,0:0:0:0:
320,192,77522,128,0,78016:0:0:0:0:
192,192,77522,1,0,0:0:0:0:
448,192,78016,1,0,0:0:0:0:
448,192,78181,128,0,78511:0:0:0:0:
64,192,78511,128,0,78676:0:0:0:0:
448,192,78676,1,0,0:0:0:0:
192,192,78731,1,0,0:0:0:0:
320,192,78786,1,0,0:0:0:0:
448,192,78841,1,0,0:0:0:0:
64,192,78841,1,0,0:0:0:0:
448,192,79170,1,0,0:0:0:0:
320,192,79170,1,0,0:0:0:0:
64,192,79170,1,0,0:0:0:0:
320,192,79417,1,0,0:0:0:0:
448,192,79499,1,0,0:0:0:0:
64,192,79499,1,0,0:0:0:0:
64,192,79664,1,0,0:0:0:0:
64,192,79994,1,0,0:0:0:0:
448,192,80159,1,0,0:0:0:0:
64,192,80159,1,0,0:0:0:0:
192,192,80323,1,0,0:0:0:0:
320,192,80488,1,0,0:0:0:0:
192,192,80653,1,0,0:0:0:0:
320,192,80735,1,0,0:0:0:0:
448,192,80818,1,0,0:0:0:0:
64,192,80818,1,0,0:0:0:0:
448,192,80983,1,0,0:0:0:0:
448,192,81312,1,0,0:0:0:0:
448,192,81477,1,0,0:0:0:0:
64,192,81477,1,0,0:0:0:0:
320,192,81642,1,0,0:0:0:0:
192,192,81807,1,0,0:0:0:0:
64,192,81807,1,0,0:0:0:0:
192,192,82054,1,0,0:0:0:0:
448,192,82137,1,0,0:0:0:0:
64,192,82137,1,0,0:0:0:0:
320,192,82301,1,0,0:0:0:0:
192,192,82301,1,0,0:0:0:0:
320,192,82631,1,0,0:0:0:0:
192,192,82631,1,0,0:0:0:0:
448,192,82796,1,0,0:0:0:0:
64,192,82796,1,0,0:0:0:0:
448,192,82961,1,0,0:0:0:0:
64,192,83290,1,0,0:0:0:0:
448,192,83455,1,0,0:0:0:0:
64,192,83455,1,0,0:0:0:0:
448,192,83620,1,0,0:0:0:0:
192,192,83785,1,0,0:0:0:0:
320,192,83867,1,0,0:0:0:0:
192,192,83950,1,0,0:0:0:0:
320,192,84032,1,0,0:0:0:0:
448,192,84115,1,0,0:0:0:0:
64,192,84115,1,0,0:0:0:0:
64,192,84279,1,0,0:0:0:0:
448,192,84444,1,0,0:0:0:0:
320,192,84444,1,0,0:0:0:0:
192,192,84444,1,0,0:0:0:0:
320,192,84691,1,0,0:0:0:0:
448,192,84774,1,0,0:0:0:0:
64,192,84774,1,0,0:0:0:0:
64,192,84939,1,0,0:0:0:0:
64,192,85268,1,0,0:0:0:0:
448,192,85433,1,0,0:0:0:0:
64,192,85433,1,0,0:0:0:0:
320,192,85598,1,0,0:0:0:0:
192,192,85763,1,0,0:0:0:0:
192,192,85928,1,0,0:0:0:0:
320,192,86010,1,0,0:0:0:0:
448,192,86093,1,0,0:0:0:0:
64,192,86093,1,0,0:0:0:0:
448,192,86257,1,0,0:0:0:0:
448,192,86587,1,0,0:0:0:0:
448,192,86752,1,0,0:0:0:0:
64,192,86752,1,0,0:0:0:0:
320,192,86917,1,0,0:0:0:0:
448,192,87082,1,0,0:0:0:0:
192,192,87082,1,0,0:0:0:0:
192,192,87329,1,0,0:0:0:0:
448,192,87411,1,0,0:0:0:0:
64,192,87411,1,0,0:0:0:0:
320,192,87576,1,0,0:0:0:0:
192,192,87576,1,0,0:0:0:0:
320,192,87906,1,0,0:0:0:0:
192,192,87906,1,0,0:0:0:0:
448,192,88071,1,0,0:0:0:0:
64,192,88071,1,0,0:0:0:0:
448,192,88235,1,0,0:0:0:0:
320,192,88235,1,0,0:0:0:0:
64,192,88565,1,0,0:0:0:0:
448,192,88730,1,0,0:0:0:0:
64,192,88730,1,0,0:0:0:0:
448,192,88895,1,0,0:0:0:0:
320,192,88977,1,0,0:0:0:0:
192,192,89060,1,0,0:0:0:0:
320,192,89142,1,0,0:0:0:0:
192,192,89224,1,0,0:0:0:0:
320,192,89307,1,0,0:0:0:0:
192,192,89389,1,0,0:0:0:0:
64,192,89389,1,0,0:0:0:0:
448,192,89472,1,0,0:0:0:0:
320,192,89472,1,0,0:0:0:0:
192,192,89554,1,0,0:0:0:0:
64,192,89554,1,0,0:0:0:0:
320,192,89637,1,0,0:0:0:0:
448,192,89719,1,0,0:0:0:0:
192,192,89719,1,0,0:0:0:0:
64,192,89719,1,0,0:0:0:0:
192,192,89966,1,0,0:0:0:0:
448,192,90049,1,0,0:0:0:0:
64,192,90049,1,0,0:0:0:0:
448,192,90213,1,0,0:0:0:0:
448,192,90543,1,0,0:0:0:0:
448,192,90708,1,0,0:0:0:0:
64,192,90708,1,0,0:0:0:0:
320,192,90873,1,0,0:0:0:0:
192,192,91038,1,0,0:0:0:0:
320,192,91202,1,0,0:0:0:0:
192,192,91285,1,0,0:0:0:0:
448,192,91367,1,0,0:0:0:0:
64,192,91367,1,0,0:0:0:0:
64,192,91532,1,0,0:0:0:0:
64,192,91862,1,0,0:0:0:0:
448,192,92027,1,0,0:0:0:0:
64,192,92027,1,0,0:0:0:0:
192,192,92191,1,0,0:0:0:0:
448,192,92356,1,0,0:0:0:0:
320,192,92356,1,0,0:0:0:0:
320,192,92604,1,0,0:0:0:0:
448,192,92686,1,0,0:0:0:0:
64,192,92686,1,0,0:0:0:0:
320,192,92851,1,0,0:0:0:0:
192,192,92851,1,0,0:0:0:0:
320,192,93180,1,0,0:0:0:0:
192,192,93180,1,0,0:0:0:0:
448,192,93345,1,0,0:0:0:0:
64,192,93345,1,0,0:0:0:0:
64,192,93510,1,0,0:0:0:0:
448,192,93840,1,0,0:0:0:0:
448,192,94005,1,0,0:0:0:0:
64,192,94005,1,0,0:0:0:0:
64,192,94170,1,0,0:0:0:0:
192,192,94252,1,0,0:0:0:0:
320,192,94334,1,0,0:0:0:0:
192,192,94417,1,0,0:0:0:0:
320,192,94499,1,0,0:0:0:0:
192,192,94582,1,0,0:0:0:0:
448,192,94664,1,0,0:0:0:0:
64,192,94664,1,0,0:0:0:0:
448,192,94829,1,0,0:0:0:0:
320,192,94994,1,0,0:0:0:0:
192,192,94994,1,0,0:0:0:0:
64,192,94994,1,0,0:0:0:0:
192,192,95241,1,0,0:0:0:0:
448,192,95323,1,0,0:0:0:0:
64,192,95323,1,0,0:0:0:0:
448,192,95488,1,0,0:0:0:0:
448,192,95818,1,0,0:0:0:0:
448,192,95983,1,0,0:0:0:0:
64,192,95983,1,0,0:0:0:0:
192,192,96148,1,0,0:0:0:0:
320,192,96312,1,0,0:0:0:0:
192,192,96560,1,0,0:0:0:0:
448,192,96642,1,0,0:0:0:0:
64,192,96642,1,0,0:0:0:0:
64,192,96807,1,0,0:0:0:0:
192,192,96972,1,0,0:0:0:0:
320,192,97054,1,0,0:0:0:0:
192,192,97137,1,0,0:0:0:0:
320,192,97219,1,0,0:0:0:0:
192,192,97301,1,0,0:0:0:0:
64,192,97301,1,0,0:0:0:0:
448,192,97384,1,0,0:0:0:0:
320,192,97384,1,0,0:0:0:0:
192,192,97466,1,0,0:0:0:0:
64,192,97466,1,0,0:0:0:0:
320,192,97549,1,0,0:0:0:0:
448,192,97631,1,0,0:0:0:0:
192,192,97631,1,0,0:0:0:0:
64,192,97631,1,0,0:0:0:0:
320,192,97878,1,0,0:0:0:0:
448,192,97961,1,0,0:0:0:0:
64,192,97961,1,0,0:0:0:0:
320,192,98126,1,0,0:0:0:0:
192,192,98126,1,0,0:0:0:0:
320,192,98290,1,0,0:0:0:0:
192,192,98373,1,0,0:0:0:0:
320,192,98455,1,0,0:0:0:0:
448,192,98620,1,0,0:0:0:0:
64,192,98620,1,0,0:0:0:0:
320,192,98702,1,0,0:0:0:0:
192,192,98785,1,0,0:0:0:0:
64,192,98785,1,0,0:0:0:0:
320,192,98867,1,0,0:0:0:0:
192,192,98950,1,0,0:0:0:0:
448,192,99115,1,0,0:0:0:0:
320,192,99197,1,0,0:0:0:0:
448,192,99279,1,0,0:0:0:0:
64,192,99279,1,0,0:0:0:0:
64,192,99444,1,0,0:0:0:0:
448,192,99609,1,0,0:0:0:0:
320,192,99609,1,0,0:0:0:0:
192,192,99691,1,0,0:0:0:0:
64,192,99691,1,0,0:0:0:0:
448,192,99774,1,0,0:0:0:0:
320,192,99774,1,0,0:0:0:0:
192,192,99856,1,0,0:0:0:0:
64,192,99856,1,0,0:0:0:0:
320,192,99939,1,0,0:0:0:0:
192,192,100021,1,0,0:0:0:0:
320,192,100104,1,0,0:0:0:0:
192,192,100186,1,0,0:0:0:0:
448,192,100268,1,0,0:0:0:0:
320,192,100268,1,0,0:0:0:0:
64,192,100268,1,0,0:0:0:0:
192,192,100351,1,0,0:0:0:0:
320,192,100433,1,0,0:0:0:0:
448,192,100598,1,0,0:0:0:0:
64,192,100598,1,0,0:0:0:0:
192,192,100763,1,0,0:0:0:0:
320,192,100845,1,0,0:0:0:0:
192,192,100928,1,0,0:0:0:0:
448,192,101257,1,0,0:0:0:0:
64,192,101257,1,0,0:0:0:0:
192,192,101340,1,0,0:0:0:0:
448,192,101422,1,0,0:0:0:0:
192,192,101752,1,0,0:0:0:0:
448,192,101917,1,0,0:0:0:0:
64,192,101917,1,0,0:0:0:0:
192,192,102082,1,0,0:0:0:0:
320,192,102164,1,0,0:0:0:0:
192,192,102246,1,0,0:0:0:0:
320,192,102329,1,0,0:0:0:0:
192,192,102411,1,0,0:0:0:0:
320,192,102494,1,0,0:0:0:0:
192,192,102576,128,0,102906:0:0:0:0:
64,192,102576,1,0,0:0:0:0:
320,192,102906,1,0,0:0:0:0:
64,192,102988,1,0,0:0:0:0:
320,192,103071,1,0,0:0:0:0:
448,192,103235,1,0,0:0:0:0:
64,192,103235,1,0,0:0:0:0:
192,192,103400,1,0,0:0:0:0:
192,192,103730,1,0,0:0:0:0:
448,192,103812,1,0,0:0:0:0:
192,192,103895,1,0,0:0:0:0:
64,192,103895,1,0,0:0:0:0:
448,192,103977,1,0,0:0:0:0:
192,192,104060,1,0,0:0:0:0:
320,192,104389,1,0,0:0:0:0:
448,192,104554,1,0,0:0:0:0:
64,192,104554,1,0,0:0:0:0:
320,192,104719,1,0,0:0:0:0:
192,192,104801,1,0,0:0:0:0:
320,192,104884,1,0,0:0:0:0:
192,192,104966,1,0,0:0:0:0:
320,192,105049,1,0,0:0:0:0:
192,192,105131,1,0,0:0:0:0:
448,192,105213,128,0,105543:0:0:0:0:
320,192,105213,1,0,0:0:0:0:
320,192,105543,1,0,0:0:0:0:
64,192,105626,1,0,0:0:0:0:
320,192,105708,1,0,0:0:0:0:
448,192,105873,1,0,0:0:0:0:
64,192,105873,1,0,0:0:0:0:
192,192,106038,1,0,0:0:0:0:
320,192,106120,1,0,0:0:0:0:
192,192,106202,1,0,0:0:0:0:
448,192,106532,1,0,0:0:0:0:
64,192,106532,1,0,0:0:0:0:
192,192,106615,1,0,0:0:0:0:
448,192,106697,1,0,0:0:0:0:
192,192,107027,1,0,0:0:0:0:
448,192,107191,1,0,0:0:0:0:
64,192,107191,1,0,0:0:0:0:
192,192,107356,1,0,0:0:0:0:
320,192,107439,1,0,0:0:0:0:
192,192,107521,1,0,0:0:0:0:
320,192,107604,1,0,0:0:0:0:
192,192,107686,1,0,0:0:0:0:
320,192,107768,1,0,0:0:0:0:
192,192,107851,128,0,108180:0:0:0:0:
64,192,107851,1,0,0:0:0:0:
320,192,108180,1,0,0:0:0:0:
64,192,108263,1,0,0:0:0:0:
320,192,108345,1,0,0:0:0:0:
448,192,108510,1,0,0:0:0:0:
64,192,108510,1,0,0:0:0:0:
192,192,108675,1,0,0:0:0:0:
192,192,109005,1,0,0:0:0:0:
448,192,109087,1,0,0:0:0:0:
192,192,109170,1,0,0:0:0:0:
64,192,109170,1,0,0:0:0:0:
448,192,109252,1,0,0:0:0:0:
192,192,109334,1,0,0:0:0:0:
320,192,109664,1,0,0:0:0:0:
448,192,109829,1,0,0:0:0:0:
64,192,109829,1,0,0:0:0:0:
320,192,109994,1,0,0:0:0:0:
192,192,110076,1,0,0:0:0:0:
320,192,110159,1,0,0:0:0:0:
192,192,110241,1,0,0:0:0:0:
320,192,110323,1,0,0:0:0:0:
192,192,110406,1,0,0:0:0:0:
448,192,110488,1,0,0:0:0:0:
320,192,110488,128,0,110818:0:0:0:0:
64,192,110488,1,0,0:0:0:0:
448,192,110818,1,0,0:0:0:0:
192,192,110818,1,0,0:0:0:0:
64,192,110818,1,0,0:0:0:0:
320,192,110900,1,0,0:0:0:0:
192,192,110983,1,0,0:0:0:0:
448,192,111148,1,0,0:0:0:0:
64,192,111148,1,0,0:0:0:0:
320,192,111312,1,0,0:0:0:0:
192,192,111395,1,0,0:0:0:0:
320,192,111477,1,0,0:0:0:0:
448,192,111807,1,0,0:0:0:0:
64,192,111807,1,0,0:0:0:0:
320,192,111889,1,0,0:0:0:0:
64,192,111972,1,0,0:0:0:0:
320,192,112301,1,0,0:0:0:0:
448,192,112466,1,0,0:0:0:0:
64,192,112466,1,0,0:0:0:0:
320,192,112631,1,0,0:0:0:0:
192,192,112713,1,0,0:0:0:0:
320,192,112796,1,0,0:0:0:0:
192,192,112878,1,0,0:0:0:0:
320,192,112961,1,0,0:0:0:0:
192,192,113043,1,0,0:0:0:0:
448,192,113126,1,0,0:0:0:0:
320,192,113126,128,0,113455:0:0:0:0:
192,192,113455,1,0,0:0:0:0:
448,192,113538,1,0,0:0:0:0:
192,192,113620,1,0,0:0:0:0:
448,192,113785,1,0,0:0:0:0:
64,192,113785,1,0,0:0:0:0:
320,192,113950,1,0,0:0:0:0:
320,192,114279,1,0,0:0:0:0:
64,192,114362,1,0,0:0:0:0:
448,192,114444,1,0,0:0:0:0:
320,192,114444,1,0,0:0:0:0:
64,192,114527,1,0,0:0:0:0:
320,192,114609,1,0,0:0:0:0:
192,192,114939,1,0,0:0:0:0:
448,192,115104,1,0,0:0:0:0:
64,192,115104,1,0,0:0:0:0:
192,192,115268,1,0,0:0:0:0:
320,192,115351,1,0,0:0:0:0:
192,192,115433,1,0,0:0:0:0:
320,192,115516,1,0,0:0:0:0:
192,192,115598,1,0,0:0:0:0:
320,192,115680,1,0,0:0:0:0:
192,192,115763,1,0,0:0:0:0:
64,192,115763,1,0,0:0:0:0:
448,192,115845,1,0,0:0:0:0:
320,192,115928,1,0,0:0:0:0:
192,192,116010,1,0,0:0:0:0:
448,192,116093,1,0,0:0:0:0:
320,192,116093,1,0,0:0:0:0:
64,192,116093,1,0,0:0:0:0:
192,192,116175,1,0,0:0:0:0:
320,192,116257,1,0,0:0:0:0:
448,192,116422,1,0,0:0:0:0:
64,192,116422,1,0,0:0:0:0:
192,192,116587,1,0,0:0:0:0:
320,192,116670,1,0,0:0:0:0:
192,192,116752,1,0,0:0:0:0:
448,192,117082,1,0,0:0:0:0:
64,192,117082,1,0,0:0:0:0:
192,192,117164,1,0,0:0:0:0:
448,192,117246,1,0,0:0:0:0:
192,192,117576,1,0,0:0:0:0:
448,192,117741,1,0,0:0:0:0:
64,192,117741,1,0,0:0:0:0:
192,192,117906,1,0,0:0:0:0:
320,192,117988,1,0,0:0:0:0:
192,192,118071,1,0,0:0:0:0:
320,192,118153,1,0,0:0:0:0:
192,192,118235,1,0,0:0:0:0:
320,192,118318,1,0,0:0:0:0:
448,192,118400,1,0,0:0:0:0:
192,192,118400,128,0,118730:0:0:0:0:
64,192,118400,1,0,0:0:0:0:
448,192,118730,1,0,0:0:0:0:
320,192,118730,1,0,0:0:0:0:
64,192,118730,1,0,0:0:0:0:
192,192,118812,1,0,0:0:0:0:
320,192,118895,1,0,0:0:0:0:
448,192,119060,1,0,0:0:0:0:
64,192,119060,1,0,0:0:0:0:
64,192,119224,1,0,0:0:0:0:
192,192,119307,1,0,0:0:0:0:
448,192,119389,1,0,0:0:0:0:
320,192,119389,1,0,0:0:0:0:
192,192,119554,1,0,0:0:0:0:
64,192,119554,1,0,0:0:0:0:
192,192,119719,1,0,0:0:0:0:
64,192,119719,1,0,0:0:0:0:
448,192,119884,1,0,0:0:0:0:
320,192,119884,1,0,0:0:0:0:
192,192,119884,1,0,0:0:0:0:
320,192,120213,1,0,0:0:0:0:
192,192,120296,1,0,0:0:0:0:
448,192,120378,1,0,0:0:0:0:
64,192,120378,1,0,0:0:0:0:
192,192,120461,1,0,0:0:0:0:
320,192,120543,1,0,0:0:0:0:
192,192,120626,1,0,0:0:0:0:
448,192,120708,1,0,0:0:0:0:
320,192,120708,1,0,0:0:0:0:
448,192,120873,1,0,0:0:0:0:
320,192,120873,1,0,0:0:0:0:
192,192,121038,1,0,0:0:0:0:
64,192,121038,1,0,0:0:0:0:
192,192,121202,1,0,0:0:0:0:
64,192,121202,1,0,0:0:0:0:
448,192,121367,1,0,0:0:0:0:
320,192,121367,1,0,0:0:0:0:
64,192,121367,1,0,0:0:0:0:
448,192,121697,1,0,0:0:0:0:
64,192,121697,1,0,0:0:0:0:
192,192,121862,1,0,0:0:0:0:
64,192,121862,1,0,0:0:0:0:
320,192,122191,1,0,0:0:0:0:
64,192,122191,1,0,0:0:0:0:
448,192,122356,1,0,0:0:0:0:
64,192,122356,1,0,0:0:0:0:
192,192,122521,1,0,0:0:0:0:
448,192,122686,1,0,0:0:0:0:
320,192,122686,1,0,0:0:0:0:
192,192,122851,1,0,0:0:0:0:
320,192,122933,1,0,0:0:0:0:
448,192,123016,1,0,0:0:0:0:
64,192,123016,1,0,0:0:0:0:
448,192,123180,1,0,0:0:0:0:
320,192,123180,1,0,0:0:0:0:
448,192,123510,1,0,0:0:0:0:
192,192,123510,1,0,0:0:0:0:
448,192,123675,1,0,0:0:0:0:
64,192,123675,1,0,0:0:0:0:
320,192,123840,1,0,0:0:0:0:
192,192,124005,1,0,0:0:0:0:
64,192,124005,1,0,0:0:0:0:
192,192,124252,1,0,0:0:0:0:
448,192,124334,1,0,0:0:0:0:
64,192,124334,1,0,0:0:0:0:
320,192,124499,1,0,0:0:0:0:
192,192,124499,1,0,0:0:0:0:
320,192,124829,1,0,0:0:0:0:
192,192,124829,1,0,0:0:0:0:
448,192,124994,1,0,0:0:0:0:
64,192,124994,1,0,0:0:0:0:
448,192,125159,1,0,0:0:0:0:
320,192,125159,1,0,0:0:0:0:
192,192,125488,1,0,0:0:0:0:
64,192,125488,1,0,0:0:0:0:
448,192,125653,1,0,0:0:0:0:
320,192,125653,1,0,0:0:0:0:
448,192,125818,1,0,0:0:0:0:
320,192,125818,1,0,0:0:0:0:
192,192,125983,1,0,0:0:0:0:
320,192,126065,1,0,0:0:0:0:
192,192,126148,1,0,0:0:0:0:
448,192,126312,1,0,0:0:0:0:
64,192,126312,1,0,0:0:0:0:
192,192,126477,1,0,0:0:0:0:
64,192,126477,1,0,0:0:0:0:
448,192,126642,1,0,0:0:0:0:
320,192,126642,1,0,0:0:0:0:
192,192,126642,1,0,0:0:0:0:
320,192,126889,1,0,0:0:0:0:
448,192,126972,1,0,0:0:0:0:
64,192,126972,1,0,0:0:0:0:
192,192,127137,1,0,0:0:0:0:
64,192,127137,1,0,0:0:0:0:
320,192,127466,1,0,0:0:0:0:
64,192,127466,1,0,0:0:0:0:
448,192,127631,1,0,0:0:0:0:
64,192,127631,1,0,0:0:0:0:
448,192,127796,1,0,0:0:0:0:
320,192,127796,1,0,0:0:0:0:
192,192,127961,1,0,0:0:0:0:
64,192,127961,1,0,0:0:0:0:
192,192,128126,1,0,0:0:0:0:
320,192,128208,1,0,0:0:0:0:
448,192,128290,1,0,0:0:0:0:
64,192,128290,1,0,0:0:0:0:
448,192,128455,1,0,0:0:0:0:
320,192,128455,1,0,0:0:0:0:
448,192,128785,1,0,0:0:0:0:
192,192,128785,1,0,0:0:0:0:
448,192,128950,1,0,0:0:0:0:
64,192,128950,1,0,0:0:0:0:
320,192,129115,1,0,0:0:0:0:
448,192,129279,1,0,0:0:0:0:
192,192,129279,1,0,0:0:0:0:
192,192,129527,1,0,0:0:0:0:
448,192,129609,1,0,0:0:0:0:
64,192,129609,1,0,0:0:0:0:
320,192,129774,1,0,0:0:0:0:
192,192,129774,1,0,0:0:0:0:
320,192,130104,1,0,0:0:0:0:
192,192,130104,1,0,0:0:0:0:
448,192,130268,1,0,0:0:0:0:
64,192,130268,1,0,0:0:0:0:
448,192,130433,1,0,0:0:0:0:
320,192,130433,1,0,0:0:0:0:
192,192,130763,1,0,0:0:0:0:
64,192,130763,1,0,0:0:0:0:
448,192,130928,1,0,0:0:0:0:
64,192,130928,1,0,0:0:0:0:
448,192,131093,1,0,0:0:0:0:
320,192,131175,1,0,0:0:0:0:
192,192,131257,1,0,0:0:0:0:
320,192,131340,1,0,0:0:0:0:
448,192,131422,1,0,0:0:0:0:
192,192,131422,1,0,0:0:0:0:
64,192,131422,1,0,0:0:0:0:
320,192,131505,1,0,0:0:0:0:
192,192,131587,1,0,0:0:0:0:
320,192,131670,1,0,0:0:0:0:
448,192,131752,1,0,0:0:0:0:
192,192,131752,1,0,0:0:0:0:
64,192,131752,1,0,0:0:0:0:
320,192,131834,1,0,0:0:0:0:
448,192,131917,1,0,0:0:0:0:
192,192,131917,1,0,0:0:0:0:
64,192,131917,1,0,0:0:0:0:
192,192,132164,1,0,0:0:0:0:
448,192,132246,1,0,0:0:0:0:
64,192,132246,1,0,0:0:0:0:
448,192,132411,1,0,0:0:0:0:
320,192,132411,1,0,0:0:0:0:
448,192,132741,1,0,0:0:0:0:
192,192,132741,1,0,0:0:0:0:
448,192,132906,1,0,0:0:0:0:
64,192,132906,1,0,0:0:0:0:
320,192,133071,1,0,0:0:0:0:
192,192,133235,1,0,0:0:0:0:
320,192,133400,1,0,0:0:0:0:
192,192,133483,1,0,0:0:0:0:
448,192,133565,1,0,0:0:0:0:
64,192,133565,1,0,0:0:0:0:
192,192,133730,1,0,0:0:0:0:
64,192,133730,1,0,0:0:0:0:
320,192,134060,1,0,0:0:0:0:
64,192,134060,1,0,0:0:0:0:
448,192,134224,1,0,0:0:0:0:
64,192,134224,1,0,0:0:0:0:
192,192,134389,1,0,0:0:0:0:
448,192,134554,1,0,0:0:0:0:
320,192,134554,1,0,0:0:0:0:
320,192,134801,1,0,0:0:0:0:
448,192,134884,1,0,0:0:0:0:
64,192,134884,1,0,0:0:0:0:
320,192,135049,1,0,0:0:0:0:
192,192,135049,1,0,0:0:0:0:
320,192,135378,1,0,0:0:0:0:
192,192,135378,1,0,0:0:0:0:
448,192,135543,1,0,0:0:0:0:
64,192,135543,1,0,0:0:0:0:
192,192,135708,1,0,0:0:0:0:
64,192,135708,1,0,0:0:0:0:
448,192,136038,1,0,0:0:0:0:
320,192,136038,1,0,0:0:0:0:
448,192,136202,1,0,0:0:0:0:
64,192,136202,1,0,0:0:0:0:
64,192,136367,1,0,0:0:0:0:
192,192,136450,1,0,0:0:0:0:
320,192,136532,1,0,0:0:0:0:
192,192,136615,1,0,0:0:0:0:
320,192,136697,1,0,0:0:0:0:
192,192,136779,1,0,0:0:0:0:
448,192,136862,1,0,0:0:0:0:
320,192,136862,1,0,0:0:0:0:
192,192,136944,1,0,0:0:0:0:
64,192,136944,1,0,0:0:0:0:
448,192,137027,1,0,0:0:0:0:
320,192,137027,1,0,0:0:0:0:
64,192,137109,1,0,0:0:0:0:
448,192,137191,1,0,0:0:0:0:
320,192,137191,1,0,0:0:0:0:
192,192,137191,1,0,0:0:0:0:
192,192,137439,1,0,0:0:0:0:
448,192,137521,1,0,0:0:0:0:
64,192,137521,1,0,0:0:0:0:
448,192,137686,1,0,0:0:0:0:
320,192,137686,1,0,0:0:0:0:
448,192,138016,1,0,0:0:0:0:
192,192,138016,1,0,0:0:0:0:
448,192,138180,1,0,0:0:0:0:
64,192,138180,1,0,0:0:0:0:
192,192,138345,1,0,0:0:0:0:
448,192,138510,1,0,0:0:0:0:
320,192,138510,1,0,0:0:0:0:
320,192,138675,1,0,0:0:0:0:
192,192,138757,1,0,0:0:0:0:
448,192,138840,1,0,0:0:0:0:
64,192,138840,1,0,0:0:0:0:
320,192,139005,1,0,0:0:0:0:
64,192,139005,1,0,0:0:0:0:
192,192,139170,1,0,0:0:0:0:
448,192,139334,1,0,0:0:0:0:
320,192,139334,1,0,0:0:0:0:
448,192,139499,1,0,0:0:0:0:
320,192,139499,1,0,0:0:0:0:
192,192,139664,1,0,0:0:0:0:
64,192,139664,1,0,0:0:0:0:
448,192,139829,1,0,0:0:0:0:
192,192,139829,1,0,0:0:0:0:
64,192,139829,1,0,0:0:0:0:
320,192,139911,1,0,0:0:0:0:
192,192,139994,1,0,0:0:0:0:
320,192,140076,1,0,0:0:0:0:
448,192,140159,1,0,0:0:0:0:
64,192,140159,1,0,0:0:0:0:
320,192,140323,1,0,0:0:0:0:
64,192,140406,1,0,0:0:0:0:
448,192,140488,1,0,0:0:0:0:
320,192,140488,1,0,0:0:0:0:
320,192,140653,1,0,0:0:0:0:
192,192,140653,1,0,0:0:0:0:
448,192,140983,1,0,0:0:0:0:
192,192,140983,1,0,0:0:0:0:
64,192,140983,1,0,0:0:0:0:
448,192,141312,1,0,0:0:0:0:
320,192,141312,1,0,0:0:0:0:
448,192,141477,1,0,0:0:0:0:
64,192,141477,1,0,0:0:0:0:
192,192,141642,1,0,0:0:0:0:
64,192,141642,1,0,0:0:0:0:
448,192,141807,1,0,0:0:0:0:
320,192,141807,1,0,0:0:0:0:
192,192,141889,1,0,0:0:0:0:
64,192,141889,1,0,0:0:0:0:
448,192,141972,1,0,0:0:0:0:
320,192,141972,1,0,0:0:0:0:
192,192,142054,1,0,0:0:0:0:
64,192,142054,1,0,0:0:0:0:
320,192,142137,1,0,0:0:0:0:
192,192,142219,1,0,0:0:0:0:
320,192,142301,1,0,0:0:0:0:
192,192,142384,1,0,0:0:0:0:
448,192,142466,1,0,0:0:0:0:
320,192,142466,128,0,143290:0:0:0:0:
64,192,142466,1,0,0:0:0:0:
64,192,142795,1,0,0:0:0:0:
448,192,142960,1,0,0:0:0:0:
192,192,142960,1,0,0:0:0:0:
192,192,143290,1,0,0:0:0:0:
64,192,143372,1,0,0:0:0:0:
448,192,143455,1,0,0:0:0:0:
320,192,143455,1,0,0:0:0:0:
192,192,143455,1,0,0:0:0:0:
192,192,143784,1,0,0:0:0:0:
320,192,143867,1,0,0:0:0:0:
192,192,143949,1,0,0:0:0:0:
320,192,144031,1,0,0:0:0:0:
448,192,144114,1,0,0:0:0:0:
64,192,144114,1,0,0:0:0:0:
448,192,144444,1,0,0:0:0:0:
320,192,144444,1,0,0:0:0:0:
192,192,144526,1,0,0:0:0:0:
320,192,144608,1,0,0:0:0:0:
192,192,144691,1,0,0:0:0:0:
320,192,144773,1,0,0:0:0:0:
192,192,144856,1,0,0:0:0:0:
320,192,144938,1,0,0:0:0:0:
64,192,144938,1,0,0:0:0:0:
192,192,145020,1,0,0:0:0:0:
320,192,145103,1,0,0:0:0:0:
192,192,145185,1,0,0:0:0:0:
320,192,145268,1,0,0:0:0:0:
192,192,145350,1,0,0:0:0:0:
448,192,145433,1,0,0:0:0:0:
320,192,145433,1,0,0:0:0:0:
192,192,145515,1,0,0:0:0:0:
320,192,145597,1,0,0:0:0:0:
448,192,145680,1,0,0:0:0:0:
320,192,145762,1,0,0:0:0:0:
448,192,145845,1,0,0:0:0:0:
192,192,145927,1,0,0:0:0:0:
64,192,145927,1,0,0:0:0:0:
320,192,146009,1,0,0:0:0:0:
192,192,146092,1,0,0:0:0:0:
320,192,146174,1,0,0:0:0:0:
192,192,146257,1,0,0:0:0:0:
320,192,146339,1,0,0:0:0:0:
448,192,146422,1,0,0:0:0:0:
64,192,146422,1,0,0:0:0:0:
192,192,146476,1,0,0:0:0:0:
320,192,146531,1,0,0:0:0:0:
64,192,146586,1,0,0:0:0:0:
448,192,146641,1,0,0:0:0:0:
192,192,146696,1,0,0:0:0:0:
448,192,146751,1,0,0:0:0:0:
320,192,146751,1,0,0:0:0:0:
64,192,146751,1,0,0:0:0:0:
320,192,147081,1,0,0:0:0:0:
192,192,147081,1,0,0:0:0:0:
64,192,147081,1,0,0:0:0:0:
320,192,147246,1,0,0:0:0:0:
192,192,147246,1,0,0:0:0:0:
64,192,147246,1,0,0:0:0:0:
320,192,147411,1,0,0:0:0:0:
192,192,147411,1,0,0:0:0:0:
64,192,147411,1,0,0:0:0:0:
320,192,147575,1,0,0:0:0:0:
192,192,147575,1,0,0:0:0:0:
448,192,147905,1,0,0:0:0:0:
64,192,147905,1,0,0:0:0:0:
448,192,148070,1,0,0:0:0:0:
320,192,148070,1,0,0:0:0:0:
192,192,148070,1,0,0:0:0:0:
320,192,148235,1,0,0:0:0:0:
192,192,148235,1,0,0:0:0:0:
64,192,148235,1,0,0:0:0:0:
192,192,148400,1,0,0:0:0:0:
64,192,148400,1,0,0:0:0:0:
448,192,148564,1,0,0:0:0:0:
320,192,148564,1,0,0:0:0:0:
64,192,148564,1,0,0:0:0:0:
192,192,148729,1,0,0:0:0:0:
448,192,148894,1,0,0:0:0:0:
320,192,148894,1,0,0:0:0:0:
192,192,148935,1,0,0:0:0:0:
64,192,148935,1,0,0:0:0:0:
192,192,149224,1,0,0:0:0:0:
64,192,149224,1,0,0:0:0:0:
320,192,149265,1,0,0:0:0:0:
448,192,149265,1,0,0:0:0:0:
192,192,149389,1,0,0:0:0:0:
64,192,149389,1,0,0:0:0:0:
448,192,149553,1,0,0:0:0:0:
320,192,149553,1,0,0:0:0:0:
448,192,149718,1,0,0:0:0:0:
320,192,149718,128,0,150542:0:0:0:0:
64,192,149718,1,0,0:0:0:0:
64,192,150047,1,0,0:0:0:0:
192,192,150130,1,0,0:0:0:0:
448,192,150212,1,0,0:0:0:0:
64,192,150212,1,0,0:0:0:0:
192,192,150542,1,0,0:0:0:0:
64,192,150624,1,0,0:0:0:0:
448,192,150707,1,0,0:0:0:0:
320,192,150707,1,0,0:0:0:0:
192,192,151036,1,0,0:0:0:0:
64,192,151036,1,0,0:0:0:0:
448,192,151366,1,0,0:0:0:0:
320,192,151366,1,0,0:0:0:0:
64,192,151366,1,0,0:0:0:0:
192,192,151448,1,0,0:0:0:0:
320,192,151530,1,0,0:0:0:0:
192,192,151613,1,0,0:0:0:0:
320,192,151695,1,0,0:0:0:0:
192,192,151778,1,0,0:0:0:0:
320,192,151860,1,0,0:0:0:0:
64,192,151860,1,0,0:0:0:0:
192,192,151942,1,0,0:0:0:0:
320,192,152025,1,0,0:0:0:0:
192,192,152107,1,0,0:0:0:0:
320,192,152190,1,0,0:0:0:0:
192,192,152272,1,0,0:0:0:0:
448,192,152355,1,0,0:0:0:0:
320,192,152355,1,0,0:0:0:0:
192,192,152437,1,0,0:0:0:0:
320,192,152519,1,0,0:0:0:0:
448,192,152602,1,0,0:0:0:0:
320,192,152684,1,0,0:0:0:0:
448,192,152767,1,0,0:0:0:0:
192,192,152849,1,0,0:0:0:0:
64,192,152849,1,0,0:0:0:0:
320,192,152931,1,0,0:0:0:0:
192,192,153014,1,0,0:0:0:0:
320,192,153096,1,0,0:0:0:0:
192,192,153179,1,0,0:0:0:0:
320,192,153261,1,0,0:0:0:0:
448,192,153344,1,0,0:0:0:0:
64,192,153344,1,0,0:0:0:0:
320,192,153508,1,0,0:0:0:0:
192,192,153563,1,0,0:0:0:0:
320,192,153618,1,0,0:0:0:0:
448,192,153673,1,0,0:0:0:0:
64,192,153673,1,0,0:0:0:0:
448,192,153838,1,0,0:0:0:0:
64,192,153838,1,0,0:0:0:0:
448,192,154003,1,0,0:0:0:0:
320,192,154003,1,0,0:0:0:0:
192,192,154085,1,0,0:0:0:0:
64,192,154085,1,0,0:0:0:0:
448,192,154168,1,0,0:0:0:0:
320,192,154168,1,0,0:0:0:0:
192,192,154250,1,0,0:0:0:0:
64,192,154250,1,0,0:0:0:0:
448,192,154333,1,0,0:0:0:0:
320,192,154333,1,0,0:0:0:0:
192,192,154415,1,0,0:0:0:0:
448,192,154497,1,0,0:0:0:0:
320,192,154497,1,0,0:0:0:0:
192,192,154580,1,0,0:0:0:0:
448,192,154662,1,0,0:0:0:0:
320,192,154662,128,0,154991:0:0:0:0:
64,192,154662,1,0,0:0:0:0:
64,192,154991,1,0,0:0:0:0:
192,192,155074,1,0,0:0:0:0:
448,192,155156,128,0,155486:0:0:0:0:
64,192,155156,1,0,0:0:0:0:
192,192,155486,1,0,0:0:0:0:
64,192,155568,1,0,0:0:0:0:
448,192,155651,1,0,0:0:0:0:
320,192,155651,1,0,0:0:0:0:
192,192,155815,1,0,0:0:0:0:
192,192,155980,1,0,0:0:0:0:
64,192,155980,1,0,0:0:0:0:
448,192,156310,1,0,0:0:0:0:
192,192,156310,1,0,0:0:0:0:
448,192,156640,1,0,0:0:0:0:
320,192,156640,1,0,0:0:0:0:
64,192,156640,1,0,0:0:0:0:
192,192,156722,1,0,0:0:0:0:
320,192,156804,1,0,0:0:0:0:
192,192,156887,1,0,0:0:0:0:
320,192,156969,1,0,0:0:0:0:
192,192,157052,1,0,0:0:0:0:
320,192,157134,1,0,0:0:0:0:
64,192,157134,1,0,0:0:0:0:
192,192,157216,1,0,0:0:0:0:
320,192,157299,1,0,0:0:0:0:
192,192,157381,1,0,0:0:0:0:
320,192,157464,1,0,0:0:0:0:
192,192,157546,1,0,0:0:0:0:
64,192,157629,1,0,0:0:0:0:
448,192,157629,1,0,0:0:0:0:
320,192,157629,1,0,0:0:0:0:
192,192,157711,1,0,0:0:0:0:
320,192,157793,1,0,0:0:0:0:
448,192,157876,1,0,0:0:0:0:
320,192,157958,1,0,0:0:0:0:
448,192,158041,1,0,0:0:0:0:
320,192,158123,1,0,0:0:0:0:
192,192,158123,1,0,0:0:0:0:
64,192,158123,1,0,0:0:0:0:
448,192,158205,1,0,0:0:0:0:
192,192,158288,1,0,0:0:0:0:
448,192,158370,1,0,0:0:0:0:
192,192,158453,1,0,0:0:0:0:
448,192,158535,1,0,0:0:0:0:
192,192,158618,1,0,0:0:0:0:
64,192,158618,1,0,0:0:0:0:
320,192,158700,1,0,0:0:0:0:
448,192,158782,1,0,0:0:0:0:
192,192,158865,1,0,0:0:0:0:
64,192,158865,1,0,0:0:0:0:
320,192,158947,1,0,0:0:0:0:
192,192,159030,1,0,0:0:0:0:
448,192,159112,1,0,0:0:0:0:
320,192,159112,1,0,0:0:0:0:
64,192,159194,1,0,0:0:0:0:
448,192,159277,1,0,0:0:0:0:
320,192,159277,1,0,0:0:0:0:
192,192,159277,1,0,0:0:0:0:
448,192,159442,1,0,0:0:0:0:
320,192,159442,1,0,0:0:0:0:
448,192,159607,1,0,0:0:0:0:
320,192,159607,1,0,0:0:0:0:
320,192,159771,1,0,0:0:0:0:
192,192,159771,1,0,0:0:0:0:
64,192,159936,1,0,0:0:0:0:
192,192,160019,1,0,0:0:0:0:
320,192,160101,1,0,0:0:0:0:
192,192,160183,1,0,0:0:0:0:
320,192,160266,1,0,0:0:0:0:
320,192,160431,1,0,0:0:0:0:
320,192,160596,1,0,0:0:0:0:
448,192,160760,1,0,0:0:0:0:
64,192,160760,1,0,0:0:0:0:
192,192,160925,1,0,0:0:0:0:
448,192,161035,1,0,0:0:0:0:
320,192,161035,1,0,0:0:0:0:
192,192,161145,1,0,0:0:0:0:
64,192,161145,1,0,0:0:0:0:
448,192,161255,1,0,0:0:0:0:
320,192,161255,1,0,0:0:0:0:
448,192,161365,1,0,0:0:0:0:
320,192,161365,1,0,0:0:0:0:
192,192,161475,1,0,0:0:0:0:
64,192,161475,1,0,0:0:0:0:
448,192,161585,1,0,0:0:0:0:
320,192,161585,1,0,0:0:0:0:
448,192,161749,1,0,0:0:0:0:
320,192,161749,1,0,0:0:0:0:
448,192,161914,1,0,0:0:0:0:
192,192,161914,128,0,162738:0:0:0:0:
64,192,161914,1,0,0:0:0:0:
448,192,162243,1,0,0:0:0:0:
320,192,162408,1,0,0:0:0:0:
64,192,162408,1,0,0:0:0:0:
320,192,162738,1,0,0:0:0:0:
448,192,162903,1,0,0:0:0:0:
64,192,162903,1,0,0:0:0:0:
192,192,163122,1,0,0:0:0:0:
320,192,163122,1,0,0:0:0:0:
448,192,163342,1,0,0:0:0:0:
64,192,163342,1,0,0:0:0:0:
448,192,163562,1,0,0:0:0:0:
192,192,163562,1,0,0:0:0:0:
64,192,163562,1,0,0:0:0:0:
320,192,163644,1,0,0:0:0:0:
192,192,163726,1,0,0:0:0:0:
320,192,163809,1,0,0:0:0:0:
192,192,163891,1,0,0:0:0:0:
320,192,163974,1,0,0:0:0:0:
448,192,164056,1,0,0:0:0:0:
192,192,164056,1,0,0:0:0:0:
64,192,164056,1,0,0:0:0:0:
320,192,164138,1,0,0:0:0:0:
192,192,164221,1,0,0:0:0:0:
320,192,164303,1,0,0:0:0:0:
192,192,164386,1,0,0:0:0:0:
320,192,164468,1,0,0:0:0:0:
448,192,164551,1,0,0:0:0:0:
192,192,164551,1,0,0:0:0:0:
64,192,164551,1,0,0:0:0:0:
320,192,164633,1,0,0:0:0:0:
192,192,164715,1,0,0:0:0:0:
64,192,164798,1,0,0:0:0:0:
320,192,164880,1,0,0:0:0:0:
192,192,164880,1,0,0:0:0:0:
64,192,164963,1,0,0:0:0:0:
448,192,165045,1,0,0:0:0:0:
192,192,165127,1,0,0:0:0:0:
448,192,165210,1,0,0:0:0:0:
320,192,165210,1,0,0:0:0:0:
192,192,165292,1,0,0:0:0:0:
64,192,165292,1,0,0:0:0:0:
448,192,165375,1,0,0:0:0:0:
320,192,165375,1,0,0:0:0:0:
192,192,165457,1,0,0:0:0:0:
320,192,165540,1,0,0:0:0:0:
64,192,165540,1,0,0:0:0:0:
320,192,165704,1,0,0:0:0:0:
64,192,165704,1,0,0:0:0:0:
320,192,165869,1,0,0:0:0:0:
192,192,165869,1,0,0:0:0:0:
320,192,166034,1,0,0:0:0:0:
192,192,166034,1,0,0:0:0:0:
448,192,166199,1,0,0:0:0:0:
192,192,166199,1,0,0:0:0:0:
64,192,166199,1,0,0:0:0:0:
320,192,166281,1,0,0:0:0:0:
192,192,166364,1,0,0:0:0:0:
64,192,166446,1,0,0:0:0:0:
448,192,166529,1,0,0:0:0:0:
320,192,166611,1,0,0:0:0:0:
448,192,166693,1,0,0:0:0:0:
192,192,166693,1,0,0:0:0:0:
64,192,166693,1,0,0:0:0:0:
320,192,166776,1,0,0:0:0:0:
192,192,166858,1,0,0:0:0:0:
64,192,166941,1,0,0:0:0:0:
448,192,167023,1,0,0:0:0:0:
320,192,167105,1,0,0:0:0:0:
448,192,167188,1,0,0:0:0:0:
192,192,167188,1,0,0:0:0:0:
64,192,167188,1,0,0:0:0:0:
320,192,167270,1,0,0:0:0:0:
192,192,167353,1,0,0:0:0:0:
64,192,167435,1,0,0:0:0:0:
448,192,167518,1,0,0:0:0:0:
192,192,167600,1,0,0:0:0:0:
448,192,167682,1,0,0:0:0:0:
320,192,167682,1,0,0:0:0:0:
64,192,167682,1,0,0:0:0:0:
192,192,167765,1,0,0:0:0:0:
320,192,167847,1,0,0:0:0:0:
192,192,167930,1,0,0:0:0:0:
320,192,168012,1,0,0:0:0:0:
192,192,168094,1,0,0:0:0:0:
448,192,168177,1,0,0:0:0:0:
320,192,168177,1,0,0:0:0:0:
64,192,168232,1,0,0:0:0:0:
192,192,168287,1,0,0:0:0:0:
448,192,168342,1,0,0:0:0:0:
320,192,168397,1,0,0:0:0:0:
192,192,168452,1,0,0:0:0:0:
448,192,168507,1,0,0:0:0:0:
320,192,168507,1,0,0:0:0:0:
64,192,168507,1,0,0:0:0:0:
192,192,168671,1,0,0:0:0:0:
64,192,168671,1,0,0:0:0:0:
448,192,168836,1,0,0:0:0:0:
320,192,168836,1,0,0:0:0:0:
192,192,168836,1,0,0:0:0:0:
448,192,169001,1,0,0:0:0:0:
320,192,169001,1,0,0:0:0:0:
192,192,169166,1,0,0:0:0:0:
64,192,169166,1,0,0:0:0:0:
448,192,169331,1,0,0:0:0:0:
320,192,169331,1,0,0:0:0:0:
448,192,169496,1,0,0:0:0:0:
320,192,169496,1,0,0:0:0:0:
192,192,169578,1,0,0:0:0:0:
448,192,169660,1,0,0:0:0:0:
320,192,169660,1,0,0:0:0:0:
64,192,169660,1,0,0:0:0:0:
192,192,169825,1,0,0:0:0:0:
64,192,169825,1,0,0:0:0:0:
448,192,169990,1,0,0:0:0:0:
320,192,169990,1,0,0:0:0:0:
320,192,170155,1,0,0:0:0:0:
192,192,170155,1,0,0:0:0:0:
64,192,170155,1,0,0:0:0:0:
320,192,170320,1,0,0:0:0:0:
192,192,170320,1,0,0:0:0:0:
448,192,170485,1,0,0:0:0:0:
192,192,170485,1,0,0:0:0:0:
64,192,170485,1,0,0:0:0:0:
320,192,170567,1,0,0:0:0:0:
192,192,170649,1,0,0:0:0:0:
448,192,170814,1,0,0:0:0:0:
320,192,170814,1,0,0:0:0:0:
192,192,170897,1,0,0:0:0:0:
448,192,170979,1,0,0:0:0:0:
320,192,170979,1,0,0:0:0:0:
192,192,171062,1,0,0:0:0:0:
64,192,171062,1,0,0:0:0:0:
448,192,171144,1,0,0:0:0:0:
320,192,171144,1,0,0:0:0:0:
192,192,171309,1,0,0:0:0:0:
64,192,171309,1,0,0:0:0:0:
320,192,171391,1,0,0:0:0:0:
448,192,171474,1,0,0:0:0:0:
192,192,171474,1,0,0:0:0:0:
64,192,171474,1,0,0:0:0:0:
320,192,171556,1,0,0:0:0:0:
192,192,171638,1,0,0:0:0:0:
64,192,171638,1,0,0:0:0:0:
320,192,171721,1,0,0:0:0:0:
192,192,171803,1,0,0:0:0:0:
64,192,171803,1,0,0:0:0:0:
448,192,171886,1,0,0:0:0:0:
320,192,171968,1,0,0:0:0:0:
192,192,171968,1,0,0:0:0:0:
64,192,171968,1,0,0:0:0:0:
448,192,172051,1,0,0:0:0:0:
192,192,172133,1,0,0:0:0:0:
64,192,172133,1,0,0:0:0:0:
448,192,172215,1,0,0:0:0:0:
192,192,172298,1,0,0:0:0:0:
64,192,172298,1,0,0:0:0:0:
320,192,172380,1,0,0:0:0:0:
448,192,172463,1,0,0:0:0:0:
192,192,172463,1,0,0:0:0:0:
64,192,172463,1,0,0:0:0:0:
320,192,172545,1,0,0:0:0:0:
192,192,172627,1,0,0:0:0:0:
64,192,172627,1,0,0:0:0:0:
320,192,172710,1,0,0:0:0:0:
192,192,172792,1,0,0:0:0:0:
64,192,172792,1,0,0:0:0:0:
448,192,172875,1,0,0:0:0:0:
320,192,172957,1,0,0:0:0:0:
192,192,172957,1,0,0:0:0:0:
64,192,172957,1,0,0:0:0:0:
448,192,173040,1,0,0:0:0:0:
192,192,173122,1,0,0:0:0:0:
64,192,173122,1,0,0:0:0:0:
448,192,173204,1,0,0:0:0:0:
192,192,173287,1,0,0:0:0:0:
64,192,173287,1,0,0:0:0:0:
320,192,173369,1,0,0:0:0:0:
448,192,173452,1,0,0:0:0:0:
192,192,173452,1,0,0:0:0:0:
64,192,173452,1,0,0:0:0:0:
320,192,173534,1,0,0:0:0:0:
192,192,173616,1,0,0:0:0:0:
64,192,173616,1,0,0:0:0:0:
320,192,173699,1,0,0:0:0:0:
448,192,173781,1,0,0:0:0:0:
192,192,173781,1,0,0:0:0:0:
64,192,173781,1,0,0:0:0:0:
320,192,173864,1,0,0:0:0:0:
192,192,173946,1,0,0:0:0:0:
64,192,174029,1,0,0:0:0:0:
448,192,174111,1,0,0:0:0:0:
320,192,174111,1,0,0:0:0:0:
192,192,174111,1,0,0:0:0:0:
64,192,174193,1,0,0:0:0:0:
448,192,174276,1,0,0:0:0:0:
320,192,174276,1,0,0:0:0:0:
64,192,174358,1,0,0:0:0:0:
448,192,174441,1,0,0:0:0:0:
320,192,174441,1,0,0:0:0:0:
192,192,174523,1,0,0:0:0:0:
448,192,174605,1,0,0:0:0:0:
320,192,174605,1,0,0:0:0:0:
64,192,174605,1,0,0:0:0:0:
192,192,174688,1,0,0:0:0:0:
448,192,174770,1,0,0:0:0:0:
320,192,174770,1,0,0:0:0:0:
192,192,174853,1,0,0:0:0:0:
448,192,174935,1,0,0:0:0:0:
320,192,174935,1,0,0:0:0:0:
192,192,175018,1,0,0:0:0:0:
448,192,175100,1,0,0:0:0:0:
64,192,175100,1,0,0:0:0:0:
320,192,175155,1,0,0:0:0:0:
192,192,175210,1,0,0:0:0:0:
448,192,175265,1,0,0:0:0:0:
64,192,175320,1,0,0:0:0:0:
320,192,175375,1,0,0:0:0:0:
448,192,175430,1,0,0:0:0:0:
192,192,175430,128,0,175759:0:0:0:0:
64,192,175430,1,0,0:0:0:0:
448,192,176089,128,0,176419:0:0:0:0:
320,192,176419,128,0,176748:0:0:0:0:
448,192,176748,1,0,0:0:0:0:
192,192,176748,1,0,0:0:0:0:
64,192,176748,1,0,0:0:0:0:
320,192,176831,1,0,0:0:0:0:
192,192,176913,1,0,0:0:0:0:
320,192,176995,1,0,0:0:0:0:
448,192,177078,1,0,0:0:0:0:
64,192,177078,1,0,0:0:0:0:
320,192,177408,1,0,0:0:0:0:
192,192,177490,1,0,0:0:0:0:
320,192,177572,1,0,0:0:0:0:
448,192,177902,1,0,0:0:0:0:
64,192,177902,1,0,0:0:0:0:
192,192,178067,1,0,0:0:0:0:
320,192,178149,1,0,0:0:0:0:
192,192,178232,1,0,0:0:0:0:
320,192,178314,1,0,0:0:0:0:
448,192,178397,1,0,0:0:0:0:
64,192,178397,1,0,0:0:0:0:
320,192,178726,1,0,0:0:0:0:
192,192,178809,1,0,0:0:0:0:
320,192,178891,1,0,0:0:0:0:
448,192,179221,1,0,0:0:0:0:
64,192,179221,1,0,0:0:0:0:
192,192,179386,1,0,0:0:0:0:
448,192,179468,1,0,0:0:0:0:
192,192,179550,1,0,0:0:0:0:
320,192,179633,1,0,0:0:0:0:
448,192,179715,1,0,0:0:0:0:
64,192,179715,1,0,0:0:0:0:
320,192,180045,1,0,0:0:0:0:
192,192,180127,1,0,0:0:0:0:
320,192,180210,1,0,0:0:0:0:
448,192,180539,1,0,0:0:0:0:
64,192,180539,1,0,0:0:0:0:
192,192,180704,1,0,0:0:0:0:
320,192,180787,1,0,0:0:0:0:
192,192,180869,1,0,0:0:0:0:
320,192,180951,1,0,0:0:0:0:
448,192,181034,1,0,0:0:0:0:
64,192,181034,1,0,0:0:0:0:
192,192,181364,1,0,0:0:0:0:
320,192,181446,1,0,0:0:0:0:
192,192,181528,1,0,0:0:0:0:
320,192,181611,1,0,0:0:0:0:
448,192,181693,1,0,0:0:0:0:
64,192,181693,1,0,0:0:0:0:
448,192,182023,1,0,0:0:0:0:
192,192,182023,1,0,0:0:0:0:
64,192,182023,1,0,0:0:0:0:
320,192,182105,1,0,0:0:0:0:
192,192,182188,1,0,0:0:0:0:
320,192,182270,1,0,0:0:0:0:
448,192,182353,1,0,0:0:0:0:
64,192,182353,1,0,0:0:0:0:
320,192,182682,1,0,0:0:0:0:
192,192,182765,1,0,0:0:0:0:
320,192,182847,1,0,0:0:0:0:
448,192,183177,1,0,0:0:0:0:
64,192,183177,1,0,0:0:0:0:
192,192,183342,1,0,0:0:0:0:
448,192,183424,1,0,0:0:0:0:
192,192,183506,1,0,0:0:0:0:
320,192,183589,1,0,0:0:0:0:
448,192,183671,1,0,0:0:0:0:
64,192,183671,1,0,0:0:0:0:
320,192,184001,1,0,0:0:0:0:
192,192,184083,1,0,0:0:0:0:
320,192,184166,1,0,0:0:0:0:
448,192,184495,1,0,0:0:0:0:
64,192,184495,1,0,0:0:0:0:
192,192,184660,1,0,0:0:0:0:
320,192,184743,1,0,0:0:0:0:
192,192,184825,1,0,0:0:0:0:
320,192,184908,1,0,0:0:0:0:
448,192,184990,1,0,0:0:0:0:
64,192,184990,1,0,0:0:0:0:
320,192,185320,1,0,0:0:0:0:
192,192,185402,1,0,0:0:0:0:
320,192,185484,1,0,0:0:0:0:
448,192,185814,1,0,0:0:0:0:
64,192,185814,1,0,0:0:0:0:
192,192,185979,1,0,0:0:0:0:
320,192,186061,1,0,0:0:0:0:
192,192,186144,1,0,0:0:0:0:
320,192,186226,1,0,0:0:0:0:
448,192,186309,1,0,0:0:0:0:
192,192,186309,1,0,0:0:0:0:
64,192,186309,128,0,186638:0:0:0:0:
192,192,186638,1,0,0:0:0:0:
320,192,186721,1,0,0:0:0:0:
192,192,186803,1,0,0:0:0:0:
448,192,186886,1,0,0:0:0:0:
320,192,186968,1,0,0:0:0:0:
192,192,186968,1,0,0:0:0:0:
64,192,186968,128,0,187298:0:0:0:0:
448,192,187298,1,0,0:0:0:0:
320,192,187298,1,0,0:0:0:0:
192,192,187298,1,0,0:0:0:0:
64,192,187380,1,0,0:0:0:0:
320,192,187462,1,0,0:0:0:0:
192,192,187545,1,0,0:0:0:0:
448,192,187627,1,0,0:0:0:0:
64,192,187627,1,0,0:0:0:0:
192,192,187957,1,0,0:0:0:0:
320,192,188039,1,0,0:0:0:0:
192,192,188122,1,0,0:0:0:0:
448,192,188451,1,0,0:0:0:0:
64,192,188451,1,0,0:0:0:0:
320,192,188616,1,0,0:0:0:0:
64,192,188699,1,0,0:0:0:0:
320,192,188781,1,0,0:0:0:0:
192,192,188864,1,0,0:0:0:0:
448,192,188946,1,0,0:0:0:0:
64,192,188946,1,0,0:0:0:0:
192,192,189276,1,0,0:0:0:0:
320,192,189358,1,0,0:0:0:0:
192,192,189440,1,0,0:0:0:0:
320,192,189605,1,0,0:0:0:0:
448,192,189770,1,0,0:0:0:0:
64,192,189770,1,0,0:0:0:0:
320,192,189935,1,0,0:0:0:0:
192,192,190017,1,0,0:0:0:0:
320,192,190100,1,0,0:0:0:0:
192,192,190182,1,0,0:0:0:0:
448,192,190265,1,0,0:0:0:0:
64,192,190265,1,0,0:0:0:0:
192,192,190594,1,0,0:0:0:0:
320,192,190677,1,0,0:0:0:0:
192,192,190759,1,0,0:0:0:0:
448,192,191089,1,0,0:0:0:0:
64,192,191089,1,0,0:0:0:0:
320,192,191254,1,0,0:0:0:0:
192,192,191336,1,0,0:0:0:0:
320,192,191419,1,0,0:0:0:0:
192,192,191501,1,0,0:0:0:0:
448,192,191583,1,0,0:0:0:0:
64,192,191583,1,0,0:0:0:0:
320,192,191913,1,0,0:0:0:0:
64,192,191995,1,0,0:0:0:0:
320,192,192078,1,0,0:0:0:0:
192,192,192160,1,0,0:0:0:0:
448,192,192243,1,0,0:0:0:0:
64,192,192243,1,0,0:0:0:0:
448,192,192572,1,0,0:0:0:0:
320,192,192572,1,0,0:0:0:0:
64,192,192572,1,0,0:0:0:0:
192,192,192655,1,0,0:0:0:0:
320,192,192737,1,0,0:0:0:0:
192,192,192820,1,0,0:0:0:0:
448,192,192902,1,0,0:0:0:0:
64,192,192902,1,0,0:0:0:0:
192,192,193232,1,0,0:0:0:0:
320,192,193314,1,0,0:0:0:0:
192,192,193397,1,0,0:0:0:0:
448,192,193726,1,0,0:0:0:0:
64,192,193726,1,0,0:0:0:0:
320,192,193891,1,0,0:0:0:0:
192,192,193973,1,0,0:0:0:0:
320,192,194056,1,0,0:0:0:0:
192,192,194138,1,0,0:0:0:0:
448,192,194221,1,0,0:0:0:0:
64,192,194221,1,0,0:0:0:0:
192,192,194550,1,0,0:0:0:0:
320,192,194633,1,0,0:0:0:0:
192,192,194715,1,0,0:0:0:0:
448,192,195045,1,0,0:0:0:0:
64,192,195045,1,0,0:0:0:0:
320,192,195210,1,0,0:0:0:0:
64,192,195292,1,0,0:0:0:0:
320,192,195375,1,0,0:0:0:0:
192,192,195457,1,0,0:0:0:0:
448,192,195539,1,0,0:0:0:0:
64,192,195539,1,0,0:0:0:0:
192,192,195869,1,0,0:0:0:0:
320,192,195951,1,0,0:0:0:0:
192,192,196034,1,0,0:0:0:0:
448,192,196199,1,0,0:0:0:0:
320,192,196199,1,0,0:0:0:0:
192,192,196281,1,0,0:0:0:0:
64,192,196281,1,0,0:0:0:0:
448,192,196364,1,0,0:0:0:0:
320,192,196364,1,0,0:0:0:0:
192,192,196446,1,0,0:0:0:0:
448,192,196528,1,0,0:0:0:0:
320,192,196528,1,0,0:0:0:0:
64,192,196528,1,0,0:0:0:0:
320,192,196693,1,0,0:0:0:0:
192,192,196776,1,0,0:0:0:0:
448,192,196858,1,0,0:0:0:0:
320,192,196858,1,0,0:0:0:0:
192,192,196940,1,0,0:0:0:0:
64,192,196940,1,0,0:0:0:0:
448,192,197023,1,0,0:0:0:0:
320,192,197023,1,0,0:0:0:0:
192,192,197105,1,0,0:0:0:0:
448,192,197188,1,0,0:0:0:0:
320,192,197188,1,0,0:0:0:0:
192,192,197270,1,0,0:0:0:0:
64,192,197270,1,0,0:0:0:0:
320,192,197353,1,0,0:0:0:0:
192,192,197435,1,0,0:0:0:0:
320,192,197517,1,0,0:0:0:0:
64,192,197600,1,0,0:0:0:0:
448,192,197682,1,0,0:0:0:0:
192,192,197765,1,0,0:0:0:0:
448,192,197847,1,0,0:0:0:0:
320,192,197847,1,0,0:0:0:0:
64,192,197847,1,0,0:0:0:0:
192,192,197930,1,0,0:0:0:0:
320,192,198012,1,0,0:0:0:0:
192,192,198094,1,0,0:0:0:0:
448,192,198177,1,0,0:0:0:0:
64,192,198177,1,0,0:0:0:0:
192,192,198259,1,0,0:0:0:0:
320,192,198342,1,0,0:0:0:0:
192,192,198424,1,0,0:0:0:0:
320,192,198506,1,0,0:0:0:0:
192,192,198589,1,0,0:0:0:0:
320,192,198671,1,0,0:0:0:0:
192,192,198754,1,0,0:0:0:0:
448,192,198836,1,0,0:0:0:0:
64,192,198836,1,0,0:0:0:0:
192,192,198919,1,0,0:0:0:0:
320,192,199001,1,0,0:0:0:0:
192,192,199083,1,0,0:0:0:0:
448,192,199166,1,0,0:0:0:0:
192,192,199248,1,0,0:0:0:0:
448,192,199331,1,0,0:0:0:0:
192,192,199413,1,0,0:0:0:0:
448,192,199495,1,0,0:0:0:0:
64,192,199495,1,0,0:0:0:0:
320,192,199578,1,0,0:0:0:0:
192,192,199660,1,0,0:0:0:0:
320,192,199743,1,0,0:0:0:0:
192,192,199825,1,0,0:0:0:0:
320,192,199908,1,0,0:0:0:0:
192,192,199990,1,0,0:0:0:0:
320,192,200072,1,0,0:0:0:0:
448,192,200155,1,0,0:0:0:0:
64,192,200155,1,0,0:0:0:0:
320,192,200237,1,0,0:0:0:0:
192,192,200320,1,0,0:0:0:0:
320,192,200402,1,0,0:0:0:0:
64,192,200484,1,0,0:0:0:0:
320,192,200567,1,0,0:0:0:0:
64,192,200649,1,0,0:0:0:0:
320,192,200732,1,0,0:0:0:0:
448,192,200814,1,0,0:0:0:0:
64,192,200814,1,0,0:0:0:0:
192,192,200897,1,0,0:0:0:0:
320,192,200979,1,0,0:0:0:0:
192,192,201061,1,0,0:0:0:0:
320,192,201144,1,0,0:0:0:0:
192,192,201226,1,0,0:0:0:0:
320,192,201309,1,0,0:0:0:0:
192,192,201391,1,0,0:0:0:0:
448,192,201473,1,0,0:0:0:0:
64,192,201473,1,0,0:0:0:0:
192,192,201556,1,0,0:0:0:0:
320,192,201638,1,0,0:0:0:0:
192,192,201721,1,0,0:0:0:0:
448,192,201803,1,0,0:0:0:0:
192,192,201886,1,0,0:0:0:0:
448,192,201968,1,0,0:0:0:0:
192,192,202050,1,0,0:0:0:0:
448,192,202133,1,0,0:0:0:0:
64,192,202133,1,0,0:0:0:0:
320,192,202215,1,0,0:0:0:0:
192,192,202298,1,0,0:0:0:0:
320,192,202380,1,0,0:0:0:0:
192,192,202462,1,0,0:0:0:0:
320,192,202545,1,0,0:0:0:0:
192,192,202627,1,0,0:0:0:0:
320,192,202710,1,0,0:0:0:0:
448,192,202792,1,0,0:0:0:0:
64,192,202792,1,0,0:0:0:0:
192,192,202875,1,0,0:0:0:0:
320,192,202957,1,0,0:0:0:0:
192,192,203039,1,0,0:0:0:0:
448,192,203122,1,0,0:0:0:0:
320,192,203122,1,0,0:0:0:0:
64,192,203122,1,0,0:0:0:0:
192,192,203204,1,0,0:0:0:0:
320,192,203287,1,0,0:0:0:0:
192,192,203369,1,0,0:0:0:0:
448,192,203451,1,0,0:0:0:0:
64,192,203451,1,0,0:0:0:0:
192,192,203534,1,0,0:0:0:0:
320,192,203616,1,0,0:0:0:0:
192,192,203699,1,0,0:0:0:0:
320,192,203781,1,0,0:0:0:0:
192,192,203864,1,0,0:0:0:0:
320,192,203946,1,0,0:0:0:0:
192,192,204028,1,0,0:0:0:0:
448,192,204111,1,0,0:0:0:0:
64,192,204111,1,0,0:0:0:0:
192,192,204193,1,0,0:0:0:0:
320,192,204276,1,0,0:0:0:0:
192,192,204358,1,0,0:0:0:0:
448,192,204440,1,0,0:0:0:0:
192,192,204523,1,0,0:0:0:0:
448,192,204605,1,0,0:0:0:0:
192,192,204688,1,0,0:0:0:0:
448,192,204770,1,0,0:0:0:0:
64,192,204770,1,0,0:0:0:0:
320,192,204853,1,0,0:0:0:0:
192,192,204935,1,0,0:0:0:0:
320,192,205017,1,0,0:0:0:0:
192,192,205100,1,0,0:0:0:0:
320,192,205182,1,0,0:0:0:0:
192,192,205265,1,0,0:0:0:0:
320,192,205347,1,0,0:0:0:0:
448,192,205430,1,0,0:0:0:0:
64,192,205430,1,0,0:0:0:0:
320,192,205512,1,0,0:0:0:0:
192,192,205594,1,0,0:0:0:0:
320,192,205677,1,0,0:0:0:0:
64,192,205759,1,0,0:0:0:0:
320,192,205842,1,0,0:0:0:0:
64,192,205924,1,0,0:0:0:0:
320,192,206006,1,0,0:0:0:0:
448,192,206089,1,0,0:0:0:0:
64,192,206089,1,0,0:0:0:0:
192,192,206171,1,0,0:0:0:0:
320,192,206254,1,0,0:0:0:0:
192,192,206336,1,0,0:0:0:0:
320,192,206419,1,0,0:0:0:0:
192,192,206501,1,0,0:0:0:0:
320,192,206583,1,0,0:0:0:0:
192,192,206666,1,0,0:0:0:0:
448,192,206748,1,0,0:0:0:0:
64,192,206748,1,0,0:0:0:0:
192,192,206831,1,0,0:0:0:0:
320,192,206913,1,0,0:0:0:0:
192,192,206995,1,0,0:0:0:0:
448,192,207078,1,0,0:0:0:0:
192,192,207160,1,0,0:0:0:0:
448,192,207243,1,0,0:0:0:0:
192,192,207325,1,0,0:0:0:0:
448,192,207408,1,0,0:0:0:0:
64,192,207408,1,0,0:0:0:0:
320,192,207490,1,0,0:0:0:0:
64,192,207572,1,0,0:0:0:0:
320,192,207655,1,0,0:0:0:0:
192,192,207737,1,0,0:0:0:0:
320,192,207820,1,0,0:0:0:0:
64,192,207902,1,0,0:0:0:0:
320,192,207984,1,0,0:0:0:0:
448,192,208067,1,0,0:0:0:0:
64,192,208067,1,0,0:0:0:0:
192,192,208149,1,0,0:0:0:0:
320,192,208232,1,0,0:0:0:0:
192,192,208314,1,0,0:0:0:0:
448,192,208397,1,0,0:0:0:0:
320,192,208397,1,0,0:0:0:0:
64,192,208397,1,0,0:0:0:0:
192,192,208479,1,0,0:0:0:0:
448,192,208561,1,0,0:0:0:0:
192,192,208644,1,0,0:0:0:0:
448,192,208726,1,0,0:0:0:0:
64,192,208726,1,0,0:0:0:0:
320,192,208809,1,0,0:0:0:0:
64,192,208891,1,0,0:0:0:0:
320,192,208973,1,0,0:0:0:0:
64,192,209056,1,0,0:0:0:0:
320,192,209138,1,0,0:0:0:0:
192,192,209221,1,0,0:0:0:0:
320,192,209303,1,0,0:0:0:0:
448,192,209386,1,0,0:0:0:0:
64,192,209386,1,0,0:0:0:0:
320,192,209468,1,0,0:0:0:0:
192,192,209550,1,0,0:0:0:0:
320,192,209633,1,0,0:0:0:0:
448,192,209715,1,0,0:0:0:0:
192,192,209798,1,0,0:0:0:0:
448,192,209880,1,0,0:0:0:0:
192,192,209962,1,0,0:0:0:0:
448,192,210045,1,0,0:0:0:0:
64,192,210045,1,0,0:0:0:0:
320,192,210127,1,0,0:0:0:0:
64,192,210210,1,0,0:0:0:0:
320,192,210292,1,0,0:0:0:0:
64,192,210375,1,0,0:0:0:0:
320,192,210457,1,0,0:0:0:0:
192,192,210539,1,0,0:0:0:0:
320,192,210622,1,0,0:0:0:0:
448,192,210704,1,0,0:0:0:0:
64,192,210704,1,0,0:0:0:0:
192,192,210787,1,0,0:0:0:0:
320,192,210869,1,0,0:0:0:0:
192,192,210951,1,0,0:0:0:0:
448,192,211034,1,0,0:0:0:0:
192,192,211116,1,0,0:0:0:0:
448,192,211199,1,0,0:0:0:0:
192,192,211281,1,0,0:0:0:0:
448,192,211364,1,0,0:0:0:0:
64,192,211364,1,0,0:0:0:0:
320,192,211446,1,0,0:0:0:0:
64,192,211528,1,0,0:0:0:0:
320,192,211611,1,0,0:0:0:0:
192,192,211693,1,0,0:0:0:0:
320,192,211776,1,0,0:0:0:0:
192,192,211858,1,0,0:0:0:0:
320,192,211940,1,0,0:0:0:0:
448,192,212023,1,0,0:0:0:0:
64,192,212023,1,0,0:0:0:0:
320,192,212105,1,0,0:0:0:0:
192,192,212188,1,0,0:0:0:0:
320,192,212270,1,0,0:0:0:0:
448,192,212353,1,0,0:0:0:0:
192,192,212435,1,0,0:0:0:0:
448,192,212517,1,0,0:0:0:0:
192,192,212600,1,0,0:0:0:0:
448,192,212682,1,0,0:0:0:0:
64,192,212682,1,0,0:0:0:0:
320,192,212765,1,0,0:0:0:0:
64,192,212847,1,0,0:0:0:0:
320,192,212930,1,0,0:0:0:0:
192,192,213012,1,0,0:0:0:0:
448,192,213094,1,0,0:0:0:0:
192,192,213177,1,0,0:0:0:0:
320,192,213259,1,0,0:0:0:0:
448,192,213342,1,0,0:0:0:0:
192,192,213342,1,0,0:0:0:0:
64,192,213342,1,0,0:0:0:0:
448,192,213677,1,0,0:0:0:0:
192,192,213677,1,0,0:0:0:0:
64,192,213677,1,0,0:0:0:0:
320,192,213759,1,0,0:0:0:0:
192,192,213841,1,0,0:0:0:0:
320,192,213924,1,0,0:0:0:0:
192,192,214006,1,0,0:0:0:0:
448,192,214089,1,0,0:0:0:0:
320,192,214171,1,0,0:0:0:0:
192,192,214171,1,0,0:0:0:0:
64,192,214171,1,0,0:0:0:0:
448,192,214253,1,0,0:0:0:0:
192,192,214336,1,0,0:0:0:0:
448,192,214418,1,0,0:0:0:0:
192,192,214501,1,0,0:0:0:0:
320,192,214583,1,0,0:0:0:0:
448,192,214666,1,0,0:0:0:0:
192,192,214666,1,0,0:0:0:0:
64,192,214666,1,0,0:0:0:0:
320,192,214748,1,0,0:0:0:0:
64,192,214830,1,0,0:0:0:0:
320,192,214913,1,0,0:0:0:0:
64,192,214995,1,0,0:0:0:0:
448,192,215078,1,0,0:0:0:0:
320,192,215160,1,0,0:0:0:0:
192,192,215160,1,0,0:0:0:0:
64,192,215160,1,0,0:0:0:0:
448,192,215242,1,0,0:0:0:0:
192,192,215325,1,0,0:0:0:0:
448,192,215407,1,0,0:0:0:0:
192,192,215490,1,0,0:0:0:0:
320,192,215572,1,0,0:0:0:0:
448,192,215655,1,0,0:0:0:0:
192,192,215655,1,0,0:0:0:0:
64,192,215655,1,0,0:0:0:0:
320,192,215737,1,0,0:0:0:0:
192,192,215819,1,0,0:0:0:0:
320,192,215902,1,0,0:0:0:0:
448,192,215984,1,0,0:0:0:0:
192,192,215984,1,0,0:0:0:0:
64,192,215984,1,0,0:0:0:0:
320,192,216067,1,0,0:0:0:0:
192,192,216149,1,0,0:0:0:0:
64,192,216231,1,0,0:0:0:0:
448,192,216314,1,0,0:0:0:0:
320,192,216314,1,0,0:0:0:0:
192,192,216314,1,0,0:0:0:0:
64,192,216396,1,0,0:0:0:0:
320,192,216479,1,0,0:0:0:0:
64,192,216561,1,0,0:0:0:0:
320,192,216644,1,0,0:0:0:0:
192,192,216726,1,0,0:0:0:0:
448,192,216808,1,0,0:0:0:0:
320,192,216808,1,0,0:0:0:0:
64,192,216808,1,0,0:0:0:0:
192,192,216891,1,0,0:0:0:0:
320,192,216973,1,0,0:0:0:0:
192,192,217056,1,0,0:0:0:0:
320,192,217138,1,0,0:0:0:0:
64,192,217220,1,0,0:0:0:0:
448,192,217303,1,0,0:0:0:0:
320,192,217303,1,0,0:0:0:0:
192,192,217303,1,0,0:0:0:0:
64,192,217385,1,0,0:0:0:0:
448,192,217468,1,0,0:0:0:0:
64,192,217550,1,0,0:0:0:0:
448,192,217633,1,0,0:0:0:0:
192,192,217715,1,0,0:0:0:0:
448,192,217797,1,0,0:0:0:0:
320,192,217797,1,0,0:0:0:0:
64,192,217797,1,0,0:0:0:0:
192,192,217880,1,0,0:0:0:0:
320,192,217962,1,0,0:0:0:0:
192,192,218045,1,0,0:0:0:0:
320,192,218127,1,0,0:0:0:0:
64,192,218209,1,0,0:0:0:0:
448,192,218292,1,0,0:0:0:0:
320,192,218292,1,0,0:0:0:0:
192,192,218292,1,0,0:0:0:0:
64,192,218374,1,0,0:0:0:0:
320,192,218457,1,0,0:0:0:0:
64,192,218539,1,0,0:0:0:0:
448,192,218622,1,0,0:0:0:0:
320,192,218622,1,0,0:0:0:0:
192,192,218622,1,0,0:0:0:0:
64,192,218704,1,0,0:0:0:0:
320,192,218786,1,0,0:0:0:0:
448,192,218869,1,0,0:0:0:0:
192,192,218951,1,0,0:0:0:0:
64,192,218951,1,0,0:0:0:0:
320,192,219034,1,0,0:0:0:0:
192,192,219116,1,0,0:0:0:0:
320,192,219198,1,0,0:0:0:0:
192,192,219281,1,0,0:0:0:0:
320,192,219363,1,0,0:0:0:0:
448,192,219446,1,0,0:0:0:0:
192,192,219446,1,0,0:0:0:0:
320,192,219528,1,0,0:0:0:0:
192,192,219611,1,0,0:0:0:0:
320,192,219693,1,0,0:0:0:0:
192,192,219775,1,0,0:0:0:0:
64,192,219775,1,0,0:0:0:0:
448,192,219858,1,0,0:0:0:0:
320,192,219858,1,0,0:0:0:0:
192,192,219940,128,0,220435:0:0:0:0:
64,192,219940,1,0,0:0:0:0:
448,192,220929,1,0,0:0:0:0:
64,192,220929,1,0,0:0:0:0:
320,192,221093,1,0,0:0:0:0:
192,192,221258,1,0,0:0:0:0:
64,192,221258,1,0,0:0:0:0:
448,192,221423,1,0,0:0:0:0:
192,192,221753,1,0,0:0:0:0:
64,192,221753,1,0,0:0:0:0:
192,192,222082,1,0,0:0:0:0:
64,192,222247,1,0,0:0:0:0:
320,192,222412,1,0,0:0:0:0:
192,192,222577,1,0,0:0:0:0:
64,192,222577,1,0,0:0:0:0:
448,192,222907,1,0,0:0:0:0:
64,192,222907,1,0,0:0:0:0:
320,192,223071,1,0,0:0:0:0:
192,192,223236,1,0,0:0:0:0:
448,192,223401,1,0,0:0:0:0:
192,192,223731,1,0,0:0:0:0:
192,192,223896,1,0,0:0:0:0:
64,192,223896,1,0,0:0:0:0:
320,192,224060,1,0,0:0:0:0:
448,192,224225,1,0,0:0:0:0:
320,192,224390,1,0,0:0:0:0:
64,192,224390,1,0,0:0:0:0:
448,192,224555,1,0,0:0:0:0:
320,192,224720,1,0,0:0:0:0:
192,192,224885,1,0,0:0:0:0:
320,192,225049,1,0,0:0:0:0:
448,192,225214,1,0,0:0:0:0:
64,192,225214,1,0,0:0:0:0:
320,192,225379,1,0,0:0:0:0:
192,192,225544,1,0,0:0:0:0:
448,192,225709,1,0,0:0:0:0:
320,192,225709,1,0,0:0:0:0:
192,192,226038,1,0,0:0:0:0:
192,192,226368,1,0,0:0:0:0:
448,192,226533,1,0,0:0:0:0:
64,192,226533,1,0,0:0:0:0:
192,192,226863,1,0,0:0:0:0:
64,192,226863,1,0,0:0:0:0:
320,192,227027,1,0,0:0:0:0:
448,192,227192,1,0,0:0:0:0:
64,192,227192,1,0,0:0:0:0:
320,192,227357,1,0,0:0:0:0:
192,192,227522,1,0,0:0:0:0:
448,192,227687,1,0,0:0:0:0:
320,192,227852,1,0,0:0:0:0:
64,192,227852,1,0,0:0:0:0:
192,192,228016,1,0,0:0:0:0:
64,192,228181,1,0,0:0:0:0:
320,192,228346,1,0,0:0:0:0:
192,192,228346,1,0,0:0:0:0:
448,192,228511,1,0,0:0:0:0:
320,192,228676,1,0,0:0:0:0:
448,192,228841,1,0,0:0:0:0:
320,192,229005,1,0,0:0:0:0:
192,192,229170,1,0,0:0:0:0:
64,192,229170,1,0,0:0:0:0:
320,192,229335,1,0,0:0:0:0:
448,192,229500,128,0,231478:0:0:0:0:
192,192,229500,1,0,0:0:0:0:
64,192,229500,1,0,0:0:0:0:
192,192,231478,1,0,0:0:0:0:
64,192,231478,1,0,0:0:0:0:
448,192,231560,1,0,0:0:0:0:
320,192,231560,1,0,0:0:0:0:
192,192,231643,1,0,0:0:0:0:
64,192,231643,1,0,0:0:0:0:
448,192,231725,1,0,0:0:0:0:
320,192,231725,1,0,0:0:0:0:
192,192,231808,1,0,0:0:0:0:
64,192,231808,1,0,0:0:0:0:
448,192,233786,1,0,0:0:0:0:
320,192,233786,1,0,0:0:0:0:
192,192,233786,1,0,0:0:0:0:
448,192,234280,1,0,0:0:0:0:
320,192,234280,1,0,0:0:0:0:
192,192,234280,1,0,0:0:0:0:
64,192,236918,1,0,0:0:0:0:
192,192,237000,1,0,0:0:0:0:
448,192,237082,1,0,0:0:0:0:
320,192,237082,1,0,0:0:0:0:
448,192,237247,1,0,0:0:0:0:
320,192,237247,1,0,0:0:0:0:
192,192,237412,1,0,0:0:0:0:
64,192,237412,1,0,0:0:0:0:
192,192,237577,1,0,0:0:0:0:
64,192,237577,1,0,0:0:0:0:
448,192,237742,1,0,0:0:0:0:
320,192,237742,1,0,0:0:0:0:
448,192,237907,1,0,0:0:0:0:
320,192,237907,1,0,0:0:0:0:
448,192,238071,1,0,0:0:0:0:
192,192,238071,1,0,0:0:0:0:
64,192,238071,1,0,0:0:0:0:
320,192,238235,1,0,0:0:0:0:
192,192,238318,1,0,0:0:0:0:
320,192,238400,1,0,0:0:0:0:
320,192,238565,1,0,0:0:0:0:
192,192,238730,1,0,0:0:0:0:
64,192,238730,1,0,0:0:0:0:
192,192,238895,1,0,0:0:0:0:
320,192,238977,1,0,0:0:0:0:
448,192,239060,1,0,0:0:0:0:
192,192,239060,1,0,0:0:0:0:
448,192,239224,1,0,0:0:0:0:
320,192,239224,1,0,0:0:0:0:
192,192,239389,1,0,0:0:0:0:
192,192,239554,1,0,0:0:0:0:
320,192,239636,1,0,0:0:0:0:
448,192,239719,1,0,0:0:0:0:
64,192,239884,1,0,0:0:0:0:
448,192,240049,1,0,0:0:0:0:
320,192,240049,1,0,0:0:0:0:
320,192,240213,1,0,0:0:0:0:
192,192,240296,1,0,0:0:0:0:
448,192,240378,1,0,0:0:0:0:
448,192,240543,1,0,0:0:0:0:
320,192,240708,1,0,0:0:0:0:
192,192,240708,1,0,0:0:0:0:
64,192,240708,1,0,0:0:0:0:
192,192,240873,1,0,0:0:0:0:
320,192,240955,1,0,0:0:0:0:
192,192,241038,1,0,0:0:0:0:
64,192,241202,1,0,0:0:0:0:
448,192,241367,1,0,0:0:0:0:
320,192,241367,1,0,0:0:0:0:
320,192,241532,1,0,0:0:0:0:
192,192,241614,1,0,0:0:0:0:
320,192,241697,1,0,0:0:0:0:
64,192,241697,1,0,0:0:0:0:
192,192,241862,1,0,0:0:0:0:
64,192,241862,1,0,0:0:0:0:
320,192,242027,1,0,0:0:0:0:
320,192,242191,1,0,0:0:0:0:
192,192,242274,1,0,0:0:0:0:
64,192,242356,1,0,0:0:0:0:
448,192,242521,1,0,0:0:0:0:
320,192,242521,1,0,0:0:0:0:
192,192,242603,1,0,0:0:0:0:
64,192,242603,1,0,0:0:0:0:
448,192,242686,1,0,0:0:0:0:
320,192,242686,1,0,0:0:0:0:
448,192,242851,1,0,0:0:0:0:
320,192,242851,1,0,0:0:0:0:
192,192,243016,1,0,0:0:0:0:
64,192,243180,1,0,0:0:0:0:
448,192,243345,1,0,0:0:0:0:
320,192,243345,1,0,0:0:0:0:
192,192,243345,1,0,0:0:0:0:
320,192,243509,1,0,0:0:0:0:
192,192,243509,1,0,0:0:0:0:
448,192,243674,1,0,0:0:0:0:
64,192,243674,1,0,0:0:0:0:
448,192,243839,1,0,0:0:0:0:
64,192,243839,1,0,0:0:0:0:
320,192,244004,1,0,0:0:0:0:
192,192,244169,1,0,0:0:0:0:
448,192,244334,1,0,0:0:0:0:
64,192,244334,1,0,0:0:0:0:
448,192,244498,1,0,0:0:0:0:
64,192,244498,1,0,0:0:0:0:
320,192,244663,1,0,0:0:0:0:
192,192,244663,1,0,0:0:0:0:
448,192,244828,1,0,0:0:0:0:
320,192,244828,1,0,0:0:0:0:
448,192,244993,1,0,0:0:0:0:
64,192,244993,1,0,0:0:0:0:
192,192,245158,1,0,0:0:0:0:
320,192,245323,1,0,0:0:0:0:
320,192,245487,1,0,0:0:0:0:
448,192,245652,1,0,0:0:0:0:
64,192,245652,1,0,0:0:0:0:
448,192,245817,1,0,0:0:0:0:
64,192,245817,1,0,0:0:0:0:
192,192,245982,1,0,0:0:0:0:
320,192,246147,1,0,0:0:0:0:
448,192,246312,1,0,0:0:0:0:
64,192,246312,1,0,0:0:0:0:
448,192,246476,1,0,0:0:0:0:
64,192,246476,1,0,0:0:0:0:
320,192,246641,1,0,0:0:0:0:
192,192,246641,1,0,0:0:0:0:
320,192,246806,1,0,0:0:0:0:
192,192,246806,1,0,0:0:0:0:
448,192,246971,1,0,0:0:0:0:
64,192,246971,1,0,0:0:0:0:
192,192,247136,1,0,0:0:0:0:
320,192,247218,1,0,0:0:0:0:
448,192,247301,1,0,0:0:0:0:
448,192,247465,1,0,0:0:0:0:
64,192,247465,1,0,0:0:0:0:
448,192,247630,1,0,0:0:0:0:
320,192,247630,1,0,0:0:0:0:
64,192,247630,1,0,0:0:0:0:
320,192,247795,1,0,0:0:0:0:
192,192,247795,1,0,0:0:0:0:
448,192,247960,1,0,0:0:0:0:
64,192,247960,1,0,0:0:0:0:
448,192,248125,1,0,0:0:0:0:
64,192,248125,1,0,0:0:0:0:
320,192,248290,1,0,0:0:0:0:
192,192,248290,1,0,0:0:0:0:
192,192,248454,1,0,0:0:0:0:
64,192,248454,1,0,0:0:0:0:
448,192,248619,1,0,0:0:0:0:
64,192,248619,1,0,0:0:0:0:
448,192,248784,1,0,0:0:0:0:
64,192,248784,1,0,0:0:0:0:
320,192,248949,1,0,0:0:0:0:
192,192,248949,1,0,0:0:0:0:
448,192,249114,1,0,0:0:0:0:
320,192,249114,1,0,0:0:0:0:
448,192,249279,1,0,0:0:0:0:
64,192,249279,1,0,0:0:0:0:
192,192,249443,1,0,0:0:0:0:
64,192,249443,1,0,0:0:0:0:
320,192,249608,1,0,0:0:0:0:
192,192,249608,1,0,0:0:0:0:
448,192,249773,1,0,0:0:0:0:
320,192,249773,1,0,0:0:0:0:
448,192,249938,1,0,0:0:0:0:
64,192,249938,1,0,0:0:0:0:
448,192,250103,1,0,0:0:0:0:
64,192,250103,1,0,0:0:0:0:
320,192,250268,1,0,0:0:0:0:
192,192,250268,1,0,0:0:0:0:
320,192,250432,1,0,0:0:0:0:
448,192,250597,1,0,0:0:0:0:
64,192,250597,1,0,0:0:0:0:
448,192,250762,1,0,0:0:0:0:
64,192,250762,1,0,0:0:0:0:
320,192,250927,1,0,0:0:0:0:
192,192,250927,1,0,0:0:0:0:
320,192,251092,1,0,0:0:0:0:
192,192,251092,1,0,0:0:0:0:
448,192,251257,1,0,0:0:0:0:
64,192,251257,1,0,0:0:0:0:
320,192,251421,1,0,0:0:0:0:
192,192,251504,1,0,0:0:0:0:
320,192,251586,1,0,0:0:0:0:
448,192,251751,1,0,0:0:0:0:
64,192,251751,1,0,0:0:0:0:
192,192,251916,1,0,0:0:0:0:
64,192,251916,1,0,0:0:0:0:
192,192,252080,1,0,0:0:0:0:
64,192,252080,1,0,0:0:0:0:
192,192,252245,1,0,0:0:0:0:
64,192,252245,1,0,0:0:0:0:
448,192,252410,1,0,0:0:0:0:
320,192,252410,1,0,0:0:0:0:
64,192,252410,1,0,0:0:0:0:
192,192,252740,1,0,0:0:0:0:
448,192,252905,1,0,0:0:0:0:
64,192,252905,1,0,0:0:0:0:
320,192,253234,1,0,0:0:0:0:
320,192,253399,1,0,0:0:0:0:
448,192,253564,1,0,0:0:0:0:
64,192,253564,1,0,0:0:0:0:
192,192,253894,1,0,0:0:0:0:
192,192,254058,1,0,0:0:0:0:
448,192,254223,1,0,0:0:0:0:
64,192,254223,1,0,0:0:0:0:
320,192,254553,1,0,0:0:0:0:
320,192,254718,1,0,0:0:0:0:
448,192,254883,1,0,0:0:0:0:
64,192,254883,1,0,0:0:0:0:
320,192,255047,1,0,0:0:0:0:
320,192,255377,1,0,0:0:0:0:
448,192,255542,1,0,0:0:0:0:
64,192,255542,1,0,0:0:0:0:
64,192,255872,1,0,0:0:0:0:
64,192,256036,1,0,0:0:0:0:
448,192,256201,1,0,0:0:0:0:
64,192,256201,1,0,0:0:0:0:
448,192,256531,1,0,0:0:0:0:
448,192,256696,1,0,0:0:0:0:
448,192,256861,1,0,0:0:0:0:
64,192,256861,1,0,0:0:0:0:
192,192,257025,1,0,0:0:0:0:
448,192,257190,1,0,0:0:0:0:
320,192,257190,1,0,0:0:0:0:
448,192,257355,1,0,0:0:0:0:
320,192,257355,1,0,0:0:0:0:
448,192,257520,1,0,0:0:0:0:
320,192,257520,1,0,0:0:0:0:
448,192,257685,1,0,0:0:0:0:
192,192,257685,1,0,0:0:0:0:
64,192,257685,1,0,0:0:0:0:
320,192,258014,1,0,0:0:0:0:
448,192,258179,1,0,0:0:0:0:
64,192,258179,1,0,0:0:0:0:
192,192,258509,1,0,0:0:0:0:
192,192,258674,1,0,0:0:0:0:
448,192,258839,1,0,0:0:0:0:
64,192,258839,1,0,0:0:0:0:
320,192,259168,1,0,0:0:0:0:
320,192,259333,1,0,0:0:0:0:
448,192,259498,1,0,0:0:0:0:
64,192,259498,1,0,0:0:0:0:
448,192,259828,1,0,0:0:0:0:
192,192,259828,1,0,0:0:0:0:
64,192,259828,1,0,0:0:0:0:
192,192,259992,1,0,0:0:0:0:
448,192,260157,1,0,0:0:0:0:
64,192,260157,1,0,0:0:0:0:
192,192,260322,1,0,0:0:0:0:
192,192,260652,1,0,0:0:0:0:
448,192,260817,1,0,0:0:0:0:
320,192,260817,1,0,0:0:0:0:
64,192,260817,1,0,0:0:0:0:
192,192,260981,1,0,0:0:0:0:
320,192,261064,1,0,0:0:0:0:
448,192,261146,1,0,0:0:0:0:
448,192,261311,1,0,0:0:0:0:
448,192,261476,1,0,0:0:0:0:
192,192,261476,1,0,0:0:0:0:
192,192,261641,1,0,0:0:0:0:
320,192,261723,1,0,0:0:0:0:
192,192,261806,1,0,0:0:0:0:
64,192,261806,1,0,0:0:0:0:
192,192,261970,1,0,0:0:0:0:
64,192,261970,1,0,0:0:0:0:
448,192,262135,1,0,0:0:0:0:
320,192,262300,1,0,0:0:0:0:
448,192,262465,1,0,0:0:0:0:
192,192,262465,1,0,0:0:0:0:
64,192,262465,1,0,0:0:0:0:
448,192,262959,1,0,0:0:0:0:
320,192,262959,1,0,0:0:0:0:
64,192,262959,1,0,0:0:0:0:
192,192,263289,1,0,0:0:0:0:
320,192,263371,1,0,0:0:0:0:
448,192,263454,128,0,264113:0:0:0:0:
192,192,263454,1,0,0:0:0:0:
64,192,263454,1,0,0:0:0:0:
192,192,264278,1,0,0:0:0:0:
320,192,264360,1,0,0:0:0:0:
448,192,264443,1,0,0:0:0:0:
192,192,264443,1,0,0:0:0:0:
64,192,264443,1,0,0:0:0:0:
320,192,264607,1,0,0:0:0:0:
192,192,264690,1,0,0:0:0:0:
64,192,264690,1,0,0:0:0:0:
448,192,264772,1,0,0:0:0:0:
320,192,264772,1,0,0:0:0:0:
448,192,264937,1,0,0:0:0:0:
320,192,264937,1,0,0:0:0:0:
64,192,265019,1,0,0:0:0:0:
448,192,265102,1,0,0:0:0:0:
320,192,265102,1,0,0:0:0:0:
192,192,265102,1,0,0:0:0:0:
64,192,265184,1,0,0:0:0:0:
192,192,265266,1,0,0:0:0:0:
320,192,265349,1,0,0:0:0:0:
448,192,265431,1,0,0:0:0:0:
64,192,265431,1,0,0:0:0:0:
320,192,265514,1,0,0:0:0:0:
192,192,265596,1,0,0:0:0:0:
320,192,265678,1,0,0:0:0:0:
192,192,265761,1,0,0:0:0:0:
64,192,265761,1,0,0:0:0:0:
448,192,265843,1,0,0:0:0:0:
192,192,265926,1,0,0:0:0:0:
64,192,265926,1,0,0:0:0:0:
320,192,266008,1,0,0:0:0:0:
448,192,266091,1,0,0:0:0:0:
64,192,266091,1,0,0:0:0:0:
192,192,266173,1,0,0:0:0:0:
448,192,266255,1,0,0:0:0:0:
320,192,266255,1,0,0:0:0:0:
64,192,266338,1,0,0:0:0:0:
448,192,266420,1,0,0:0:0:0:
320,192,266420,1,0,0:0:0:0:
192,192,266503,1,0,0:0:0:0:
320,192,266585,1,0,0:0:0:0:
192,192,266667,1,0,0:0:0:0:
448,192,266750,1,0,0:0:0:0:
64,192,266750,1,0,0:0:0:0:
192,192,266832,1,0,0:0:0:0:
448,192,266915,1,0,0:0:0:0:
320,192,266915,1,0,0:0:0:0:
64,192,266997,1,0,0:0:0:0:
192,192,267080,1,0,0:0:0:0:
448,192,267162,1,0,0:0:0:0:
320,192,267244,1,0,0:0:0:0:
192,192,267327,1,0,0:0:0:0:
448,192,267409,1,0,0:0:0:0:
64,192,267409,1,0,0:0:0:0:
320,192,267492,1,0,0:0:0:0:
192,192,267574,1,0,0:0:0:0:
320,192,267656,1,0,0:0:0:0:
192,192,267739,1,0,0:0:0:0:
64,192,267739,1,0,0:0:0:0:
448,192,267821,1,0,0:0:0:0:
64,192,267904,1,0,0:0:0:0:
320,192,267986,1,0,0:0:0:0:
448,192,268069,1,0,0:0:0:0:
64,192,268069,1,0,0:0:0:0:
192,192,268151,1,0,0:0:0:0:
320,192,268233,1,0,0:0:0:0:
64,192,268316,1,0,0:0:0:0:
448,192,268398,1,0,0:0:0:0:
320,192,268398,1,0,0:0:0:0:
64,192,268481,1,0,0:0:0:0:
448,192,268563,1,0,0:0:0:0:
320,192,268563,1,0,0:0:0:0:
192,192,268645,1,0,0:0:0:0:
448,192,268728,1,0,0:0:0:0:
64,192,268728,1,0,0:0:0:0:
192,192,268810,1,0,0:0:0:0:
320,192,268893,1,0,0:0:0:0:
64,192,268975,1,0,0:0:0:0:
448,192,269058,1,0,0:0:0:0:
320,192,269058,1,0,0:0:0:0:
192,192,269140,1,0,0:0:0:0:
448,192,269222,1,0,0:0:0:0:
320,192,269305,1,0,0:0:0:0:
448,192,269387,1,0,0:0:0:0:
64,192,269387,1,0,0:0:0:0:
192,192,269470,1,0,0:0:0:0:
64,192,269552,1,0,0:0:0:0:
320,192,269634,1,0,0:0:0:0:
448,192,269717,1,0,0:0:0:0:
192,192,269717,1,0,0:0:0:0:
64,192,269799,1,0,0:0:0:0:
448,192,269882,1,0,0:0:0:0:
320,192,269882,1,0,0:0:0:0:
192,192,269964,1,0,0:0:0:0:
448,192,270047,1,0,0:0:0:0:
64,192,270047,1,0,0:0:0:0:
320,192,270129,1,0,0:0:0:0:
192,192,270211,1,0,0:0:0:0:
64,192,270211,1,0,0:0:0:0:
320,192,270294,1,0,0:0:0:0:
448,192,270376,128,0,271365:0:0:0:0:
192,192,270376,1,0,0:0:0:0:
64,192,270376,1,0,0:0:0:0:
320,192,270541,1,0,0:0:0:0:
192,192,270706,1,0,0:0:0:0:
64,192,270706,1,0,0:0:0:0:
192,192,270871,1,0,0:0:0:0:
64,192,270871,1,0,0:0:0:0:
320,192,271036,1,0,0:0:0:0:
320,192,271200,1,0,0:0:0:0:
192,192,271365,1,0,0:0:0:0:
64,192,271365,1,0,0:0:0:0:
320,192,271448,1,0,0:0:0:0:
192,192,271530,1,0,0:0:0:0:
320,192,271612,1,0,0:0:0:0:
448,192,271695,1,0,0:0:0:0:
192,192,271695,1,0,0:0:0:0:
64,192,271860,1,0,0:0:0:0:
448,192,272025,1,0,0:0:0:0:
64,192,272025,1,0,0:0:0:0:
320,192,272189,1,0,0:0:0:0:
192,192,272354,1,0,0:0:0:0:
64,192,272354,1,0,0:0:0:0:
448,192,272519,1,0,0:0:0:0:
448,192,272684,1,0,0:0:0:0:
64,192,272684,1,0,0:0:0:0:
192,192,272766,1,0,0:0:0:0:
320,192,272849,1,0,0:0:0:0:
192,192,272931,1,0,0:0:0:0:
320,192,273014,1,0,0:0:0:0:
64,192,273014,1,0,0:0:0:0:
64,192,273178,1,0,0:0:0:0:
448,192,273343,1,0,0:0:0:0:
64,192,273343,1,0,0:0:0:0:
320,192,273508,1,0,0:0:0:0:
192,192,273673,1,0,0:0:0:0:
64,192,273673,1,0,0:0:0:0:
320,192,273838,1,0,0:0:0:0:
448,192,274003,1,0,0:0:0:0:
64,192,274003,1,0,0:0:0:0:
448,192,274167,1,0,0:0:0:0:
64,192,274167,1,0,0:0:0:0:
320,192,274332,1,0,0:0:0:0:
192,192,274332,1,0,0:0:0:0:
320,192,274497,1,0,0:0:0:0:
448,192,274662,1,0,0:0:0:0:
64,192,274662,1,0,0:0:0:0:
192,192,274827,1,0,0:0:0:0:
64,192,274827,1,0,0:0:0:0:
448,192,274992,1,0,0:0:0:0:
320,192,274992,1,0,0:0:0:0:
448,192,275156,1,0,0:0:0:0:
320,192,275156,1,0,0:0:0:0:
448,192,275321,1,0,0:0:0:0:
64,192,275321,1,0,0:0:0:0:
192,192,275404,1,0,0:0:0:0:
320,192,275486,1,0,0:0:0:0:
192,192,275569,1,0,0:0:0:0:
448,192,275651,1,0,0:0:0:0:
320,192,275651,1,0,0:0:0:0:
64,192,275651,1,0,0:0:0:0:
192,192,275816,1,0,0:0:0:0:
448,192,275981,1,0,0:0:0:0:
64,192,275981,1,0,0:0:0:0:
64,192,276145,1,0,0:0:0:0:
448,192,276310,1,0,0:0:0:0:
320,192,276310,1,0,0:0:0:0:
192,192,276475,1,0,0:0:0:0:
448,192,276640,1,0,0:0:0:0:
64,192,276640,1,0,0:0:0:0:
192,192,276805,1,0,0:0:0:0:
320,192,276970,1,0,0:0:0:0:
64,192,276970,1,0,0:0:0:0:
448,192,277134,1,0,0:0:0:0:
448,192,277299,1,0,0:0:0:0:
64,192,277299,1,0,0:0:0:0:
64,192,277464,1,0,0:0:0:0:
320,192,277629,1,0,0:0:0:0:
192,192,277629,1,0,0:0:0:0:
320,192,277794,1,0,0:0:0:0:
448,192,277959,1,0,0:0:0:0:
64,192,277959,1,0,0:0:0:0:
320,192,278123,1,0,0:0:0:0:
192,192,278288,1,0,0:0:0:0:
64,192,278288,1,0,0:0:0:0:
192,192,278453,1,0,0:0:0:0:
448,192,278618,1,0,0:0:0:0:
64,192,278618,1,0,0:0:0:0:
448,192,278783,1,0,0:0:0:0:
320,192,278948,1,0,0:0:0:0:
64,192,278948,1,0,0:0:0:0:
192,192,279112,1,0,0:0:0:0:
448,192,279277,1,0,0:0:0:0:
64,192,279277,1,0,0:0:0:0:
192,192,279442,1,0,0:0:0:0:
192,192,279607,1,0,0:0:0:0:
64,192,279607,1,0,0:0:0:0:
320,192,279689,1,0,0:0:0:0:
192,192,279772,1,0,0:0:0:0:
320,192,279854,1,0,0:0:0:0:
448,192,279937,1,0,0:0:0:0:
192,192,279937,1,0,0:0:0:0:
64,192,279937,1,0,0:0:0:0:
448,192,280102,1,0,0:0:0:0:
192,192,280184,1,0,0:0:0:0:
320,192,280266,1,0,0:0:0:0:
192,192,280349,1,0,0:0:0:0:
320,192,280431,1,0,0:0:0:0:
192,192,280514,1,0,0:0:0:0:
448,192,280596,1,0,0:0:0:0:
320,192,280596,1,0,0:0:0:0:
64,192,280596,1,0,0:0:0:0:
192,192,280761,1,0,0:0:0:0:
320,192,280843,1,0,0:0:0:0:
448,192,280926,1,0,0:0:0:0:
192,192,280926,128,0,281915:0:0:0:0:
64,192,280926,1,0,0:0:0:0:
448,192,281091,1,0,0:0:0:0:
320,192,281255,1,0,0:0:0:0:
64,192,281255,1,0,0:0:0:0:
448,192,281420,1,0,0:0:0:0:
448,192,281585,1,0,0:0:0:0:
320,192,281585,1,0,0:0:0:0:
448,192,281750,1,0,0:0:0:0:
320,192,281750,1,0,0:0:0:0:
448,192,281915,1,0,0:0:0:0:
64,192,281915,128,0,282080:0:0:0:0:
320,192,282080,128,0,282244:0:0:0:0:
192,192,282244,128,0,282904:0:0:0:0:
64,192,282244,1,0,0:0:0:0:
64,192,282409,1,0,0:0:0:0:
448,192,282574,1,0,0:0:0:0:
320,192,282574,1,0,0:0:0:0:
64,192,282739,1,0,0:0:0:0:
320,192,282904,1,0,0:0:0:0:
64,192,282904,1,0,0:0:0:0:
320,192,283069,1,0,0:0:0:0:
448,192,283233,1,0,0:0:0:0:
64,192,283233,1,0,0:0:0:0:
320,192,283398,1,0,0:0:0:0:
448,192,283563,1,0,0:0:0:0:
192,192,283563,1,0,0:0:0:0:
64,192,283563,1,0,0:0:0:0:
192,192,283728,1,0,0:0:0:0:
320,192,283893,1,0,0:0:0:0:
64,192,283893,1,0,0:0:0:0:
448,192,284058,1,0,0:0:0:0:
320,192,284222,1,0,0:0:0:0:
192,192,284222,1,0,0:0:0:0:
192,192,284387,1,0,0:0:0:0:
448,192,284552,1,0,0:0:0:0:
64,192,284552,1,0,0:0:0:0:
448,192,284717,1,0,0:0:0:0:
320,192,284882,1,0,0:0:0:0:
192,192,284882,1,0,0:0:0:0:
64,192,284882,1,0,0:0:0:0:
320,192,285047,1,0,0:0:0:0:
448,192,285211,1,0,0:0:0:0:
192,192,285211,1,0,0:0:0:0:
64,192,285211,1,0,0:0:0:0:
192,192,285376,1,0,0:0:0:0:
320,192,285459,1,0,0:0:0:0:
448,192,285541,1,0,0:0:0:0:
64,192,285541,1,0,0:0:0:0:
448,192,285706,1,0,0:0:0:0:
64,192,285706,1,0,0:0:0:0:
320,192,285871,1,0,0:0:0:0:
192,192,285871,1,0,0:0:0:0:
320,192,286036,1,0,0:0:0:0:
192,192,286036,1,0,0:0:0:0:
448,192,286200,1,0,0:0:0:0:
192,192,286200,1,0,0:0:0:0:
64,192,286200,1,0,0:0:0:0:
448,192,286365,1,0,0:0:0:0:
192,192,286530,1,0,0:0:0:0:
64,192,286530,1,0,0:0:0:0:
320,192,286695,1,0,0:0:0:0:
448,192,286777,1,0,0:0:0:0:
320,192,286860,1,0,0:0:0:0:
64,192,286860,1,0,0:0:0:0:
192,192,287025,1,0,0:0:0:0:
448,192,287189,1,0,0:0:0:0:
64,192,287189,1,0,0:0:0:0:
192,192,287354,1,0,0:0:0:0:
448,192,287519,1,0,0:0:0:0:
320,192,287519,1,0,0:0:0:0:
320,192,287684,1,0,0:0:0:0:
448,192,287849,1,0,0:0:0:0:
64,192,287849,1,0,0:0:0:0:
448,192,288014,1,0,0:0:0:0:
192,192,288178,1,0,0:0:0:0:
64,192,288178,1,0,0:0:0:0:
320,192,288343,1,0,0:0:0:0:
448,192,288508,1,0,0:0:0:0:
64,192,288508,1,0,0:0:0:0:
192,192,288673,1,0,0:0:0:0:
448,192,288838,1,0,0:0:0:0:
320,192,288838,1,0,0:0:0:0:
192,192,289003,1,0,0:0:0:0:
448,192,289167,1,0,0:0:0:0:
64,192,289167,1,0,0:0:0:0:
192,192,289332,1,0,0:0:0:0:
320,192,289497,1,0,0:0:0:0:
64,192,289497,1,0,0:0:0:0:
448,192,289662,1,0,0:0:0:0:
320,192,289744,1,0,0:0:0:0:
448,192,289827,1,0,0:0:0:0:
64,192,289827,1,0,0:0:0:0:
192,192,289992,1,0,0:0:0:0:
448,192,290156,1,0,0:0:0:0:
320,192,290156,1,0,0:0:0:0:
320,192,290321,1,0,0:0:0:0:
192,192,290321,1,0,0:0:0:0:
448,192,290486,1,0,0:0:0:0:
64,192,290486,1,0,0:0:0:0:
320,192,290651,1,0,0:0:0:0:
192,192,290816,1,0,0:0:0:0:
64,192,290816,1,0,0:0:0:0:
192,192,290981,1,0,0:0:0:0:
64,192,290981,1,0,0:0:0:0:
448,192,291145,1,0,0:0:0:0:
64,192,291145,1,0,0:0:0:0:
192,192,291310,1,0,0:0:0:0:
320,192,291393,1,0,0:0:0:0:
448,192,291475,1,0,0:0:0:0:
192,192,291475,1,0,0:0:0:0:
64,192,291475,1,0,0:0:0:0:
448,192,291640,1,0,0:0:0:0:
448,192,291805,1,0,0:0:0:0:
192,192,291805,1,0,0:0:0:0:
192,192,291970,1,0,0:0:0:0:
448,192,292134,1,0,0:0:0:0:
320,192,292134,1,0,0:0:0:0:
448,192,292299,1,0,0:0:0:0:
320,192,292299,1,0,0:0:0:0:
448,192,292464,1,0,0:0:0:0:
64,192,292464,1,0,0:0:0:0:
320,192,292629,1,0,0:0:0:0:
192,192,292794,1,0,0:0:0:0:
64,192,292794,1,0,0:0:0:0:
192,192,292959,1,0,0:0:0:0:
448,192,293123,1,0,0:0:0:0:
64,192,293123,1,0,0:0:0:0:
448,192,293288,1,0,0:0:0:0:
192,192,293453,1,0,0:0:0:0:
64,192,293453,1,0,0:0:0:0:
64,192,293618,1,0,0:0:0:0:
320,192,293783,1,0,0:0:0:0:
192,192,293783,1,0,0:0:0:0:
448,192,293948,1,0,0:0:0:0:
192,192,294030,1,0,0:0:0:0:
320,192,294112,1,0,0:0:0:0:
64,192,294112,1,0,0:0:0:0:
320,192,294277,1,0,0:0:0:0:
448,192,294442,1,0,0:0:0:0:
64,192,294442,1,0,0:0:0:0:
448,192,294607,1,0,0:0:0:0:
320,192,294689,1,0,0:0:0:0:
192,192,294772,1,0,0:0:0:0:
64,192,294772,1,0,0:0:0:0:
192,192,294937,1,0,0:0:0:0:
448,192,295102,1,0,0:0:0:0:
192,192,295102,1,0,0:0:0:0:
320,192,295266,1,0,0:0:0:0:
192,192,295349,1,0,0:0:0:0:
448,192,295431,1,0,0:0:0:0:
320,192,295431,1,0,0:0:0:0:
448,192,295596,1,0,0:0:0:0:
320,192,295596,1,0,0:0:0:0:
448,192,295761,1,0,0:0:0:0:
64,192,295761,1,0,0:0:0:0:
192,192,295926,1,0,0:0:0:0:
64,192,295926,1,0,0:0:0:0:
320,192,296008,1,0,0:0:0:0:
448,192,296091,1,0,0:0:0:0:
192,192,296091,1,0,0:0:0:0:
448,192,296255,1,0,0:0:0:0:
192,192,296255,1,0,0:0:0:0:
448,192,296420,1,0,0:0:0:0:
320,192,296420,1,0,0:0:0:0:
64,192,296420,1,0,0:0:0:0:
192,192,296503,1,0,0:0:0:0:
448,192,296585,1,0,0:0:0:0:
320,192,296585,1,0,0:0:0:0:
192,192,296667,1,0,0:0:0:0:
448,192,296750,1,0,0:0:0:0:
320,192,296750,1,0,0:0:0:0:
64,192,296750,1,0,0:0:0:0:
192,192,296915,1,0,0:0:0:0:
64,192,296915,1,0,0:0:0:0:
448,192,297080,1,0,0:0:0:0:
64,192,297080,1,0,0:0:0:0:
448,192,297244,1,0,0:0:0:0:
320,192,297244,1,0,0:0:0:0:
320,192,297409,1,0,0:0:0:0:
192,192,297409,1,0,0:0:0:0:
320,192,297574,1,0,0:0:0:0:
192,192,297574,1,0,0:0:0:0:
448,192,297739,1,0,0:0:0:0:
64,192,297739,1,0,0:0:0:0:
320,192,297904,1,0,0:0:0:0:
64,192,297904,1,0,0:0:0:0:
448,192,298069,1,0,0:0:0:0:
192,192,298069,1,0,0:0:0:0:
448,192,298233,1,0,0:0:0:0:
192,192,298233,1,0,0:0:0:0:
448,192,298398,1,0,0:0:0:0:
64,192,298398,1,0,0:0:0:0:
448,192,298563,1,0,0:0:0:0:
64,192,298563,1,0,0:0:0:0:
320,192,298728,1,0,0:0:0:0:
192,192,298728,1,0,0:0:0:0:
192,192,298893,1,0,0:0:0:0:
64,192,298893,1,0,0:0:0:0:
320,192,298975,1,0,0:0:0:0:
448,192,299058,1,0,0:0:0:0:
192,192,299058,1,0,0:0:0:0:
64,192,299058,1,0,0:0:0:0:
320,192,299222,1,0,0:0:0:0:
448,192,299387,1,0,0:0:0:0:
320,192,299387,1,0,0:0:0:0:
192,192,299387,1,0,0:0:0:0:
448,192,299552,1,0,0:0:0:0:
320,192,299552,1,0,0:0:0:0:
448,192,299717,1,0,0:0:0:0:
64,192,299717,1,0,0:0:0:0:
192,192,299882,1,0,0:0:0:0:
64,192,299882,1,0,0:0:0:0:
320,192,300047,1,0,0:0:0:0:
192,192,300047,1,0,0:0:0:0:
320,192,300211,1,0,0:0:0:0:
192,192,300211,1,0,0:0:0:0:
448,192,300376,1,0,0:0:0:0:
64,192,300376,1,0,0:0:0:0:
448,192,300541,1,0,0:0:0:0:
192,192,300541,1,0,0:0:0:0:
320,192,300706,1,0,0:0:0:0:
192,192,300706,1,0,0:0:0:0:
448,192,300871,1,0,0:0:0:0:
320,192,300871,1,0,0:0:0:0:
448,192,301036,1,0,0:0:0:0:
192,192,301036,1,0,0:0:0:0:
64,192,301036,1,0,0:0:0:0:
192,192,301200,1,0,0:0:0:0:
320,192,301365,1,0,0:0:0:0:
64,192,301365,1,0,0:0:0:0:
448,192,301530,1,0,0:0:0:0:
192,192,301530,1,0,0:0:0:0:
448,192,301695,1,0,0:0:0:0:
320,192,301695,1,0,0:0:0:0:
64,192,301695,1,0,0:0:0:0:
192,192,301860,1,0,0:0:0:0:
320,192,301942,1,0,0:0:0:0:
448,192,302025,1,0,0:0:0:0:
192,192,302025,1,0,0:0:0:0:
64,192,302025,1,0,0:0:0:0:
320,192,302189,1,0,0:0:0:0:
64,192,302189,1,0,0:0:0:0:
448,192,302354,1,0,0:0:0:0:
64,192,302354,1,0,0:0:0:0:
448,192,302519,1,0,0:0:0:0:
192,192,302519,1,0,0:0:0:0:
320,192,302684,1,0,0:0:0:0:
192,192,302684,1,0,0:0:0:0:
448,192,302849,1,0,0:0:0:0:
64,192,302849,1,0,0:0:0:0:
448,192,303014,1,0,0:0:0:0:
64,192,303014,1,0,0:0:0:0:
320,192,303178,1,0,0:0:0:0:
64,192,303178,1,0,0:0:0:0:
192,192,303261,1,0,0:0:0:0:
448,192,303343,1,0,0:0:0:0:
320,192,303343,1,0,0:0:0:0:
64,192,303343,1,0,0:0:0:0:
448,192,303508,1,0,0:0:0:0:
448,192,303673,1,0,0:0:0:0:
64,192,303673,1,0,0:0:0:0:
320,192,303838,1,0,0:0:0:0:
192,192,303838,1,0,0:0:0:0:
448,192,304003,1,0,0:0:0:0:
320,192,304003,1,0,0:0:0:0:
448,192,304167,1,0,0:0:0:0:
320,192,304167,1,0,0:0:0:0:
448,192,304332,1,0,0:0:0:0:
192,192,304332,1,0,0:0:0:0:
64,192,304332,1,0,0:0:0:0:
320,192,304497,1,0,0:0:0:0:
192,192,304580,1,0,0:0:0:0:
448,192,304662,1,0,0:0:0:0:
320,192,304662,1,0,0:0:0:0:
64,192,304662,1,0,0:0:0:0:
192,192,304827,1,0,0:0:0:0:
448,192,304992,1,0,0:0:0:0:
320,192,304992,1,0,0:0:0:0:
320,192,305156,1,0,0:0:0:0:
448,192,305321,1,0,0:0:0:0:
192,192,305321,1,0,0:0:0:0:
64,192,305321,1,0,0:0:0:0:
192,192,305486,1,0,0:0:0:0:
448,192,305651,1,0,0:0:0:0:
320,192,305651,1,0,0:0:0:0:
64,192,305651,1,0,0:0:0:0:
320,192,305816,1,0,0:0:0:0:
192,192,305981,1,0,0:0:0:0:
64,192,305981,1,0,0:0:0:0:
448,192,306200,1,0,0:0:0:0:
320,192,306255,1,0,0:0:0:0:
192,192,306310,1,0,0:0:0:0:
64,192,306310,1,0,0:0:0:0:
448,192,306420,1,0,0:0:0:0:
320,192,306420,1,0,0:0:0:0:
64,192,306530,1,0,0:0:0:0:
192,192,306530,1,0,0:0:0:0:
448,192,306640,1,0,0:0:0:0:
320,192,306640,1,0,0:0:0:0:
320,192,306860,1,0,0:0:0:0:
448,192,306860,1,0,0:0:0:0:
448,192,307080,1,0,0:0:0:0:
320,192,307080,1,0,0:0:0:0:
448,192,307299,128,0,311091:0:0:0:0:
320,192,307299,128,0,311091:0:0:0:0:
64,192,307299,1,0,0:0:0:0:
192,192,311091,1,0,0:0:0:0:
64,192,311091,1,0,0:0:0:0:
320,192,311173,1,0,0:0:0:0:
448,192,311255,128,0,311750:0:0:0:0:
192,192,311255,128,0,311750:0:0:0:0:
64,192,311255,1,0,0:0:0:0:
320,192,311915,128,0,312409:0:0:0:0:
192,192,311915,128,0,312409:0:0:0:0:
64,192,311915,1,0,0:0:0:0:
448,192,312574,128,0,315047:0:0:0:0:
192,192,312574,1,0,0:0:0:0:
64,192,312574,128,0,315047:0:0:0:0:
320,192,315211,1,0,0:0:0:0:
192,192,315211,128,0,317025:0:0:0:0:
64,192,315211,128,0,317025:0:0:0:0:
320,192,316365,1,0,0:0:0:0:
448,192,316448,1,0,0:0:0:0:
320,192,316530,1,0,0:0:0:0:
448,192,317025,1,0,0:0:0:0:
320,192,317025,1,0,0:0:0:0:
192,192,317107,1,0,0:0:0:0:
448,192,317189,1,0,0:0:0:0:
320,192,317189,1,0,0:0:0:0:
448,192,317354,1,0,0:0:0:0:
320,192,317354,1,0,0:0:0:0:
192,192,317519,1,0,0:0:0:0:
64,192,317519,1,0,0:0:0:0:
320,192,317684,1,0,0:0:0:0:
448,192,317849,128,0,319167:0:0:0:0:
192,192,317849,1,0,0:0:0:0:
64,192,317849,1,0,0:0:0:0:
64,192,318014,1,0,0:0:0:0:
192,192,318096,1,0,0:0:0:0:
320,192,318178,1,0,0:0:0:0:
192,192,318508,1,0,0:0:0:0:
64,192,318508,1,0,0:0:0:0:
320,192,318673,1,0,0:0:0:0:
192,192,318755,1,0,0:0:0:0:
320,192,318838,1,0,0:0:0:0:
192,192,319003,1,0,0:0:0:0:
64,192,319003,1,0,0:0:0:0:
320,192,319167,128,0,320486:0:0:0:0:
192,192,319250,1,0,0:0:0:0:
64,192,319332,1,0,0:0:0:0:
192,192,319415,1,0,0:0:0:0:
448,192,319497,1,0,0:0:0:0:
192,192,319827,1,0,0:0:0:0:
64,192,319827,1,0,0:0:0:0:
448,192,319909,1,0,0:0:0:0:
192,192,319992,1,0,0:0:0:0:
448,192,320074,1,0,0:0:0:0:
64,192,320156,1,0,0:0:0:0:
448,192,320321,1,0,0:0:0:0:
448,192,320486,1,0,0:0:0:0:
192,192,320486,1,0,0:0:0:0:
64,192,320486,128,0,321805:0:0:0:0:
192,192,320651,1,0,0:0:0:0:
320,192,320733,1,0,0:0:0:0:
448,192,320816,1,0,0:0:0:0:
192,192,320981,1,0,0:0:0:0:
448,192,321145,1,0,0:0:0:0:
320,192,321145,1,0,0:0:0:0:
192,192,321310,1,0,0:0:0:0:
320,192,321393,1,0,0:0:0:0:
448,192,321475,1,0,0:0:0:0:
192,192,321475,1,0,0:0:0:0:
448,192,321640,1,0,0:0:0:0:
320,192,321640,1,0,0:0:0:0:
192,192,321805,128,0,322464:0:0:0:0:
320,192,321970,1,0,0:0:0:0:
64,192,322052,1,0,0:0:0:0:
320,192,322134,1,0,0:0:0:0:
448,192,322464,1,0,0:0:0:0:
320,192,322464,128,0,323123:0:0:0:0:
64,192,322629,1,0,0:0:0:0:
192,192,322711,1,0,0:0:0:0:
448,192,322794,1,0,0:0:0:0:
192,192,322959,1,0,0:0:0:0:
448,192,323123,128,0,324442:0:0:0:0:
192,192,323123,1,0,0:0:0:0:
64,192,323123,1,0,0:0:0:0:
64,192,323288,1,0,0:0:0:0:
192,192,323371,1,0,0:0:0:0:
320,192,323453,1,0,0:0:0:0:
192,192,323783,1,0,0:0:0:0:
64,192,323783,1,0,0:0:0:0:
320,192,323865,1,0,0:0:0:0:
192,192,323948,1,0,0:0:0:0:
320,192,324030,1,0,0:0:0:0:
192,192,324112,1,0,0:0:0:0:
192,192,324277,1,0,0:0:0:0:
64,192,324277,1,0,0:0:0:0:
320,192,324442,128,0,325761:0:0:0:0:
64,192,324607,1,0,0:0:0:0:
192,192,324689,1,0,0:0:0:0:
448,192,324772,1,0,0:0:0:0:
64,192,324772,1,0,0:0:0:0:
192,192,325102,1,0,0:0:0:0:
64,192,325102,1,0,0:0:0:0:
192,192,325266,1,0,0:0:0:0:
64,192,325266,1,0,0:0:0:0:
448,192,325349,1,0,0:0:0:0:
64,192,325431,1,0,0:0:0:0:
448,192,325761,1,0,0:0:0:0:
192,192,325761,1,0,0:0:0:0:
64,192,325761,128,0,327080:0:0:0:0:
448,192,326091,1,0,0:0:0:0:
192,192,326255,1,0,0:0:0:0:
448,192,326420,1,0,0:0:0:0:
448,192,326585,1,0,0:0:0:0:
320,192,326750,1,0,0:0:0:0:
320,192,326915,1,0,0:0:0:0:
448,192,327080,1,0,0:0:0:0:
320,192,327080,1,0,0:0:0:0:
448,192,327244,1,0,0:0:0:0:
320,192,327244,1,0,0:0:0:0:
192,192,327409,1,0,0:0:0:0:
64,192,327409,1,0,0:0:0:0:
192,192,327574,1,0,0:0:0:0:
64,192,327574,1,0,0:0:0:0:
448,192,327739,1,0,0:0:0:0:
320,192,327739,1,0,0:0:0:0:
448,192,327904,1,0,0:0:0:0:
320,192,327904,1,0,0:0:0:0:
192,192,328069,1,0,0:0:0:0:
64,192,328069,1,0,0:0:0:0:
320,192,328151,1,0,0:0:0:0:
192,192,328233,1,0,0:0:0:0:
64,192,328233,1,0,0:0:0:0:
320,192,328316,1,0,0:0:0:0:
448,192,328398,1,0,0:0:0:0:
192,192,328398,1,0,0:0:0:0:
64,192,328398,1,0,0:0:0:0:
192,192,328563,1,0,0:0:0:0:
320,192,328645,1,0,0:0:0:0:
448,192,328728,1,0,0:0:0:0:
64,192,328728,1,0,0:0:0:0:
320,192,328893,1,0,0:0:0:0:
192,192,328975,1,0,0:0:0:0:
320,192,329058,1,0,0:0:0:0:
448,192,329222,1,0,0:0:0:0:
64,192,329222,1,0,0:0:0:0:
192,192,329387,1,0,0:0:0:0:
448,192,329552,1,0,0:0:0:0:
320,192,329552,1,0,0:0:0:0:
192,192,329634,1,0,0:0:0:0:
448,192,329717,1,0,0:0:0:0:
320,192,329717,1,0,0:0:0:0:
192,192,329799,1,0,0:0:0:0:
448,192,329882,1,0,0:0:0:0:
320,192,329882,1,0,0:0:0:0:
192,192,329964,1,0,0:0:0:0:
448,192,330047,1,0,0:0:0:0:
64,192,330047,1,0,0:0:0:0:
192,192,330211,1,0,0:0:0:0:
320,192,330294,1,0,0:0:0:0:
192,192,330376,1,0,0:0:0:0:
448,192,330541,1,0,0:0:0:0:
64,192,330541,1,0,0:0:0:0:
192,192,330706,1,0,0:0:0:0:
448,192,330788,1,0,0:0:0:0:
192,192,330871,1,0,0:0:0:0:
448,192,330953,1,0,0:0:0:0:
192,192,331036,1,0,0:0:0:0:
64,192,331036,1,0,0:0:0:0:
320,192,331118,1,0,0:0:0:0:
192,192,331200,1,0,0:0:0:0:
64,192,331200,1,0,0:0:0:0:
320,192,331283,1,0,0:0:0:0:
448,192,331365,1,0,0:0:0:0:
64,192,331365,1,0,0:0:0:0:
320,192,331530,1,0,0:0:0:0:
192,192,331612,1,0,0:0:0:0:
320,192,331695,1,0,0:0:0:0:
448,192,331860,1,0,0:0:0:0:
64,192,331860,1,0,0:0:0:0:
192,192,332025,1,0,0:0:0:0:
320,192,332107,1,0,0:0:0:0:
192,192,332189,1,0,0:0:0:0:
448,192,332354,1,0,0:0:0:0:
320,192,332354,1,0,0:0:0:0:
192,192,332437,1,0,0:0:0:0:
448,192,332519,1,0,0:0:0:0:
192,192,332602,1,0,0:0:0:0:
320,192,332684,1,0,0:0:0:0:
64,192,332684,1,0,0:0:0:0:
320,192,332849,1,0,0:0:0:0:
448,192,332931,1,0,0:0:0:0:
192,192,333014,1,0,0:0:0:0:
64,192,333014,1,0,0:0:0:0:
320,192,333096,1,0,0:0:0:0:
448,192,333178,1,0,0:0:0:0:
192,192,333178,1,0,0:0:0:0:
64,192,333178,1,0,0:0:0:0:
448,192,333343,1,0,0:0:0:0:
320,192,333343,1,0,0:0:0:0:
192,192,333426,1,0,0:0:0:0:
448,192,333508,1,0,0:0:0:0:
320,192,333508,1,0,0:0:0:0:
64,192,333508,1,0,0:0:0:0:
448,192,333673,1,0,0:0:0:0:
320,192,333673,1,0,0:0:0:0:
64,192,333673,1,0,0:0:0:0:
192,192,333755,1,0,0:0:0:0:
320,192,333838,1,0,0:0:0:0:
192,192,333920,1,0,0:0:0:0:
448,192,334003,1,0,0:0:0:0:
64,192,334003,1,0,0:0:0:0:
192,192,334167,1,0,0:0:0:0:
320,192,334250,1,0,0:0:0:0:
448,192,334332,1,0,0:0:0:0:
448,192,334497,1,0,0:0:0:0:
64,192,334497,1,0,0:0:0:0:
320,192,334662,1,0,0:0:0:0:
192,192,334827,1,0,0:0:0:0:
64,192,334827,1,0,0:0:0:0:
320,192,334909,1,0,0:0:0:0:
192,192,334992,1,0,0:0:0:0:
64,192,334992,1,0,0:0:0:0:
320,192,335074,1,0,0:0:0:0:
192,192,335156,1,0,0:0:0:0:
64,192,335156,1,0,0:0:0:0:
320,192,335239,1,0,0:0:0:0:
448,192,335321,1,0,0:0:0:0:
64,192,335321,1,0,0:0:0:0:
320,192,335486,1,0,0:0:0:0:
192,192,335569,1,0,0:0:0:0:
64,192,335651,1,0,0:0:0:0:
448,192,335816,1,0,0:0:0:0:
64,192,335816,1,0,0:0:0:0:
320,192,335981,1,0,0:0:0:0:
64,192,336063,1,0,0:0:0:0:
320,192,336145,1,0,0:0:0:0:
64,192,336228,1,0,0:0:0:0:
448,192,336310,1,0,0:0:0:0:
320,192,336310,1,0,0:0:0:0:
192,192,336393,1,0,0:0:0:0:
448,192,336475,1,0,0:0:0:0:
320,192,336475,1,0,0:0:0:0:
192,192,336558,1,0,0:0:0:0:
448,192,336640,1,0,0:0:0:0:
64,192,336640,1,0,0:0:0:0:
192,192,336805,1,0,0:0:0:0:
320,192,336887,1,0,0:0:0:0:
192,192,336970,1,0,0:0:0:0:
448,192,337134,1,0,0:0:0:0:
64,192,337134,1,0,0:0:0:0:
320,192,337299,1,0,0:0:0:0:
192,192,337382,1,0,0:0:0:0:
320,192,337464,1,0,0:0:0:0:
192,192,337629,1,0,0:0:0:0:
64,192,337629,1,0,0:0:0:0:
64,192,337794,1,0,0:0:0:0:
320,192,337876,1,0,0:0:0:0:
448,192,337959,1,0,0:0:0:0:
192,192,337959,1,0,0:0:0:0:
448,192,338123,1,0,0:0:0:0:
320,192,338123,1,0,0:0:0:0:
192,192,338206,1,0,0:0:0:0:
448,192,338288,1,0,0:0:0:0:
320,192,338288,1,0,0:0:0:0:
192,192,338371,1,0,0:0:0:0:
448,192,338453,1,0,0:0:0:0:
320,192,338453,1,0,0:0:0:0:
192,192,338536,1,0,0:0:0:0:
448,192,338618,1,0,0:0:0:0:
320,192,338618,1,0,0:0:0:0:
64,192,338618,1,0,0:0:0:0:
192,192,338783,1,0,0:0:0:0:
320,192,338865,1,0,0:0:0:0:
448,192,338948,1,0,0:0:0:0:
192,192,338948,1,0,0:0:0:0:
64,192,338948,1,0,0:0:0:0:
320,192,339030,1,0,0:0:0:0:
192,192,339112,1,0,0:0:0:0:
320,192,339195,1,0,0:0:0:0:
448,192,339277,1,0,0:0:0:0:
64,192,339277,1,0,0:0:0:0:
320,192,339442,1,0,0:0:0:0:
192,192,339525,1,0,0:0:0:0:
320,192,339607,1,0,0:0:0:0:
448,192,339772,1,0,0:0:0:0:
64,192,339772,1,0,0:0:0:0:
192,192,339937,1,0,0:0:0:0:
448,192,340102,1,0,0:0:0:0:
320,192,340102,1,0,0:0:0:0:
192,192,340184,1,0,0:0:0:0:
448,192,340266,1,0,0:0:0:0:
320,192,340266,1,0,0:0:0:0:
192,192,340349,1,0,0:0:0:0:
448,192,340431,1,0,0:0:0:0:
320,192,340431,1,0,0:0:0:0:
192,192,340514,1,0,0:0:0:0:
448,192,340596,1,0,0:0:0:0:
64,192,340596,1,0,0:0:0:0:
192,192,340761,1,0,0:0:0:0:
320,192,340843,1,0,0:0:0:0:
192,192,340926,1,0,0:0:0:0:
448,192,341091,1,0,0:0:0:0:
64,192,341091,1,0,0:0:0:0:
192,192,341255,1,0,0:0:0:0:
448,192,341338,1,0,0:0:0:0:
192,192,341420,1,0,0:0:0:0:
448,192,341503,1,0,0:0:0:0:
192,192,341585,1,0,0:0:0:0:
64,192,341585,1,0,0:0:0:0:
320,192,341667,1,0,0:0:0:0:
192,192,341750,1,0,0:0:0:0:
64,192,341750,1,0,0:0:0:0:
320,192,341832,1,0,0:0:0:0:
448,192,341915,1,0,0:0:0:0:
64,192,341915,1,0,0:0:0:0:
320,192,342080,1,0,0:0:0:0:
192,192,342162,1,0,0:0:0:0:
320,192,342244,1,0,0:0:0:0:
448,192,342409,1,0,0:0:0:0:
64,192,342409,1,0,0:0:0:0:
192,192,342574,1,0,0:0:0:0:
320,192,342656,1,0,0:0:0:0:
448,192,342739,1,0,0:0:0:0:
192,192,342739,1,0,0:0:0:0:
448,192,342904,1,0,0:0:0:0:
320,192,342904,1,0,0:0:0:0:
192,192,342986,1,0,0:0:0:0:
448,192,343069,1,0,0:0:0:0:
192,192,343151,1,0,0:0:0:0:
320,192,343233,1,0,0:0:0:0:
64,192,343233,1,0,0:0:0:0:
320,192,343398,1,0,0:0:0:0:
192,192,343563,1,0,0:0:0:0:
64,192,343563,1,0,0:0:0:0:
320,192,343645,1,0,0:0:0:0:
448,192,343728,1,0,0:0:0:0:
192,192,343728,1,0,0:0:0:0:
64,192,343728,1,0,0:0:0:0:
448,192,343893,1,0,0:0:0:0:
320,192,343893,1,0,0:0:0:0:
192,192,343975,1,0,0:0:0:0:
448,192,344058,1,0,0:0:0:0:
320,192,344058,1,0,0:0:0:0:
64,192,344058,1,0,0:0:0:0:
448,192,344222,1,0,0:0:0:0:
320,192,344222,1,0,0:0:0:0:
64,192,344222,1,0,0:0:0:0:
192,192,344305,1,0,0:0:0:0:
320,192,344387,1,0,0:0:0:0:
192,192,344470,1,0,0:0:0:0:
448,192,344552,1,0,0:0:0:0:
64,192,344552,1,0,0:0:0:0:
192,192,344717,1,0,0:0:0:0:
320,192,344799,1,0,0:0:0:0:
448,192,344882,1,0,0:0:0:0:
448,192,345047,1,0,0:0:0:0:
64,192,345047,1,0,0:0:0:0:
320,192,345211,1,0,0:0:0:0:
192,192,345376,1,0,0:0:0:0:
64,192,345376,1,0,0:0:0:0:
320,192,345459,1,0,0:0:0:0:
192,192,345541,1,0,0:0:0:0:
64,192,345541,1,0,0:0:0:0:
320,192,345623,1,0,0:0:0:0:
192,192,345706,1,0,0:0:0:0:
64,192,345706,1,0,0:0:0:0:
320,192,345788,1,0,0:0:0:0:
448,192,345871,1,0,0:0:0:0:
64,192,345871,1,0,0:0:0:0:
320,192,346036,1,0,0:0:0:0:
192,192,346118,1,0,0:0:0:0:
64,192,346200,1,0,0:0:0:0:
192,192,346283,1,0,0:0:0:0:
448,192,346365,1,0,0:0:0:0:
320,192,346365,1,0,0:0:0:0:
192,192,346448,1,0,0:0:0:0:
64,192,346448,1,0,0:0:0:0:
448,192,346530,1,0,0:0:0:0:
320,192,346530,1,0,0:0:0:0:
192,192,346612,1,0,0:0:0:0:
320,192,346695,1,0,0:0:0:0:
192,192,346777,1,0,0:0:0:0:
448,192,346860,1,0,0:0:0:0:
320,192,346860,1,0,0:0:0:0:
64,192,346860,1,0,0:0:0:0:
192,192,346942,1,0,0:0:0:0:
320,192,347025,1,0,0:0:0:0:
192,192,347107,1,0,0:0:0:0:
448,192,347189,1,0,0:0:0:0:
192,192,347272,1,0,0:0:0:0:
448,192,347354,1,0,0:0:0:0:
320,192,347354,1,0,0:0:0:0:
64,192,347354,1,0,0:0:0:0:
192,192,347437,1,0,0:0:0:0:
64,192,347519,1,0,0:0:0:0:
192,192,347602,1,0,0:0:0:0:
320,192,347684,1,0,0:0:0:0:
192,192,347766,1,0,0:0:0:0:
448,192,347849,1,0,0:0:0:0:
320,192,347849,1,0,0:0:0:0:
64,192,347849,1,0,0:0:0:0:
192,192,347931,1,0,0:0:0:0:
320,192,348014,1,0,0:0:0:0:
448,192,348096,1,0,0:0:0:0:
320,192,348178,1,0,0:0:0:0:
192,192,348178,1,0,0:0:0:0:
64,192,348178,1,0,0:0:0:0:
448,192,348838,128,0,349167:0:0:0:0:
320,192,349167,128,0,349497:0:0:0:0:
448,192,349497,1,0,0:0:0:0:
192,192,349497,1,0,0:0:0:0:
64,192,349497,1,0,0:0:0:0:
320,192,349580,1,0,0:0:0:0:
192,192,349662,1,0,0:0:0:0:
320,192,349744,1,0,0:0:0:0:
448,192,349827,1,0,0:0:0:0:
64,192,349827,1,0,0:0:0:0:
320,192,350156,1,0,0:0:0:0:
192,192,350239,1,0,0:0:0:0:
320,192,350321,1,0,0:0:0:0:
448,192,350651,1,0,0:0:0:0:
64,192,350651,1,0,0:0:0:0:
192,192,350816,1,0,0:0:0:0:
320,192,350898,1,0,0:0:0:0:
192,192,350981,1,0,0:0:0:0:
320,192,351063,1,0,0:0:0:0:
448,192,351145,1,0,0:0:0:0:
64,192,351145,1,0,0:0:0:0:
320,192,351475,1,0,0:0:0:0:
192,192,351558,1,0,0:0:0:0:
320,192,351640,1,0,0:0:0:0:
448,192,351970,1,0,0:0:0:0:
64,192,351970,1,0,0:0:0:0:
192,192,352134,1,0,0:0:0:0:
448,192,352217,1,0,0:0:0:0:
192,192,352299,1,0,0:0:0:0:
320,192,352382,1,0,0:0:0:0:
448,192,352464,1,0,0:0:0:0:
64,192,352464,1,0,0:0:0:0:
320,192,352794,1,0,0:0:0:0:
192,192,352876,1,0,0:0:0:0:
320,192,352959,1,0,0:0:0:0:
448,192,353288,1,0,0:0:0:0:
64,192,353288,1,0,0:0:0:0:
192,192,353453,1,0,0:0:0:0:
320,192,353536,1,0,0:0:0:0:
192,192,353618,1,0,0:0:0:0:
320,192,353700,1,0,0:0:0:0:
448,192,353783,1,0,0:0:0:0:
64,192,353783,1,0,0:0:0:0:
192,192,354112,1,0,0:0:0:0:
320,192,354195,1,0,0:0:0:0:
192,192,354277,1,0,0:0:0:0:
320,192,354360,1,0,0:0:0:0:
448,192,354442,1,0,0:0:0:0:
64,192,354442,1,0,0:0:0:0:
448,192,354772,1,0,0:0:0:0:
192,192,354772,1,0,0:0:0:0:
64,192,354772,1,0,0:0:0:0:
320,192,354854,1,0,0:0:0:0:
192,192,354937,1,0,0:0:0:0:
320,192,355019,1,0,0:0:0:0:
448,192,355102,1,0,0:0:0:0:
64,192,355102,1,0,0:0:0:0:
320,192,355431,1,0,0:0:0:0:
192,192,355514,1,0,0:0:0:0:
320,192,355596,1,0,0:0:0:0:
448,192,355926,1,0,0:0:0:0:
64,192,355926,1,0,0:0:0:0:
192,192,356091,1,0,0:0:0:0:
448,192,356173,1,0,0:0:0:0:
192,192,356255,1,0,0:0:0:0:
320,192,356338,1,0,0:0:0:0:
448,192,356420,1,0,0:0:0:0:
64,192,356420,1,0,0:0:0:0:
320,192,356750,1,0,0:0:0:0:
192,192,356832,1,0,0:0:0:0:
320,192,356915,1,0,0:0:0:0:
448,192,357244,1,0,0:0:0:0:
64,192,357244,1,0,0:0:0:0:
192,192,357409,1,0,0:0:0:0:
320,192,357492,1,0,0:0:0:0:
192,192,357574,1,0,0:0:0:0:
320,192,357656,1,0,0:0:0:0:
448,192,357739,1,0,0:0:0:0:
64,192,357739,1,0,0:0:0:0:
320,192,358069,1,0,0:0:0:0:
192,192,358151,1,0,0:0:0:0:
320,192,358233,1,0,0:0:0:0:
448,192,358563,1,0,0:0:0:0:
64,192,358563,1,0,0:0:0:0:
192,192,358728,1,0,0:0:0:0:
320,192,358810,1,0,0:0:0:0:
192,192,358893,1,0,0:0:0:0:
320,192,358975,1,0,0:0:0:0:
448,192,359058,1,0,0:0:0:0:
192,192,359058,1,0,0:0:0:0:
64,192,359058,128,0,359387:0:0:0:0:
192,192,359387,1,0,0:0:0:0:
320,192,359470,1,0,0:0:0:0:
192,192,359552,1,0,0:0:0:0:
448,192,359634,1,0,0:0:0:0:
320,192,359717,1,0,0:0:0:0:
192,192,359717,1,0,0:0:0:0:
64,192,359717,128,0,360047:0:0:0:0:
448,192,360047,1,0,0:0:0:0:
320,192,360047,1,0,0:0:0:0:
192,192,360047,1,0,0:0:0:0:
64,192,360129,1,0,0:0:0:0:
320,192,360211,1,0,0:0:0:0:
192,192,360294,1,0,0:0:0:0:
448,192,360376,1,0,0:0:0:0:
64,192,360376,1,0,0:0:0:0:
192,192,360706,1,0,0:0:0:0:
320,192,360788,1,0,0:0:0:0:
192,192,360871,1,0,0:0:0:0:
448,192,361200,1,0,0:0:0:0:
64,192,361200,1,0,0:0:0:0:
320,192,361365,1,0,0:0:0:0:
64,192,361448,1,0,0:0:0:0:
320,192,361530,1,0,0:0:0:0:
192,192,361612,1,0,0:0:0:0:
448,192,361695,1,0,0:0:0:0:
64,192,361695,1,0,0:0:0:0:
192,192,362025,1,0,0:0:0:0:
320,192,362107,1,0,0:0:0:0:
192,192,362189,1,0,0:0:0:0:
320,192,362354,1,0,0:0:0:0:
448,192,362519,1,0,0:0:0:0:
64,192,362519,1,0,0:0:0:0:
320,192,362684,1,0,0:0:0:0:
192,192,362766,1,0,0:0:0:0:
320,192,362849,1,0,0:0:0:0:
192,192,362931,1,0,0:0:0:0:
448,192,363014,1,0,0:0:0:0:
64,192,363014,1,0,0:0:0:0:
192,192,363343,1,0,0:0:0:0:
320,192,363426,1,0,0:0:0:0:
192,192,363508,1,0,0:0:0:0:
448,192,363838,1,0,0:0:0:0:
64,192,363838,1,0,0:0:0:0:
320,192,364003,1,0,0:0:0:0:
192,192,364085,1,0,0:0:0:0:
320,192,364167,1,0,0:0:0:0:
192,192,364250,1,0,0:0:0:0:
448,192,364332,1,0,0:0:0:0:
64,192,364332,1,0,0:0:0:0:
320,192,364662,1,0,0:0:0:0:
64,192,364744,1,0,0:0:0:0:
320,192,364827,1,0,0:0:0:0:
192,192,364909,1,0,0:0:0:0:
448,192,364992,1,0,0:0:0:0:
64,192,364992,1,0,0:0:0:0:
448,192,365321,1,0,0:0:0:0:
320,192,365321,1,0,0:0:0:0:
64,192,365321,1,0,0:0:0:0:
192,192,365404,1,0,0:0:0:0:
320,192,365486,1,0,0:0:0:0:
192,192,365569,1,0,0:0:0:0:
448,192,365651,1,0,0:0:0:0:
64,192,365651,1,0,0:0:0:0:
192,192,365981,1,0,0:0:0:0:
320,192,366063,1,0,0:0:0:0:
192,192,366145,1,0,0:0:0:0:
448,192,366475,1,0,0:0:0:0:
64,192,366475,1,0,0:0:0:0:
320,192,366640,1,0,0:0:0:0:
192,192,366722,1,0,0:0:0:0:
320,192,366805,1,0,0:0:0:0:
192,192,366887,1,0,0:0:0:0:
448,192,366970,1,0,0:0:0:0:
64,192,366970,1,0,0:0:0:0:
192,192,367299,1,0,0:0:0:0:
320,192,367382,1,0,0:0:0:0:
192,192,367464,1,0,0:0:0:0:
448,192,367794,1,0,0:0:0:0:
64,192,367794,1,0,0:0:0:0:
320,192,367959,1,0,0:0:0:0:
64,192,368041,1,0,0:0:0:0:
320,192,368123,1,0,0:0:0:0:
192,192,368206,1,0,0:0:0:0:
448,192,368288,1,0,0:0:0:0:
64,192,368288,1,0,0:0:0:0:
192,192,368618,1,0,0:0:0:0:
320,192,368700,1,0,0:0:0:0:
192,192,368783,1,0,0:0:0:0:
448,192,368948,1,0,0:0:0:0:
320,192,368948,1,0,0:0:0:0:
192,192,369030,1,0,0:0:0:0:
64,192,369030,1,0,0:0:0:0:
448,192,369112,1,0,0:0:0:0:
320,192,369112,1,0,0:0:0:0:
192,192,369195,1,0,0:0:0:0:
320,192,369277,1,0,0:0:0:0:
448,192,369332,1,0,0:0:0:0:
64,192,369387,1,0,0:0:0:0:
192,192,369442,1,0,0:0:0:0:
320,192,369497,1,0,0:0:0:0:
64,192,369552,1,0,0:0:0:0:
448,192,369607,1,0,0:0:0:0:
192,192,369689,1,0,0:0:0:0:
448,192,369772,1,0,0:0:0:0:
320,192,369854,1,0,0:0:0:0:
192,192,369854,1,0,0:0:0:0:
64,192,369854,1,0,0:0:0:0:
448,192,369937,1,0,0:0:0:0:
320,192,370019,1,0,0:0:0:0:
448,192,370102,1,0,0:0:0:0:
192,192,370184,1,0,0:0:0:0:
320,192,370266,1,0,0:0:0:0:
64,192,370349,1,0,0:0:0:0:
448,192,370431,1,0,0:0:0:0:
192,192,370514,1,0,0:0:0:0:
448,192,370596,1,0,0:0:0:0:
320,192,370596,1,0,0:0:0:0:
64,192,370596,1,0,0:0:0:0:
192,192,370678,1,0,0:0:0:0:
320,192,370761,1,0,0:0:0:0:
192,192,370843,1,0,0:0:0:0:
448,192,370926,1,0,0:0:0:0:
64,192,370926,1,0,0:0:0:0:
192,192,371008,1,0,0:0:0:0:
320,192,371091,1,0,0:0:0:0:
192,192,371173,1,0,0:0:0:0:
320,192,371255,1,0,0:0:0:0:
192,192,371338,1,0,0:0:0:0:
320,192,371420,1,0,0:0:0:0:
192,192,371503,1,0,0:0:0:0:
448,192,371585,1,0,0:0:0:0:
64,192,371585,1,0,0:0:0:0:
192,192,371667,1,0,0:0:0:0:
320,192,371750,1,0,0:0:0:0:
192,192,371832,1,0,0:0:0:0:
448,192,371915,1,0,0:0:0:0:
192,192,371997,1,0,0:0:0:0:
448,192,372080,1,0,0:0:0:0:
192,192,372162,1,0,0:0:0:0:
448,192,372244,1,0,0:0:0:0:
64,192,372244,1,0,0:0:0:0:
320,192,372327,1,0,0:0:0:0:
192,192,372409,1,0,0:0:0:0:
320,192,372492,1,0,0:0:0:0:
192,192,372574,1,0,0:0:0:0:
320,192,372656,1,0,0:0:0:0:
192,192,372739,1,0,0:0:0:0:
320,192,372821,1,0,0:0:0:0:
448,192,372904,1,0,0:0:0:0:
64,192,372904,1,0,0:0:0:0:
320,192,372986,1,0,0:0:0:0:
192,192,373069,1,0,0:0:0:0:
320,192,373151,1,0,0:0:0:0:
64,192,373233,1,0,0:0:0:0:
320,192,373316,1,0,0:0:0:0:
64,192,373398,1,0,0:0:0:0:
320,192,373481,1,0,0:0:0:0:
448,192,373563,1,0,0:0:0:0:
64,192,373563,1,0,0:0:0:0:
192,192,373645,1,0,0:0:0:0:
320,192,373728,1,0,0:0:0:0:
192,192,373810,1,0,0:0:0:0:
320,192,373893,1,0,0:0:0:0:
192,192,373975,1,0,0:0:0:0:
320,192,374058,1,0,0:0:0:0:
192,192,374140,1,0,0:0:0:0:
448,192,374222,1,0,0:0:0:0:
64,192,374222,1,0,0:0:0:0:
192,192,374305,1,0,0:0:0:0:
320,192,374387,1,0,0:0:0:0:
192,192,374470,1,0,0:0:0:0:
448,192,374552,1,0,0:0:0:0:
192,192,374634,1,0,0:0:0:0:
448,192,374717,1,0,0:0:0:0:
192,192,374799,1,0,0:0:0:0:
448,192,374882,1,0,0:0:0:0:
64,192,374882,1,0,0:0:0:0:
320,192,374964,1,0,0:0:0:0:
192,192,375047,1,0,0:0:0:0:
320,192,375129,1,0,0:0:0:0:
192,192,375211,1,0,0:0:0:0:
320,192,375294,1,0,0:0:0:0:
192,192,375376,1,0,0:0:0:0:
320,192,375459,1,0,0:0:0:0:
448,192,375541,1,0,0:0:0:0:
64,192,375541,1,0,0:0:0:0:
192,192,375623,1,0,0:0:0:0:
320,192,375706,1,0,0:0:0:0:
192,192,375788,1,0,0:0:0:0:
448,192,375871,1,0,0:0:0:0:
320,192,375871,1,0,0:0:0:0:
64,192,375871,1,0,0:0:0:0:
192,192,375953,1,0,0:0:0:0:
320,192,376036,1,0,0:0:0:0:
192,192,376118,1,0,0:0:0:0:
448,192,376200,1,0,0:0:0:0:
64,192,376200,1,0,0:0:0:0:
192,192,376283,1,0,0:0:0:0:
320,192,376365,1,0,0:0:0:0:
192,192,376448,1,0,0:0:0:0:
320,192,376530,1,0,0:0:0:0:
192,192,376612,1,0,0:0:0:0:
320,192,376695,1,0,0:0:0:0:
192,192,376777,1,0,0:0:0:0:
448,192,376860,1,0,0:0:0:0:
64,192,376860,1,0,0:0:0:0:
192,192,376942,1,0,0:0:0:0:
320,192,377025,1,0,0:0:0:0:
192,192,377107,1,0,0:0:0:0:
448,192,377189,1,0,0:0:0:0:
192,192,377272,1,0,0:0:0:0:
448,192,377354,1,0,0:0:0:0:
192,192,377437,1,0,0:0:0:0:
448,192,377519,1,0,0:0:0:0:
64,192,377519,1,0,0:0:0:0:
320,192,377602,1,0,0:0:0:0:
192,192,377684,1,0,0:0:0:0:
320,192,377766,1,0,0:0:0:0:
192,192,377849,1,0,0:0:0:0:
320,192,377931,1,0,0:0:0:0:
192,192,378014,1,0,0:0:0:0:
320,192,378096,1,0,0:0:0:0:
448,192,378178,1,0,0:0:0:0:
64,192,378178,1,0,0:0:0:0:
320,192,378261,1,0,0:0:0:0:
192,192,378343,1,0,0:0:0:0:
320,192,378426,1,0,0:0:0:0:
64,192,378508,1,0,0:0:0:0:
320,192,378591,1,0,0:0:0:0:
64,192,378673,1,0,0:0:0:0:
320,192,378755,1,0,0:0:0:0:
448,192,378838,1,0,0:0:0:0:
64,192,378838,1,0,0:0:0:0:
192,192,378920,1,0,0:0:0:0:
320,192,379003,1,0,0:0:0:0:
192,192,379085,1,0,0:0:0:0:
320,192,379167,1,0,0:0:0:0:
192,192,379250,1,0,0:0:0:0:
320,192,379332,1,0,0:0:0:0:
192,192,379415,1,0,0:0:0:0:
448,192,379497,1,0,0:0:0:0:
64,192,379497,1,0,0:0:0:0:
192,192,379580,1,0,0:0:0:0:
320,192,379662,1,0,0:0:0:0:
192,192,379744,1,0,0:0:0:0:
448,192,379827,1,0,0:0:0:0:
192,192,379909,1,0,0:0:0:0:
448,192,379992,1,0,0:0:0:0:
192,192,380074,1,0,0:0:0:0:
448,192,380156,1,0,0:0:0:0:
64,192,380156,1,0,0:0:0:0:
320,192,380239,1,0,0:0:0:0:
64,192,380321,1,0,0:0:0:0:
320,192,380404,1,0,0:0:0:0:
192,192,380486,1,0,0:0:0:0:
320,192,380569,1,0,0:0:0:0:
64,192,380651,1,0,0:0:0:0:
320,192,380733,1,0,0:0:0:0:
448,192,380816,1,0,0:0:0:0:
64,192,380816,1,0,0:0:0:0:
192,192,380898,1,0,0:0:0:0:
320,192,380981,1,0,0:0:0:0:
192,192,381063,1,0,0:0:0:0:
448,192,381145,1,0,0:0:0:0:
320,192,381145,1,0,0:0:0:0:
64,192,381145,1,0,0:0:0:0:
192,192,381228,1,0,0:0:0:0:
448,192,381310,1,0,0:0:0:0:
192,192,381393,1,0,0:0:0:0:
448,192,381475,1,0,0:0:0:0:
64,192,381475,1,0,0:0:0:0:
320,192,381558,1,0,0:0:0:0:
64,192,381640,1,0,0:0:0:0:
320,192,381722,1,0,0:0:0:0:
64,192,381805,1,0,0:0:0:0:
320,192,381887,1,0,0:0:0:0:
192,192,381970,1,0,0:0:0:0:
320,192,382052,1,0,0:0:0:0:
448,192,382134,1,0,0:0:0:0:
64,192,382134,1,0,0:0:0:0:
320,192,382217,1,0,0:0:0:0:
192,192,382299,1,0,0:0:0:0:
320,192,382382,1,0,0:0:0:0:
448,192,382464,1,0,0:0:0:0:
192,192,382547,1,0,0:0:0:0:
448,192,382629,1,0,0:0:0:0:
192,192,382711,1,0,0:0:0:0:
448,192,382794,1,0,0:0:0:0:
64,192,382794,1,0,0:0:0:0:
320,192,382876,1,0,0:0:0:0:
64,192,382959,1,0,0:0:0:0:
320,192,383041,1,0,0:0:0:0:
64,192,383123,1,0,0:0:0:0:
320,192,383206,1,0,0:0:0:0:
192,192,383288,1,0,0:0:0:0:
320,192,383371,1,0,0:0:0:0:
448,192,383453,1,0,0:0:0:0:
64,192,383453,1,0,0:0:0:0:
192,192,383536,1,0,0:0:0:0:
320,192,383618,1,0,0:0:0:0:
192,192,383700,1,0,0:0:0:0:
448,192,383783,1,0,0:0:0:0:
192,192,383865,1,0,0:0:0:0:
448,192,383948,1,0,0:0:0:0:
192,192,384030,1,0,0:0:0:0:
448,192,384112,1,0,0:0:0:0:
64,192,384112,1,0,0:0:0:0:
320,192,384195,1,0,0:0:0:0:
64,192,384277,1,0,0:0:0:0:
320,192,384360,1,0,0:0:0:0:
192,192,384442,1,0,0:0:0:0:
320,192,384525,1,0,0:0:0:0:
192,192,384607,1,0,0:0:0:0:
320,192,384689,1,0,0:0:0:0:
448,192,384772,1,0,0:0:0:0:
64,192,384772,1,0,0:0:0:0:
320,192,384854,1,0,0:0:0:0:
192,192,384937,1,0,0:0:0:0:
320,192,385019,1,0,0:0:0:0:
448,192,385102,1,0,0:0:0:0:
192,192,385184,1,0,0:0:0:0:
448,192,385266,1,0,0:0:0:0:
192,192,385349,1,0,0:0:0:0:
448,192,385431,1,0,0:0:0:0:
64,192,385431,1,0,0:0:0:0:
320,192,385514,1,0,0:0:0:0:
64,192,385596,1,0,0:0:0:0:
320,192,385678,1,0,0:0:0:0:
192,192,385761,1,0,0:0:0:0:
448,192,385843,1,0,0:0:0:0:
192,192,385926,1,0,0:0:0:0:
64,192,386008,1,0,0:0:0:0:
448,192,386091,1,0,0:0:0:0:
320,192,386091,1,0,0:0:0:0:
192,192,386091,1,0,0:0:0:0:
64,192,386173,1,0,0:0:0:0:
192,192,386255,1,0,0:0:0:0:
320,192,386338,1,0,0:0:0:0:
448,192,386420,1,0,0:0:0:0:
192,192,386420,1,0,0:0:0:0:
64,192,386420,1,0,0:0:0:0:
320,192,386503,1,0,0:0:0:0:
192,192,386585,1,0,0:0:0:0:
320,192,386667,1,0,0:0:0:0:
448,192,386750,1,0,0:0:0:0:
64,192,386750,1,0,0:0:0:0:
320,192,386832,1,0,0:0:0:0:
192,192,386915,1,0,0:0:0:0:
320,192,386997,1,0,0:0:0:0:
192,192,387080,1,0,0:0:0:0:
320,192,387162,1,0,0:0:0:0:
192,192,387244,1,0,0:0:0:0:
320,192,387327,1,0,0:0:0:0:
448,192,387409,1,0,0:0:0:0:
64,192,387409,1,0,0:0:0:0:
320,192,387492,1,0,0:0:0:0:
192,192,387574,1,0,0:0:0:0:
320,192,387656,1,0,0:0:0:0:
64,192,387739,1,0,0:0:0:0:
320,192,387821,1,0,0:0:0:0:
64,192,387904,1,0,0:0:0:0:
320,192,387986,1,0,0:0:0:0:
448,192,388069,1,0,0:0:0:0:
64,192,388069,1,0,0:0:0:0:
192,192,388151,1,0,0:0:0:0:
320,192,388233,1,0,0:0:0:0:
192,192,388316,1,0,0:0:0:0:
320,192,388398,1,0,0:0:0:0:
192,192,388481,1,0,0:0:0:0:
320,192,388563,1,0,0:0:0:0:
192,192,388645,1,0,0:0:0:0:
448,192,388728,1,0,0:0:0:0:
64,192,388728,1,0,0:0:0:0:
192,192,388810,1,0,0:0:0:0:
320,192,388893,1,0,0:0:0:0:
192,192,388975,1,0,0:0:0:0:
448,192,389058,1,0,0:0:0:0:
192,192,389140,1,0,0:0:0:0:
448,192,389222,1,0,0:0:0:0:
192,192,389305,1,0,0:0:0:0:
448,192,389387,1,0,0:0:0:0:
64,192,389387,1,0,0:0:0:0:
320,192,389470,1,0,0:0:0:0:
192,192,389552,1,0,0:0:0:0:
320,192,389634,1,0,0:0:0:0:
192,192,389717,1,0,0:0:0:0:
64,192,389717,1,0,0:0:0:0:
320,192,389799,1,0,0:0:0:0:
192,192,389882,1,0,0:0:0:0:
64,192,389882,1,0,0:0:0:0:
320,192,389964,1,0,0:0:0:0:
448,192,390047,1,0,0:0:0:0:
64,192,390047,1,0,0:0:0:0:
320,192,390129,1,0,0:0:0:0:
192,192,390211,1,0,0:0:0:0:
320,192,390294,1,0,0:0:0:0:
448,192,390376,1,0,0:0:0:0:
192,192,390376,1,0,0:0:0:0:
64,192,390376,1,0,0:0:0:0:
320,192,390459,1,0,0:0:0:0:
64,192,390541,1,0,0:0:0:0:
192,192,390623,1,0,0:0:0:0:
448,192,390706,1,0,0:0:0:0:
64,192,390706,1,0,0:0:0:0:
320,192,390788,1,0,0:0:0:0:
448,192,390871,1,0,0:0:0:0:
192,192,390871,1,0,0:0:0:0:
64,192,390871,1,0,0:0:0:0:
320,192,390953,1,0,0:0:0:0:
192,192,391036,1,0,0:0:0:0:
64,192,391118,1,0,0:0:0:0:
192,192,391200,1,0,0:0:0:0:
448,192,391365,1,0,0:0:0:0:
192,192,391365,1,0,0:0:0:0:
64,192,391365,1,0,0:0:0:0:
320,192,391530,1,0,0:0:0:0:
192,192,391612,1,0,0:0:0:0:
448,192,391695,1,0,0:0:0:0:
320,192,391695,1,0,0:0:0:0:
64,192,391695,1,0,0:0:0:0:
192,192,391777,1,0,0:0:0:0:
320,192,391860,1,0,0:0:0:0:
192,192,391942,1,0,0:0:0:0:
448,192,392025,1,0,0:0:0:0:
192,192,392107,1,0,0:0:0:0:
320,192,392189,1,0,0:0:0:0:
192,192,392272,1,0,0:0:0:0:
64,192,392354,1,0,0:0:0:0:
192,192,392437,1,0,0:0:0:0:
320,192,392519,1,0,0:0:0:0:
192,192,392602,1,0,0:0:0:0:
448,192,392684,1,0,0:0:0:0:
192,192,392766,1,0,0:0:0:0:
320,192,392849,1,0,0:0:0:0:
192,192,392931,1,0,0:0:0:0:
64,192,393014,1,0,0:0:0:0:
192,192,393096,1,0,0:0:0:0:
320,192,393178,1,0,0:0:0:0:
192,192,393261,1,0,0:0:0:0:
448,192,393343,1,0,0:0:0:0:
320,192,393426,1,0,0:0:0:0:
192,192,393508,1,0,0:0:0:0:
320,192,393591,1,0,0:0:0:0:
64,192,393673,1,0,0:0:0:0:
320,192,393755,1,0,0:0:0:0:
192,192,393838,1,0,0:0:0:0:
320,192,393920,1,0,0:0:0:0:
448,192,394003,1,0,0:0:0:0:
320,192,394085,1,0,0:0:0:0:
192,192,394167,1,0,0:0:0:0:
320,192,394250,1,0,0:0:0:0:
64,192,394332,1,0,0:0:0:0:
320,192,394415,1,0,0:0:0:0:
64,192,394497,1,0,0:0:0:0:
320,192,394580,1,0,0:0:0:0:
448,192,394662,1,0,0:0:0:0:
192,192,394744,1,0,0:0:0:0:
320,192,394827,1,0,0:0:0:0:
192,192,394909,1,0,0:0:0:0:
64,192,394992,1,0,0:0:0:0:
192,192,395074,1,0,0:0:0:0:
320,192,395156,1,0,0:0:0:0:
192,192,395239,1,0,0:0:0:0:
448,192,395321,1,0,0:0:0:0:
192,192,395404,1,0,0:0:0:0:
320,192,395486,1,0,0:0:0:0:
192,192,395569,1,0,0:0:0:0:
64,192,395651,1,0,0:0:0:0:
192,192,395733,1,0,0:0:0:0:
448,192,395816,1,0,0:0:0:0:
192,192,395898,1,0,0:0:0:0:
448,192,395981,1,0,0:0:0:0:
320,192,396063,1,0,0:0:0:0:
192,192,396145,1,0,0:0:0:0:
320,192,396228,1,0,0:0:0:0:
64,192,396310,1,0,0:0:0:0:
320,192,396393,1,0,0:0:0:0:
192,192,396475,1,0,0:0:0:0:
320,192,396558,1,0,0:0:0:0:
448,192,396640,1,0,0:0:0:0:
192,192,396722,1,0,0:0:0:0:
320,192,396805,1,0,0:0:0:0:
192,192,396887,1,0,0:0:0:0:
448,192,396970,1,0,0:0:0:0:
320,192,396970,1,0,0:0:0:0:
64,192,396970,1,0,0:0:0:0:
192,192,397052,1,0,0:0:0:0:
320,192,397134,1,0,0:0:0:0:
192,192,397217,1,0,0:0:0:0:
448,192,397299,1,0,0:0:0:0:
192,192,397382,1,0,0:0:0:0:
320,192,397464,1,0,0:0:0:0:
192,192,397547,1,0,0:0:0:0:
64,192,397629,1,0,0:0:0:0:
192,192,397711,1,0,0:0:0:0:
320,192,397794,1,0,0:0:0:0:
192,192,397876,1,0,0:0:0:0:
448,192,397959,1,0,0:0:0:0:
192,192,398041,1,0,0:0:0:0:
320,192,398123,1,0,0:0:0:0:
192,192,398206,1,0,0:0:0:0:
64,192,398288,1,0,0:0:0:0:
192,192,398371,1,0,0:0:0:0:
448,192,398453,1,0,0:0:0:0:
192,192,398536,1,0,0:0:0:0:
448,192,398618,1,0,0:0:0:0:
320,192,398700,1,0,0:0:0:0:
192,192,398783,1,0,0:0:0:0:
320,192,398865,1,0,0:0:0:0:
64,192,398948,1,0,0:0:0:0:
320,192,399030,1,0,0:0:0:0:
192,192,399112,1,0,0:0:0:0:
320,192,399195,1,0,0:0:0:0:
448,192,399277,1,0,0:0:0:0:
320,192,399360,1,0,0:0:0:0:
192,192,399442,1,0,0:0:0:0:
320,192,399525,1,0,0:0:0:0:
64,192,399607,1,0,0:0:0:0:
320,192,399689,1,0,0:0:0:0:
64,192,399772,1,0,0:0:0:0:
320,192,399854,1,0,0:0:0:0:
448,192,399937,1,0,0:0:0:0:
192,192,400019,1,0,0:0:0:0:
320,192,400102,1,0,0:0:0:0:
192,192,400184,1,0,0:0:0:0:
64,192,400266,1,0,0:0:0:0:
192,192,400349,1,0,0:0:0:0:
320,192,400431,1,0,0:0:0:0:
192,192,400514,1,0,0:0:0:0:
448,192,400596,1,0,0:0:0:0:
192,192,400678,1,0,0:0:0:0:
320,192,400761,1,0,0:0:0:0:
192,192,400843,1,0,0:0:0:0:
64,192,400926,1,0,0:0:0:0:
192,192,401008,1,0,0:0:0:0:
448,192,401091,1,0,0:0:0:0:
192,192,401173,1,0,0:0:0:0:
448,192,401255,1,0,0:0:0:0:
320,192,401255,1,0,0:0:0:0:
64,192,401255,1,0,0:0:0:0:
192,192,401338,1,0,0:0:0:0:
64,192,401420,1,0,0:0:0:0:
320,192,401503,1,0,0:0:0:0:
448,192,401585,1,0,0:0:0:0:
192,192,401585,1,0,0:0:0:0:
320,192,401667,1,0,0:0:0:0:
64,192,401750,1,0,0:0:0:0:
192,192,401832,1,0,0:0:0:0:
448,192,401915,1,0,0:0:0:0:
320,192,401915,1,0,0:0:0:0:
192,192,401997,1,0,0:0:0:0:
64,192,401997,1,0,0:0:0:0:
448,192,402080,1,0,0:0:0:0:
320,192,402080,1,0,0:0:0:0:
192,192,402162,1,0,0:0:0:0:
448,192,402244,1,0,0:0:0:0:
320,192,402244,1,0,0:0:0:0:
64,192,402244,1,0,0:0:0:0:
192,192,402327,1,0,0:0:0:0:
448,192,402409,1,0,0:0:0:0:
192,192,402492,1,0,0:0:0:0:
448,192,402574,1,0,0:0:0:0:
320,192,402656,1,0,0:0:0:0:
64,192,402739,1,0,0:0:0:0:
320,192,402821,1,0,0:0:0:0:
64,192,402904,1,0,0:0:0:0:
320,192,402986,1,0,0:0:0:0:
192,192,403069,1,0,0:0:0:0:
320,192,403151,1,0,0:0:0:0:
448,192,403233,1,0,0:0:0:0:
320,192,403316,1,0,0:0:0:0:
192,192,403398,1,0,0:0:0:0:
320,192,403481,1,0,0:0:0:0:
64,192,403563,1,0,0:0:0:0:
192,192,403645,1,0,0:0:0:0:
448,192,403728,1,0,0:0:0:0:
192,192,403810,1,0,0:0:0:0:
448,192,403893,1,0,0:0:0:0:
320,192,403975,1,0,0:0:0:0:
64,192,404058,1,0,0:0:0:0:
320,192,404140,1,0,0:0:0:0:
64,192,404222,1,0,0:0:0:0:
320,192,404305,1,0,0:0:0:0:
192,192,404387,1,0,0:0:0:0:
320,192,404470,1,0,0:0:0:0:
448,192,404552,1,0,0:0:0:0:
192,192,404634,1,0,0:0:0:0:
320,192,404717,1,0,0:0:0:0:
192,192,404799,1,0,0:0:0:0:
64,192,404882,1,0,0:0:0:0:
192,192,404964,1,0,0:0:0:0:
448,192,405047,1,0,0:0:0:0:
192,192,405129,1,0,0:0:0:0:
448,192,405211,1,0,0:0:0:0:
320,192,405294,1,0,0:0:0:0:
64,192,405376,1,0,0:0:0:0:
320,192,405459,1,0,0:0:0:0:
64,192,405541,1,0,0:0:0:0:
320,192,405623,1,0,0:0:0:0:
192,192,405706,1,0,0:0:0:0:
320,192,405788,1,0,0:0:0:0:
448,192,405871,1,0,0:0:0:0:
320,192,405953,1,0,0:0:0:0:
192,192,406036,1,0,0:0:0:0:
320,192,406118,1,0,0:0:0:0:
448,192,406200,1,0,0:0:0:0:
64,192,406200,1,0,0:0:0:0:
192,192,406283,1,0,0:0:0:0:
320,192,406365,1,0,0:0:0:0:
192,192,406448,1,0,0:0:0:0:
448,192,406530,1,0,0:0:0:0:
320,192,406530,1,0,0:0:0:0:
64,192,406530,1,0,0:0:0:0:
192,192,406612,1,0,0:0:0:0:
64,192,406695,1,0,0:0:0:0:
320,192,406777,1,0,0:0:0:0:
192,192,406860,1,0,0:0:0:0:
64,192,406860,1,0,0:0:0:0:
448,192,406942,1,0,0:0:0:0:
320,192,407025,1,0,0:0:0:0:
192,192,407025,1,0,0:0:0:0:
64,192,407107,1,0,0:0:0:0:
448,192,407189,1,0,0:0:0:0:
320,192,407244,1,0,0:0:0:0:
64,192,407299,1,0,0:0:0:0:
192,192,407354,1,0,0:0:0:0:
448,192,407409,1,0,0:0:0:0:
320,192,407464,1,0,0:0:0:0:
448,192,407519,1,0,0:0:0:0:
192,192,407519,1,0,0:0:0:0:
64,192,407519,1,0,0:0:0:0:
320,192,407602,1,0,0:0:0:0:
192,192,407684,1,0,0:0:0:0:
320,192,407766,1,0,0:0:0:0:
192,192,407849,1,0,0:0:0:0:
448,192,407931,1,0,0:0:0:0:
320,192,408014,1,0,0:0:0:0:
192,192,408014,1,0,0:0:0:0:
64,192,408014,1,0,0:0:0:0:
448,192,408096,1,0,0:0:0:0:
192,192,408178,1,0,0:0:0:0:
448,192,408261,1,0,0:0:0:0:
192,192,408343,1,0,0:0:0:0:
320,192,408426,1,0,0:0:0:0:
448,192,408508,1,0,0:0:0:0:
192,192,408508,1,0,0:0:0:0:
64,192,408508,1,0,0:0:0:0:
320,192,408591,1,0,0:0:0:0:
64,192,408673,1,0,0:0:0:0:
320,192,408755,1,0,0:0:0:0:
64,192,408838,1,0,0:0:0:0:
448,192,408920,1,0,0:0:0:0:
320,192,409003,1,0,0:0:0:0:
192,192,409003,1,0,0:0:0:0:
64,192,409003,1,0,0:0:0:0:
448,192,409085,1,0,0:0:0:0:
192,192,409167,1,0,0:0:0:0:
448,192,409250,1,0,0:0:0:0:
192,192,409332,1,0,0:0:0:0:
320,192,409415,1,0,0:0:0:0:
448,192,409497,1,0,0:0:0:0:
192,192,409497,1,0,0:0:0:0:
64,192,409497,1,0,0:0:0:0:
320,192,409580,1,0,0:0:0:0:
192,192,409662,1,0,0:0:0:0:
320,192,409744,1,0,0:0:0:0:
448,192,409827,1,0,0:0:0:0:
192,192,409827,1,0,0:0:0:0:
64,192,409827,1,0,0:0:0:0:
320,192,409909,1,0,0:0:0:0:
192,192,409992,1,0,0:0:0:0:
64,192,410074,1,0,0:0:0:0:
448,192,410156,1,0,0:0:0:0:
320,192,410156,1,0,0:0:0:0:
192,192,410156,1,0,0:0:0:0:
64,192,410239,1,0,0:0:0:0:
320,192,410321,1,0,0:0:0:0:
64,192,410404,1,0,0:0:0:0:
320,192,410486,1,0,0:0:0:0:
192,192,410569,1,0,0:0:0:0:
448,192,410651,1,0,0:0:0:0:
320,192,410651,1,0,0:0:0:0:
64,192,410651,1,0,0:0:0:0:
192,192,410733,1,0,0:0:0:0:
320,192,410816,1,0,0:0:0:0:
192,192,410898,1,0,0:0:0:0:
320,192,410981,1,0,0:0:0:0:
64,192,411063,1,0,0:0:0:0:
448,192,411145,1,0,0:0:0:0:
320,192,411145,1,0,0:0:0:0:
192,192,411145,1,0,0:0:0:0:
64,192,411228,1,0,0:0:0:0:
448,192,411310,1,0,0:0:0:0:
64,192,411393,1,0,0:0:0:0:
448,192,411475,1,0,0:0:0:0:
192,192,411558,1,0,0:0:0:0:
448,192,411640,1,0,0:0:0:0:
320,192,411640,1,0,0:0:0:0:
64,192,411640,1,0,0:0:0:0:
192,192,411722,1,0,0:0:0:0:
320,192,411805,1,0,0:0:0:0:
192,192,411887,1,0,0:0:0:0:
320,192,411970,1,0,0:0:0:0:
64,192,412052,1,0,0:0:0:0:
448,192,412134,1,0,0:0:0:0:
320,192,412134,1,0,0:0:0:0:
192,192,412134,1,0,0:0:0:0:
64,192,412217,1,0,0:0:0:0:
320,192,412299,1,0,0:0:0:0:
64,192,412382,1,0,0:0:0:0:
448,192,412464,1,0,0:0:0:0:
320,192,412464,1,0,0:0:0:0:
192,192,412464,1,0,0:0:0:0:
64,192,412547,1,0,0:0:0:0:
320,192,412629,1,0,0:0:0:0:
448,192,412711,1,0,0:0:0:0:
192,192,412794,1,0,0:0:0:0:
64,192,412794,1,0,0:0:0:0:
320,192,412876,1,0,0:0:0:0:
192,192,412958,1,0,0:0:0:0:
320,192,413041,1,0,0:0:0:0:
192,192,413123,1,0,0:0:0:0:
320,192,413206,1,0,0:0:0:0:
448,192,413288,1,0,0:0:0:0:
192,192,413288,1,0,0:0:0:0:
320,192,413370,1,0,0:0:0:0:
192,192,413453,1,0,0:0:0:0:
320,192,413535,1,0,0:0:0:0:
192,192,413618,1,0,0:0:0:0:
320,192,413700,1,0,0:0:0:0:
448,192,413783,1,0,0:0:0:0:
192,192,413783,128,0,414112:0:0:0:0:
64,192,413783,1,0,0:0:0:0:
64,192,414112,128,0,414277:0:0:0:0:
192,192,414277,128,0,414442:0:0:0:0:
448,192,414442,128,0,414607:0:0:0:0:
320,192,414607,128,0,414772:0:0:0:0:
448,192,414772,1,0,0:0:0:0:
192,192,414772,1,0,0:0:0:0:
64,192,414772,128,0,415101:0:0:0:0:
192,192,415101,1,0,0:0:0:0:
448,192,415266,128,0,415596:0:0:0:0:
64,192,415266,1,0,0:0:0:0:
192,192,415513,1,0,0:0:0:0:
64,192,415596,1,0,0:0:0:0:
448,192,415761,1,0,0:0:0:0:
64,192,415761,128,0,416090:0:0:0:0:
192,192,416008,1,0,0:0:0:0:
320,192,416090,1,0,0:0:0:0:
448,192,416255,128,0,416585:0:0:0:0:
64,192,416255,1,0,0:0:0:0:
192,192,416420,1,0,0:0:0:0:
192,192,416585,1,0,0:0:0:0:
64,192,416585,1,0,0:0:0:0:
448,192,416667,1,0,0:0:0:0:
320,192,416667,1,0,0:0:0:0:
192,192,416750,1,0,0:0:0:0:
64,192,416750,1,0,0:0:0:0:
320,192,416914,1,0,0:0:0:0:
192,192,417079,128,0,417409:0:0:0:0:
448,192,417409,1,0,0:0:0:0:
320,192,417409,1,0,0:0:0:0:
448,192,417574,1,0,0:0:0:0:
320,192,417574,1,0,0:0:0:0:
192,192,417739,1,0,0:0:0:0:
64,192,417739,1,0,0:0:0:0:
448,192,418233,1,0,0:0:0:0:
320,192,418233,1,0,0:0:0:0:
448,192,418398,1,0,0:0:0:0:
320,192,418398,1,0,0:0:0:0:
192,192,418563,1,0,0:0:0:0:
64,192,418563,1,0,0:0:0:0:
448,192,419057,1,0,0:0:0:0:
320,192,419057,1,0,0:0:0:0:
448,192,419222,1,0,0:0:0:0:
320,192,419222,1,0,0:0:0:0:
448,192,419387,1,0,0:0:0:0:
320,192,419387,1,0,0:0:0:0:
448,192,419552,1,0,0:0:0:0:
320,192,419552,1,0,0:0:0:0:
448,192,419717,1,0,0:0:0:0:
320,192,419717,1,0,0:0:0:0:
448,192,419881,1,0,0:0:0:0:
320,192,419881,1,0,0:0:0:0:
192,192,419964,1,0,0:0:0:0:
448,192,420046,1,0,0:0:0:0:
320,192,420046,1,0,0:0:0:0:
64,192,420046,128,0,420375:0:0:0:0:
192,192,420375,1,0,0:0:0:0:
448,192,420540,1,0,0:0:0:0:
64,192,420540,1,0,0:0:0:0:
320,192,420870,1,0,0:0:0:0:
192,192,420952,1,0,0:0:0:0:
448,192,421035,1,0,0:0:0:0:
320,192,421035,128,0,421364:0:0:0:0:
64,192,421035,1,0,0:0:0:0:
192,192,421364,1,0,0:0:0:0:
448,192,421529,1,0,0:0:0:0:
320,192,421694,1,0,0:0:0:0:
192,192,421859,1,0,0:0:0:0:
448,192,422024,1,0,0:0:0:0:
320,192,422024,1,0,0:0:0:0:
64,192,422024,1,0,0:0:0:0:
192,192,422106,1,0,0:0:0:0:
320,192,422188,1,0,0:0:0:0:
192,192,422271,1,0,0:0:0:0:
320,192,422353,1,0,0:0:0:0:
192,192,422436,1,0,0:0:0:0:
448,192,422518,1,0,0:0:0:0:
64,192,422518,1,0,0:0:0:0:
320,192,422600,1,0,0:0:0:0:
192,192,422683,1,0,0:0:0:0:
320,192,422765,1,0,0:0:0:0:
192,192,422848,1,0,0:0:0:0:
448,192,423013,1,0,0:0:0:0:
192,192,423013,1,0,0:0:0:0:
64,192,423013,1,0,0:0:0:0:
320,192,423095,1,0,0:0:0:0:
192,192,423177,1,0,0:0:0:0:
320,192,423260,1,0,0:0:0:0:
192,192,423342,1,0,0:0:0:0:
448,192,423425,1,0,0:0:0:0:
320,192,423507,1,0,0:0:0:0:
192,192,423507,1,0,0:0:0:0:
64,192,423507,1,0,0:0:0:0:
448,192,423589,1,0,0:0:0:0:
320,192,423672,1,0,0:0:0:0:
192,192,423754,1,0,0:0:0:0:
320,192,423837,1,0,0:0:0:0:
192,192,423919,1,0,0:0:0:0:
448,192,424002,1,0,0:0:0:0:
320,192,424002,1,0,0:0:0:0:
64,192,424056,1,0,0:0:0:0:
192,192,424111,1,0,0:0:0:0:
320,192,424166,1,0,0:0:0:0:
448,192,424221,1,0,0:0:0:0:
64,192,424276,1,0,0:0:0:0:
448,192,424331,1,0,0:0:0:0:
320,192,424331,1,0,0:0:0:0:
192,192,424414,1,0,0:0:0:0:
64,192,424414,1,0,0:0:0:0:
448,192,424496,1,0,0:0:0:0:
320,192,424496,1,0,0:0:0:0:
64,192,424578,1,0,0:0:0:0:
448,192,424661,1,0,0:0:0:0:
320,192,424661,1,0,0:0:0:0:
192,192,424661,1,0,0:0:0:0:
64,192,424743,1,0,0:0:0:0:
320,192,424825,1,0,0:0:0:0:
448,192,424908,1,0,0:0:0:0:
64,192,424990,1,0,0:0:0:0:
192,192,425073,1,0,0:0:0:0:
448,192,425155,1,0,0:0:0:0:
320,192,425155,1,0,0:0:0:0:
64,192,425155,1,0,0:0:0:0:
320,192,425485,1,0,0:0:0:0:
64,192,425485,1,0,0:0:0:0:
192,192,425567,1,0,0:0:0:0:
320,192,425650,1,0,0:0:0:0:
192,192,425732,1,0,0:0:0:0:
448,192,425814,1,0,0:0:0:0:
320,192,425814,1,0,0:0:0:0:
192,192,425897,1,0,0:0:0:0:
320,192,425979,1,0,0:0:0:0:
192,192,426062,1,0,0:0:0:0:
448,192,426144,1,0,0:0:0:0:
320,192,426144,1,0,0:0:0:0:
64,192,426144,1,0,0:0:0:0:
448,192,426309,1,0,0:0:0:0:
320,192,426309,1,0,0:0:0:0:
448,192,426474,1,0,0:0:0:0:
320,192,426474,1,0,0:0:0:0:
448,192,426639,1,0,0:0:0:0:
192,192,426639,1,0,0:0:0:0:
64,192,426639,1,0,0:0:0:0:
320,192,426803,1,0,0:0:0:0:
192,192,426886,1,0,0:0:0:0:
64,192,426968,1,0,0:0:0:0:
448,192,427133,1,0,0:0:0:0:
320,192,427133,1,0,0:0:0:0:
192,192,427133,1,0,0:0:0:0:
64,192,427298,1,0,0:0:0:0:
192,192,427380,1,0,0:0:0:0:
320,192,427463,1,0,0:0:0:0:
448,192,427628,1,0,0:0:0:0:
192,192,427628,1,0,0:0:0:0:
64,192,427628,1,0,0:0:0:0:
320,192,427792,1,0,0:0:0:0:
192,192,427957,1,0,0:0:0:0:
64,192,427957,1,0,0:0:0:0:
320,192,428177,1,0,0:0:0:0:
448,192,428177,1,0,0:0:0:0:
192,192,428287,1,0,0:0:0:0:
64,192,428287,1,0,0:0:0:0:
320,192,428397,1,0,0:0:0:0:
192,192,428507,1,0,0:0:0:0:
448,192,428617,128,0,428946:0:0:0:0:
320,192,428617,1,0,0:0:0:0:
64,192,428617,1,0,0:0:0:0:
192,192,428946,1,0,0:0:0:0:
448,192,429111,1,0,0:0:0:0:
64,192,429111,128,0,429441:0:0:0:0:
192,192,429441,1,0,0:0:0:0:
320,192,429523,1,0,0:0:0:0:
448,192,429606,128,0,429935:0:0:0:0:
64,192,429606,1,0,0:0:0:0:
320,192,429935,1,0,0:0:0:0:
448,192,430100,1,0,0:0:0:0:
64,192,430100,128,0,430430:0:0:0:0:
320,192,430430,1,0,0:0:0:0:
192,192,430512,1,0,0:0:0:0:
448,192,430595,1,0,0:0:0:0:
320,192,430595,1,0,0:0:0:0:
64,192,430595,1,0,0:0:0:0:
320,192,430759,1,0,0:0:0:0:
192,192,430759,1,0,0:0:0:0:
448,192,430924,1,0,0:0:0:0:
64,192,430924,1,0,0:0:0:0:
448,192,431089,1,0,0:0:0:0:
64,192,431089,1,0,0:0:0:0:
448,192,431254,1,0,0:0:0:0:
320,192,431254,1,0,0:0:0:0:
192,192,431254,1,0,0:0:0:0:
192,192,431419,1,0,0:0:0:0:
448,192,431584,1,0,0:0:0:0:
320,192,431748,1,0,0:0:0:0:
192,192,431748,1,0,0:0:0:0:
64,192,431748,1,0,0:0:0:0:
64,192,431913,1,0,0:0:0:0:
320,192,432078,1,0,0:0:0:0:
448,192,432243,1,0,0:0:0:0:
192,192,432243,1,0,0:0:0:0:
64,192,432243,1,0,0:0:0:0:
448,192,432408,1,0,0:0:0:0:
192,192,432573,1,0,0:0:0:0:
448,192,432737,1,0,0:0:0:0:
320,192,432737,1,0,0:0:0:0:
64,192,432737,1,0,0:0:0:0:
320,192,432902,1,0,0:0:0:0:
64,192,433067,1,0,0:0:0:0:
320,192,433232,1,0,0:0:0:0:
192,192,433314,1,0,0:0:0:0:
320,192,433397,1,0,0:0:0:0:
448,192,433479,1,0,0:0:0:0:
320,192,433562,1,0,0:0:0:0:
64,192,433644,1,0,0:0:0:0:
448,192,433726,1,0,0:0:0:0:
192,192,433809,1,0,0:0:0:0:
448,192,433891,1,0,0:0:0:0:
320,192,433891,128,0,434220:0:0:0:0:
64,192,433891,1,0,0:0:0:0:
192,192,434220,1,0,0:0:0:0:
64,192,434385,128,0,434715:0:0:0:0:
448,192,434385,1,0,0:0:0:0:
192,192,434715,1,0,0:0:0:0:
320,192,434797,1,0,0:0:0:0:
448,192,434880,1,0,0:0:0:0:
64,192,434880,1,0,0:0:0:0:
448,192,435044,1,0,0:0:0:0:
64,192,435044,1,0,0:0:0:0:
192,192,435539,1,0,0:0:0:0:
64,192,435539,1,0,0:0:0:0:
320,192,435649,1,0,0:0:0:0:
448,192,435649,1,0,0:0:0:0:
192,192,435759,1,0,0:0:0:0:
64,192,435759,1,0,0:0:0:0:
448,192,435869,1,0,0:0:0:0:
192,192,435978,1,0,0:0:0:0:
64,192,436088,1,0,0:0:0:0:
448,192,436198,1,0,0:0:0:0:
320,192,436198,1,0,0:0:0:0:
192,192,436198,1,0,0:0:0:0:
192,192,436362,1,0,0:0:0:0:
320,192,436445,1,0,0:0:0:0:
192,192,436527,1,0,0:0:0:0:
448,192,436692,1,0,0:0:0:0:
320,192,436692,1,0,0:0:0:0:
320,192,436857,1,0,0:0:0:0:
192,192,436939,1,0,0:0:0:0:
64,192,437022,1,0,0:0:0:0:
192,192,437104,1,0,0:0:0:0:
320,192,437187,1,0,0:0:0:0:
64,192,437187,1,0,0:0:0:0:
448,192,437516,1,0,0:0:0:0:
64,192,437516,1,0,0:0:0:0:
448,192,437846,1,0,0:0:0:0:
320,192,437846,1,0,0:0:0:0:
64,192,437846,1,0,0:0:0:0:
192,192,438176,1,0,0:0:0:0:
448,192,438340,1,0,0:0:0:0:
64,192,438340,1,0,0:0:0:0:
192,192,438505,1,0,0:0:0:0:
192,192,438670,1,0,0:0:0:0:
448,192,438835,1,0,0:0:0:0:
320,192,438835,1,0,0:0:0:0:
448,192,439165,1,0,0:0:0:0:
64,192,439165,1,0,0:0:0:0:
448,192,439329,1,0,0:0:0:0:
64,192,439329,1,0,0:0:0:0:
320,192,439494,1,0,0:0:0:0:
192,192,439494,1,0,0:0:0:0:
64,192,439494,1,0,0:0:0:0:
448,192,439824,1,0,0:0:0:0:
320,192,439824,1,0,0:0:0:0:
448,192,439989,1,0,0:0:0:0:
64,192,439989,1,0,0:0:0:0:
448,192,440318,1,0,0:0:0:0:
320,192,440318,1,0,0:0:0:0:
448,192,440483,1,0,0:0:0:0:
192,192,440483,1,0,0:0:0:0:
448,192,440813,1,0,0:0:0:0:
64,192,440813,1,0,0:0:0:0:
320,192,440978,1,0,0:0:0:0:
192,192,440978,1,0,0:0:0:0:
448,192,441143,1,0,0:0:0:0:
192,192,441143,1,0,0:0:0:0:
64,192,441143,1,0,0:0:0:0:
320,192,441472,1,0,0:0:0:0:
448,192,441637,1,0,0:0:0:0:
64,192,441637,1,0,0:0:0:0:
320,192,441802,1,0,0:0:0:0:
448,192,441967,1,0,0:0:0:0:
320,192,442049,1,0,0:0:0:0:
448,192,442132,1,0,0:0:0:0:
64,192,442132,1,0,0:0:0:0:
320,192,442296,1,0,0:0:0:0:
192,192,442296,1,0,0:0:0:0:
192,192,442461,1,0,0:0:0:0:
64,192,442461,1,0,0:0:0:0:
320,192,442626,1,0,0:0:0:0:
64,192,442626,1,0,0:0:0:0:
448,192,442791,1,0,0:0:0:0:
320,192,442791,1,0,0:0:0:0:
192,192,442791,1,0,0:0:0:0:
192,192,442956,1,0,0:0:0:0:
192,192,443121,1,0,0:0:0:0:
320,192,443450,1,0,0:0:0:0:
192,192,443450,1,0,0:0:0:0:
64,192,443450,1,0,0:0:0:0:
320,192,443615,1,0,0:0:0:0:
320,192,443780,1,0,0:0:0:0:
448,192,444110,1,0,0:0:0:0:
192,192,444110,1,0,0:0:0:0:
64,192,444110,1,0,0:0:0:0:
64,192,444274,1,0,0:0:0:0:
448,192,444439,1,0,0:0:0:0:
320,192,444439,1,0,0:0:0:0:
192,192,444439,1,0,0:0:0:0:
320,192,444604,1,0,0:0:0:0:
320,192,444769,1,0,0:0:0:0:
320,192,445099,1,0,0:0:0:0:
192,192,445099,1,0,0:0:0:0:
64,192,445099,1,0,0:0:0:0:
192,192,445263,1,0,0:0:0:0:
192,192,445428,1,0,0:0:0:0:
448,192,445758,1,0,0:0:0:0:
320,192,445758,1,0,0:0:0:0:
64,192,445758,1,0,0:0:0:0:
448,192,446088,1,0,0:0:0:0:
320,192,446088,1,0,0:0:0:0:
192,192,446088,1,0,0:0:0:0:
320,192,446252,1,0,0:0:0:0:
320,192,446417,1,0,0:0:0:0:
320,192,446747,1,0,0:0:0:0:
192,192,446747,1,0,0:0:0:0:
64,192,446747,1,0,0:0:0:0:
64,192,446912,1,0,0:0:0:0:
64,192,447077,1,0,0:0:0:0:
448,192,447406,1,0,0:0:0:0:
192,192,447406,1,0,0:0:0:0:
64,192,447406,1,0,0:0:0:0:
448,192,447736,1,0,0:0:0:0:
320,192,447736,1,0,0:0:0:0:
192,192,447736,1,0,0:0:0:0:
448,192,448065,1,0,0:0:0:0:
320,192,448230,1,0,0:0:0:0:
192,192,448230,1,0,0:0:0:0:
64,192,448230,1,0,0:0:0:0:
192,192,448560,1,0,0:0:0:0:
448,192,448725,1,0,0:0:0:0:
64,192,448725,1,0,0:0:0:0:
320,192,448889,1,0,0:0:0:0:
192,192,448889,1,0,0:0:0:0:
448,192,449219,1,0,0:0:0:0:
192,192,449219,1,0,0:0:0:0:
320,192,449384,1,0,0:0:0:0:
64,192,449384,1,0,0:0:0:0:
320,192,449549,1,0,0:0:0:0:
64,192,449549,1,0,0:0:0:0:
448,192,449714,128,0,456003:0:0:0:0:
192,192,449714,1,0,0:0:0:0:
64,192,449714,128,0,456003:0:0:0:0:
320,192,455486,1,0,0:0:0:0:
192,192,456003,1,0,0:0:0:0:
320,192,456520,1,0,0:0:0:0:
448,192,457030,1,0,0:0:0:0:
320,192,457607,1,0,0:0:0:0:
448,192,458232,1,0,0:0:0:0:
192,192,458232,1,0,0:0:0:0:
