osu file format v14

[General]
AudioFilename: styx.mp3
AudioLeadIn: 1000
PreviewTime: 121316
Countdown: 0
SampleSet: Normal
StackLeniency: 0.7
Mode: 0
LetterboxInBreaks: 1
WidescreenStoryboard: 1

[Editor]
Bookmarks: 449657
DistanceSpacing: 1.8
BeatDivisor: 4
GridSize: 4
TimelineZoom: 2.1

[Metadata]
Title:Higan Kikou ~ View of The River Styx
TitleUnicode:彼岸帰航 ~ View of The River Styx
Artist:Demetori
ArtistUnicode:Demetori
Creator:RLC
Version:Extra Stage
Source:東方花映塚 ~ Phantasmagoria of Flower View.
Tags:Manenjushaka ~ Nada Upasana Pundarika C77 comiket 77 Riverside Retour th09 touhou Komachi Onozuka 小野塚 小町 ZUN rock instrumental video game 東方Project power metal DECD-0006
BeatmapID:351752
BeatmapSetID:140944

[Difficulty]
HPDrainRate:8
CircleSize:4
OverallDifficulty:9
ApproachRate:9
SliderMultiplier:1.9
SliderTickRate:1

[Events]
//Background and Video events
0,0,"Konachan.com - 98484 sample.jpg",0,0
//Break Periods
2,110967,118738
2,221078,228849
//Storyboard Layer 0 (Background)
//Storyboard Layer 1 (Fail)
//Storyboard Layer 2 (Pass)
//Storyboard Layer 3 (Foreground)
//Storyboard Layer 4 (Overlay)
//Storyboard Sound Samples

[TimingPoints]
0,329.67032967033,13,2,1,30,1,0
0,-200,13,2,1,30,0,0
8571,-133.333333333333,13,3,0,40,0,0
17142,329.67032967033,8,3,0,45,1,0
17142,-133.333333333333,8,3,0,45,0,0
19779,-133.333333333333,8,1,1,60,0,0
21757,-100,8,1,1,60,0,0
22417,329.67032967033,4,1,1,70,1,0
22417,-100,4,1,1,70,0,0
48791,329.67032967033,3,1,1,60,1,0
51098,329.67032967033,4,1,1,60,1,0
69559,-100,4,1,1,70,0,0
72196,329.67032967033,5,1,1,70,1,0
73845,329.67032967033,6,1,1,70,1,0
75823,329.67032967033,5,1,1,70,1,0
77471,-133.333333333333,4,1,1,70,0,0
79119,329.67032967033,4,1,1,70,1,0
142416,329.67032967033,6,1,1,70,1,0
142744,-100,6,1,1,60,0,0
144394,329.67032967033,8,1,1,60,1,0
149669,329.67032967033,5,1,1,60,1,0
151317,329.67032967033,8,1,1,60,1,0
154614,329.67032967033,6,1,1,60,1,0
156592,329.67032967033,8,1,1,60,1,0
161866,329.67032967033,5,1,1,60,1,0
163515,329.67032967033,8,1,1,60,1,0
166153,329.67032967033,4,1,1,70,1,0
166153,-100,4,1,1,70,0,0
175383,312.5,4,1,1,70,1,0
176008,340.909090909091,4,1,1,70,1,0
176348,354.609929078014,4,1,1,70,1,0
176702,329.67032967033,4,1,1,70,1,0
197800,-100,4,1,1,70,0,1
218900,329.67032967033,3,1,1,75,1,0
218900,-100,4,1,1,70,0,0
220218,-100,4,1,1,20,0,0
220878,329.67032967033,13,1,1,70,1,0
220878,-100,4,1,1,70,0,0
231097,-100,4,1,1,5,0,0
231427,-100,4,1,1,70,0,0
238020,329.67032967033,4,1,1,70,1,0
243294,-100,4,1,1,70,0,0
247580,329.67032967033,4,1,1,70,1,0
252526,329.67032967033,4,1,1,70,1,0
262416,329.67032967033,4,1,1,70,1,0
263405,-200,4,1,1,70,0,0
264229,-100,4,1,1,70,0,0
264723,-100,4,1,1,55,0,0
264806,-100,4,1,1,65,0,0
264888,-100,4,1,1,75,0,0
264970,-100,4,1,1,85,0,0
265053,-100,4,1,1,70,0,1
265383,-100,4,1,1,40,0,1
265712,-100,4,1,1,70,0,1
267361,-100,4,1,1,55,0,1
267690,-100,4,1,1,70,0,1
268350,-100,4,1,1,60,0,1
272553,-100,4,1,1,40,0,1
272965,-100,4,1,1,60,0,1
273872,-100,4,1,1,40,0,1
274284,-100,4,1,1,60,0,1
275602,-100,4,1,1,70,0,1
307251,-100,4,1,1,70,0,0
310877,-100,4,2,1,5,0,0
311042,-100,4,1,1,60,0,0
317800,-200,4,2,1,60,0,0
325712,-100,4,1,1,60,0,0
328350,-100,4,1,1,70,0,1
348130,-100,4,1,1,70,0,0
370547,-100,4,1,1,70,0,1
381591,-100,4,1,1,55,0,1
381674,-100,4,1,1,70,0,1
382910,-100,4,1,1,55,0,1
382992,-100,4,1,1,70,0,1
384229,-100,4,1,1,55,0,1
384311,-100,4,1,1,70,0,1
386866,-100,4,1,1,55,0,1
386948,-100,4,1,1,70,0,1
388185,-100,4,1,1,55,0,1
388267,-100,4,1,1,70,0,1
389503,-100,4,1,1,55,0,1
389586,-100,4,1,1,70,0,1
412746,329.67032967033,6,1,1,70,1,0
412746,-100,6,1,1,70,0,0
414724,329.67032967033,8,1,1,70,1,0
419999,329.67032967033,6,1,1,70,1,0
421977,329.67032967033,8,1,1,70,1,0
424614,329.67032967033,6,1,1,70,1,0
428570,329.67032967033,8,1,1,70,1,0
433845,329.67032967033,7,1,1,70,1,0
436152,329.67032967033,5,1,1,70,1,0
447690,329.67032967033,6,1,1,70,1,0
449668,360.902255639098,4,1,1,70,1,0
451111,-100,4,2,1,60,0,0
452555,-100,4,2,1,50,0,0
453998,-100,4,2,1,40,0,0
455442,517.241379310345,4,1,1,30,1,0
455442,-100,4,2,1,30,0,0
456476,504.201680672269,4,1,1,20,1,0
456476,-100,4,2,1,20,0,0
456980,588.235294117647,4,1,1,15,1,0
457568,625,4,1,1,15,1,0
457568,-100,4,2,1,15,0,0
458193,638.297872340426,4,1,1,15,1,0

[Colours]
Combo1 : 255,94,55
Combo2 : 173,255,95
Combo3 : 255,88,100
Combo4 : 17,254,176

[HitObjects]
160,314,0,6,0,P|178:309|218:306,1,47.5,0|0,1:0|0:0,0:0:0:0:
286,333,329,1,0,0:0:0:0:
286,333,494,2,0,B|279:237|315:281|309:185,1,142.5,2|0,0:2|0:0,0:0:0:0:
243,99,1153,1,0,0:0:0:0:
243,99,1318,2,0,P|276:104|349:112,2,95,2|2|0,0:2|0:2|0:0,0:0:0:0:
65,173,2142,5,0,0:0:0:0:
85,89,2307,1,0,0:0:0:0:
146,148,2472,2,0,P|157:192|157:255,1,95,2|0,0:2|0:0,0:0:0:0:
326,190,2967,1,0,0:0:0:0:
242,214,3131,1,0,0:0:0:0:
326,190,3296,2,0,P|407:194|434:199,2,95,2|2|2,0:2|0:2|0:2,0:0:0:0:
242,214,4120,1,0,0:0:0:0:
217,80,4285,5,0,1:0:0:0:
217,80,4450,1,0,0:0:0:0:
300,46,4615,1,0,0:0:0:0:
300,46,4780,2,0,B|400:47|344:80|459:77,1,142.5,2|0,0:2|0:0,0:0:0:0:
308,229,5439,1,0,0:0:0:0:
308,229,5604,2,0,P|307:184|300:122,2,95,2|2|0,0:2|0:2|0:0,0:0:0:0:
372,316,6428,6,0,P|372:349|372:371,1,47.5
446,260,6758,1,2,0:2:0:0:
256,192,6923,12,0,8406,3:0:0:0:
161,288,8571,5,0,1:0:0:0:
78,317,8736,1,0,1:0:0:0:
78,317,8818,1,0,0:0:0:0:
78,317,8901,1,8,0:2:0:0:
98,233,9065,2,0,B|114:195|114:195|100:116,1,106.875004076958,2|0,0:3|1:0,0:0:0:0:
91,114,9395,1,2,0:2:0:0:
191,52,9560,2,0,L|269:65,1,71.2500027179719,8|0,0:2|0:0,0:0:0:0:
413,177,9890,5,2,1:3:0:0:
413,177,10054,1,0,1:0:0:0:
327,146,10219,2,0,P|299:181|345:263,1,142.500005435944,8|0,0:2|1:0,0:0:0:0:
492,288,10714,6,0,L|420:295,1,71.2500027179719,8|0,0:2|0:0,0:0:0:0:
336,260,11043,2,0,B|323:295|323:295|339:345,1,71.2500027179719,2|0,0:3|1:0,0:0:0:0:
217,205,11373,2,0,L|214:162,2,35.625001358986,0|0|8,0:0|0:0|0:2,0:0:0:0:
225,348,11703,1,0,0:0:0:0:
170,279,11868,6,0,L|82:269,1,71.2500027179719,2|2,1:3|0:2,0:0:0:0:
342,279,12197,2,0,L|430:269,1,71.2500027179719,8|0,0:2|0:0,0:0:0:0:
99,270,12527,2,0,L|90:365,1,71.2500027179719,2|0,0:3|0:0,0:0:0:0:
412,270,12857,5,0,1:0:0:0:
325,199,13021,1,0,1:0:0:0:
325,199,13104,1,0,0:0:0:0:
325,199,13186,1,8,0:2:0:0:
228,268,13351,1,2,0:3:0:0:
228,268,13516,2,0,P|226:215|219:180,1,71.2500027179719,0|2,1:0|0:2,0:0:0:0:
148,155,13846,1,8,0:2:0:0:
289,54,14010,5,0,0:0:0:0:
289,54,14175,2,0,P|272:103|267:144,1,71.2500027179719,2|0,1:3|1:0,0:0:0:0:
223,198,14505,2,0,P|170:210|129:124,1,142.500005435944,8|0,0:2|1:0,0:0:0:0:
35,175,15000,6,0,L|-9:190,2,35.625001358986,8|0|0,0:2|0:0|0:0,0:0:0:0:
123,145,15329,2,0,B|131:183|131:183|117:222,1,71.2500027179719,2|0,0:3|1:2,0:0:0:0:
36,276,15659,2,0,L|44:355,1,71.2500027179719,0|8,1:0|0:2,0:0:0:0:
61,66,15989,5,0,0:0:0:0:
61,66,16153,2,0,P|97:57|150:56,1,71.2500027179719,2|2,1:3|0:2,0:0:0:0:
381,183,16483,2,0,P|345:192|292:193,1,71.2500027179719,8|0,0:2|0:0,0:0:0:0:
119,142,16813,1,2,1:3:0:0:
232,23,16978,1,2,0:0:0:0:
232,23,17060,1,0,0:0:0:0:
232,23,17142,6,0,P|245:67|237:117,1,71.2500027179719,2|0,1:3|1:0,0:0:0:0:
201,168,17471,1,8,0:2:0:0:
280,215,17636,2,0,P|330:212|361:211,1,71.2500027179719,2|0,0:3|1:0,0:0:0:0:
213,276,17966,1,2,0:2:0:0:
184,356,18131,2,0,P|134:353|103:352,1,71.2500027179719,8|0,0:2|0:0,0:0:0:0:
44,197,18460,5,2,1:3:0:0:
109,126,18625,1,0,0:0:0:0:
109,126,18707,1,0,1:0:0:0:
109,126,18790,1,8,0:2:0:0:
163,204,18955,1,0,0:0:0:0:
256,172,19120,5,2,1:3:0:0:
256,172,19284,1,8,0:2:0:0:
323,318,19449,1,0,0:0:0:0:
323,318,19614,1,2,1:2:0:0:
256,172,19779,6,0,P|160:176|38:199,1,213.750008153916,4|0,3:0|3:0,3:0:0:0:
44,197,20603,2,0,P|82:155|172:152,1,142.500005435944,4|0,3:0|3:0,3:0:0:0:
256,172,21098,6,0,P|312:187|470:200,1,213.750008153916,4|0,3:0|3:0,3:0:0:0:
193,313,21757,6,0,B|133:322|133:322|117:339|117:339|46:348,1,142.5,0|0,0:0|2:0,0:0:0:0:
50,358,22087,2,0,B|28:322|28:322|35:261,1,95,0|0,2:0|2:0,0:0:0:0:
44,101,22416,5,6,0:2:0:0:
44,101,22499,1,0,0:0:0:0:
44,101,22581,1,0,0:0:0:0:
134,131,22746,1,8,0:0:0:0:
189,53,22911,1,2,0:2:0:0:
189,53,22993,1,0,0:0:0:0:
189,53,23076,1,0,0:0:0:0:
489,321,23406,5,10,0:2:0:0:
489,321,23488,1,0,0:2:0:0:
489,321,23570,2,0,P|507:270|500:214,1,95,0|0,0:0|2:0,0:0:0:0:
344,97,23900,2,0,P|326:148|333:204,1,95,2|8,0:2|0:0,0:0:0:0:
425,162,24230,1,2,0:2:0:0:
277,264,24395,1,2,0:2:0:0:
240,253,24477,1,0,0:0:0:0:
203,264,24559,1,2,0:2:0:0:
178,292,24642,1,0,0:0:0:0:
163,327,24724,2,0,L|45:344,1,95,8|0,0:0|2:0,0:0:0:0:
250,347,25054,5,2,0:2:0:0:
250,347,25136,1,0,0:0:0:0:
250,347,25219,1,0,0:0:0:0:
342,324,25384,1,8,0:0:0:0:
427,365,25548,1,2,0:2:0:0:
478,161,25878,1,2,0:2:0:0:
475,189,25960,1,0,0:0:0:0:
468,217,26043,1,8,0:0:0:0:
452,241,26125,1,0,0:0:0:0:
432,262,26208,1,2,0:2:0:0:
177,44,26537,5,2,0:2:0:0:
70,193,26702,1,8,0:0:0:0:
32,107,26867,1,2,0:2:0:0:
69,100,26949,1,0,0:0:0:0:
106,106,27032,1,2,0:2:0:0:
136,128,27114,1,0,0:0:0:0:
156,159,27197,1,2,0:2:0:0:
159,197,27279,1,0,0:0:0:0:
147,233,27362,2,0,L|134:341,1,95,8|0,0:0|2:0,0:0:0:0:
298,198,27691,6,0,L|244:208,2,47.5,2|0|0,0:2|0:0|0:0,0:0:0:0:
475,170,28021,2,0,P|424:162|371:127,1,95,8|2,0:0|0:2,0:0:0:0:
366,120,28268,1,0,0:0:0:0:
352,95,28351,1,0,0:0:0:0:
177,344,28680,5,10,0:2:0:0:
177,344,28763,1,0,0:2:0:0:
177,344,28845,2,0,L|307:334,1,95,0|0,0:0|2:0,0:0:0:0:
101,204,29175,2,0,L|231:214,1,95,2|8,0:2|0:0,0:0:0:0:
423,181,29504,1,2,0:2:0:0:
385,179,29587,1,0,0:0:0:0:
349,194,29669,1,2,0:2:0:0:
323,221,29752,1,0,0:0:0:0:
312,257,29834,1,2,0:2:0:0:
503,127,29999,2,0,P|516:183|509:234,1,95,8|0,0:0|2:0,0:0:0:0:
410,284,30329,5,2,0:2:0:0:
410,284,30411,1,0,0:0:0:0:
410,284,30493,1,0,0:0:0:0:
337,353,30658,1,8,0:0:0:0:
431,380,30823,1,2,0:2:0:0:
90,329,31153,5,2,0:2:0:0:
103,293,31235,1,0,0:0:0:0:
104,255,31318,1,8,0:0:0:0:
91,218,31400,1,0,0:0:0:0:
70,186,31482,2,0,P|66:139|74:84,1,95,2|0,0:2|2:0,0:0:0:0:
243,198,31812,2,0,P|247:245|239:300,1,95,2|8,0:2|0:0,0:0:0:0:
173,101,32142,5,2,0:2:0:0:
207,116,32224,1,0,0:0:0:0:
244,116,32307,1,2,0:2:0:0:
278,99,32389,1,0,0:0:0:0:
309,78,32471,1,2,0:2:0:0:
346,76,32554,1,0,0:0:0:0:
380,92,32636,2,0,L|484:81,1,95,8|0,0:0|2:0,0:0:0:0:
224,23,32966,5,6,0:2:0:0:
224,23,33048,1,0,0:0:0:0:
224,23,33131,1,0,0:0:0:0:
170,208,33296,1,8,0:0:0:0:
339,176,33460,1,2,0:2:0:0:
339,176,33543,1,0,0:0:0:0:
339,176,33625,1,0,0:0:0:0:
36,318,33955,5,10,0:2:0:0:
36,318,34037,1,0,0:2:0:0:
36,318,34120,2,0,P|97:315|212:385,1,190,0|2,0:0|0:2,0:0:0:0:
465,263,34614,2,0,L|353:272,1,95,8|2,0:0|0:2,0:0:0:0:
351,285,34862,1,0,0:0:0:0:
332,300,34944,1,2,0:2:0:0:
314,315,35026,1,0,0:0:0:0:
296,331,35109,1,2,0:2:0:0:
404,76,35274,2,0,P|419:124|401:196,1,95,8|0,0:0|2:0,0:0:0:0:
330,133,35603,5,2,0:2:0:0:
330,133,35686,1,0,0:0:0:0:
330,133,35768,1,0,0:0:0:0:
494,35,35933,1,8,0:0:0:0:
318,43,36098,2,0,L|211:32,1,95,2|0,0:2|2:0,0:0:0:0:
18,193,36427,1,2,0:2:0:0:
37,160,36510,1,0,0:0:0:0:
71,143,36592,1,8,0:0:0:0:
108,138,36675,1,0,0:0:0:0:
144,149,36757,6,0,P|153:204|152:269,1,95,2|0,0:2|2:0,0:0:0:0:
270,371,37087,2,0,P|261:316|262:251,1,95,2|8,0:2|0:0,0:0:0:0:
154,368,37417,1,2,0:2:0:0:
130,337,37499,1,0,0:0:0:0:
96,318,37581,1,2,0:2:0:0:
58,312,37664,1,0,0:0:0:0:
20,321,37746,1,2,0:2:0:0:
172,227,37911,1,8,0:0:0:0:
196,196,37993,1,8,0:0:0:0:
230,177,38076,1,0,0:0:0:0:
268,171,38158,1,0,0:0:0:0:
306,180,38241,6,0,L|369:171,2,47.5,2|0|0,0:2|0:0|0:0,0:0:0:0:
430,113,38570,1,8,0:0:0:0:
496,214,38735,1,2,0:2:0:0:
496,214,38818,1,0,0:0:0:0:
496,214,38900,2,0,L|483:337,1,95,0|0,0:0|2:0,0:0:0:0:
323,370,39230,1,10,0:2:0:0:
323,370,39312,1,0,0:2:0:0:
323,370,39395,2,0,L|336:247,1,95,0|0,0:0|2:0,0:0:0:0:
159,98,39724,6,0,L|168:192,1,95,2|8,0:2|0:0,0:0:0:0:
44,314,40054,1,2,0:2:0:0:
67,283,40136,1,0,0:0:0:0:
103,274,40219,1,2,0:2:0:0:
140,283,40301,1,0,0:0:0:0:
176,293,40384,1,2,0:2:0:0:
213,283,40466,1,0,0:0:0:0:
239,255,40548,2,0,P|248:308|246:364,1,95,8|0,0:0|2:0,0:0:0:0:
35,195,40878,5,2,0:2:0:0:
30,176,40960,1,0,0:0:0:0:
26,157,41043,1,0,0:0:0:0:
64,38,41208,1,8,0:0:0:0:
180,74,41373,2,0,L|166:188,1,95,2|0,0:2|2:0,0:0:0:0:
268,291,41702,1,2,0:2:0:0:
297,267,41785,1,0,0:0:0:0:
334,260,41867,1,8,0:0:0:0:
371,265,41949,1,0,0:0:0:0:
403,285,42032,2,0,L|511:274,1,95,2|0,0:2|2:0,0:0:0:0:
171,289,42362,6,0,P|120:316|69:314,1,95,2|8,0:2|0:0,0:0:0:0:
311,130,42691,1,2,0:2:0:0:
330,163,42774,1,0,0:0:0:0:
363,182,42856,1,2,0:2:0:0:
400,189,42938,1,0,0:0:0:0:
436,180,43021,1,2,0:2:0:0:
150,105,43186,2,0,L|136:160,1,47.5,8|8,0:0|0:0,0:0:0:0:
44,208,43351,2,0,L|56:160,1,47.5,8|8,0:0|0:0,0:0:0:0:
218,194,43515,6,0,L|266:199,2,47.5,6|0|0,0:2|0:0|0:0,0:0:0:0:
48,74,43845,1,8,0:0:0:0:
203,283,44010,1,2,0:2:0:0:
203,283,44092,1,0,0:0:0:0:
203,283,44175,2,0,L|181:379,1,95,0|0,0:0|2:0,0:0:0:0:
48,172,44504,1,10,0:2:0:0:
48,172,44587,1,0,0:2:0:0:
48,172,44669,2,0,L|70:76,1,95,0|0,0:0|2:0,0:0:0:0:
106,268,44999,5,2,0:2:0:0:
273,222,45164,1,8,0:0:0:0:
156,96,45329,1,2,0:2:0:0:
273,222,45493,1,2,0:2:0:0:
310,219,45576,1,0,0:0:0:0:
346,228,45658,1,2,0:2:0:0:
374,253,45741,1,0,0:0:0:0:
392,286,45823,2,0,P|392:342|381:384,1,95,12|0,0:2|2:0,0:0:0:0:
175,195,46153,5,4,0:0:0:0:
175,195,46235,1,0,0:0:0:0:
175,195,46318,1,0,0:0:0:0:
62,157,46482,1,8,0:0:0:0:
146,308,46647,2,0,P|200:316|255:293,1,95,2|0,0:2|2:0,0:0:0:0:
448,119,46977,1,2,0:2:0:0:
424,148,47059,1,0,0:0:0:0:
415,184,47142,1,8,0:0:0:0:
417,222,47224,1,0,0:0:0:0:
435,255,47307,2,0,P|379:230|320:234,1,95,2|0,0:2|2:0,0:0:0:0:
512,188,47636,5,2,0:2:0:0:
383,49,47801,1,4,0:2:0:0:
370,327,47966,1,2,0:2:0:0:
370,327,48048,1,0,0:0:0:0:
370,327,48131,2,0,L|210:337,2,126.666666666667,0|0|0,0:2|0:2|0:2,0:0:0:0:
206,74,49780,5,4,0:0:0:0:
321,145,49944,1,0,0:0:0:0:
320,0,50109,1,0,0:0:0:0:
443,66,50274,2,0,P|464:120|421:259,1,190,0|0,0:0|0:0,0:0:0:0:
414,265,50686,1,0,0:0:0:0:
394,285,50769,2,0,L|287:303,1,95,0|0,0:0|2:0,0:0:0:0:
110,232,51098,5,2,0:2:0:0:
161,380,51262,1,0,0:0:0:0:
300,300,51427,1,8,0:0:0:0:
250,144,51592,2,0,P|205:118|71:155,1,190,2|0,0:2|0:0,0:0:0:0:
166,223,52087,1,8,0:0:0:0:
76,314,52251,6,0,L|179:324,1,95,2|0,0:2|0:0,0:0:0:0:
317,217,52581,1,0,0:0:0:0:
300,300,52746,1,8,0:0:0:0:
249,144,52911,1,0,0:0:0:0:
397,184,53076,5,0,0:0:0:0:
233,247,53240,1,0,0:0:0:0:
372,356,53405,1,8,0:0:0:0:
233,247,53570,1,0,0:0:0:0:
397,184,53735,6,0,P|416:136|402:66,1,95,2|0,0:2|0:0,0:0:0:0:
319,15,54065,1,8,0:0:0:0:
500,213,54229,2,0,P|468:261|325:267,1,190,2|0,0:2|0:0,0:0:0:0:
289,201,54724,1,8,0:0:0:0:
101,371,54889,6,0,P|133:323|276:317,1,190,2|0,0:2|0:0,0:0:0:0:
379,185,55383,2,0,L|370:78,1,95,8|0,0:0|0:0,0:0:0:0:
394,279,55713,1,0,0:0:0:0:
472,104,55878,1,0,0:0:0:0:
289,201,56043,2,0,P|230:213|178:203,1,95,8|0,0:0|0:0,0:0:0:0:
80,99,56372,5,2,0:2:0:0:
93,267,56537,1,0,0:0:0:0:
171,123,56702,1,8,0:0:0:0:
4,232,56867,2,0,P|0:283|20:331,1,95,2|0,0:2|0:0,0:0:0:0:
171,123,57196,2,0,P|175:72|155:24,1,95,0|8,0:0|0:0,0:0:0:0:
93,267,57526,6,0,P|196:274|274:360,1,190,2|0,0:2|0:0,0:0:0:0:
395,352,58021,1,8,0:0:0:0:
352,197,58185,1,0,0:0:0:0:
316,280,58350,1,0,0:0:0:0:
309,119,58515,1,0,0:0:0:0:
451,194,58680,1,8,0:0:0:0:
309,119,58845,1,0,0:0:0:0:
409,271,59010,6,0,L|515:280,1,95,2|0,0:2|0:0,0:0:0:0:
256,353,59339,1,8,0:0:0:0:
182,212,59504,2,0,P|169:260|181:315,1,95,2|0,0:2|0:0,0:0:0:0:
260,264,59834,1,0,0:0:0:0:
86,231,59999,1,8,0:0:0:0:
143,112,60163,6,0,B|251:99|221:150|342:127,1,190,2|0,0:2|0:0,0:0:0:0:
419,98,60658,1,8,0:0:0:0:
483,168,60823,1,0,0:0:0:0:
445,255,60988,1,0,0:0:0:0:
282,39,61152,5,2,0:0:0:0:
300,135,61317,1,10,0:0:0:0:
261,136,61400,1,0,0:0:0:0:
225,123,61482,1,10,0:0:0:0:
200,93,61565,1,0,0:0:0:0:
186,57,61647,1,4,0:0:0:0:
384,200,61812,6,0,P|392:151|397:82,1,95,0|8,0:0|0:0,0:0:0:0:
306,316,62141,2,0,P|298:267|293:198,1,95,2|0,0:2|0:0,0:0:0:0:
492,278,62471,1,0,0:0:0:0:
414,384,62636,1,8,0:0:0:0:
397,292,62801,6,0,P|352:248|211:245,1,190,2|0,0:2|0:0,0:0:0:0:
252,31,63295,2,0,P|260:88|259:140,1,95,8|8,0:0|0:3,0:0:0:0:
133,299,63625,2,0,P|133:251|141:204,1,95,4|8,0:3|0:3,0:0:0:0:
221,336,63955,1,8,0:0:0:0:
76,381,64119,1,0,0:2:0:0:
221,336,64284,6,0,P|272:338|318:361,1,95,2|0,0:2|0:0,0:0:0:0:
47,277,64614,1,8,0:0:0:0:
258,143,64779,2,0,P|216:191|88:191,1,190,2|0,0:2|0:0,0:0:0:0:
158,105,65273,1,8,0:0:0:0:
351,180,65438,6,0,P|356:234|352:285,1,95,2|0,0:2|0:0,0:0:0:0:
158,274,65768,2,0,P|156:227|161:180,1,95,0|8,0:0|0:0,0:0:0:0:
256,308,66098,1,4,0:3:0:0:
176,376,66262,1,8,0:3:0:0:
336,376,66427,1,4,0:3:0:0:
252,211,66592,1,8,0:0:0:0:
264,175,66674,1,0,0:0:0:0:
295,153,66757,1,8,0:0:0:0:
332,146,66839,1,0,0:0:0:0:
368,156,66922,5,4,0:0:0:0:
461,205,67087,1,0,0:0:0:0:
456,97,67251,1,8,0:0:0:0:
414,293,67416,2,0,P|461:308|520:294,1,95,2|0,0:2|0:0,0:0:0:0:
456,98,67746,2,0,P|409:83|350:97,1,95,0|8,0:0|0:0,0:0:0:0:
78,196,68076,6,0,P|162:236|252:211,1,190,2|0,0:2|0:0,0:0:0:0:
236,129,68570,1,8,0:0:0:0:
287,285,68735,1,8,0:3:0:0:
411,171,68900,2,0,P|410:232|395:279,1,95,8|4,0:3|0:3,0:0:0:0:
331,98,69229,1,8,0:0:0:0:
293,106,69312,1,8,0:0:0:0:
255,100,69394,1,0,0:0:0:0:
220,83,69477,1,0,0:0:0:0:
195,54,69559,6,0,L|87:60,1,95,4|0,0:0|0:0,0:0:0:0:
18,164,69889,2,0,L|126:158,1,95,0|2,0:0|0:2,0:0:0:0:
281,18,70218,1,0,0:0:0:0:
294,190,70383,1,0,0:0:0:0:
430,96,70548,1,0,0:0:0:0:
331,98,70713,1,2,0:2:0:0:
331,98,70795,1,0,0:0:0:0:
331,98,70878,1,4,0:2:0:0:
194,359,71207,5,4,0:3:0:0:
80,222,71372,1,4,0:3:0:0:
141,54,71537,1,4,0:3:0:0:
317,24,71702,1,4,0:3:0:0:
431,161,71867,1,4,0:3:0:0:
370,329,72032,1,4,0:3:0:0:
193,141,72196,6,0,P|182:191|191:330,1,190,4|0,0:0|0:0,0:0:0:0:
319,141,72690,2,0,P|333:234|321:328,1,190,4|0,0:0|0:0,0:0:0:0:
97,301,73185,2,0,L|-8:316,1,95
97,301,73514,1,4,3:3:0:0:
311,78,73844,6,0,P|381:60|510:95,1,190,4|0,0:0|0:0,0:0:0:0:
199,74,74339,2,0,P|129:92|0:57,1,190,4|0,0:0|0:0,0:0:0:0:
253,158,74834,2,0,P|248:212|259:280,1,95
252,252,75081,1,0,0:0:0:0:
252,252,75163,1,4,0:3:0:0:
199,337,75328,1,4,3:3:0:0:
317,323,75493,1,4,0:3:0:0:
159,222,75658,1,4,3:3:0:0:
338,203,75823,6,0,L|397:192,2,47.5,6|0|0,0:2|0:0|0:0,0:0:0:0:
103,138,76152,1,0,0:0:0:0:
103,138,76235,1,0,0:0:0:0:
103,138,76317,2,0,L|31:126,2,47.5,6|0|0,0:2|0:0|0:0,0:0:0:0:
382,70,76647,1,0,0:0:0:0:
382,70,76729,1,0,0:0:0:0:
382,70,76812,2,0,L|454:58,2,47.5,6|0|0,0:2|0:0|0:0,0:0:0:0:
382,70,77141,1,4,3:0:0:0:
476,273,77471,6,2,P|434:264|311:277,1,142.500005435944,0|0,2:0|2:0,0:0:0:0:
257,299,77965,2,2,P|186:306|116:295,1,142.500005435944,0|0,2:0|2:0,0:0:0:0:
116,295,78460,1,2,2:1:0:0:
151,57,78625,2,0,L|162:23,3,23.7500009059906,0|0|0|8,0:0|0:0|0:0|0:0,0:0:0:0:
151,57,79119,6,0,P|168:104|163:164,1,95,4|0,0:0|0:0,0:0:0:0:
162,166,79366,1,0,0:0:0:0:
152,182,79448,1,8,0:0:0:0:
17,367,79613,2,0,P|58:325|199:294,1,190
259,189,80108,2,0,P|258:141|275:97,1,95,8|0,0:0|0:0,0:0:0:0:
463,85,80437,5,0,0:0:0:0:
383,166,80602,1,0,0:0:0:0:
386,184,80684,1,0,0:0:0:0:
389,202,80767,1,8,0:0:0:0:
274,97,80932,2,0,P|221:71|68:84,1,190
27,321,81426,2,2,P|71:298|136:290,1,95,8|0,0:0|0:0,0:0:0:0:
203,357,81756,5,2,0:0:0:0:
40,211,81921,1,0,0:0:0:0:
37,192,82003,1,0,0:0:0:0:
34,173,82086,1,8,0:0:0:0:
153,48,82250,2,2,L|166:141,1,95,0|0,0:0|0:0,0:0:0:0:
286,306,82580,2,2,L|299:212,1,95,0|8,0:0|0:0,0:0:0:0:
449,40,82910,6,2,L|421:234,1,190,2|2,0:0|0:0,0:0:0:0:
378,372,83404,1,10,0:0:0:0:
485,322,83569,1,0,0:0:0:0:
320,279,83734,1,0,0:0:0:0:
283,268,83816,1,0,0:0:0:0:
245,277,83899,1,0,0:0:0:0:
215,300,83981,1,0,0:0:0:0:
200,335,84064,2,0,P|144:346|106:352,1,95,8|0,0:0|0:0,0:0:0:0:
56,116,84393,5,4,0:0:0:0:
154,97,84558,1,0,0:0:0:0:
148,134,84640,1,0,0:0:0:0:
136,170,84723,1,8,0:0:0:0:
256,56,84888,1,0,0:0:0:0:
256,196,85053,1,0,0:0:0:0:
456,116,85217,1,0,0:0:0:0:
376,170,85382,1,8,0:0:0:0:
364,134,85465,1,0,0:0:0:0:
358,97,85547,1,0,0:0:0:0:
136,171,85712,6,0,P|139:233|130:280,1,95
129,283,85959,1,0,0:0:0:0:
124,301,86042,1,8,0:0:0:0:
182,63,86206,2,0,P|137:56|23:150,1,190
322,369,86701,2,2,P|338:318|330:260,1,95,8|0,0:0|0:0,0:0:0:0:
214,224,87031,5,2,0:0:0:0:
222,336,87195,1,0,0:0:0:0:
204,343,87278,1,0,0:0:0:0:
185,347,87360,1,8,0:0:0:0:
50,291,87525,2,2,P|39:241|39:189,1,95,0|0,0:0|0:0,0:0:0:0:
27,104,87855,2,2,P|38:154|38:206,1,95,0|8,0:0|0:0,0:0:0:0:
296,164,88184,6,2,P|236:107|106:121,1,190
362,257,88679,2,0,P|426:262|481:271,1,95,10|0,0:0|0:0,0:0:0:0:
457,266,88926,1,0,0:0:0:0:
457,266,89009,1,2,0:0:0:0:
445,75,89173,1,2,0:0:0:0:
295,163,89338,1,8,0:0:0:0:
256,163,89421,1,8,0:0:0:0:
220,150,89503,1,8,0:0:0:0:
190,125,89586,1,8,0:0:0:0:
172,91,89668,6,0,P|167:151|159:193,1,95,4|0,0:0|0:0,0:0:0:0:
67,353,89998,1,8,0:0:0:0:
0,170,90162,2,0,B|113:215|27:243|156:291,1,190
315,364,90657,1,8,0:0:0:0:
318,326,90739,1,0,0:0:0:0:
304,290,90822,1,0,0:0:0:0:
227,347,90987,5,0,0:0:0:0:
405,307,91151,1,0,0:0:0:0:
405,307,91234,1,0,0:0:0:0:
405,307,91316,1,8,0:0:0:0:
265,151,91481,2,0,P|260:100|268:45,1,95
149,165,91811,1,0,0:0:0:0:
427,120,91976,2,2,P|432:171|424:226,1,95,8|0,0:0|0:0,0:0:0:0:
335,235,92305,5,2,0:0:0:0:
512,173,92470,1,0,0:0:0:0:
512,173,92553,1,0,0:0:0:0:
512,173,92635,1,8,0:0:0:0:
335,235,92800,2,2,P|274:233|226:225,1,95,0|0,0:0|0:0,0:0:0:0:
22,302,93129,2,2,P|83:300|131:292,1,95,0|8,0:0|0:0,0:0:0:0:
285,141,93459,6,2,P|245:103|113:120,1,190
82,212,93954,1,10,0:0:0:0:
281,315,94119,1,0,0:0:0:0:
317,303,94201,1,0,0:0:0:0:
354,305,94283,1,0,0:0:0:0:
389,318,94366,1,0,0:0:0:0:
414,345,94448,1,0,0:0:0:0:
498,258,94613,1,8,0:0:0:0:
391,205,94778,1,0,0:0:0:0:
470,103,94943,6,0,P|476:49|467:8,1,95,4|0,0:0|0:0,0:0:0:0:
498,258,95272,1,8,0:0:0:0:
289,123,95437,2,0,P|279:181|323:312,1,190
380,63,95932,1,8,0:0:0:0:
380,63,96014,1,0,0:0:0:0:
380,63,96097,1,0,0:0:0:0:
391,205,96261,5,0,0:0:0:0:
228,188,96426,1,0,0:0:0:0:
299,340,96591,1,8,0:0:0:0:
307,247,96756,1,0,0:0:0:0:
163,368,96921,5,0,0:0:0:0:
125,374,97003,1,0,0:0:0:0:
87,365,97086,1,0,0:0:0:0:
55,344,97168,1,0,0:0:0:0:
33,312,97250,2,2,L|21:266,1,47.5,8|0,0:0|0:0,0:0:0:0:
108,204,97415,2,2,L|102:269,1,47.5,0|0,0:0|0:0,0:0:0:0:
32,166,97580,6,2,P|34:121|34:56,1,95,4|2,0:0|0:0,0:0:0:0:
143,84,97910,1,8,0:0:0:0:
228,188,98075,2,2,P|226:233|226:298,1,95,0|0,0:0|0:0,0:0:0:0:
114,275,98404,2,2,P|69:273|4:273,1,95,0|8,0:0|0:0,0:0:0:0:
131,176,98734,5,2,0:0:0:0:
131,176,98816,1,0,0:0:0:0:
131,176,98899,1,0,0:0:0:0:
255,107,99064,1,0,0:0:0:0:
221,268,99228,1,10,0:0:0:0:
255,107,99393,1,0,0:0:0:0:
338,210,99558,5,10,0:0:0:0:
326,246,99640,1,0,0:0:0:0:
328,284,99723,1,2,0:0:0:0:
346,317,99805,1,0,0:0:0:0:
377,339,99888,1,8,0:0:0:0:
413,347,99970,1,0,0:0:0:0:
450,341,100053,1,0,0:0:0:0:
483,323,100135,1,0,0:0:0:0:
504,291,100217,6,0,L|514:232,2,47.5,6|0|0,0:2|0:0|0:0,0:0:0:0:
418,252,100547,1,8,0:0:0:0:
469,173,100712,1,2,0:2:0:0:
463,145,100794,1,0,0:0:0:0:
469,116,100877,1,0,0:0:0:0:
110,110,101206,5,10,0:2:0:0:
110,110,101289,1,0,0:0:0:0:
110,110,101371,2,0,B|86:222|138:188|112:312,1,190,0|2,0:0|0:2,0:0:0:0:
27,254,101866,1,8,0:0:0:0:
181,342,102031,1,2,0:2:0:0:
215,326,102113,1,0,0:0:0:0:
252,324,102195,1,2,0:2:0:0:
287,337,102278,1,0,0:0:0:0:
317,359,102360,1,2,0:2:0:0:
512,347,102525,2,0,P|458:365|398:361,1,95,8|0,0:0|2:0,0:0:0:0:
319,243,102855,5,2,0:2:0:0:
325,205,102937,1,0,0:0:0:0:
316,167,103020,1,0,0:0:0:0:
223,212,103184,1,8,0:0:0:0:
437,139,103349,2,0,L|423:256,1,95,2|0,0:2|2:0,0:0:0:0:
229,110,103679,1,2,0:2:0:0:
254,81,103761,1,0,0:0:0:0:
289,67,103844,1,8,0:0:0:0:
326,67,103926,1,0,0:0:0:0:
361,80,104009,1,2,0:2:0:0:
176,322,104338,6,0,P|125:334|81:346,1,95,2|8,0:2|0:0,0:0:0:0:
19,223,104668,1,2,0:2:0:0:
53,236,104750,1,0,0:0:0:0:
91,232,104833,1,2,0:2:0:0:
112,201,104915,1,0,0:0:0:0:
130,168,104998,1,2,0:2:0:0:
165,160,105080,1,0,0:0:0:0:
199,174,105162,2,0,P|250:186|294:198,1,95,8|0,0:0|2:0,0:0:0:0:
418,317,105492,5,2,0:2:0:0:
418,317,105575,1,0,0:0:0:0:
418,317,105657,1,0,0:0:0:0:
467,236,105822,1,8,0:0:0:0:
416,155,105987,1,2,0:2:0:0:
416,155,106069,1,0,0:0:0:0:
416,155,106151,1,0,0:0:0:0:
32,199,106481,5,10,0:2:0:0:
32,199,106564,1,0,0:0:0:0:
32,199,106646,2,0,P|85:194|140:178,1,95,0|0,0:0|2:0,0:0:0:0:
243,334,106976,2,0,P|212:290|170:250,1,95,2|8,0:2|0:0,0:0:0:0:
244,63,107305,1,2,0:2:0:0:
228,87,107388,1,0,0:0:0:0:
217,113,107470,1,2,0:2:0:0:
210,140,107553,1,0,0:0:0:0:
208,168,107635,1,2,0:2:0:0:
93,371,107800,2,0,P|104:320|103:271,1,95,8|0,0:0|2:0,0:0:0:0:
323,152,108129,5,2,0:2:0:0:
323,152,108212,1,0,0:0:0:0:
323,152,108294,2,0,L|431:143,1,95,0|8,0:0|0:0,0:0:0:0:
452,52,108624,1,2,0:2:0:0:
255,362,108954,1,2,0:2:0:0:
252,343,109036,1,0,0:0:0:0:
252,323,109119,1,8,0:0:0:0:
254,304,109201,1,0,0:0:0:0:
258,285,109283,1,2,0:2:0:0:
60,52,109613,5,2,0:2:0:0:
108,138,109778,1,8,0:0:0:0:
12,140,109943,1,2,0:2:0:0:
60,52,110108,1,2,0:2:0:0:
97,44,110190,1,0,0:0:0:0:
134,45,110272,1,2,0:2:0:0:
170,34,110355,1,0,0:0:0:0:
207,30,110437,2,0,P|218:88|214:130,1,95,4|0,0:2|2:0,0:0:0:0:
167,294,110767,5,4,0:0:0:0:
38,74,119338,5,8,0:0:0:0:
170,129,119503,1,0,0:0:0:0:
59,217,119668,1,0,0:0:0:0:
194,279,119833,6,0,P|257:221|393:231,1,190,4|0,0:2|0:0,0:0:0:0:
371,227,120245,1,0,0:0:0:0:
385,239,120327,1,0,0:0:0:0:
399,251,120410,1,0,0:0:0:0:
412,263,120492,1,0,0:0:0:0:
425,276,120575,1,0,0:0:0:0:
438,289,120657,1,8,0:0:0:0:
290,359,120822,1,8,0:0:0:0:
252,196,120987,1,8,0:0:0:0:
400,126,121151,1,8,0:0:0:0:
252,196,121316,6,0,P|207:205|151:211,1,95,4|0,0:0|0:0,0:0:0:0:
190,114,121646,1,8,0:0:0:0:
74,264,121811,2,0,P|66:318|63:365,2,95
90,166,122305,1,8,0:0:0:0:
1,204,122470,1,0,0:0:0:0:
168,351,122635,5,0,0:0:0:0:
192,260,122800,1,0,0:0:0:0:
211,255,122882,1,0,0:0:0:0:
230,251,122965,1,8,0:0:0:0:
443,307,123129,2,0,P|396:303|330:296,1,95
287,358,123459,1,0,0:0:0:0:
356,192,123624,1,8,0:0:0:0:
360,173,123706,1,0,0:0:0:0:
364,154,123789,1,0,0:0:0:0:
455,87,123954,6,2,P|473:139|463:203,1,95,0|0,0:0|0:0,0:0:0:0:
466,196,124201,1,0,0:0:0:0:
457,212,124283,1,8,0:0:0:0:
287,358,124448,2,2,L|299:252,1,95,0|0,0:0|0:0,0:0:0:0:
176,59,124778,2,2,L|188:165,1,95,0|8,0:0|0:0,0:0:0:0:
65,337,125108,6,2,L|44:140,1,190
147,241,125602,2,0,P|204:250|248:241,1,95,10|0,0:0|0:0,0:0:0:0:
349,168,125932,1,0,0:0:0:0:
343,149,126014,1,0,0:0:0:0:
337,130,126097,1,0,0:0:0:0:
431,123,126261,1,8,0:0:0:0:
261,188,126426,1,0,0:0:0:0:
387,45,126591,5,0,0:0:0:0:
426,213,126756,1,0,0:0:0:0:
422,231,126838,1,0,0:0:0:0:
418,249,126921,1,8,0:0:0:0:
143,353,127086,2,0,P|187:309|323:290,1,190
283,98,127580,2,0,P|262:140|261:188,1,95,8|0,0:0|0:0,0:0:0:0:
359,156,127910,5,0,0:0:0:0:
191,95,128075,1,0,0:0:0:0:
355,35,128239,1,8,0:0:0:0:
261,188,128404,2,0,P|206:214|161:219,1,95
228,358,128734,1,0,0:0:0:0:
30,355,128899,2,2,P|85:329|130:324,1,95,8|0,0:0|0:0,0:0:0:0:
324,356,129228,5,2,0:0:0:0:
420,308,129393,1,0,0:0:0:0:
419,288,129476,1,0,0:0:0:0:
414,269,129558,1,8,0:0:0:0:
504,128,129723,2,2,P|499:180|495:233,1,95,0|0,0:0|0:0,0:0:0:0:
314,117,130053,2,2,P|319:65|323:12,1,95,0|8,0:0|0:0,0:0:0:0:
388,187,130382,6,2,P|317:140|209:158,1,190
118,96,130877,2,0,P|124:149|132:205,1,95,10|0,0:0|0:0,0:0:0:0:
129,190,131124,1,0,0:0:0:0:
129,190,131206,1,2,0:0:0:0:
93,278,131371,1,6,0:0:0:0:
217,152,131536,1,8,0:0:0:0:
35,174,131701,1,4,0:2:0:0:
206,255,131866,6,0,P|262:254|377:336,1,190,4|8,0:0|0:0,0:0:0:0:
391,193,132360,2,0,P|398:143|399:80,1,95
305,145,132690,1,0,0:0:0:0:
468,260,132855,1,8,0:0:0:0:
468,260,132937,1,0,0:0:0:0:
468,260,133020,1,0,0:0:0:0:
493,81,133184,6,0,P|441:94|388:100,1,95,0|0,0:0|0:0,0:0:0:0:
308,45,133514,1,8,0:0:0:0:
158,133,133679,2,0,P|212:123|318:198,1,190
70,191,134173,2,2,P|56:143|61:96,1,95,8|0,0:0|0:0,0:0:0:0:
170,225,134503,5,2,0:0:0:0:
141,43,134668,1,0,0:0:0:0:
141,43,134750,1,0,0:0:0:0:
141,43,134833,1,8,0:0:0:0:
170,225,134998,2,2,P|159:281|146:335,1,95,0|0,0:0|0:0,0:0:0:0:
13,130,135327,2,2,P|24:74|37:20,1,95,0|8,0:0|0:0,0:0:0:0:
268,321,135657,6,2,P|326:326|435:238,1,190
315,208,136151,1,10,0:0:0:0:
374,112,136316,5,0,0:0:0:0:
339,95,136399,1,0,0:0:0:0:
301,90,136481,1,0,0:0:0:0:
263,99,136564,1,0,0:0:0:0:
231,120,136646,1,0,0:0:0:0:
214,154,136728,1,0,0:0:0:0:
205,191,136811,2,0,L|154:211,1,47.5,8|8,0:0|0:0,0:0:0:0:
139,129,136976,2,0,L|90:115,1,47.5,8|8,0:0|0:0,0:0:0:0:
71,202,137140,6,0,P|80:255|73:315,1,95,4|0,0:0|0:0,0:0:0:0:
0,255,137470,1,8,0:0:0:0:
138,375,137635,2,0,P|188:328|313:314,1,190
319,218,138129,1,8,0:0:0:0:
315,179,138212,1,0,0:0:0:0:
328,143,138294,1,0,0:0:0:0:
415,183,138459,5,0,0:0:0:0:
233,144,138624,1,0,0:0:0:0:
410,68,138789,1,8,0:0:0:0:
319,218,138954,1,0,0:0:0:0:
294,36,139119,1,0,0:0:0:0:
71,202,139283,5,8,0:0:0:0:
233,144,139448,1,8,0:0:0:0:
94,28,139613,1,8,0:0:0:0:
138,118,139778,6,2,L|154:229,1,95,4|0,0:0|0:0,0:0:0:0:
154,230,140025,1,0,0:0:0:0:
157,248,140108,1,8,0:0:0:0:
319,218,140272,2,2,L|335:329,1,95,0|8,0:0|0:0,0:0:0:0:
409,69,140602,1,2,0:0:0:0:
409,69,140932,6,2,B|381:180|435:148|410:257,1,190,6|2,0:0|0:0,0:0:0:0:
494,121,141426,1,10,0:0:0:0:
218,320,141756,5,10,0:0:0:0:
246,295,141838,1,8,0:0:0:0:
283,287,141921,1,8,0:0:0:0:
319,296,142003,1,8,0:0:0:0:
349,319,142086,1,0,0:0:0:0:
376,344,142168,1,0,0:0:0:0:
413,350,142250,1,0,0:0:0:0:
449,339,142333,1,0,0:0:0:0:
476,313,142415,1,4,0:0:0:0:
125,89,142745,5,0,0:0:0:0:
90,183,142910,2,0,L|192:161,1,95,0|0,0:0|2:0,0:0:0:0:
445,77,143240,1,0,0:0:0:0:
416,72,143322,1,0,0:0:0:0:
387,68,143405,1,4,0:2:0:0:
76,325,143734,5,0,2:0:0:0:
68,326,143817,1,0,2:0:0:0:
61,328,143899,1,0,2:0:0:0:
53,330,143981,1,0,2:0:0:0:
46,332,144064,1,2,3:3:0:0:
329,192,144394,5,0,1:0:0:0:
411,221,144558,1,0,3:0:0:0:
420,220,144641,1,0,3:0:0:0:
429,219,144723,1,0,3:0:0:0:
247,163,144888,5,0,1:0:0:0:
329,192,145053,1,0,3:0:0:0:
338,191,145135,1,0,3:0:0:0:
347,190,145218,1,0,3:0:0:0:
165,134,145383,5,0,1:0:0:0:
247,163,145547,1,0,3:0:0:0:
256,162,145630,1,0,3:0:0:0:
265,161,145712,1,0,3:0:0:0:
83,105,145877,5,0,1:0:0:0:
165,134,146042,1,0,3:0:0:0:
174,133,146124,1,0,3:0:0:0:
183,132,146207,1,0,3:0:0:0:
333,31,146372,6,0,L|369:37,4,31.6666666666667
250,24,146701,2,0,L|265:141,1,95,4|0,0:2|0:0,0:0:0:0:
247,316,147031,5,2,0:2:0:0:
405,314,147196,1,2,0:2:0:0:
323,259,147361,1,2,0:2:0:0:
482,256,147525,2,0,P|500:187|458:57,1,190,8|0,0:0|0:0,0:0:0:0:
310,110,148020,5,2,0:2:0:0:
335,195,148185,1,2,0:2:0:0:
366,38,148350,1,2,0:2:0:0:
221,81,148514,2,0,P|163:79|113:73,1,95,12|0,0:2|0:0,0:0:0:0:
291,303,148844,2,0,P|349:305|399:311,1,95,4|8,0:3|0:3,0:0:0:0:
366,88,149174,2,0,P|362:135|357:182,1,95,4|8,0:3|0:3,0:0:0:0:
256,192,149503,1,4,0:3:0:0:
480,136,149668,6,0,B|460:188|452:228|452:228|464:276|488:324,1,190,4|0,0:0|0:0,0:0:0:0:
286,358,150163,2,0,P|292:311|300:252,1,95
298,263,150410,1,0,0:0:0:0:
298,263,150493,1,0,0:0:0:0:
113,294,150658,2,0,P|116:237|125:81,1,190,0|4,0:0|2:0,0:0:0:0:
124,105,151317,5,0,0:0:0:0:
209,64,151481,1,0,3:0:0:0:
209,64,151564,1,0,3:0:0:0:
209,64,151646,1,0,3:0:0:0:
238,154,151811,5,0,0:0:0:0:
302,84,151976,1,0,3:0:0:0:
302,84,152058,1,0,3:0:0:0:
302,84,152141,1,0,3:0:0:0:
363,156,152306,5,0,0:0:0:0:
392,65,152470,1,0,3:0:0:0:
392,65,152553,1,0,3:0:0:0:
392,65,152635,1,0,3:0:0:0:
479,102,152800,5,0,0:0:0:0:
461,8,152965,1,0,3:0:0:0:
461,8,153047,1,0,3:0:0:0:
461,8,153130,1,0,3:0:0:0:
461,203,153295,5,0,0:0:0:0:
302,84,153459,2,0,L|307:46,3,31.6666666666667
461,203,153789,1,0,0:0:0:0:
307,185,153954,5,0,0:0:0:0:
272,168,154036,1,0,0:0:0:0:
233,168,154119,1,0,0:0:0:0:
205,194,154201,1,0,0:0:0:0:
187,227,154284,1,0,0:0:0:0:
165,258,154366,1,0,0:0:0:0:
128,268,154448,1,0,0:0:0:0:
91,256,154531,1,0,0:0:0:0:
60,233,154613,6,0,P|70:183|80:130,1,95,4|0,0:0|0:0,0:0:0:0:
37,53,154943,1,0,0:0:0:0:
270,278,155108,2,0,P|326:274|451:360,1,190
438,339,155520,1,0,0:0:0:0:
438,339,155603,1,0,0:0:0:0:
433,207,155767,1,0,0:0:0:0:
294,374,155932,2,0,P|237:372|191:341,1,95
294,374,156262,1,4,3:0:0:0:
149,174,156592,5,4,0:0:0:0:
214,243,156756,1,0,3:0:0:0:
217,251,156839,1,0,3:0:0:0:
216,260,156921,1,0,3:0:0:0:
149,174,157086,5,0,0:0:0:0:
285,193,157251,1,0,3:0:0:0:
291,199,157333,1,0,3:0:0:0:
293,208,157416,1,0,3:0:0:0:
149,174,157581,5,4,0:0:0:0:
317,114,157745,1,0,3:0:0:0:
326,115,157828,1,0,3:0:0:0:
333,120,157910,1,0,3:0:0:0:
149,174,158075,5,4,0:2:0:0:
333,31,158240,1,0,3:0:0:0:
342,29,158322,1,0,3:0:0:0:
348,36,158405,1,0,3:0:0:0:
242,35,158570,6,0,L|234:97,1,47.5,8|4,0:3|0:3,0:0:0:0:
446,233,158817,2,0,L|438:295,1,47.5,8|4,0:3|0:3,0:0:0:0:
124,280,159064,2,0,L|116:342,1,47.5,8|4,0:3|0:3,0:0:0:0:
124,280,159229,6,0,B|102:238|102:238|114:181,1,95,6|2,0:2|0:2,0:0:0:0:
223,310,159559,1,2,0:2:0:0:
182,117,159723,1,8,0:0:0:0:
338,320,160053,5,0,0:0:0:0:
338,320,160135,1,0,0:0:0:0:
338,320,160218,1,2,0:2:0:0:
252,365,160383,1,2,0:2:0:0:
407,371,160548,1,2,0:2:0:0:
252,365,160712,2,0,B|244:285|244:285|256:261|256:261|245:158,1,190,8|0,0:0|0:0,0:0:0:0:
172,133,161207,2,0,B|159:151|159:151|164:204,2,63.3333333333333,8|0|8,0:0|0:0|0:0,0:0:0:0:
253,101,161537,1,0,0:0:0:0:
97,42,161701,1,0,0:0:0:0:
64,190,161866,6,0,P|115:158|184:32,1,190,4|0,0:0|0:0,0:0:0:0:
256,234,162360,2,0,L|256:130,2,95
448,190,162855,2,0,P|397:158|344:62,2,126.666666666667
256,288,163514,5,4,0:0:0:0:
180,364,163679,1,0,3:0:0:0:
180,364,163762,1,0,3:0:0:0:
180,364,163844,1,0,3:0:0:0:
256,256,164009,5,4,0:0:0:0:
332,364,164174,1,0,3:0:0:0:
332,364,164256,1,0,3:0:0:0:
332,364,164339,1,0,3:0:0:0:
256,224,164504,5,4,0:2:0:0:
180,364,164668,1,0,3:0:0:0:
180,364,164751,1,0,3:0:0:0:
180,364,164833,1,0,3:0:0:0:
256,192,164998,5,4,0:0:0:0:
332,364,165163,1,0,3:0:0:0:
332,364,165245,1,0,3:0:0:0:
332,364,165328,1,0,3:0:0:0:
464,168,165493,5,8,0:0:0:0:
294,96,165657,1,8,0:0:0:0:
316,280,165822,1,0,0:0:0:0:
464,168,165987,1,8,0:0:0:0:
512,323,166152,5,4,0:2:0:0:
497,287,166235,1,0,0:0:0:0:
468,261,166317,1,0,0:0:0:0:
433,246,166400,1,0,0:0:0:0:
394,246,166482,1,0,0:0:0:0:
266,215,166647,5,4,0:0:0:0:
281,179,166729,1,0,0:0:0:0:
310,153,166812,1,0,0:0:0:0:
345,138,166894,1,0,0:0:0:0:
384,138,166977,1,0,0:0:0:0:
112,84,167142,6,0,L|45:75,2,47.5,4|0|0,0:0|0:0|0:0,0:0:0:0:
143,105,167389,1,0,0:0:0:0:
157,140,167471,1,0,0:0:0:0:
190,289,167636,5,4,0:0:0:0:
160,264,167718,1,0,0:0:0:0:
123,253,167801,1,0,0:0:0:0:
84,253,167883,1,0,0:0:0:0:
51,271,167966,1,0,0:0:0:0:
115,348,168131,6,0,L|87:368,4,31.6666666666667,4|0|0|0|0,0:0|0:0|0:0|0:0|0:0,0:0:0:0:
115,348,168460,2,0,P|162:374|209:377,1,95,4|0,0:2|0:0,0:0:0:0:
418,263,168790,5,4,0:2:0:0:
322,289,168955,1,0,0:0:0:0:
346,192,169120,1,0,0:0:0:0:
123,213,169284,5,0,0:0:0:0:
263,221,169449,1,0,0:0:0:0:
202,87,169614,1,4,0:0:0:0:
263,221,169779,6,0,P|271:163|276:126,1,95,4|0,0:2|0:0,0:0:0:0:
454,151,170109,1,4,0:0:0:0:
393,17,170273,2,0,P|385:75|380:112,1,95,0|4,0:0|0:2,0:0:0:0:
278,40,170603,1,0,0:0:0:0:
170,171,170768,5,0,0:0:0:0:
202,87,170933,1,0,0:0:0:0:
196,68,171015,1,0,0:0:0:0:
187,51,171098,1,0,0:0:0:0:
331,117,171262,1,0,0:0:0:0:
438,232,171427,6,0,P|442:287|435:338,1,95,4|0,0:0|0:0,0:0:0:0:
437,326,171674,1,0,0:0:0:0:
437,326,171757,1,0,0:0:0:0:
353,283,171922,1,4,0:0:0:0:
511,177,172087,1,0,0:0:0:0:
511,177,172169,1,0,0:0:0:0:
511,177,172251,1,0,0:0:0:0:
357,192,172416,5,4,0:0:0:0:
325,370,172581,1,0,0:0:0:0:
325,370,172663,1,0,0:0:0:0:
325,370,172746,1,0,0:0:0:0:
182,230,172911,6,0,L|292:238,1,95,4|0,0:0|0:0,0:0:0:0:
276,236,173158,1,0,0:0:0:0:
276,236,173240,1,0,0:0:0:0:
98,292,173405,6,0,P|85:238|90:192,1,95,4|0,0:0|0:0,0:0:0:0:
238,47,173735,2,0,P|251:101|246:147,1,95,4|0,0:0|0:0,0:0:0:0:
370,318,174065,5,4,0:2:0:0:
407,319,174147,1,0,0:0:0:0:
443,307,174229,1,0,0:0:0:0:
470,281,174312,1,0,0:0:0:0:
487,247,174394,1,0,0:0:0:0:
372,142,174559,6,0,L|388:86,2,47.5,4|0|0,0:2|0:0|0:0,0:0:0:0:
370,180,174806,1,0,0:0:0:0:
387,213,174889,1,0,0:0:0:0:
465,157,175054,2,0,L|497:147,3,31.6666666666667
290,251,175383,6,0,P|191:249|109:305,1,190,4|0,0:0|2:0,0:0:0:0:
116,296,176008,1,0,2:0:0:0:
61,218,176348,1,0,2:0:0:0:
115,140,176702,5,4,0:0:0:0:
206,164,176866,1,0,0:0:0:0:
224,159,176949,1,0,0:0:0:0:
242,154,177031,1,8,0:0:0:0:
484,118,177361,1,0,0:0:0:0:
466,113,177443,1,0,0:0:0:0:
448,108,177526,2,0,P|423:149|424:201,1,95,0|0,0:0|2:0,0:0:0:0:
411,340,177855,1,8,0:0:0:0:
323,305,178020,5,4,0:0:0:0:
305,310,178103,1,0,0:0:0:0:
287,315,178185,1,0,0:0:0:0:
269,322,178267,1,0,0:0:0:0:
251,329,178350,1,8,0:0:0:0:
43,72,178680,5,0,0:0:0:0:
61,77,178762,1,0,0:0:0:0:
79,82,178844,2,0,P|121:115|135:172,1,95,0|0,0:0|2:0,0:0:0:0:
107,314,179174,1,8,0:0:0:0:
219,196,179339,5,4,0:0:0:0:
241,178,179421,1,0,0:0:0:0:
269,171,179504,1,0,0:0:0:0:
297,171,179586,1,0,0:0:0:0:
324,178,179669,2,0,L|424:166,1,95,8|0,0:0|2:0,0:0:0:0:
285,264,179998,1,0,0:0:0:0:
285,264,180081,1,0,0:0:0:0:
285,264,180163,2,0,L|279:366,1,95,0|0,0:0|2:0,0:0:0:0:
377,263,180493,1,8,0:0:0:0:
192,297,180658,5,4,0:0:0:0:
154,288,180740,1,0,0:0:0:0:
116,291,180822,1,0,0:0:0:0:
85,313,180905,1,0,0:0:0:0:
64,344,180987,1,8,0:0:0:0:
0,83,181317,5,0,0:0:0:0:
38,74,181399,1,0,0:0:0:0:
76,77,181482,1,0,0:0:0:0:
107,99,181564,1,0,0:0:0:0:
128,130,181647,1,8,0:0:0:0:
450,173,181976,5,4,0:0:0:0:
454,154,182059,1,0,0:0:0:0:
458,135,182141,1,0,0:0:0:0:
462,116,182223,1,0,0:0:0:0:
466,97,182306,1,8,0:0:0:0:
308,277,182636,1,0,0:0:0:0:
312,295,182718,1,0,0:0:0:0:
316,313,182800,2,0,P|372:334|422:322,1,95,0|0,0:0|2:0,0:0:0:0:
497,256,183130,1,8,0:0:0:0:
229,357,183295,5,4,0:0:0:0:
213,345,183377,1,0,0:0:0:0:
195,337,183460,1,0,0:0:0:0:
176,333,183542,1,0,0:0:0:0:
157,332,183625,1,8,0:0:0:0:
14,117,183954,1,0,0:0:0:0:
28,129,184037,1,0,0:0:0:0:
44,137,184119,2,0,P|101:141|151:119,1,95,0|0,0:0|2:0,0:0:0:0:
192,39,184449,1,8,0:0:0:0:
207,188,184614,5,4,0:0:0:0:
224,165,184696,1,0,0:0:0:0:
249,151,184778,1,0,0:0:0:0:
276,144,184861,1,0,0:0:0:0:
304,145,184943,2,0,P|300:96|315:42,1,95,8|0,0:0|2:0,0:0:0:0:
290,238,185273,1,0,0:0:0:0:
290,238,185355,1,0,0:0:0:0:
290,238,185438,2,0,P|294:287|279:341,1,95,0|0,0:0|2:0,0:0:0:0:
197,281,185767,1,8,0:0:0:0:
374,344,185932,5,4,0:0:0:0:
407,326,186015,1,0,0:0:0:0:
444,324,186097,1,0,0:0:0:0:
479,337,186180,1,0,0:0:0:0:
504,365,186262,1,14,0:2:0:0:
143,151,186592,5,0,0:0:0:0:
110,133,186674,1,0,0:0:0:0:
73,131,186756,1,0,0:0:0:0:
38,144,186839,1,0,0:0:0:0:
13,172,186921,1,14,0:2:0:0:
341,139,187251,5,4,0:0:0:0:
359,135,187333,1,0,0:0:0:0:
377,131,187416,1,0,0:0:0:0:
395,127,187498,1,0,0:0:0:0:
413,123,187581,2,0,P|425:170|416:227,1,95,8|0,0:0|2:0,0:0:0:0:
306,307,187910,1,0,0:0:0:0:
288,311,187993,1,0,0:0:0:0:
270,315,188075,2,0,P|258:268|267:211,1,95,0|0,0:0|2:0,0:0:0:0:
108,106,188405,5,8,0:0:0:0:
126,108,188487,1,0,0:0:0:0:
144,110,188570,1,4,0:0:0:0:
162,112,188652,1,0,0:0:0:0:
180,114,188734,1,0,0:0:0:0:
400,43,188899,2,0,P|340:26|283:37,1,95,8|0,0:0|2:0,0:0:0:0:
342,274,189229,1,0,0:0:0:0:
333,247,189311,1,0,0:0:0:0:
332,218,189394,1,0,0:0:0:0:
335,189,189476,1,0,0:0:0:0:
345,162,189559,1,0,0:0:0:0:
430,224,189723,1,8,0:0:0:0:
258,321,189888,5,4,0:0:0:0:
231,293,189971,1,0,0:0:0:0:
195,279,190053,1,0,0:0:0:0:
157,279,190136,1,0,0:0:0:0:
122,294,190218,2,0,L|21:313,1,95,8|0,0:0|2:0,0:0:0:0:
177,371,190548,1,0,0:0:0:0:
177,371,190630,1,0,0:0:0:0:
177,371,190712,1,0,0:0:0:0:
344,368,190877,2,0,P|355:319|351:268,1,95,0|8,2:0|0:0,0:0:0:0:
235,124,191207,5,4,0:0:0:0:
259,95,191289,1,0,0:0:0:0:
294,81,191372,1,0,0:0:0:0:
331,81,191454,1,0,0:0:0:0:
367,91,191537,2,0,P|377:144|380:199,1,95,8|0,0:0|2:0,0:0:0:0:
191,210,191866,5,0,0:0:0:0:
167,239,191949,1,0,0:0:0:0:
132,253,192031,1,0,0:0:0:0:
95,253,192114,1,0,0:0:0:0:
59,243,192196,2,0,P|49:190|46:135,1,95,8|0,0:0|2:0,0:0:0:0:
111,355,192526,5,4,0:0:0:0:
216,320,192691,1,0,0:0:0:0:
216,320,192773,1,0,0:0:0:0:
216,320,192855,2,0,P|268:321|322:323,1,95,8|0,0:0|2:0,0:0:0:0:
373,147,193185,1,0,0:0:0:0:
373,147,193267,1,0,0:0:0:0:
373,147,193350,2,0,P|346:191|317:237,1,95,0|0,0:0|2:0,0:0:0:0:
402,292,193680,1,8,0:0:0:0:
222,218,193844,5,4,0:0:0:0:
209,191,193927,1,0,0:0:0:0:
187,172,194009,1,0,0:0:0:0:
160,160,194092,1,0,0:0:0:0:
131,157,194174,2,0,L|19:174,1,95,8|0,0:0|2:0,0:0:0:0:
256,106,194504,1,0,0:0:0:0:
268,80,194586,1,0,0:0:0:0:
291,63,194669,2,0,L|412:73,1,95,0|0,0:0|2:0,0:0:0:0:
453,138,194998,1,8,0:0:0:0:
352,223,195163,5,4,0:0:0:0:
322,199,195245,1,0,0:0:0:0:
284,192,195328,1,0,0:0:0:0:
246,199,195410,1,0,0:0:0:0:
216,222,195493,2,0,L|98:247,1,95,8|0,0:0|2:0,0:0:0:0:
292,364,195822,1,0,0:0:0:0:
278,328,195905,1,0,0:0:0:0:
289,291,195987,1,0,0:0:0:0:
373,322,196152,2,0,L|425:308,1,47.5,8|8,0:0|0:0,0:0:0:0:
512,285,196317,2,0,L|469:251,1,47.5,8|8,0:0|0:0,0:0:0:0:
429,139,196482,6,0,P|413:193|395:250,1,95,4|0,0:0|0:0,0:0:0:0:
141,353,196811,1,0,0:0:0:0:
129,347,196894,1,0,0:0:0:0:
117,340,196976,1,0,0:0:0:0:
107,332,197059,1,0,0:0:0:0:
98,322,197141,1,0,0:0:0:0:
90,311,197223,1,0,0:0:0:0:
82,300,197306,1,0,0:0:0:0:
76,288,197388,1,0,0:0:0:0:
71,275,197471,1,0,0:0:0:0:
68,262,197553,1,0,0:0:0:0:
66,248,197636,1,0,0:0:0:0:
65,234,197718,1,0,0:0:0:0:
66,220,197800,5,4,0:0:0:0:
146,152,197965,1,2,0:2:0:0:
142,133,198048,1,2,0:2:0:0:
138,114,198130,1,8,0:0:0:0:
261,65,198295,1,2,0:2:0:0:
263,83,198377,1,0,0:0:0:0:
263,101,198460,1,0,0:0:0:0:
262,120,198542,1,0,0:0:0:0:
260,138,198625,1,2,0:2:0:0:
176,25,198789,1,8,0:0:0:0:
374,114,198954,1,8,0:0:0:0:
370,133,199037,1,0,0:0:0:0:
366,152,199119,5,4,0:0:0:0:
453,251,199284,1,2,0:2:0:0:
457,232,199366,1,2,0:2:0:0:
461,213,199449,1,8,0:0:0:0:
512,115,199614,1,2,0:2:0:0:
348,258,199778,1,0,0:0:0:0:
311,247,199861,1,0,0:0:0:0:
273,253,199943,1,2,0:2:0:0:
242,274,200026,1,0,0:0:0:0:
224,307,200108,1,8,0:0:0:0:
318,343,200273,1,2,0:2:0:0:
144,368,200438,5,4,0:0:0:0:
145,263,200603,1,2,0:2:0:0:
151,235,200685,1,2,0:2:0:0:
157,207,200767,1,8,0:0:0:0:
51,50,200932,1,2,0:2:0:0:
72,68,201015,1,0,0:0:0:0:
86,92,201097,1,0,0:0:0:0:
90,119,201180,1,0,0:0:0:0:
87,147,201262,1,2,0:2:0:0:
0,126,201427,1,8,0:0:0:0:
225,123,201592,1,8,0:0:0:0:
250,110,201674,1,0,0:0:0:0:
278,107,201756,5,12,0:0:0:0:
365,160,201921,1,2,0:2:0:0:
365,160,202004,1,2,0:2:0:0:
365,160,202086,1,8,0:0:0:0:
370,57,202251,1,12,0:2:0:0:
275,200,202416,1,0,0:2:0:0:
503,299,202581,1,8,0:0:0:0:
473,275,202663,1,0,0:0:0:0:
436,262,202745,1,4,0:2:0:0:
398,255,202828,1,0,0:0:0:0:
359,255,202910,1,8,0:0:0:0:
87,370,203075,6,0,P|73:323|80:262,1,95,4|2,0:0|0:2,0:0:0:0:
83,260,203322,1,2,0:2:0:0:
93,244,203405,1,8,0:0:0:0:
267,336,203570,1,2,0:2:0:0:
250,326,203652,1,0,0:0:0:0:
232,319,203734,1,0,0:0:0:0:
213,315,203817,1,0,0:0:0:0:
193,313,203899,1,2,0:2:0:0:
309,176,204064,1,8,0:0:0:0:
196,159,204229,1,8,0:0:0:0:
195,178,204311,1,0,0:0:0:0:
197,196,204394,5,4,0:0:0:0:
91,147,204559,2,0,L|25:160,2,47.5,2|2|8,0:2|0:2|0:0,0:0:0:0:
145,37,204888,1,2,0:2:0:0:
398,122,205053,1,0,0:0:0:0:
374,92,205136,1,0,0:0:0:0:
340,73,205218,1,2,0:2:0:0:
301,69,205300,1,0,0:0:0:0:
263,74,205383,1,8,0:0:0:0:
309,176,205548,1,2,0:2:0:0:
230,375,205712,6,0,P|213:322|216:269,1,95,4|2,0:0|0:2,0:0:0:0:
216,254,205960,1,2,0:2:0:0:
221,225,206042,1,8,0:0:0:0:
93,99,206207,1,2,0:2:0:0:
101,125,206289,1,0,0:0:0:0:
109,152,206372,1,0,0:0:0:0:
183,96,206537,1,10,0:2:0:0:
22,250,206702,2,0,L|133:233,1,95,8|10,0:0|0:2,0:0:0:0:
481,157,207031,5,6,0:2:0:0:
357,42,207196,1,2,0:2:0:0:
329,208,207361,1,14,0:2:0:0:
357,42,207526,1,10,0:2:0:0:
388,132,207691,1,6,0:2:0:0:
171,107,207855,1,2,0:2:0:0:
171,107,207938,1,2,0:2:0:0:
171,107,208020,1,14,0:2:0:0:
282,120,208185,1,10,0:2:0:0:
50,89,208350,6,2,P|41:146|56:203,1,95,6|2,0:0|0:2,0:0:0:0:
53,200,208597,1,2,0:2:0:0:
58,218,208680,1,8,0:0:0:0:
131,358,208844,1,2,0:0:0:0:
141,342,208927,1,2,0:2:0:0:
147,324,209009,1,0,0:0:0:0:
151,305,209092,1,2,0:2:0:0:
154,286,209174,1,2,0:2:0:0:
50,310,209339,1,8,0:0:0:0:
230,350,209504,1,8,0:0:0:0:
170,181,209669,5,6,0:0:0:0:
260,237,209833,1,2,0:2:0:0:
278,239,209916,1,2,0:2:0:0:
296,241,209998,1,8,0:0:0:0:
475,154,210163,1,2,0:0:0:0:
438,241,210328,1,0,0:0:0:0:
404,222,210410,1,0,0:0:0:0:
383,190,210493,1,2,0:2:0:0:
380,151,210575,1,2,0:2:0:0:
390,114,210658,2,0,P|397:60|395:13,1,95,8|2,0:0|0:2,0:0:0:0:
91,125,210987,6,0,P|84:179|86:226,1,95,6|2,0:0|0:2,0:0:0:0:
95,246,211234,1,2,0:2:0:0:
107,271,211317,1,8,0:0:0:0:
231,333,211482,1,2,0:0:0:0:
259,329,211564,1,2,0:2:0:0:
287,332,211647,1,0,0:0:0:0:
313,340,211729,1,2,0:2:0:0:
339,351,211811,1,10,0:2:0:0:
137,375,211976,1,8,0:0:0:0:
205,235,212141,1,8,0:0:0:0:
212,207,212223,1,0,0:0:0:0:
210,178,212306,5,2,0:0:0:0:
61,193,212471,2,0,L|109:198,2,47.5,2|2|14,0:2|0:2|0:2,0:0:0:0:
302,250,212800,1,10,0:2:0:0:
315,48,212965,2,2,P|296:100|301:162,1,95,6|10,0:2|0:0,0:0:0:0:
448,372,213295,2,2,P|484:314|491:185,1,190,10|4,0:0|0:0,0:0:0:0:
398,118,213789,5,0,0:0:0:0:
398,118,213872,1,0,0:0:0:0:
398,118,213954,1,0,0:0:0:0:
321,279,214119,2,0,B|246:290|246:290|219:316|219:316|135:331,1,190,4|0,0:0|0:0,0:0:0:0:
143,329,214531,1,0,0:0:0:0:
143,329,214614,1,4,0:0:0:0:
300,372,214778,1,0,0:0:0:0:
173,229,214943,5,0,0:0:0:0:
428,209,215108,2,0,B|436:257|436:257|416:311,1,95,4|0,0:0|0:0,0:0:0:0:
241,163,215438,1,0,0:0:0:0:
241,163,215520,1,0,0:0:0:0:
241,163,215603,2,0,B|233:115|233:115|253:61,1,95,4|0,0:0|0:0,0:0:0:0:
340,131,215932,1,4,0:0:0:0:
323,250,216097,1,0,0:0:0:0:
173,229,216262,6,0,P|109:228|66:244,2,95,4|0|0,0:0|0:0|0:0,0:0:0:0:
323,250,216756,1,4,0:0:0:0:
245,306,216921,1,0,0:0:0:0:
238,323,217004,1,0,0:0:0:0:
234,341,217086,1,0,0:0:0:0:
412,283,217251,1,4,0:0:0:0:
275,163,217416,1,0,0:0:0:0:
339,340,217581,1,0,0:0:0:0:
393,194,217745,6,0,P|404:138|408:84,1,95,4|0,0:0|0:0,0:0:0:0:
300,20,218075,1,0,0:0:0:0:
301,38,218158,1,0,0:0:0:0:
304,56,218240,1,4,0:0:0:0:
393,28,218405,1,0,0:0:0:0:
206,64,218570,1,4,0:0:0:0:
393,28,218734,1,0,0:0:0:0:
393,376,218899,6,2,P|343:383|226:300,1,190,0|0,0:0|0:0,0:0:0:0:
336,274,219394,2,2,P|321:219|333:167,1,95,0|0,0:0|0:0,0:0:0:0:
393,28,219724,1,0,0:0:0:0:
393,28,219806,1,0,0:0:0:0:
393,28,219889,2,2,B|370:137|442:100|426:209,1,190,0|0,0:0|2:0,0:0:0:0:
426,208,220878,5,0,0:0:0:0:
256,192,229449,5,4,0:0:0:0:
256,192,229531,12,0,231097,2:0:0:0:
256,192,231427,6,0,L|268:144,4,47.5
124,192,233735,5,4,0:0:0:0:
388,192,234064,1,2,2:0:0:0:
388,192,234229,1,4,0:0:0:0:
377,181,236372,5,2,2:0:0:0:
388,192,236867,1,0,0:0:0:0:
388,192,236949,1,0,0:0:0:0:
388,192,237031,1,0,0:0:0:0:
473,149,237196,1,0,0:0:0:0:
510,236,237361,2,0,P|502:303|485:342,1,95
288,216,237691,2,0,P|296:149|313:110,1,95
207,344,238020,5,8,1:0:0:0:
207,344,238184,1,0,0:0:0:0:
120,304,238349,1,2,0:2:0:0:
120,304,238514,1,0,0:0:0:0:
36,348,238679,1,8,1:0:0:0:
179,237,238844,1,0,0:0:0:0:
64,234,239009,2,0,P|42:185|42:135,1,95,2|8,1:2|1:0,0:0:0:0:
215,62,239338,6,0,L|215:162,1,95,0|0,0:0|1:0,0:0:0:0:
130,123,239668,1,2,1:2:0:0:
304,135,239833,2,0,P|355:129|402:114,2,95,0|8|0,0:0|0:0|1:0,0:0:0:0:
326,43,240327,1,2,0:2:0:0:
380,210,240492,1,8,0:0:0:0:
506,171,240657,6,0,L|460:263,1,95,4|0,1:0|0:0,0:0:0:0:
396,116,240987,2,0,L|378:224,1,95,2|0,0:0|1:0,0:0:0:0:
274,135,241316,2,0,L|286:251,1,95,8|0,0:0|0:0,0:0:0:0:
263,333,241646,1,2,2:2:0:0:
358,298,241811,1,8,1:0:0:0:
263,333,241976,5,0,0:0:0:0:
145,214,242140,1,0,1:0:0:0:
100,368,242305,1,2,1:2:0:0:
145,214,242470,1,0,1:0:0:0:
142,195,242552,1,0,1:0:0:0:
135,176,242635,1,8,0:0:0:0:
53,252,242800,1,8,1:0:0:0:
234,188,242965,1,0,1:0:0:0:
53,132,243129,1,0,1:0:0:0:
161,294,243294,6,0,P|211:298|259:286,1,95,4|0,1:0|0:0,0:0:0:0:
349,282,243624,2,0,P|299:278|251:290,1,95,8|0,0:0|0:0,0:0:0:0:
318,380,243954,1,0,0:0:0:0:
457,218,244118,1,0,0:0:0:0:
332,106,244283,2,0,P|342:160|367:211,1,95,8|0,0:0|0:0,0:0:0:0:
424,127,244613,5,0,0:0:0:0:
253,184,244778,1,0,0:0:0:0:
424,127,244943,1,8,0:0:0:0:
293,17,245107,1,0,0:0:0:0:
358,210,245272,6,0,P|354:271|346:318,1,95
154,174,245602,2,0,P|158:113|166:66,1,95,8|0,0:0|0:0,0:0:0:0:
245,141,245932,1,0,0:0:0:0:
70,119,246096,1,0,0:0:0:0:
199,261,246261,1,8,0:0:0:0:
95,251,246426,1,0,0:0:0:0:
199,261,246591,6,0,P|257:248|300:235,1,95
415,118,246921,2,0,P|397:174|387:218,1,95,8|0,0:0|0:0,0:0:0:0:
433,378,247250,2,0,P|392:334|359:303,1,95,0|8,0:0|0:0,0:0:0:0:
268,358,247580,5,4,0:0:0:0:
268,358,247744,1,0,0:0:0:0:
437,261,247909,2,0,P|432:204|439:152,1,95,8|0,0:0|0:0,0:0:0:0:
512,88,248239,2,0,P|467:121|325:140,1,190,0|8,0:0|0:0,0:0:0:0:
296,49,248733,1,0,0:0:0:0:
219,227,248898,2,0,L|235:119,1,95
131,161,249228,2,0,L|109:61,1,95,8|0,0:0|0:0,0:0:0:0:
32,197,249558,5,0,0:0:0:0:
32,197,249722,1,0,0:0:0:0:
277,308,249887,2,0,P|338:301|377:291,1,95,8|0,0:0|0:0,0:0:0:0:
443,202,250217,2,0,P|415:255|418:389,1,190,0|8,0:0|0:0,0:0:0:0:
415,382,250711,1,0,0:0:0:0:
319,227,250876,1,0,0:0:0:0:
501,309,251041,1,0,0:0:0:0:
443,202,251206,2,0,P|452:149|435:90,1,95,8|0,0:0|0:0,0:0:0:0:
436,91,251453,1,0,0:0:0:0:
424,75,251536,2,0,L|306:63,1,95,8|8,0:0|0:0,0:0:0:0:
156,147,251865,5,2,0:2:0:0:
197,20,252030,1,2,0:2:0:0:
329,65,252195,1,2,0:2:0:0:
282,200,252360,2,0,P|213:184|99:254,1,190,12|0,0:2|0:0,0:0:0:0:
110,236,252855,1,8,0:0:0:0:
469,204,253185,5,0,0:0:0:0:
493,112,253350,1,0,0:0:0:0:
401,136,253515,1,8,0:0:0:0:
43,304,253844,1,0,0:0:0:0:
19,212,254009,1,0,0:0:0:0:
111,236,254174,1,8,0:0:0:0:
321,157,254504,6,0,P|328:102|305:53,1,95
156,35,254833,1,8,0:0:0:0:
224,125,254998,2,0,P|213:191|283:317,1,190
418,93,255493,1,8,0:0:0:0:
349,344,255822,5,0,0:0:0:0:
457,295,255987,1,0,0:0:0:0:
408,182,256152,1,8,0:0:0:0:
293,232,256317,1,0,0:0:0:0:
457,295,256482,2,0,P|487:242|487:188,1,95
356,35,256811,2,0,P|326:88|326:142,1,95,8|0,0:0|0:0,0:0:0:0:
149,370,257141,5,2,0:2:0:0:
73,271,257306,1,2,0:2:0:0:
127,158,257471,1,2,0:2:0:0:
349,344,257635,2,0,P|311:292|170:264,1,190,12|0,0:2|0:0,0:0:0:0:
194,258,258130,1,8,0:0:0:0:
418,92,258460,5,0,0:0:0:0:
331,130,258624,1,0,0:0:0:0:
340,35,258789,1,8,0:0:0:0:
117,315,259119,1,0,0:0:0:0:
204,353,259284,1,0,0:0:0:0:
195,258,259449,1,8,0:0:0:0:
494,137,259778,6,0,P|496:192|485:248,1,95,4|0,0:2|0:0,0:0:0:0:
447,329,260108,1,0,0:0:0:0:
380,238,260273,2,0,B|268:218|311:277|179:256,1,190
227,64,260767,2,0,P|225:119|236:175,1,95,4|0,0:2|0:0,0:0:0:0:
231,158,261015,1,0,0:0:0:0:
231,158,261097,5,4,0:3:0:0:
316,100,261262,1,4,0:3:0:0:
136,111,261427,1,4,0:3:0:0:
181,245,261591,1,0,0:0:0:0:
179,263,261674,1,0,0:0:0:0:
175,281,261756,1,4,0:3:0:0:
96,332,261921,1,4,0:3:0:0:
183,372,262086,1,4,0:3:0:0:
96,332,262251,1,4,0:3:0:0:
273,307,262416,6,0,B|346:312|346:312|381:349|381:349|463:353,1,190,4|0,0:0|2:0,0:0:0:0:
160,160,262910,2,0,P|110:171|71:202,1,95,4|0,0:0|2:0,0:0:0:0:
416,248,263240,1,0,0:0:0:0:
416,248,263322,1,0,0:0:0:0:
416,248,263405,6,0,P|463:216|454:93,1,190,0|0,0:0|2:0,0:0:0:0:
323,41,264229,5,0,0:0:0:0:
323,41,264311,1,0,0:0:0:0:
323,41,264394,2,0,L|315:139,1,95,4|0,0:0|0:0,0:0:0:0:
308,168,264641,1,0,0:0:0:0:
288,195,264723,1,2,0:2:0:0:
257,207,264806,1,2,0:2:0:0:
224,200,264888,1,2,0:2:0:0:
200,176,264970,1,2,0:2:0:0:
185,146,265053,6,2,L|175:82,1,47.5,2|0,0:0|0:2,0:0:0:0:
101,200,265218,2,0,L|57:170,1,47.5,2|0,0:2|0:2,0:0:0:0:
91,294,265383,2,0,L|29:308,1,47.5,10|0,0:0|0:0,0:0:0:0:
201,293,265547,1,2,0:2:0:0:
201,293,265630,1,2,0:2:0:0:
201,293,265712,6,2,L|260:283,1,47.5,2|0,0:0|0:0,0:0:0:0:
326,340,265877,2,2,L|385:350,1,47.5,2|2,0:2|0:2,0:0:0:0:
305,206,266042,2,2,L|364:196,1,47.5,10|0,0:0|0:0,0:0:0:0:
420,268,266207,2,2,L|479:278,1,47.5,2|0,0:2|0:0,0:0:0:0:
222,213,266372,6,2,P|214:169|219:106,1,95,0|2,0:1|0:2,0:1:0:0:
219,109,266619,1,0,0:2:0:0:
221,99,266701,1,8,0:0:0:0:
224,90,266784,1,0,0:0:0:0:
227,80,266866,1,2,0:1:0:0:
435,97,267031,5,2,0:1:0:0:
470,128,267113,1,0,0:0:0:0:
486,172,267196,1,2,0:2:0:0:
486,219,267278,1,2,0:2:0:0:
471,264,267361,2,0,P|464:327|463:388,1,95,10|0,0:0|0:0,0:0:0:0:
313,231,267690,6,2,L|265:225,1,47.5,0|2,0:1|0:1,0:1:0:0:
210,332,267855,2,0,L|163:337,1,47.5,2|0,0:1|0:0,0:0:0:0:
61,265,268020,5,10,0:2:0:0:
61,265,268102,1,2,0:2:0:0:
61,265,268185,2,0,L|72:325,1,47.5,2|0,0:2|0:0,0:0:0:0:
194,234,268350,6,2,L|249:240,1,47.5,0|2,0:1|0:1,0:1:0:0:
271,340,268514,2,0,L|322:334,1,47.5,2|0,0:1|0:0,0:0:0:0:
429,319,268679,5,10,0:2:0:0:
429,319,268762,1,2,0:2:0:0:
429,319,268844,2,0,L|440:259,1,47.5,2|0,0:2|0:0,0:0:0:0:
476,181,269009,5,2,0:1:0:0:
448,143,269091,1,0,0:0:0:0:
402,135,269174,1,2,0:1:0:0:
364,162,269256,1,0,0:0:0:0:
342,203,269339,2,2,L|332:256,2,47.5,8|2|0,0:1|0:1|0:1,0:1:0:0:
208,143,269668,6,0,L|267:130,1,47.5,4|0,0:2|0:0,0:0:0:0:
204,244,269833,2,0,L|247:298,1,47.5,2|0,0:2|0:0,0:0:0:0:
130,320,269998,2,0,L|136:377,1,47.5,12|0,0:2|0:0,0:0:0:0:
38,182,270163,1,2,0:2:0:0:
38,182,270245,1,2,0:2:0:0:
38,182,270328,6,2,P|77:157|126:147,1,95,4|0,0:0|0:2,0:0:0:0:
360,164,270657,1,8,0:0:0:0:
122,245,270822,2,0,P|85:185|103:46,1,190,2|2,0:2|0:2,0:0:0:0:
367,171,271317,2,0,P|413:189|464:207,1,95,8|0,0:0|0:0,0:0:0:0:
456,205,271564,1,0,0:0:0:0:
456,205,271646,6,2,P|468:275|421:343,1,142.5,0|2,0:0|0:1,0:0:0:0:
398,347,271976,1,8,0:0:0:0:
147,287,272141,2,2,P|94:296|40:303,1,95,2|2,0:2|0:1,0:0:0:0:
358,206,272470,1,2,0:2:0:0:
358,206,272553,1,2,0:1:0:0:
358,206,272635,1,8,0:2:0:0:
178,139,272800,1,2,0:0:0:0:
346,78,272965,6,2,P|405:71|483:134,1,142.5,0|2,0:2|0:1,0:0:0:0:
485,149,273295,1,8,0:0:0:0:
178,139,273459,2,2,P|184:94|194:31,1,95,2|2,0:2|0:0,0:0:0:0:
180,282,273789,1,2,0:2:0:0:
180,282,273872,1,2,0:0:0:0:
180,282,273954,2,0,P|134:274|72:266,1,95,8|2,0:0|0:1,0:0:0:0:
404,200,274284,6,2,P|469:135|457:45,1,190,0|8,0:0|0:0,0:0:0:0:
208,112,274778,2,2,B|132:121|132:121|104:151|104:151|10:162,1,190,2|2,0:2|0:2,0:0:0:0:
281,201,275273,1,12,0:2:0:0:
308,242,275355,1,0,0:0:0:0:
297,288,275437,1,2,0:2:0:0:
256,313,275520,1,0,0:0:0:0:
211,296,275602,5,4,0:0:0:0:
383,344,275767,2,2,B|431:300|431:300|431:160,1,190,0|2,0:1|0:1,0:1:0:0:
156,120,276262,2,0,B|156:184|156:184|192:216,1,95,2|2,0:1|0:2,0:0:0:0:
411,84,276591,5,10,0:2:0:0:
272,256,276756,2,2,B|224:300|224:300|88:300,1,190,0|2,0:1|0:1,0:1:0:0:
256,160,277251,1,10,0:0:0:0:
328,356,277416,1,2,0:2:0:0:
328,356,277498,1,0,0:0:0:0:
328,356,277580,5,2,0:2:0:0:
184,356,277745,1,2,0:0:0:0:
184,120,277910,1,8,0:0:0:0:
328,120,278075,1,2,0:0:0:0:
112,76,278240,5,2,0:0:0:0:
180,217,278405,1,0,0:2:0:0:
268,87,278569,1,10,0:2:0:0:
98,49,278734,5,2,0:0:0:0:
163,242,278899,1,0,0:0:0:0:
297,88,279064,1,2,0:2:0:0:
90,19,279229,5,10,0:0:0:0:
141,264,279394,1,0,0:0:0:0:
328,96,279558,5,2,0:2:0:0:
332,100,279641,1,0,0:0:0:0:
336,104,279723,1,2,0:2:0:0:
340,108,279806,1,0,0:0:0:0:
344,112,279888,1,12,0:2:0:0:
194,88,280053,1,2,0:1:0:0:
464,52,280218,2,2,B|485:92|485:92|479:146,1,95,4|2,0:2|0:1,0:1:0:0:
60,292,280547,2,2,B|39:252|39:252|45:198,1,95,12|2,0:2|0:1,0:1:0:0:
45,203,280795,1,0,0:0:0:0:
45,203,280877,5,6,0:0:0:0:
284,208,281042,1,0,0:0:0:0:
166,263,281207,1,10,0:2:0:0:
399,257,281372,2,0,P|463:261|503:269,2,95,2|0|0,0:2|0:0|0:0,0:0:0:0:
166,263,281866,1,8,0:0:0:0:
487,175,282031,6,2,P|496:243|429:367,1,190,0|2,0:0|0:0,0:0:0:0:
312,166,282525,2,0,L|331:56,1,95,10|0,0:0|0:0,0:0:0:0:
329,273,282855,1,2,0:0:0:0:
126,233,283020,2,0,P|180:216|248:214,1,95,0|8,0:0|0:0,0:0:0:0:
329,273,283350,1,0,0:0:0:0:
22,191,283514,6,2,P|55:139|185:123,1,190,4|10,0:0|0:0,0:0:0:0:
504,267,284009,1,0,0:0:0:0:
212,223,284174,2,2,P|191:283|231:372,1,142.5,0|2,0:0|0:0,0:0:0:0:
284,262,284503,2,2,P|297:206|289:158,1,95,8|2,0:1|0:1,0:1:0:0:
4,116,284833,5,6,0:0:0:0:
504,267,285163,1,4,0:3:0:0:
370,370,285328,1,0,0:0:0:0:
370,370,285410,1,0,0:0:0:0:
370,370,285492,1,8,0:3:0:0:
230,275,285657,1,8,0:3:0:0:
279,112,285822,1,4,0:3:0:0:
140,14,285987,1,4,0:3:0:0:
4,116,286152,5,4,0:0:0:0:
4,116,286317,2,0,P|46:125|114:131,1,95,0|8,0:0|0:0,0:0:0:0:
147,236,286646,1,2,0:2:0:0:
194,13,286811,2,0,P|215:96|197:175,1,142.5,4|0,0:2|0:0,0:0:0:0:
274,213,287141,2,2,P|294:160|298:108,1,95,8|2,0:2|0:1,0:1:0:0:
191,316,287470,5,2,0:1:0:0:
315,340,287635,2,2,L|368:349,2,47.5,0|0|8,0:1|0:1|0:1,0:1:0:0:
191,316,287965,1,2,0:2:0:0:
323,218,288130,1,4,0:2:0:0:
169,106,288295,1,2,0:2:0:0:
349,11,288459,2,2,L|339:119,1,95,8|2,0:1|0:1,0:1:0:0:
399,190,288789,5,4,0:1:0:0:
128,267,288954,2,2,P|85:193|92:61,1,190,0|2,0:0|0:2,0:0:0:0:
399,190,289448,2,2,P|417:142|420:86,1,95,4|2,0:2|0:0,0:0:0:0:
340,258,289696,1,0,0:0:0:0:
340,258,289778,2,2,P|292:251|242:226,1,95,8|0,0:0|0:0,0:0:0:0:
194,171,290108,5,0,0:0:0:0:
386,360,290273,2,2,P|425:321|468:184,1,190,0|2,0:0|0:2,0:0:0:0:
410,87,290767,1,4,0:2:0:0:
410,87,290932,1,0,0:0:0:0:
113,139,291097,1,12,0:2:0:0:
113,139,291179,1,0,0:0:0:0:
113,139,291262,1,2,0:1:0:0:
113,139,291344,1,0,0:0:0:0:
113,139,291426,6,2,P|102:194|107:246,1,95,4|2,0:0|0:0,0:0:0:0:
181,327,291756,1,10,0:2:0:0:
206,100,291921,2,2,B|92:88|123:145|-9:121,1,190,2|2,0:2|0:0,0:0:0:0:
92,328,292416,1,8,0:2:0:0:
278,204,292580,1,0,0:2:0:0:
20,125,292745,6,2,B|4:170|4:170|21:272,2,126.666666666667,0|0|2,0:0|0:2|0:0,0:0:0:0:
337,280,293405,2,0,B|286:296|286:296|235:285,1,95,2|0,0:0|0:0,0:0:0:0:
20,125,293734,2,0,L|178:111,1,142.5,8|2,0:0|0:2,0:0:0:0:
240,70,294064,6,2,L|361:59,1,95,0|2,0:0|0:2,0:0:0:0:
447,51,294394,1,10,0:2:0:0:
472,193,294558,5,0,0:0:0:0:
472,193,294641,1,0,0:0:0:0:
472,193,294723,2,2,L|351:181,1,95,0|2,0:0|0:2,0:0:0:0:
265,173,295053,1,10,0:2:0:0:
227,311,295218,5,0,0:0:0:0:
227,311,295300,1,0,0:0:0:0:
227,311,295383,2,2,L|347:299,1,95,0|2,0:0|0:2,0:0:0:0:
434,291,295712,1,10,0:2:0:0:
265,173,295877,5,0,0:0:0:0:
247,166,295959,1,0,0:0:0:0:
229,157,296042,1,0,0:2:0:0:
159,86,296207,1,2,0:2:0:0:
60,284,296372,1,12,0:2:0:0:
70,247,296454,1,0,0:0:0:0:
99,222,296536,1,0,0:0:0:0:
135,212,296619,1,0,0:0:0:0:
172,217,296701,6,2,L|146:325,1,95,4|2,0:0|0:0,0:0:0:0:
261,221,297031,2,2,L|277:334,1,95,10|2,0:2|0:0,0:0:0:0:
342,182,297361,1,2,0:3:0:0:
385,275,297525,1,2,0:0:0:0:
444,190,297690,1,10,0:2:0:0:
282,61,297855,1,2,0:0:0:0:
122,207,298020,5,2,0:2:0:0:
159,52,298185,1,2,0:0:0:0:
220,148,298350,1,10,0:2:0:0:
57,112,298514,1,2,0:0:0:0:
322,171,298679,5,2,0:3:0:0:
278,351,298844,1,2,0:0:0:0:
207,239,299009,1,12,0:2:0:0:
397,281,299174,1,2,0:0:0:0:
450,67,299339,6,2,L|355:64,1,95,4|2,0:0|0:2,0:0:0:0:
259,19,299668,1,10,0:2:0:0:
235,163,299833,1,2,0:0:0:0:
48,132,299998,6,2,L|142:129,1,95,0|2,0:0|0:2,0:0:0:0:
235,163,300328,1,10,0:2:0:0:
396,197,300492,1,2,0:0:0:0:
396,197,300575,1,0,0:0:0:0:
396,197,300657,5,6,0:2:0:0:
345,35,300822,1,4,0:2:0:0:
235,163,300987,1,8,0:0:0:0:
287,319,301152,2,0,P|240:350|88:328,1,190,4|0,0:2|0:0,0:0:0:0:
139,121,301646,2,0,P|135:174|146:227,1,95,8|0,0:0|0:0,0:0:0:0:
150,242,301894,1,0,0:0:0:0:
162,267,301976,5,4,0:0:0:0:
418,261,302306,1,10,0:2:0:0:
286,38,302635,1,4,0:3:0:0:
190,152,302800,1,4,0:3:0:0:
294,228,302965,2,0,P|309:177|297:117,1,95,8|4,0:0|0:3,0:0:0:0:
83,265,303295,6,0,L|187:238,1,95,6|0,0:1|0:0,0:0:0:0:
0,208,303624,1,10,0:2:0:0:
204,347,303789,2,2,P|270:332|385:376,1,190,0|4,0:1|0:3,0:1:0:0:
465,310,304284,1,12,0:2:0:0:
381,246,304448,1,4,0:3:0:0:
370,209,304531,1,0,0:0:0:0:
385,173,304613,6,0,P|393:123|387:62,1,95,6|0,0:1|0:0,0:0:0:0:
298,7,304943,1,10,0:2:0:0:
127,209,305108,2,2,P|160:176|325:139,1,190,0|4,0:1|0:3,0:1:0:0:
38,158,305602,2,0,P|30:208|36:269,1,95,8|4,0:2|0:3,0:0:0:0:
118,311,305932,6,0,P|175:308|255:322,1,126.666666666667,2|0,0:1|0:0,0:0:0:0:
317,356,306262,2,0,L|338:290,1,63.3333333333333
295,182,306481,2,0,L|274:248,1,63.3333333333333,0|2,0:0|0:1,0:0:0:0:
431,233,306811,2,2,P|405:171|404:87,2,126.666666666667,0|0|6,0:1|0:1|0:1,0:1:0:0:
256,192,307333,12,0,310877,2:0:0:0:
378,168,311042,6,0,L|386:120,2,47.5,0|0|4,0:0|0:0|0:0,0:0:0:0:
256,324,311866,1,4,0:0:0:0:
444,352,312525,1,4,0:0:0:0:
256,192,312608,12,4,315163,0:0:0:0:
256,192,315245,12,2,316481,2:0:0:0:
41,190,316976,5,0,0:0:0:0:
41,190,317058,1,0,0:0:0:0:
41,190,317141,1,8,0:0:0:0:
143,171,317306,1,0,0:0:0:0:
220,241,317470,1,4,0:3:0:0:
207,344,317635,1,4,0:3:0:0:
457,304,317800,6,0,P|421:296|345:287,1,95,0|0,1:0|2:0,0:0:0:0:
308,345,318295,1,2,0:0:0:0:
401,217,318459,2,0,P|401:179|397:149,2,47.5,8|0|0,1:0|0:0|1:0,0:0:0:0:
488,189,318954,1,8,1:0:0:0:
317,161,319119,6,0,L|329:105,1,47.5,2|0,0:0|1:0,0:0:0:0:
212,42,319448,2,0,L|226:104,1,47.5,2|0,1:2|0:0,0:0:0:0:
300,29,319778,1,8,0:0:0:0:
230,169,319943,2,0,P|201:166|129:190,1,95,2|0,1:2|1:0,0:0:0:0:
13,311,320437,6,0,P|42:314|114:290,1,95,4|0,1:0|0:0,0:0:0:0:
69,221,320932,1,2,1:2:0:0:
183,331,321097,2,0,L|178:384,2,47.5,8|0|0,0:0|0:0|1:0,0:0:0:0:
260,243,321591,1,8,0:0:0:0:
356,315,321756,6,0,L|305:311,1,47.5,2|0,0:2|1:0,0:0:0:0:
158,173,322086,2,0,L|209:177,1,47.5,2|0,1:2|0:0,0:0:0:0:
338,196,322416,2,0,P|345:155|331:86,1,95,10|0,1:2|0:0,0:0:0:0:
337,102,322910,1,0,1:0:0:0:
427,171,323075,6,0,P|420:212|434:281,1,95,4|0,1:0|0:0,0:0:0:0:
512,251,323569,1,2,0:0:0:0:
379,355,323734,2,0,P|348:334|272:327,1,95,8|0,1:0|1:0,0:0:0:0:
216,358,324229,1,8,1:0:0:0:
226,275,324394,6,0,L|219:227,1,47.5,2|0,0:0|1:0,0:0:0:0:
310,156,324723,2,0,L|303:204,1,47.5,2|0,1:2|0:0,0:0:0:0:
387,231,325053,1,8,1:0:0:0:
148,309,325218,2,0,P|107:306|41:303,1,95,2|0,1:2|0:0,0:0:0:0:
5,180,325712,5,4,1:0:0:0:
16,191,326207,1,0,0:0:0:0:
16,191,326289,1,0,0:0:0:0:
16,191,326372,1,0,0:0:0:0:
115,223,326536,1,0,0:0:0:0:
181,142,326701,1,0,0:0:0:0:
216,240,326866,1,0,0:0:0:0:
87,126,327031,6,0,P|75:71|62:20,1,95
273,165,327361,2,0,P|283:119|295:73,1,95
190,39,327690,1,0,0:0:0:0:
190,39,327855,1,0,0:0:0:0:
362,218,328020,1,0,0:0:0:0:
397,206,328102,1,0,0:0:0:0:
434,210,328185,1,0,0:0:0:0:
468,227,328267,1,0,0:0:0:0:
491,256,328350,5,6,0:2:0:0:
484,121,328514,1,2,0:2:0:0:
484,121,328597,1,2,0:2:0:0:
484,121,328679,1,10,0:0:0:0:
407,301,328844,1,2,0:2:0:0:
397,317,328926,1,0,0:0:0:0:
388,334,329009,1,0,0:0:0:0:
275,165,329174,2,0,P|282:218|287:264,1,95,10|0,0:0|0:0,0:0:0:0:
159,369,329503,1,2,0:2:0:0:
177,266,329668,5,6,0:2:0:0:
148,265,329751,1,0,0:0:0:0:
120,271,329833,1,2,0:2:0:0:
95,285,329916,1,2,0:2:0:0:
76,306,329998,1,10,0:0:0:0:
60,185,330163,2,0,L|46:133,2,47.5,2|0|0,0:2|0:0|0:0,0:0:0:0:
158,170,330492,1,10,0:0:0:0:
206,83,330657,1,0,0:0:0:0:
224,83,330740,1,0,0:0:0:0:
243,81,330822,1,2,0:2:0:0:
261,78,330905,1,0,0:0:0:0:
279,74,330987,5,6,0:2:0:0:
340,160,331152,1,2,0:2:0:0:
332,177,331234,1,2,0:2:0:0:
328,195,331317,1,10,0:0:0:0:
460,192,331481,2,0,L|405:204,2,47.5,2|0|6,0:2|0:0|0:2,0:0:0:0:
245,172,331811,1,10,0:0:0:0:
375,49,331976,1,2,0:2:0:0:
245,172,332141,1,10,0:0:0:0:
385,278,332306,5,6,0:2:0:0:
385,278,332388,1,0,0:0:0:0:
385,278,332470,1,0,0:0:0:0:
304,333,332635,1,8,0:0:0:0:
394,374,332800,1,2,0:0:0:0:
477,313,332965,1,0,0:0:0:0:
207,346,333130,1,12,0:2:0:0:
245,172,333295,1,2,0:0:0:0:
244,152,333377,1,0,0:0:0:0:
239,133,333459,1,4,0:2:0:0:
54,213,333624,5,4,0:0:0:0:
70,190,333707,1,0,0:0:0:0:
93,173,333789,1,2,0:2:0:0:
120,166,333872,1,2,0:2:0:0:
148,166,333954,1,10,0:0:0:0:
127,300,334119,2,0,L|142:243,2,47.5,2|0|6,0:2|0:0|0:2,0:0:0:0:
343,215,334448,2,0,P|338:160|332:108,1,95,10|0,0:0|0:0,0:0:0:0:
248,328,334778,1,2,0:2:0:0:
357,308,334943,5,6,0:2:0:0:
384,299,335025,1,0,0:0:0:0:
412,300,335108,1,2,0:2:0:0:
438,311,335190,1,2,0:2:0:0:
459,329,335273,1,10,0:0:0:0:
472,214,335437,1,2,0:2:0:0:
472,195,335520,1,0,0:0:0:0:
477,176,335602,2,0,P|485:123|478:75,1,95,6|10,0:2|0:0,0:0:0:0:
157,138,335932,1,0,0:0:0:0:
187,160,336014,1,0,0:0:0:0:
223,170,336097,1,2,0:2:0:0:
260,164,336179,1,0,0:0:0:0:
294,148,336262,5,6,0:2:0:0:
232,76,336426,2,0,L|218:28,2,47.5,2|2|10,0:2|0:2|0:0,0:0:0:0:
383,160,336756,1,2,0:2:0:0:
379,178,336839,1,0,0:0:0:0:
376,196,336921,1,0,0:0:0:0:
307,355,337086,2,0,P|296:308|305:249,1,95,10|0,0:0|0:0,0:0:0:0:
390,303,337416,1,2,0:2:0:0:
236,193,337580,6,2,P|193:237|47:236,1,190,6|10,0:2|0:0,0:0:0:0:
50,152,338075,1,0,0:0:0:0:
53,133,338157,1,0,0:0:0:0:
56,114,338240,1,0,0:0:0:0:
59,95,338322,1,0,0:0:0:0:
63,76,338405,1,0,0:0:0:0:
318,269,338569,2,0,P|342:217|331:159,1,95,14|0,0:2|0:0,0:0:0:0:
290,98,338899,5,4,0:0:0:0:
432,169,339064,1,2,0:2:0:0:
436,187,339146,1,2,0:2:0:0:
440,205,339229,1,10,0:0:0:0:
488,322,339394,1,2,0:2:0:0:
492,304,339476,1,0,0:0:0:0:
496,286,339558,1,0,0:0:0:0:
335,328,339723,2,0,P|280:310|207:322,1,95,10|0,0:0|0:2,0:0:0:0:
127,329,340053,1,10,0:0:0:0:
40,282,340218,5,6,0:2:0:0:
56,247,340300,1,0,0:0:0:0:
88,228,340383,1,2,0:2:0:0:
126,224,340465,1,2,0:2:0:0:
161,235,340547,1,10,0:0:0:0:
35,148,340712,2,0,L|51:84,2,47.5,2|0|0,0:2|0:0|0:0,0:0:0:0:
127,329,341042,1,10,0:0:0:0:
224,301,341207,1,0,0:0:0:0:
242,298,341289,1,0,0:0:0:0:
260,297,341372,1,10,0:0:0:0:
278,300,341454,1,0,0:0:0:0:
296,304,341536,5,6,0:2:0:0:
279,201,341701,1,2,0:2:0:0:
278,182,341784,1,2,0:2:0:0:
281,163,341866,1,10,0:0:0:0:
379,236,342031,1,2,0:2:0:0:
371,116,342196,1,6,0:2:0:0:
371,87,342278,1,0,0:0:0:0:
362,59,342361,1,10,0:0:0:0:
164,153,342525,1,0,0:0:0:0:
164,182,342608,1,0,0:0:0:0:
173,210,342690,1,10,0:0:0:0:
71,130,342855,5,6,0:2:0:0:
71,130,342937,1,0,0:0:0:0:
71,130,343020,1,0,0:0:0:0:
140,52,343185,1,8,0:0:0:0:
236,88,343350,1,2,0:0:0:0:
77,235,343514,1,0,0:0:0:0:
58,238,343597,1,0,0:0:0:0:
39,241,343679,1,12,0:2:0:0:
187,329,343844,1,2,0:0:0:0:
206,332,343926,1,0,0:0:0:0:
225,335,344009,1,4,0:2:0:0:
73,354,344174,5,4,0:0:0:0:
190,216,344339,1,2,0:2:0:0:
197,188,344421,1,2,0:2:0:0:
190,160,344503,1,10,0:0:0:0:
310,216,344668,1,2,0:2:0:0:
303,244,344751,1,0,0:0:0:0:
310,272,344833,1,6,0:2:0:0:
388,149,344998,2,0,L|495:138,1,95,10|0,0:0|0:0,0:0:0:0:
405,243,345328,1,10,0:0:0:0:
280,112,345492,5,6,0:2:0:0:
256,80,345575,1,0,0:0:0:0:
220,64,345657,1,2,0:2:0:0:
184,64,345740,1,2,0:2:0:0:
148,80,345822,1,10,0:0:0:0:
41,275,345987,1,2,0:2:0:0:
41,275,346069,1,0,0:0:0:0:
41,275,346152,2,0,P|33:216|42:164,1,95,6|10,0:2|0:0,0:0:0:0:
143,216,346481,1,8,0:3:0:0:
148,234,346564,1,8,0:3:0:0:
149,253,346646,1,4,0:3:0:0:
149,271,346729,1,4,0:3:0:0:
146,289,346811,5,6,0:2:0:0:
319,331,346976,1,2,0:2:0:0:
337,334,347058,1,2,0:2:0:0:
355,338,347141,1,0,0:0:0:0:
225,359,347306,5,6,0:2:0:0:
345,237,347470,1,2,0:2:0:0:
363,234,347553,1,2,0:2:0:0:
381,230,347635,1,0,0:0:0:0:
249,257,347800,5,6,0:2:0:0:
443,351,347965,1,0,0:0:0:0:
461,354,348047,1,0,0:0:0:0:
479,358,348130,2,2,B|445:257|504:281|474:167,1,190,6|0,0:2|2:0,0:0:0:0:
475,171,348789,5,0,2:0:0:0:
394,221,349119,1,0,2:0:0:0:
390,125,349448,6,0,P|397:73|385:27,1,95,4|0,0:0|0:0,0:0:0:0:
387,32,349696,1,0,0:0:0:0:
387,32,349778,1,8,0:0:0:0:
328,291,350108,1,0,0:0:0:0:
328,291,350190,1,0,0:0:0:0:
328,291,350273,2,0,L|217:307,1,95,0|0,0:0|2:0,0:0:0:0:
394,221,350602,1,8,0:0:0:0:
153,325,350767,5,4,0:0:0:0:
132,305,350850,1,0,0:0:0:0:
106,291,350932,1,0,0:0:0:0:
78,282,351014,1,0,0:0:0:0:
49,281,351097,1,8,0:0:0:0:
163,54,351426,1,0,0:0:0:0:
163,54,351509,1,0,0:0:0:0:
163,54,351591,2,0,P|150:107|160:162,1,95,0|0,0:0|2:0,0:0:0:0:
250,106,351921,1,8,0:0:0:0:
321,170,352086,5,4,0:0:0:0:
345,140,352168,1,0,0:0:0:0:
380,127,352251,1,0,0:0:0:0:
418,124,352333,1,0,0:0:0:0:
454,135,352416,1,8,0:0:0:0:
83,227,352745,1,0,0:0:0:0:
89,254,352828,1,0,0:0:0:0:
85,282,352910,1,0,0:0:0:0:
442,359,353240,1,8,0:0:0:0:
346,321,353405,5,4,0:0:0:0:
363,287,353487,1,0,0:0:0:0:
393,265,353569,1,0,0:0:0:0:
429,254,353652,1,0,0:0:0:0:
467,255,353734,1,8,0:0:0:0:
175,181,354064,5,0,0:0:0:0:
158,147,354146,1,0,0:0:0:0:
128,125,354229,1,0,0:0:0:0:
92,114,354311,1,0,0:0:0:0:
54,115,354394,1,8,0:0:0:0:
355,27,354723,5,4,0:0:0:0:
349,45,354806,1,0,0:0:0:0:
345,63,354888,1,0,0:0:0:0:
345,81,354970,1,0,0:0:0:0:
347,99,355053,1,8,0:0:0:0:
82,316,355383,1,0,0:0:0:0:
82,316,355465,1,0,0:0:0:0:
82,316,355547,2,0,P|93:261|82:206,1,95,0|0,0:0|2:0,0:0:0:0:
0,265,355877,1,8,0:0:0:0:
162,369,356042,5,4,0:0:0:0:
188,342,356124,1,0,0:0:0:0:
221,325,356207,1,0,0:0:0:0:
258,318,356289,1,0,0:0:0:0:
295,322,356372,1,8,0:0:0:0:
464,121,356701,1,0,0:0:0:0:
464,121,356784,1,0,0:0:0:0:
464,121,356866,2,0,P|467:174|444:231,1,95,0|0,0:0|2:0,0:0:0:0:
387,52,357196,1,8,0:0:0:0:
370,152,357361,5,4,0:0:0:0:
331,148,357443,1,0,0:0:0:0:
301,123,357525,1,0,0:0:0:0:
282,89,357608,1,0,0:0:0:0:
282,50,357690,1,8,0:0:0:0:
437,242,358020,1,0,0:0:0:0:
437,242,358102,1,0,0:0:0:0:
437,242,358185,2,0,L|409:355,1,95,0|0,0:0|2:0,0:0:0:0:
478,144,358514,1,8,0:0:0:0:
302,304,358679,5,4,0:0:0:0:
264,296,358762,1,0,0:0:0:0:
226,302,358844,1,0,0:0:0:0:
194,322,358926,1,0,0:0:0:0:
174,355,359009,1,14,0:2:0:0:
19,118,359339,5,0,0:0:0:0:
57,110,359421,1,0,0:0:0:0:
95,116,359503,1,0,0:0:0:0:
127,136,359586,1,0,0:0:0:0:
147,169,359668,1,14,0:2:0:0:
452,53,359998,5,6,0:2:0:0:
479,143,360163,1,0,0:0:0:0:
473,160,360245,1,0,0:0:0:0:
468,178,360328,2,0,P|401:179|352:211,1,95,10|0,0:2|2:0,0:0:0:0:
345,317,360657,1,2,0:2:0:0:
349,335,360740,1,0,0:0:0:0:
354,353,360822,1,0,0:0:0:0:
438,298,360987,1,2,2:0:0:0:
249,361,361152,1,8,0:0:0:0:
261,257,361317,5,6,0:2:0:0:
269,229,361399,1,0,0:0:0:0:
270,200,361481,1,0,0:0:0:0:
262,172,361564,1,0,0:0:0:0:
245,148,361646,2,0,L|129:138,1,95,10|0,0:2|2:0,0:0:0:0:
326,80,361976,1,2,0:2:0:0:
326,80,362058,1,0,0:0:0:0:
326,80,362141,1,0,0:0:0:0:
178,219,362306,1,2,0:2:0:0:
362,274,362470,1,8,0:0:0:0:
178,219,362635,5,6,0:2:0:0:
149,216,362718,1,0,0:0:0:0:
120,217,362800,1,0,0:0:0:0:
41,375,362965,2,0,P|24:323|26:267,1,95,10|0,0:2|2:0,0:0:0:0:
123,320,363295,1,2,0:2:0:0:
123,320,363377,1,0,0:0:0:0:
123,320,363459,1,0,0:0:0:0:
29,169,363624,1,2,2:0:0:0:
123,320,363789,1,8,0:0:0:0:
264,245,363954,5,6,0:2:0:0:
282,211,364036,1,0,0:0:0:0:
316,195,364119,1,0,0:0:0:0:
354,193,364201,1,0,0:0:0:0:
390,203,364284,2,0,P|385:152|392:104,1,95,10|0,0:2|2:0,0:0:0:0:
420,314,364613,5,2,0:2:0:0:
402,348,364696,1,0,0:0:0:0:
368,364,364778,1,0,0:0:0:0:
330,366,364861,1,0,0:0:0:0:
294,356,364943,1,10,0:2:0:0:
391,110,365273,5,6,0:2:0:0:
341,278,365437,1,0,0:0:0:0:
341,278,365520,1,0,0:0:0:0:
341,278,365602,2,0,P|330:234|341:171,1,95,10|0,0:2|2:0,0:0:0:0:
466,59,365932,1,2,0:2:0:0:
466,59,366014,1,0,0:0:0:0:
466,59,366097,2,0,P|477:103|466:166,1,95,0|2,0:0|2:0,0:0:0:0:
317,60,366426,1,8,0:0:0:0:
238,249,366591,5,6,0:2:0:0:
210,243,366674,1,0,0:0:0:0:
181,247,366756,1,0,0:0:0:0:
156,260,366839,1,0,0:0:0:0:
138,282,366921,2,0,L|33:304,1,95,10|0,0:2|2:0,0:0:0:0:
211,337,367251,1,2,0:2:0:0:
211,337,367333,1,0,0:0:0:0:
211,337,367416,1,0,0:0:0:0:
297,312,367580,1,2,2:0:0:0:
239,159,367745,1,8,0:0:0:0:
321,217,367910,5,6,0:2:0:0:
347,205,367992,1,0,0:0:0:0:
375,206,368075,1,0,0:0:0:0:
401,217,368157,1,0,0:0:0:0:
422,235,368240,2,0,P|411:284|403:346,1,95,2|0,0:2|2:0,0:0:0:0:
478,139,368569,2,0,L|466:79,2,47.5,2|0|0,0:2|0:0|0:0,0:0:0:0:
219,231,368899,2,0,L|164:254,1,47.5,10|8,0:2|0:0,0:0:0:0:
98,303,369064,2,0,L|104:250,1,47.5
97,163,369229,6,0,L|145:192,3,47.5,4|0|0|0,0:3|0:0|0:0|0:0,0:0:0:0:
194,124,369558,2,0,P|239:87|325:90,1,142.5,4|0,0:3|0:0,0:0:0:0:
348,113,369888,1,0,0:0:0:0:
443,215,370053,1,0,0:0:0:0:
435,227,370135,1,0,0:0:0:0:
429,240,370218,1,0,0:0:0:0:
424,253,370300,1,0,0:0:0:0:
421,266,370383,1,0,0:0:0:0:
419,280,370465,1,0,0:0:0:0:
417,294,370547,5,4,0:0:0:0:
298,258,370712,1,2,0:2:0:0:
296,239,370795,1,2,0:2:0:0:
293,220,370877,1,8,0:0:0:0:
148,197,371042,1,2,0:2:0:0:
150,216,371124,1,0,0:0:0:0:
153,235,371207,1,0,0:0:0:0:
156,253,371289,1,0,0:0:0:0:
160,271,371372,1,2,0:2:0:0:
175,92,371536,1,8,0:0:0:0:
39,131,371701,1,8,0:0:0:0:
38,151,371784,1,0,0:0:0:0:
36,170,371866,5,4,0:0:0:0:
63,305,372031,1,2,0:2:0:0:
64,285,372113,1,2,0:2:0:0:
66,266,372196,1,8,0:0:0:0:
226,163,372361,1,2,0:2:0:0:
282,305,372525,1,0,0:0:0:0:
311,281,372608,1,0,0:0:0:0:
347,269,372690,1,2,0:2:0:0:
384,273,372773,1,2,0:2:0:0:
417,291,372855,1,8,0:0:0:0:
352,366,373020,1,2,0:2:0:0:
507,268,373185,5,4,0:0:0:0:
439,193,373350,1,2,0:2:0:0:
428,166,373432,1,2,0:2:0:0:
430,137,373514,1,8,0:0:0:0:
252,51,373679,1,2,0:2:0:0:
261,77,373762,1,0,0:0:0:0:
263,105,373844,1,0,0:0:0:0:
256,132,373926,1,0,0:0:0:0:
242,157,374009,1,2,0:2:0:0:
356,61,374174,1,8,0:0:0:0:
165,98,374339,1,8,0:0:0:0:
130,114,374421,1,0,0:0:0:0:
92,112,374503,5,12,0:0:0:0:
0,215,374668,1,2,0:2:0:0:
0,215,374751,1,2,0:2:0:0:
0,215,374833,1,8,0:0:0:0:
135,247,374998,1,12,0:2:0:0:
45,355,375163,1,0,0:0:0:0:
135,247,375328,1,8,0:0:0:0:
171,234,375410,1,0,0:0:0:0:
208,229,375492,1,4,0:2:0:0:
245,229,375575,1,0,0:0:0:0:
282,237,375657,1,8,0:0:0:0:
512,302,375822,6,0,P|469:307|407:286,1,95,4|2,0:0|0:2,0:0:0:0:
402,285,376069,1,2,0:2:0:0:
387,273,376152,1,8,0:0:0:0:
424,110,376317,1,2,0:2:0:0:
415,127,376399,1,0,0:0:0:0:
411,145,376481,1,0,0:0:0:0:
408,163,376564,1,0,0:0:0:0:
406,182,376646,1,2,0:2:0:0:
504,175,376811,1,8,0:0:0:0:
321,112,376976,1,8,0:0:0:0:
321,93,377058,1,0,0:0:0:0:
316,74,377141,5,4,0:0:0:0:
192,140,377306,1,2,0:2:0:0:
192,159,377388,1,2,0:2:0:0:
197,178,377470,1,8,0:0:0:0:
305,210,377635,1,2,0:2:0:0:
199,286,377800,1,0,0:0:0:0:
168,263,377883,1,0,0:0:0:0:
131,250,377965,1,2,0:2:0:0:
93,252,378047,1,2,0:2:0:0:
57,265,378130,1,8,0:0:0:0:
119,355,378295,1,2,0:2:0:0:
37,161,378459,5,4,0:0:0:0:
115,72,378624,2,0,L|100:21,2,47.5,2|2|8,0:2|0:2|0:0,0:0:0:0:
197,178,378954,1,2,0:2:0:0:
197,178,379036,1,0,0:0:0:0:
197,178,379119,1,0,0:0:0:0:
292,58,379284,1,10,0:2:0:0:
372,197,379448,1,8,0:0:0:0:
479,43,379613,1,10,0:2:0:0:
344,119,379778,5,6,0:2:0:0:
483,200,379943,1,2,0:2:0:0:
345,284,380108,1,14,0:2:0:0:
483,200,380273,1,10,0:2:0:0:
436,314,380437,5,6,0:2:0:0:
280,356,380602,1,2,0:2:0:0:
280,356,380685,1,2,0:2:0:0:
280,356,380767,1,14,0:2:0:0:
313,197,380932,1,10,0:2:0:0:
227,270,381097,5,6,0:0:0:0:
224,167,381262,1,2,0:2:0:0:
224,147,381344,1,2,0:2:0:0:
221,128,381426,1,8,0:0:0:0:
321,36,381591,1,2,0:0:0:0:
314,53,381674,1,0,0:0:0:0:
311,71,381756,1,0,0:0:0:0:
308,89,381839,1,0,0:0:0:0:
307,108,381921,1,2,0:2:0:0:
401,90,382086,1,8,0:0:0:0:
222,36,382251,1,8,0:2:0:0:
313,197,382416,5,6,0:0:0:0:
123,119,382580,1,2,0:2:0:0:
120,100,382663,1,2,0:2:0:0:
120,80,382745,1,8,0:0:0:0:
154,213,382910,1,2,0:0:0:0:
129,314,383075,1,0,0:0:0:0:
164,299,383157,1,0,0:0:0:0:
201,299,383240,1,2,0:2:0:0:
236,312,383322,1,0,0:0:0:0:
265,335,383405,2,0,L|367:320,1,95,8|2,0:0|0:2,0:0:0:0:
186,384,383734,5,6,0:0:0:0:
273,233,383899,2,0,L|279:180,2,47.5,2|2|8,0:2|0:2|0:0,0:0:0:0:
356,151,384229,1,2,0:0:0:0:
342,125,384311,1,0,0:0:0:0:
318,108,384394,1,0,0:0:0:0:
290,100,384476,1,0,0:0:0:0:
261,104,384558,1,2,0:2:0:0:
420,69,384723,1,8,0:0:0:0:
381,230,384888,1,8,0:0:0:0:
394,265,384970,1,0,0:0:0:0:
423,288,385053,5,14,0:0:0:0:
470,205,385218,1,2,0:2:0:0:
470,205,385300,1,2,0:2:0:0:
470,205,385383,1,8,0:2:0:0:
324,314,385547,1,12,0:2:0:0:
477,368,385712,1,0,0:2:0:0:
324,314,385877,1,8,0:0:0:0:
288,301,385959,1,0,0:0:0:0:
250,306,386042,1,4,0:2:0:0:
218,326,386124,1,0,0:0:0:0:
200,359,386207,1,8,0:0:0:0:
322,91,386372,6,2,P|332:141|314:206,1,95,6|2,0:0|0:2,0:0:0:0:
311,198,386619,1,2,0:2:0:0:
297,211,386701,1,8,0:0:0:0:
163,110,386866,1,2,0:0:0:0:
177,121,386948,1,0,0:0:0:0:
193,129,387031,1,0,0:0:0:0:
210,134,387113,1,0,0:0:0:0:
228,138,387196,1,2,0:2:0:0:
228,45,387361,1,8,0:0:0:0:
144,206,387525,1,8,0:0:0:0:
139,224,387608,1,0,0:0:0:0:
133,242,387690,5,6,0:0:0:0:
52,177,387855,1,2,0:2:0:0:
52,177,387937,1,2,0:2:0:0:
52,177,388020,1,8,0:0:0:0:
225,252,388185,1,2,0:0:0:0:
61,370,388350,1,0,0:0:0:0:
88,342,388432,1,0,0:0:0:0:
123,328,388514,1,2,0:2:0:0:
160,326,388597,1,2,0:2:0:0:
196,336,388679,1,8,0:0:0:0:
44,268,388844,1,2,0:2:0:0:
126,37,389009,6,0,P|137:90|130:138,1,95,6|2,0:0|0:2,0:0:0:0:
132,130,389256,1,2,0:2:0:0:
132,130,389339,1,8,0:0:0:0:
308,49,389503,1,2,0:0:0:0:
308,49,389586,1,0,0:0:0:0:
308,49,389668,1,0,0:0:0:0:
297,277,389833,1,10,0:2:0:0:
289,260,389916,1,0,0:0:0:0:
283,242,389998,1,10,0:2:0:0:
279,224,390080,1,0,0:0:0:0:
276,206,390163,1,10,0:2:0:0:
308,49,390328,6,2,P|387:43|460:135,1,190,6|2,0:0|0:0,0:0:0:0:
387,314,390822,2,2,P|397:262|404:217,1,95,6|0,0:0|0:0,0:0:0:0:
239,131,391152,1,0,0:0:0:0:
239,131,391234,1,0,0:0:0:0:
239,131,391317,2,2,P|299:143|341:151,1,95,0|0,0:0|0:0,0:0:0:0:
257,268,391646,5,6,0:0:0:0:
166,272,391811,1,2,0:2:0:0:
160,290,391894,1,2,0:2:0:0:
153,307,391976,1,8,0:0:0:0:
66,349,392141,1,2,0:0:0:0:
76,254,392306,1,0,0:0:0:0:
12,177,392470,1,2,0:2:0:0:
28,168,392553,1,2,0:2:0:0:
46,163,392635,1,8,0:0:0:0:
64,162,392718,1,0,0:0:0:0:
83,163,392800,1,10,0:2:0:0:
410,253,392965,6,2,B|432:210|439:162|439:162|425:110|393:69,1,190,6|10,0:0|0:0,0:0:0:0:
295,103,393459,1,2,0:0:0:0:
295,103,393542,1,0,0:0:0:0:
295,103,393624,1,0,0:0:0:0:
208,43,393789,1,10,0:2:0:0:
198,148,393954,1,0,0:0:0:0:
107,87,394119,1,10,0:2:0:0:
51,357,394284,6,2,P|87:318|222:307,1,190,6|10,0:0|0:0,0:0:0:0:
300,375,394778,1,2,0:0:0:0:
300,375,394861,1,0,0:0:0:0:
300,375,394943,1,0,0:0:0:0:
325,279,395108,1,2,0:2:0:0:
342,270,395190,1,2,0:2:0:0:
360,264,395273,1,8,0:0:0:0:
378,260,395355,1,0,0:0:0:0:
396,260,395437,1,10,0:2:0:0:
107,87,395602,6,2,B|92:160|92:160|65:179|65:179|45:268,1,190,6|10,0:0|0:0,0:0:0:0:
132,294,396097,1,2,0:0:0:0:
136,275,396179,1,0,0:0:0:0:
140,256,396262,1,0,0:0:0:0:
223,124,396426,1,10,0:2:0:0:
229,282,396591,1,0,0:0:0:0:
223,124,396756,1,10,0:2:0:0:
307,230,396921,6,2,P|355:216|425:226,1,95,6|2,0:0|0:2,0:0:0:0:
410,233,397168,1,2,0:2:0:0:
419,249,397251,1,8,0:0:0:0:
481,351,397416,1,2,0:0:0:0:
486,332,397498,1,0,0:0:0:0:
491,313,397580,1,0,0:0:0:0:
506,201,397745,1,2,0:2:0:0:
438,98,397910,1,8,0:0:0:0:
433,117,397992,1,0,0:0:0:0:
428,136,398075,1,10,0:2:0:0:
306,229,398240,5,6,0:0:0:0:
327,97,398405,1,2,0:2:0:0:
322,78,398487,1,2,0:2:0:0:
317,59,398569,1,8,0:0:0:0:
195,39,398734,1,2,0:0:0:0:
200,57,398817,1,0,0:0:0:0:
205,75,398899,1,0,0:0:0:0:
209,93,398981,1,0,0:0:0:0:
214,111,399064,1,2,0:2:0:0:
97,157,399229,1,8,0:0:0:0:
165,271,399394,1,10,0:2:0:0:
170,252,399476,1,0,0:0:0:0:
175,233,399558,5,6,0:0:0:0:
90,340,399723,2,0,L|33:351,2,47.5,2|2|8,0:2|0:2|0:0,0:0:0:0:
209,372,400053,1,2,0:0:0:0:
231,341,400135,1,0,0:0:0:0:
264,324,400218,1,0,0:0:0:0:
302,320,400300,1,0,0:0:0:0:
338,330,400383,1,10,0:2:0:0:
442,299,400547,1,8,0:0:0:0:
361,224,400712,1,10,0:2:0:0:
458,192,400877,5,6,0:0:0:0:
465,164,400959,1,0,0:0:0:0:
465,135,401042,1,2,0:2:0:0:
461,106,401124,1,2,0:2:0:0:
452,78,401207,2,0,L|346:92,1,95,8|0,0:0|0:0,0:0:0:0:
54,245,401536,2,0,L|160:231,1,95,6|0,0:2|0:0,0:0:0:0:
165,239,401784,1,0,0:0:0:0:
182,246,401866,1,0,0:0:0:0:
199,252,401948,1,0,0:0:0:0:
216,259,402031,1,0,0:0:0:0:
237,33,402196,6,2,P|187:34|91:156,1,190,6|10,0:0|0:0,0:0:0:0:
216,151,402690,1,2,0:0:0:0:
244,149,402773,1,0,0:0:0:0:
272,154,402855,1,0,0:0:0:0:
297,166,402937,1,0,0:0:0:0:
315,188,403020,1,2,0:2:0:0:
383,262,403185,1,8,0:0:0:0:
411,158,403350,1,10,0:2:0:0:
110,384,403514,6,2,P|81:341|91:200,1,190,6|10,0:0|0:0,0:0:0:0:
162,43,404009,2,0,P|165:89|142:130,1,95,2|0,0:0|0:0,0:0:0:0:
21,138,404339,1,2,0:2:0:0:
21,138,404421,1,2,0:2:0:0:
21,138,404503,1,8,0:0:0:0:
76,59,404668,1,10,0:2:0:0:
458,63,404833,6,2,P|422:102|280:139,1,190,6|10,0:0|0:0,0:0:0:0:
174,119,405328,2,0,L|189:229,1,95,2|0,0:0|0:0,0:0:0:0:
20,351,405657,1,10,0:2:0:0:
50,328,405740,1,2,0:2:0:0:
86,316,405822,1,8,0:0:0:0:
123,311,405905,1,0,0:0:0:0:
161,312,405987,1,10,0:2:0:0:
426,357,406152,6,0,P|444:313|443:262,1,95,6|0,0:0|0:0,0:0:0:0:
278,41,406481,2,2,P|253:88|247:236,1,190,6|2,0:2|0:0,0:0:0:0:
400,112,406976,1,0,0:0:0:0:
400,112,407058,1,0,0:0:0:0:
400,112,407141,2,2,L|437:110,3,31.6666666666667,0|0|0|2,0:0|0:0|0:0|0:0,0:0:0:0:
349,39,407470,5,6,0:0:0:0:
364,191,407635,1,0,0:0:0:0:
491,103,407800,1,0,0:0:0:0:
287,125,407965,2,0,P|235:123|190:109,2,95,4|0|0,0:0|0:0|0:0,0:0:0:0:
261,35,408459,5,4,0:0:0:0:
347,266,408624,1,0,0:0:0:0:
354,283,408707,1,0,0:0:0:0:
359,301,408789,1,0,0:0:0:0:
266,323,408954,1,4,0:0:0:0:
440,249,409119,1,0,0:0:0:0:
440,249,409201,1,0,0:0:0:0:
440,249,409284,1,0,0:0:0:0:
266,323,409448,5,4,0:0:0:0:
257,228,409613,1,0,0:0:0:0:
177,283,409778,1,4,0:0:0:0:
266,323,409943,1,0,0:0:0:0:
123,68,410108,5,4,0:0:0:0:
118,176,410273,1,0,0:0:0:0:
121,194,410355,1,0,0:0:0:0:
124,212,410437,1,0,0:0:0:0:
256,108,410602,1,4,0:0:0:0:
388,212,410767,1,0,0:0:0:0:
391,194,410850,1,0,0:0:0:0:
394,176,410932,1,0,0:0:0:0:
257,228,411097,5,4,0:0:0:0:
177,283,411262,2,0,L|125:292,2,47.5
266,323,411591,1,4,0:0:0:0:
283,315,411674,1,0,0:0:0:0:
301,309,411756,1,0,0:0:0:0:
319,306,411839,1,0,0:0:0:0:
338,305,411921,1,0,0:0:0:0:
488,353,412086,6,0,P|492:310|502:239,1,95,4|0,0:0|0:0,0:0:0:0:
276,22,412416,2,0,P|272:65|262:136,1,95,4|0,0:0|0:0,0:0:0:0:
119,376,412745,6,2,P|169:383|286:300,1,190,0|0,0:0|0:0,0:0:0:0:
176,274,413240,2,2,P|191:219|179:167,1,95,0|0,0:0|0:0,0:0:0:0:
119,28,413570,1,0,0:0:0:0:
119,28,413652,1,0,0:0:0:0:
119,28,413735,2,2,B|142:137|70:100|86:209,1,190,0|0,0:0|2:0,0:0:0:0:
85,208,414229,5,2,2:0:0:0:
33,63,414394,1,0,2:0:0:0:
185,182,414559,1,2,2:0:0:0:
267,62,414724,6,0,P|313:55|425:162,1,190,4|0,0:2|0:0,0:0:0:0:
315,169,415218,2,0,P|331:223|331:283,1,95,8|0,0:0|0:0,0:0:0:0:
232,248,415548,1,0,0:0:0:0:
317,368,415713,2,0,P|369:330|467:314,1,142.5,8|0,0:0|0:0,0:0:0:0:
444,312,416042,2,0,P|448:258|469:211,1,95,0|8,0:0|0:0,0:0:0:0:
68,160,416537,5,0,0:0:0:0:
74,177,416619,1,0,0:0:0:0:
79,195,416702,1,8,0:0:0:0:
55,288,416866,1,0,0:0:0:0:
144,260,417031,1,4,0:3:0:0:
407,48,417361,5,2,0:2:0:0:
381,166,417526,1,2,0:2:0:0:
495,130,417691,1,2,0:2:0:0:
55,288,418185,5,2,0:2:0:0:
171,172,418350,1,2,0:2:0:0:
216,331,418515,1,2,0:2:0:0:
349,98,419009,5,2,0:2:0:0:
156,52,419174,1,2,0:2:0:0:
288,200,419339,1,2,0:2:0:0:
272,2,419504,1,2,0:2:0:0:
171,172,419669,1,2,0:2:0:0:
249,105,419833,1,0,0:0:0:0:
249,105,419916,1,0,0:0:0:0:
249,105,419998,6,0,B|226:211|278:189|255:303,1,190,6|0,0:2|0:0,0:0:0:0:
169,354,420493,2,0,P|154:301|161:249,1,95,8|0,0:0|0:0,0:0:0:0:
364,298,420823,1,0,0:0:0:0:
364,298,420905,1,0,0:0:0:0:
364,298,420988,1,12,0:2:0:0:
364,298,421317,5,0,2:0:0:0:
450,354,421482,1,2,2:0:0:0:
502,267,421647,1,0,2:0:0:0:
420,212,421812,1,2,2:0:0:0:
434,281,421977,6,0,P|454:219|434:79,1,190,4|0,0:2|0:0,0:0:0:0:
270,134,422471,2,0,L|219:123,4,47.5,0|0|0|0|0,0:0|2:0|3:0|3:0|3:0,0:0:0:0:
116,195,422966,2,0,L|167:184,4,47.5,4|0|0|0|0,0:2|2:0|3:0|3:0|3:0,0:0:0:0:
276,259,423460,2,0,L|225:248,4,47.5,4|0|0|0|0,0:0|2:0|3:0|3:0|3:0,0:0:0:0:
153,105,423955,6,0,L|133:72,4,31.6666666666667
76,136,424284,2,0,L|62:193,1,47.5
145,190,424449,2,0,L|159:247,1,47.5
193,322,424614,5,0,0:0:0:0:
215,304,424696,1,0,0:0:0:0:
242,294,424778,1,0,0:0:0:0:
269,288,424861,1,0,0:0:0:0:
297,287,424943,1,0,0:0:0:0:
482,319,425108,2,0,P|495:267|493:215,1,95,12|0,0:0|2:0,0:0:0:0:
376,201,425438,5,0,0:0:0:0:
337,204,425520,1,0,0:0:0:0:
305,183,425603,1,0,0:0:0:0:
294,146,425685,1,0,0:0:0:0:
298,107,425767,1,0,0:0:0:0:
292,69,425850,1,0,0:0:0:0:
266,40,425932,1,0,0:0:0:0:
229,31,426015,1,0,0:0:0:0:
194,47,426097,2,0,P|145:61|79:73,1,95,12|0,0:0|2:0,0:0:0:0:
8,39,426427,1,0,0:0:0:0:
16,210,426592,6,0,P|26:267|145:337,1,190,4|0,0:0|0:0,0:0:0:0:
234,290,427086,2,0,P|239:337|230:384,1,95,4|0,0:0|0:0,0:0:0:0:
130,218,427416,1,0,0:0:0:0:
130,218,427498,1,0,0:0:0:0:
130,218,427581,2,0,P|124:171|134:124,1,95,4|0,0:0|0:0,0:0:0:0:
411,71,427910,6,0,L|389:137,1,63.3333333333333,0|0,0:0|0:0,0:0:0:0:
255,123,428130,2,0,L|323:109,1,63.3333333333333
378,234,428350,2,0,L|331:181,1,63.3333333333333
184,72,428570,6,0,P|219:30|349:33,1,190,4|0,0:2|0:0,0:0:0:0:
101,115,429064,2,0,P|91:63|115:13,1,95,8|0,0:0|0:0,0:0:0:0:
92,204,429394,1,0,0:0:0:0:
92,204,429476,1,0,0:0:0:0:
92,204,429559,2,0,P|44:187|13:135,1,95,8|0,0:0|0:0,0:0:0:0:
184,72,429888,1,0,0:0:0:0:
181,163,430053,6,0,B|288:138|254:193|374:160,1,190,8|0,0:0|0:0,0:0:0:0:
367,161,430465,1,0,0:0:0:0:
367,161,430548,2,0,P|384:229|373:273,1,95,8|0,0:0|0:0,0:0:0:0:
247,340,430877,2,0,P|230:272|241:228,1,95
309,82,431207,5,4,0:2:0:0:
405,68,431372,1,0,0:0:0:0:
367,161,431537,1,0,0:0:0:0:
309,82,431701,2,0,P|262:77|215:57,2,95,4|0|0,0:2|0:0|0:0,0:0:0:0:
465,139,432196,5,4,0:2:0:0:
489,234,432361,1,0,0:0:0:0:
491,252,432443,1,0,0:0:0:0:
493,270,432526,1,0,0:0:0:0:
329,373,432690,2,0,L|338:267,1,95,4|0,0:2|0:0,0:0:0:0:
181,125,433020,1,0,0:0:0:0:
257,182,433185,5,0,0:0:0:0:
234,213,433267,1,0,0:0:0:0:
198,226,433350,1,0,0:0:0:0:
160,222,433432,1,0,0:0:0:0:
128,202,433515,1,0,0:0:0:0:
96,181,433597,1,0,0:0:0:0:
57,181,433679,1,0,0:0:0:0:
22,198,433762,1,0,0:0:0:0:
0,230,433844,5,4,0:0:0:0:
449,223,434174,1,0,0:0:0:0:
374,161,434339,2,0,P|356:204|356:260,1,95,8|0,0:0|0:0,0:0:0:0:
415,333,434669,1,0,0:0:0:0:
415,333,434751,1,0,0:0:0:0:
415,333,434834,1,2,0:2:0:0:
256,372,434998,1,2,0:2:0:0:
173,77,435493,6,0,L|181:139,1,63.3333333333333
49,315,435713,2,0,L|40:252,1,63.3333333333333
175,303,435932,2,0,L|183:365,1,63.3333333333333
18,159,436152,6,0,P|50:113|194:83,1,190,4|0,0:0|0:0,0:0:0:0:
293,276,436646,2,0,P|261:230|117:200,1,190
96,373,437141,2,0,P|86:320|84:266,1,95
96,373,437470,1,14,2:2:0:0:
313,338,437800,6,0,P|364:320|504:356,1,190,4|0,0:0|0:0,0:0:0:0:
201,315,438294,2,0,P|150:333|10:297,1,190
59,108,438789,2,0,L|73:203,1,95
256,176,439119,1,8,2:0:0:0:
256,176,439283,1,8,2:0:0:0:
358,270,439448,6,0,P|360:222|366:175,1,95,4|0,0:0|0:0,0:0:0:0:
467,135,439778,1,0,0:0:0:0:
352,72,439943,2,0,P|300:60|148:62,1,190
139,333,440437,2,0,P|127:282|123:232,1,95
139,333,440767,1,6,2:3:0:0:
220,266,440932,1,8,0:0:0:0:
24,216,441097,6,0,P|47:166|174:144,1,190,4|0,0:0|0:0,0:0:0:0:
308,74,441591,2,0,P|310:127|302:185,1,95
394,341,441921,1,0,0:0:0:0:
384,304,442003,1,0,0:0:0:0:
395,267,442086,1,0,0:0:0:0:
476,303,442250,1,0,0:0:0:0:
302,347,442415,1,0,0:0:0:0:
371,174,442580,1,0,0:0:0:0:
233,279,442745,6,2,P|184:290|130:298,1,95,6|2,0:0|0:0,0:0:0:0:
139,296,443239,1,2,0:0:0:0:
265,186,443404,1,4,0:0:0:0:
302,347,443569,1,2,0:0:0:0:
422,242,443734,2,0,P|436:193|425:128,1,95,2|0,0:0|0:0,0:0:0:0:
332,254,444064,1,4,0:0:0:0:
28,156,444393,6,2,P|74:177|127:178,1,95,2|2,0:0|0:0,0:0:0:0:
117,179,444888,1,2,0:0:0:0:
92,92,445053,1,4,0:0:0:0:
237,189,445217,1,2,0:0:0:0:
362,101,445382,2,0,P|268:91|176:111,1,190,2|4,0:0|0:0,0:0:0:0:
344,364,446042,6,2,P|353:316|356:266,1,95
355,269,446536,1,2,0:0:0:0:
263,311,446701,1,4,0:0:0:0:
446,319,446866,1,2,0:0:0:0:
281,213,447031,2,0,P|276:164|280:112,2,95,2|0|4,0:0|0:0|0:0,0:0:0:0:
488,112,447690,6,2,P|464:66|331:30,1,190,6|2,0:0|0:0,0:0:0:0:
205,125,448184,2,2,P|143:141|78:143,1,95,6|0,0:0|0:0,0:0:0:0:
143,50,448514,1,0,0:0:0:0:
21,235,448679,5,2,0:0:0:0:
21,235,448843,2,0,P|77:236|193:348,1,190
180,314,449338,1,0,0:0:0:0:
285,358,449503,1,0,0:0:0:0:
410,237,449668,5,4,0:0:0:0:
256,192,449758,12,0,458193,2:0:0:0:
