osu file format v14

[General]
AudioFilename: audio.mp3
AudioLeadIn: 0
PreviewTime: -1
Countdown: 1
SampleSet: None
StackLeniency: 0.4
Mode: 0
LetterboxInBreaks: 0
WidescreenStoryboard: 0

[Editor]
Bookmarks: 23649,68825
DistanceSpacing: 1.21
BeatDivisor: 8
GridSize: 16
TimelineZoom: 1

[Metadata]
Title:Heartfelt Fancy
TitleUnicode:ハートフェルトファンシー
Artist:Demetori
ArtistUnicode:Demetori
Creator:Nyanaro
Version:Terrible Souvenir
Source:東方地霊殿 ~ Subterranean Animism
Tags:
BeatmapID:1575156
BeatmapSetID:747546

[Difficulty]
HPDrainRate:5
CircleSize:5
OverallDifficulty:8
ApproachRate:8
SliderMultiplier:1.9
SliderTickRate:1

[Events]
//Background and Video events
0,0,"image.jpg",0,0
//Break Periods
//Storyboard Layer 0 (Background)
//Storyboard Layer 1 (Fail)
//Storyboard Layer 2 (Pass)
//Storyboard Layer 3 (Foreground)
//Storyboard Sound Samples

[TimingPoints]
1061,705.882352941176,4,2,0,40,1,0
1061,-50,4,2,0,40,0,0
23649,-100,4,2,0,40,0,0
68119,-66.6666666666667,4,2,0,40,0,0
82943,-40,4,2,0,40,0,1
93884,-40,4,2,0,40,0,0
94237,-40,4,2,0,40,0,1
105531,-40,4,2,0,40,0,0

[HitObjects]
127,205,1061,6,0,B|138:188|187:162|208:161,1,95
301,153,1413,2,0,B|323:151|372:125|383:108,1,95
209,160,1766,2,0,P|241:249|357:227,1,190
435,203,2296,1,0,0:0:0:0:
290,349,2472,6,0,B|270:353|217:336|201:322,1,95
142,261,2825,2,0,B|131:244|82:218|59:216,1,95
41,119,3178,2,0,B|120:26|274:26|335:78,1,285
423,128,3884,6,0,B|412:145|363:171|340:172,1,95
242,150,4237,2,0,B|221:151|174:180|162:199,1,95
116,306,4590,1,0,0:0:0:0:
248,337,4943,1,0,0:0:0:0:
470,306,5296,1,0,0:0:0:0:
333,130,5825,1,0,0:0:0:0:
248,337,6355,1,0,0:0:0:0:
350,257,6708,1,0,0:0:0:0:
333,130,7060,6,0,B|324:110|279:78|257:74,1,95
175,74,7413,2,0,B|152:69|108:37|99:18,1,95
344,35,7766,1,0,0:0:0:0:
208,239,8119,6,0,B|193:253|140:269|118:265,1,95
33,240,8472,1,0,0:0:0:0:
126,159,8649,1,0,0:0:0:0:
208,239,8825,6,0,B|222:253|275:269|297:265,1,95
383,240,9178,1,0,0:0:0:0:
457,87,9531,1,0,0:0:0:0:
328,39,9796,1,0,0:0:0:0:
199,87,10060,1,0,0:0:0:0:
70,39,10237,6,0,B|56:53|40:106|44:128,1,95
110,188,10590,2,0,B|124:202|140:255|136:277,1,95
97,350,10943,1,0,0:0:0:0:
227,305,11208,1,0,0:0:0:0:
357,350,11472,1,0,0:0:0:0:
424,230,11649,2,0,B|409:212|396:159|402:139,1,95
418,9,12002,1,0,0:0:0:0:
302,154,12178,1,0,0:0:0:0:
124,112,12355,5,0,0:0:0:0:
124,112,12708,2,0,B|109:130|96:183|102:203,1,95
164,244,13060,2,0,B|179:262|192:315|186:335,1,95
19,245,13413,2,0,B|30:227|78:202|102:201,1,95
255,235,13766,5,0,0:0:0:0:
367,282,14031,1,0,0:0:0:0:
479,235,14296,1,0,0:0:0:0:
461,132,14472,2,0,B|445:117|392:106|369:111,1,95
302,154,14825,2,0,B|286:168|233:179|210:174,1,95
89,123,15178,1,0,0:0:0:0:
89,123,15443,1,0,0:0:0:0:
89,123,15708,1,0,0:0:0:0:
190,66,15884,2,0,B|282:42|396:51|465:126,1,285
302,154,16590,5,0,0:0:0:0:
81,184,17119,1,0,0:0:0:0:
217,361,17649,1,0,0:0:0:0:
199,233,18002,1,0,0:0:0:0:
341,346,18355,6,0,B|360:337|392:294|397:272,1,95
391,196,18708,2,0,B|388:174|410:125|426:109,1,95
491,49,19060,1,0,0:0:0:0:
333,95,19413,6,0,B|313:104|259:101|239:90,1,95
161,50,19766,1,0,0:0:0:0:
70,101,19943,1,0,0:0:0:0:
203,162,20119,6,0,B|196:182|155:218|134:224,1,95
45,255,20472,1,0,0:0:0:0:
172,338,20825,5,0,0:0:0:0:
288,267,21090,1,0,0:0:0:0:
404,338,21355,1,0,0:0:0:0:
473,243,21531,2,0,B|424:188|414:128|475:43,1,190
331,74,22060,1,0,0:0:0:0:
235,32,22237,2,0,B|161:23|106:49|72:148,1,190
44,235,22766,1,0,0:0:0:0:
256,192,22943,12,0,23296,0:0:0:0:
256,192,23649,6,0,P|348:187|372:273,1,190
299,326,24531,2,0,L|196:351,1,95
121,305,25061,2,0,B|68:236|68:195|68:195|99:157|90:114,1,190
275,82,26472,6,0,B|340:28|390:120|453:82,1,190
324,140,27708,1,0,0:0:0:0:
391,199,27884,2,0,L|429:235,2,47.5
299,326,28590,1,0,0:0:0:0:
129,357,28943,1,0,0:0:0:0:
187,194,29296,1,0,0:0:0:0:
187,194,30002,1,0,0:0:0:0:
187,194,31061,5,0,0:0:0:0:
88,150,31590,5,0,0:0:0:0:
80,44,32119,5,0,0:0:0:0:
80,44,32825,1,0,0:0:0:0:
324,66,34237,6,0,P|416:61|440:147,1,190
441,141,35649,1,0,0:0:0:0:
441,141,36355,5,0,0:0:0:0:
434,247,36884,1,0,0:0:0:0:
357,321,37413,1,0,0:0:0:0:
250,323,37766,1,0,0:0:0:0:
250,323,38472,1,0,0:0:0:0:
143,312,39178,2,0,B|152:225|28:235|119:86|119:86|34:134|-1:98,1,380
120,86,41296,5,0,0:0:0:0:
218,45,41825,1,0,0:0:0:0:
321,70,42355,1,0,0:0:0:0:
424,95,42708,1,0,0:0:0:0:
424,95,43413,5,0,0:0:0:0:
424,95,44119,5,0,0:0:0:0:
459,196,44649,1,0,0:0:0:0:
412,293,45178,1,0,0:0:0:0:
311,327,45531,1,0,0:0:0:0:
210,293,45884,1,0,0:0:0:0:
197,288,45972,1,0,0:0:0:0:
184,283,46060,1,0,0:0:0:0:
171,278,46149,1,0,0:0:0:0:
158,273,46237,1,0,0:0:0:0:
158,273,46943,5,0,0:0:0:0:
93,188,47472,1,0,0:0:0:0:
116,83,48002,1,0,0:0:0:0:
116,83,48355,1,0,0:0:0:0:
253,45,49060,5,0,0:0:0:0:
253,45,49766,5,0,0:0:0:0:
349,90,50296,1,0,0:0:0:0:
445,135,50825,1,0,0:0:0:0:
459,241,51178,1,0,0:0:0:0:
459,241,51531,5,0,0:0:0:0:
352,335,51884,2,0,B|335:298|268:278|226:295,1,142.5
168,337,52590,1,0,0:0:0:0:
83,271,53119,1,0,0:0:0:0:
60,166,53649,1,0,0:0:0:0:
127,83,54002,2,0,B|185:50|256:50|308:80,1,190
387,134,55060,1,0,0:0:0:0:
387,134,55413,5,0,0:0:0:0:
462,254,55943,1,0,0:0:0:0:
358,352,56472,1,0,0:0:0:0:
225,299,56825,5,0,0:0:0:0:
92,245,57178,1,0,0:0:0:0:
205,157,57531,1,0,0:0:0:0:
205,157,58237,5,0,0:0:0:0:
205,157,58943,5,0,0:0:0:0:
389,49,59472,1,0,0:0:0:0:
391,263,60002,1,0,0:0:0:0:
328,156,60355,5,0,0:0:0:0:
239,123,61060,1,0,0:0:0:0:
44,51,61766,5,0,0:0:0:0:
80,256,62472,1,0,0:0:0:0:
324,347,63178,5,0,0:0:0:0:
324,347,63884,1,0,0:0:0:0:
380,304,64413,1,0,0:0:0:0:
379,232,64943,1,0,0:0:0:0:
321,190,65472,1,0,0:0:0:0:
464,84,66002,2,0,B|377:21|267:58|267:58,1,190
168,86,67060,1,0,0:0:0:0:
363,145,67413,1,0,0:0:0:0:
256,192,67766,12,0,68119,0:0:0:0:
168,341,68472,5,0,0:0:0:0:
82,236,68649,1,0,0:0:0:0:
168,131,68825,2,0,B|215:70|278:22|389:23|358:135,1,285.000010871888
274,140,69708,1,0,0:0:0:0:
469,44,69884,1,0,0:0:0:0:
256,192,70060,12,0,70943,0:0:0:0:
344,341,71296,5,0,0:0:0:0:
430,236,71473,1,0,0:0:0:0:
344,131,71649,2,0,B|297:70|234:22|123:23|154:135,1,285.000010871888
238,140,72532,1,0,0:0:0:0:
43,44,72708,1,0,0:0:0:0:
256,192,72884,12,0,73237,0:0:0:0:
328,203,73413,6,0,B|328:199|330:236|289:258,1,71.2500027179719
163,277,73766,1,0,0:0:0:0:
299,349,73943,1,0,0:0:0:0:
421,266,74119,5,0,0:0:0:0:
285,194,74296,1,0,0:0:0:0:
65,133,74472,2,0,B|87:86|128:52|187:46,1,142.500005435944
180,172,75002,1,0,0:0:0:0:
180,172,75355,1,0,0:0:0:0:
67,224,75531,2,0,B|89:271|130:305|174:308,1,142.500005435944
249,303,76060,1,0,0:0:0:0:
325,298,76237,1,0,0:0:0:0:
401,293,76413,1,0,0:0:0:0:
477,288,76590,1,0,0:0:0:0:
477,288,77296,1,0,0:0:0:0:
450,209,77649,2,0,L|427:135,1,71.2500027179719
256,192,78002,12,0,78355,0:0:0:0:
404,71,78708,5,0,0:0:0:0:
256,192,79060,12,0,79413,0:0:0:0:
404,71,79766,5,0,0:0:0:0:
329,154,79943,1,0,0:0:0:0:
477,288,80119,1,0,0:0:0:0:
375,245,80296,1,0,0:0:0:0:
286,311,80472,1,0,0:0:0:0:
123,292,80649,1,0,0:0:0:0:
123,292,81178,5,0,0:0:0:0:
123,292,81531,1,0,0:0:0:0:
256,192,81708,12,0,82237,0:0:0:0:
59,122,82943,6,0,B|157:15|286:79|286:79,1,237.5
391,114,83472,1,0,0:0:0:0:
422,238,83649,1,0,0:0:0:0:
330,326,83825,1,0,0:0:0:0:
391,114,84002,6,0,B|293:221|164:157|164:157,1,237.5
262,71,84619,1,0,0:0:0:0:
422,238,84884,5,0,0:0:0:0:
330,326,85060,1,0,0:0:0:0:
189,316,85237,1,0,0:0:0:0:
422,238,85413,5,0,0:0:0:0:
189,316,85589,1,0,0:0:0:0:
237,75,85766,5,0,0:0:0:0:
120,126,86031,1,0,0:0:0:0:
3,75,86296,1,0,0:0:0:0:
237,75,86472,2,0,B|335:125|316:223|316:223,1,178.125
402,79,87002,1,0,0:0:0:0:
191,194,87178,1,0,0:0:0:0:
53,165,87443,1,0,0:0:0:0:
147,59,87708,1,0,0:0:0:0:
235,329,87884,1,0,0:0:0:0:
235,329,88237,5,0,0:0:0:0:
235,329,88590,5,0,0:0:0:0:
147,59,88766,1,0,0:0:0:0:
424,117,88943,1,0,0:0:0:0:
268,168,89296,5,0,0:0:0:0:
323,57,89560,1,0,0:0:0:0:
424,117,89825,1,0,0:0:0:0:
268,168,90002,5,0,0:0:0:0:
146,176,90266,1,0,0:0:0:0:
147,59,90531,1,0,0:0:0:0:
268,168,90708,5,0,0:0:0:0:
336,271,91060,5,0,0:0:0:0:
235,329,91413,5,0,0:0:0:0:
268,168,91590,1,0,0:0:0:0:
113,220,91766,5,0,0:0:0:0:
336,271,91943,1,0,0:0:0:0:
147,59,92119,5,0,0:0:0:0:
268,168,92295,1,0,0:0:0:0:
269,53,92472,5,0,0:0:0:0:
113,220,92649,1,0,0:0:0:0:
424,117,92825,5,0,0:0:0:0:
268,168,93001,1,0,0:0:0:0:
390,276,93178,5,0,0:0:0:0:
121,350,93355,2,0,L|106:225,1,118.75
44,54,93884,1,0,0:0:0:0:
453,122,94237,6,0,B|355:15|226:79|226:79,1,237.5
121,114,94766,1,0,0:0:0:0:
90,238,94943,1,0,0:0:0:0:
182,326,95119,1,0,0:0:0:0:
121,114,95296,6,0,B|219:221|348:157|348:157,1,237.5
249,70,95913,1,0,0:0:0:0:
445,46,96178,1,0,0:0:0:0:
420,170,96355,1,0,0:0:0:0:
445,294,96531,1,0,0:0:0:0:
325,253,96708,5,0,0:0:0:0:
205,294,96884,1,0,0:0:0:0:
25,233,97060,5,0,0:0:0:0:
167,107,97325,1,0,0:0:0:0:
287,148,97590,1,0,0:0:0:0:
25,233,97766,2,0,B|25:234|-25:148|49:68,1,178.125
287,148,98296,1,0,0:0:0:0:
477,38,98472,1,0,0:0:0:0:
412,154,98737,1,0,0:0:0:0:
345,40,99002,1,0,0:0:0:0:
347,327,99178,1,0,0:0:0:0:
347,327,99531,5,0,0:0:0:0:
347,327,99884,5,0,0:0:0:0:
345,40,100060,1,0,0:0:0:0:
98,186,100237,1,0,0:0:0:0:
264,185,100590,1,0,0:0:0:0:
182,52,100855,1,0,0:0:0:0:
345,40,101119,1,0,0:0:0:0:
264,185,101296,5,0,0:0:0:0:
432,193,101560,1,0,0:0:0:0:
347,327,101825,1,0,0:0:0:0:
264,185,102002,5,0,0:0:0:0:
184,338,102355,5,0,0:0:0:0:
98,186,102708,5,0,0:0:0:0:
264,185,102884,1,0,0:0:0:0:
183,89,103060,5,0,0:0:0:0:
184,338,103236,1,0,0:0:0:0:
345,40,103413,5,0,0:0:0:0:
264,185,103590,1,0,0:0:0:0:
400,213,103766,5,0,0:0:0:0:
183,89,103942,1,0,0:0:0:0:
347,327,104119,5,0,0:0:0:0:
264,185,104296,1,0,0:0:0:0:
185,339,104472,5,0,0:0:0:0:
400,213,104648,1,0,0:0:0:0:
183,89,104825,1,0,0:0:0:0:
271,192,105002,1,0,0:0:0:0:
271,192,105090,1,0,0:0:0:0:
271,192,105179,1,0,0:0:0:0:
98,186,105531,6,0,B|36:145|57:71|57:71,1,118.75
243,34,105884,1,0,0:0:0:0:
361,82,106060,1,0,0:0:0:0:
474,234,106237,6,0,B|433:295|359:274|359:274,1,118.75
199,238,106590,1,0,0:0:0:0:
173,115,106766,1,0,0:0:0:0:
474,234,106943,6,0,B|476:307|405:333|405:333,1,118.75
225,361,107296,1,0,0:0:0:0:
173,115,107472,1,0,0:0:0:0:
173,115,107825,5,0,0:0:0:0:
412,192,108001,1,0,0:0:0:0:
225,361,108178,1,0,0:0:0:0:
314,84,108355,5,0,0:0:0:0:
367,330,108531,1,0,0:0:0:0:
127,252,108708,2,0,B|29:219|39:154|39:154,1,118.75
161,27,109060,6,0,B|259:60|249:125|249:125,1,118.75
272,224,109413,1,0,0:0:0:0:
225,361,109590,1,0,0:0:0:0:
141,140,109766,5,0,0:0:0:0:
314,84,109943,1,0,0:0:0:0:
416,141,110119,1,0,0:0:0:0:
141,140,110296,1,0,0:0:0:0:
278,379,110649,1,0,0:0:0:0:
416,141,110825,1,0,0:0:0:0:
141,140,111002,1,0,0:0:0:0:
415,299,111178,5,0,0:0:0:0:
278,61,111355,1,0,0:0:0:0:
140,299,111531,1,0,0:0:0:0:
277,219,111708,1,0,0:0:0:0:
416,141,111884,2,0,B|430:72|369:39|369:39,1,118.75
