osu file format v14

[General]
AudioFilename: Demetori +Todestrieb und Lebenstrieb.mp3
AudioLeadIn: 0
PreviewTime: 202856
Countdown: 0
SampleSet: None
StackLeniency: 0.7
Mode: 0
LetterboxInBreaks: 0
WidescreenStoryboard: 0

[Editor]
Bookmarks: 12219,28447,37310,53674,68810,75765,85038,93765,102492,110947,119401,135629,136310,136992,138219,145856,153901,163310,171492,172038,182129,189901,203129,211310,220038,226583,233129,233947,234765,235583,236401,236810,237219,237629,238038,239129,252219,256310,256719,257401,258765
DistanceSpacing: 2.4
BeatDivisor: 6
GridSize: 4
TimelineZoom: 2

[Metadata]
Title:Harutoman no Youkai Shoujo ~ Todestrieb und Lebenstrieb
TitleUnicode:ハルトマンの妖怪少女 ~ Todestrieb und Lebenstrieb
Artist:Demetori
ArtistUnicode:Demetori
Creator:Keada
Version:Extra Stage
Source:
Tags:
BeatmapID:1171271
BeatmapSetID:553143

[Difficulty]
HPDrainRate:6
CircleSize:4.5
OverallDifficulty:9
ApproachRate:9.6
SliderMultiplier:1.6
SliderTickRate:2

[Events]
//Background and Video events
0,0,"4233458edfe234319e.jpg",0,0
//Break Periods
2,138419,145347
//Storyboard Layer 0 (Background)
//Storyboard Layer 1 (Fail)
//Storyboard Layer 2 (Pass)
//Storyboard Layer 3 (Foreground)
//Storyboard Sound Samples

[TimingPoints]
11129,272.727272727273,4,3,1,70,1,0
53674,-133.333333333333,4,3,1,70,0,0
56947,-200,4,3,1,70,0,0
57492,-133.333333333333,4,3,1,70,0,0
61447,-200,4,3,1,70,0,0
61719,-133.333333333333,4,3,1,70,0,0
63083,-117.647058823529,4,3,1,70,0,0
81151,-117.647058823529,4,3,1,5,0,0
85038,-133.333333333333,4,3,1,70,0,0
86947,-133.333333333333,4,3,1,5,0,0
87219,-133.333333333333,4,3,1,70,0,0
102492,-76.9230769230769,4,3,1,80,0,1
119401,-90.9090909090909,4,3,1,70,0,0
138219,-200,4,3,1,70,0,0
145856,-100,4,3,1,70,0,0
153901,-83.3333333333333,4,3,1,70,0,0
163310,-83.3333333333333,4,3,1,70,0,0
172038,-133.333333333333,4,3,1,70,0,0
189901,-100,4,3,1,70,0,0
203129,-76.9230769230769,4,3,1,80,0,1
220038,-100,4,3,1,70,0,0
225969,-100,4,3,1,5,0,0
226038,-100,4,3,1,70,0,0
226242,-100,4,3,1,5,0,0
226310,-100,4,3,1,70,0,0
226515,-100,4,3,1,5,0,0
226583,-90.9090909090909,4,3,1,70,0,0
233129,-200,4,3,1,70,0,0
233947,-166.666666666667,4,3,1,70,0,0
234765,-142.857142857143,4,3,1,70,0,0
235583,-125,4,3,1,70,0,0
236401,-200,4,3,1,70,0,0
236810,-142.857142857143,4,3,1,70,0,0
237219,-125,4,3,1,70,0,0
237629,-111.111111111111,4,3,1,70,0,0
238038,-90.9090909090909,4,3,1,70,0,0
239129,-83.3333333333333,4,3,1,70,0,0
252219,-76.9230769230769,4,3,1,70,0,0

[Colours]
Combo1 : 154,209,250
Combo2 : 56,175,149
Combo3 : 230,89,89
Combo4 : 20,106,177

[HitObjects]
128,300,11129,6,0,L|232:312,1,80
348,236,11401,2,0,L|244:224,1,80
80,204,11674,2,0,L|184:216,1,80
300,140,11946,2,0,L|196:128,1,80
56,76,12219,6,0,B|92:60|92:60|144:60,1,80
232,56,12492,1,0,0:0:0:0:
160,272,12629,2,0,P|96:216|108:144,1,160
252,198,13038,2,0,B|211:204|211:204|156:186,1,80
56,76,13310,5,0,0:0:0:0:
176,120,13447,1,0,0:0:0:0:
80,204,13583,1,0,0:0:0:0:
92,28,13719,5,0,0:0:0:0:
197,101,13856,1,0,0:0:0:0:
82,158,13992,1,0,0:0:0:0:
178,16,14129,6,0,B|238:12|238:12|266:28|266:28|342:24,1,160
228,244,14538,2,0,B|220:208|220:208|224:172|224:172|204:132|220:76,1,160
372,120,14947,2,0,P|336:132|288:112,1,80
82,158,15219,5,0,0:0:0:0:
197,101,15355,1,0,0:0:0:0:
92,28,15492,1,0,0:0:0:0:
79,204,15628,5,0,0:0:0:0:
175,120,15764,1,0,0:0:0:0:
55,76,15901,1,0,0:0:0:0:
76,248,16038,5,0,0:0:0:0:
152,140,16174,1,0,0:0:0:0:
8,312,16310,2,0,B|44:312|44:312|76:328|76:328|120:308|168:324,1,160
368,360,16719,2,0,P|399:314|348:218,1,160
205,180,17129,2,0,P|197:132|197:88,1,80
370,145,17401,6,0,P|368:184|361:224,1,80
320,296,17674,1,0,0:0:0:0:
284,112,17810,2,0,P|313:84|346:62,1,80
428,56,18083,1,0,0:0:0:0:
236,252,18219,6,0,P|186:256|146:228,1,80
116,176,18492,1,0,0:0:0:0:
316,196,18629,2,0,L|328:388,2,160
236,56,19310,1,0,0:0:0:0:
240,176,19447,1,0,0:0:0:0:
344,116,19583,2,0,P|352:84|340:24,1,80
136,120,19856,1,0,0:0:0:0:
240,176,19992,1,0,0:0:0:0:
236,56,20129,2,0,P|204:24|152:12,1,80
88,260,20401,6,0,B|164:296|164:220|256:264,1,160
388,324,20810,2,0,B|400:288|400:288|396:256|396:256|412:216|400:168,1,160
240,176,21219,2,0,P|276:192|324:196,1,80
432,84,21492,6,0,P|396:68|348:64,1,80
276,84,21765,1,0,0:0:0:0:
411,160,21901,2,0,P|427:124|431:76,1,80
424,4,22174,1,0,0:0:0:0:
315,192,22310,6,0,B|299:312|299:312|331:260,1,160
276,84,22719,2,0,B|244:72|212:88|212:88|184:76|184:76|156:92|96:76,1,160
40,220,23129,2,0,L|32:320,1,80
188,232,23401,2,0,L|181:152,1,80
96,136,23674,1,0,0:0:0:0:
149,293,23810,2,0,P|209:301|237:281,2,80
40,220,24219,2,0,L|24:132,1,80
248,52,24492,6,0,B|312:48|312:48|340:60|340:60|411:55,1,160
280,240,24901,2,0,P|240:176|300:128,1,160
408,240,25310,2,0,L|396:328,1,80
192,348,25583,6,0,L|176:260,1,80
364,116,25856,2,0,L|349:194,1,80
128,196,26129,2,0,L|224:176,1,80
397,319,26401,6,0,B|357:328|357:328|277:236,1,160
148,68,26810,2,0,B|212:56|212:56|240:68|240:68|324:52,2,160
52,196,27492,5,0,0:0:0:0:
52,196,27629,1,0,0:0:0:0:
192,272,27765,1,0,0:0:0:0:
192,272,27901,1,0,0:0:0:0:
148,68,28038,1,0,0:0:0:0:
108,272,28174,1,0,0:0:0:0:
300,196,28310,1,0,0:0:0:0:
60,100,28447,6,0,L|40:264,1,160
300,196,28856,2,0,B|260:188|260:188|220:192,1,80
380,304,29129,2,0,B|420:312|420:312|460:308,1,80
304,120,29401,2,0,B|264:112|264:112|224:116,1,80
384,228,29674,2,0,B|424:236|424:236|464:232,1,80
308,44,29947,2,0,B|268:36|268:36|228:40,1,80
388,152,30219,2,0,B|428:160|428:160|468:156,1,80
512,100,30492,1,0,0:0:0:0:
224,115,30629,6,0,B|216:175|216:175|232:207|232:207|222:270,1,160
76,220,31038,2,0,B|116:200|168:224,1,80
261,350,31310,2,0,B|221:370|169:346,1,80
120,300,31583,1,0,0:0:0:0:
288,75,31719,2,0,B|308:115|289:152,1,80
240,216,31992,1,0,0:0:0:0:
28,32,32129,2,0,P|72:20|120:40,1,80
320,232,32401,5,0,0:0:0:0:
80,366,32538,1,0,0:0:0:0:
68,93,32674,1,0,0:0:0:0:
356,300,32810,6,0,B|320:316|320:316|284:300|284:300|240:312|200:292,1,160
148,224,33151,1,0,0:0:0:0:
148,224,33219,2,0,L|156:128,1,80
288,75,33492,2,0,L|294:154,1,80
72,220,33765,1,0,0:0:0:0:
220,88,33901,5,0,0:0:0:0:
220,88,33969,1,0,0:0:0:0:
220,88,34038,2,0,L|226:167,1,80
65,299,34310,2,0,L|71:219,1,80
288,75,34583,2,0,L|294:154,1,80
153,227,34856,1,0,0:0:0:0:
376,108,34992,6,0,P|451:104|488:184,1,160
480,252,35333,1,0,0:0:0:0:
480,252,35401,2,0,B|436:260|436:260|388:248,1,80
268,160,35674,1,0,0:0:0:0:
268,320,35810,1,0,0:0:0:0:
417,174,35947,1,0,0:0:0:0:
424,168,36015,1,0,0:0:0:0:
432,160,36083,1,0,0:0:0:0:
440,152,36151,1,0,0:0:0:0:
448,144,36219,5,0,0:0:0:0:
409,151,36287,1,0,0:0:0:0:
373,134,36355,1,0,0:0:0:0:
355,99,36423,1,0,0:0:0:0:
361,60,36491,1,0,0:0:0:0:
389,32,36559,1,0,0:0:0:0:
428,27,36628,1,0,0:0:0:0:
463,46,36696,1,0,0:0:0:0:
479,81,36764,5,0,0:0:0:0:
439,79,36833,1,0,0:0:0:0:
399,77,36901,1,0,0:0:0:0:
360,75,36969,1,0,0:0:0:0:
320,73,37037,1,0,0:0:0:0:
280,71,37105,1,0,0:0:0:0:
240,68,37174,1,0,0:0:0:0:
200,66,37242,1,0,0:0:0:0:
160,64,37310,6,0,L|136:160,1,80
116,224,37583,1,0,0:0:0:0:
352,192,37719,2,0,B|292:188|292:188|260:204|260:204|191:198,2,160
472,300,38401,5,0,0:0:0:0:
396,280,38538,1,0,0:0:0:0:
448,220,38674,1,0,0:0:0:0:
348,340,38810,1,0,0:0:0:0:
316,264,38947,1,0,0:0:0:0:
396,280,39083,1,0,0:0:0:0:
240,247,39219,6,0,B|237:206|237:206|248:159,1,80
300,108,39492,1,0,0:0:0:0:
168,184,39629,2,0,B|112:192|112:192|8:160,1,160
136,48,40038,1,0,0:0:0:0:
136,48,40174,6,0,L|220:48,2,80
56,104,40583,1,0,0:0:0:0:
228,144,40719,2,0,L|328:144,2,80
20,196,41129,1,0,0:0:0:0:
176,340,41265,1,0,0:0:0:0:
136,48,41401,6,0,L|128:224,1,160
344,268,41810,2,0,P|296:240|192:272,2,160
468,372,42492,2,0,B|480:336|480:336|472:276,1,80
384,124,42765,2,0,B|378:165|378:165|390:201,1,80
500,48,43038,1,0,0:0:0:0:
500,48,43174,1,0,0:0:0:0:
272,72,43310,6,0,B|212:72|212:72|176:88|176:88|112:88,1,160
232,296,43719,2,0,B|236:256|236:256|224:228|224:228|244:180|236:124,2,160
68,332,44401,5,0,0:0:0:0:
76,252,44538,1,0,0:0:0:0:
144,296,44674,1,0,0:0:0:0:
0,288,44810,1,0,0:0:0:0:
148,216,44947,1,0,0:0:0:0:
182,223,45015,1,0,0:0:0:0:
210,243,45083,1,0,0:0:0:0:
227,273,45151,1,0,0:0:0:0:
230,308,45219,1,0,0:0:0:0:
219,340,45287,1,0,0:0:0:0:
195,366,45356,1,0,0:0:0:0:
163,379,45424,1,0,0:0:0:0:
128,377,45492,6,0,B|176:352|176:352|312:372,1,160
440,320,45901,2,0,L|488:144,2,160
320,320,46583,1,0,0:0:0:0:
272,212,46719,1,0,0:0:0:0:
392,228,46856,1,0,0:0:0:0:
196,304,46992,1,0,0:0:0:0:
156,192,47129,1,0,0:0:0:0:
272,212,47265,1,0,0:0:0:0:
72,284,47401,6,0,P|42:265|47:138,1,160
176,76,47810,2,0,B|232:72|232:72|274:88|274:88|363:86,1,160
464,180,48219,1,0,0:0:0:0:
464,180,48356,1,0,0:0:0:0:
272,212,48492,2,0,P|212:208|180:192,1,80
391,173,48765,2,0,P|451:177|483:193,1,80
260,288,49038,1,0,0:0:0:0:
316,92,49174,1,0,0:0:0:0:
440,252,49310,1,0,0:0:0:0:
204,240,49447,1,0,0:0:0:0:
426,92,49583,6,0,L|442:276,1,160
216,168,49992,1,0,0:0:0:0:
216,168,50060,1,0,0:0:0:0:
216,168,50129,2,0,B|216:88|216:88|248:44,2,120
324,288,50674,1,0,0:0:0:0:
228,360,50810,1,0,0:0:0:0:
204,240,50947,1,0,0:0:0:0:
311,365,51083,1,0,0:0:0:0:
158,311,51219,1,0,0:0:0:0:
284,210,51356,1,0,0:0:0:0:
76,320,51492,6,0,B|60:264|60:264|76:224|76:224|60:148,1,160
288,116,51901,2,0,B|220:156|220:156|128:132,1,160
32,20,52310,1,0,0:0:0:0:
32,20,52447,1,0,0:0:0:0:
272,44,52583,5,0,0:0:0:0:
172,264,52719,1,0,0:0:0:0:
192,24,52856,1,0,0:0:0:0:
256,256,52992,1,0,0:0:0:0:
8,124,53129,5,0,0:0:0:0:
320,200,53265,1,0,0:0:0:0:
0,220,53401,1,0,0:0:0:0:
308,120,53538,1,0,0:0:0:0:
96,360,53674,6,0,L|84:212,1,120.000004577637
86,240,54083,1,0,0:0:0:0:
244,176,54219,2,0,B|200:172|200:172|168:184|168:184|108:176,1,120.000004577637
56,60,54629,6,0,B|107:31|107:31|172:32,1,120.000004577637
336,80,55038,1,0,0:0:0:0:
336,80,55310,2,0,L|344:156,1,60.0000022888184
348,212,55583,1,0,0:0:0:0:
404,52,55719,6,0,L|420:196,1,120.000004577637
496,176,56129,2,0,L|504:252,1,60.0000022888184
384,284,56401,1,0,0:0:0:0:
384,284,56674,6,0,P|346:291|304:280,1,60.0000022888184
236,232,56947,2,0,P|216:232|192:236,2,40
348,212,57356,1,0,0:0:0:0:
272,128,57492,2,0,B|240:119|240:119|200:128,1,60.0000022888184
72,132,57765,2,0,B|104:141|104:141|144:132,1,60.0000022888184
184,8,58038,5,0,0:0:0:0:
172,200,58174,2,0,L|164:340,1,120.000004577637
273,327,58583,2,0,P|233:303|153:331,1,120.000004577637
112,372,58992,1,0,0:0:0:0:
236,232,59129,6,0,P|242:173|177:126,1,120.000004577637
113,196,59538,2,0,P|146:203|190:191,1,60.0000022888184
210,59,59810,1,0,0:0:0:0:
202,131,59947,1,0,0:0:0:0:
268,104,60083,1,0,0:0:0:0:
144,92,60219,6,0,P|108:140|122:212,1,120.000004577637
236,232,60629,2,0,P|204:212|160:220,1,60.0000022888184
232,324,60901,2,0,L|312:320,1,60.0000022888184
420,164,61174,1,0,0:0:0:0:
420,164,61447,6,0,B|421:145|421:145|412:112,2,40
320,228,61856,1,0,0:0:0:0:
420,292,61992,2,0,P|428:254|416:220,1,60.0000022888184
252,180,62265,2,0,P|236:220|272:296,1,120.000004577637
484,332,62674,1,0,0:0:0:0:
348,160,62810,1,0,0:0:0:0:
256,360,62947,1,0,0:0:0:0:
488,256,63083,6,0,B|500:212|500:212|484:92,1,136.000002593994
476,48,63492,1,0,0:0:0:0:
252,180,63629,2,0,P|188:188|144:120,1,136.000002593994
348,160,64038,6,0,L|364:320,1,136.000002593994
184,344,64447,2,0,L|192:248,1,68.0000012969971
280,92,64719,1,0,0:0:0:0:
280,92,64856,1,0,0:0:0:0:
280,92,64992,1,0,0:0:0:0:
128,204,65129,6,0,B|40:164|40:164|-24:168,1,136.000002593994
200,256,65538,2,0,B|284:215|284:215|352:224,1,136.000002593994
326,220,65947,1,0,0:0:0:0:
200,176,66083,6,0,B|184:84|184:84|192:32,1,136.000002593994
328,24,66492,1,0,0:0:0:0:
328,24,66629,1,0,0:0:0:0:
280,148,66765,1,0,0:0:0:0:
432,4,66901,2,0,L|444:80,1,68.0000012969971
330,225,67174,6,0,P|406:185|466:221,1,136.000002593994
196,300,67583,2,0,P|131:314|78:276,1,136.000002593994
224,56,67992,2,0,L|252:208,1,136.000002593994
0,304,68401,2,0,L|24:170,1,136.000002593994
280,264,68810,5,0,0:0:0:0:
180,172,68947,1,0,0:0:0:0:
308,132,69083,1,0,0:0:0:0:
188,244,69219,1,0,0:0:0:0:
224,56,69356,2,0,L|241:145,1,68.0000012969971
116,216,69629,1,0,0:0:0:0:
308,132,69765,6,0,B|344:128|344:128|392:136,2,68.0000012969971
148,288,70174,2,0,B|112:292|112:292|80:286,1,68.0000012969971
232,216,70447,1,0,0:0:0:0:
212,348,70583,1,0,0:0:0:0:
176,164,70719,1,0,0:0:0:0:
384,292,70856,6,0,L|240:288,1,136.000002593994
132,216,71265,1,0,0:0:0:0:
252,152,71401,1,0,0:0:0:0:
212,348,71538,1,0,0:0:0:0:
200,212,71674,1,0,0:0:0:0:
392,276,71810,6,0,L|256:279,1,136.000002593994
120,300,72219,2,0,P|88:304|44:288,1,68.0000012969971
8,236,72492,1,0,0:0:0:0:
196,144,72629,2,0,L|200:220,1,68.0000012969971
16,160,72901,2,0,L|19:92,1,68.0000012969971
272,160,73174,5,0,0:0:0:0:
96,48,73310,2,0,B|144:40|144:40|180:48|180:48|244:40,1,136.000002593994
316,32,73719,1,0,0:0:0:0:
204,208,73856,2,0,P|188:160|200:128,1,68.0000012969971
230,41,74129,1,0,0:0:0:0:
296,276,74265,6,0,L|132:292,1,136.000002593994
336,160,74674,2,0,L|436:168,1,68.0000012969971
464,332,74947,1,0,0:0:0:0:
464,332,75083,1,0,0:0:0:0:
464,332,75219,1,0,0:0:0:0:
264,184,75356,6,0,P|200:160|120:208,1,136.000002593994
268,348,75765,2,0,P|304:356|348:336,1,68.0000012969971
309,137,76038,2,0,P|277:156|260:202,1,68.0000012969971
456,328,76310,6,0,L|544:332,2,68.0000012969971
300,264,76719,1,0,0:0:0:0:
300,264,76856,1,0,0:0:0:0:
460,224,76992,1,0,0:0:0:0:
344,104,77129,2,0,B|312:92|312:92|252:96,1,68.0000012969971
56,200,77401,6,0,B|100:208|100:208|144:196|144:196|218:208,1,136.000002593994
448,264,77810,2,0,B|460:222|460:222|440:114,1,136.000002593994
196,120,78219,5,0,0:0:0:0:
304,168,78356,1,0,0:0:0:0:
284,56,78492,1,0,0:0:0:0:
280,172,78629,1,0,0:0:0:0:
188,100,78765,2,0,L|348:96,1,136.000002593994
372,296,79174,5,0,0:0:0:0:
256,292,79310,1,0,0:0:0:0:
368,320,79447,1,0,0:0:0:0:
304,172,79583,2,0,L|304:256,1,68.0000012969971
464,168,79856,2,0,L|464:100,2,68.0000012969971
256,292,80265,6,0,P|216:292|172:268,1,68.0000012969971
136,220,80538,1,0,0:0:0:0:
332,256,80674,2,0,L|328:336,1,68.0000012969971
62,222,80947,2,0,P|85:166|144:148,1,102.000001945496
240,136,81219,6,0,L|336:144,1,68.0000012969971
400,212,81492,1,0,0:0:0:0:
412,96,81629,1,0,0:0:0:0:
307,141,81765,1,0,0:0:0:0:
420,120,81901,1,0,0:0:0:0:
316,228,82038,2,0,L|224:236,1,68.0000012969971
104,84,82310,6,0,P|120:124|116:164,1,68.0000012969971
96,228,82583,1,0,0:0:0:0:
200,36,82719,2,0,P|236:28|280:36,1,68.0000012969971
344,56,82992,1,0,0:0:0:0:
256,272,83129,2,0,P|240:232|248:192,1,68.0000012969971
260,128,83401,1,0,0:0:0:0:
476,248,83538,2,0,P|440:256|400:244,1,68.0000012969971
344,200,83810,1,0,0:0:0:0:
480,40,83947,6,0,L|484:128,1,68.0000012969971
241,207,84219,2,0,L|244:139,1,68.0000012969971
408,68,84492,2,0,L|412:156,1,68.0000012969971
164,252,84765,2,0,L|167:184,1,68.0000012969971
452,220,85038,6,0,B|416:244|372:224|372:224|328:192|268:232|268:232|296:204|300:180|300:180|288:128|288:128|248:124|248:124|236:196|192:212|124:192|116:144|140:112|140:112|184:96|196:76|212:24|196:-24|128:-48|72:-16|64:52|108:76|148:36,1,840.000032043458,0|0,0:0|2:0,2:0:0:0:
146,173,87219,6,0,B|150:221|150:221|138:249|138:249|154:285|142:333|142:333|174:293|238:301|238:301|302:333|341:303|370:253|354:201|310:177|254:177|238:229|282:237,1,540.000020599366
280,116,88583,5,0,0:0:0:0:
376,144,88719,1,0,0:0:0:0:
140,176,88856,2,0,L|224:172,1,60.0000022888184
408,284,89129,2,0,L|320:280,1,60.0000022888184
72,148,89401,6,0,B|136:156|136:156|172:128|172:128|248:172|300:104|300:104|276:176|304:228|368:256|440:236|472:188|468:136|440:84,1,600.000022888184
382,150,90901,5,0,0:0:0:0:
382,150,90969,1,0,0:0:0:0:
382,150,91038,2,0,L|390:234,1,60.0000022888184
160,132,91310,2,0,L|165:72,1,60.0000022888184
446,96,91583,5,0,0:0:0:0:
172,308,92129,5,0,0:0:0:0:
264,112,92538,1,0,0:0:0:0:
264,112,92606,1,0,0:0:0:0:
264,112,92674,1,0,0:0:0:0:
232,196,92810,1,0,0:0:0:0:
172,128,92947,1,0,0:0:0:0:
268,120,93083,1,0,0:0:0:0:
144,216,93219,5,0,0:0:0:0:
84,148,93356,1,0,0:0:0:0:
272,124,93492,2,0,L|344:124,1,60.0000022888184
392,288,93765,5,0,0:0:0:0:
216,44,94038,1,0,0:0:0:0:
512,24,94310,2,0,L|520:156,1,120.000004577637
214,126,94856,6,0,P|262:114|338:126,1,120.000004577637
184,292,95401,2,0,P|136:304|60:292,1,120.000004577637
364,256,95947,5,0,0:0:0:0:
68,220,96219,1,0,0:0:0:0:
268,0,96492,2,0,L|340:28,1,60.0000022888184
448,136,96765,5,0,0:0:0:0:
448,136,96901,1,0,0:0:0:0:
448,136,97038,1,0,0:0:0:0:
216,324,97310,1,0,0:0:0:0:
140,32,97583,1,0,0:0:0:0:
440,232,97856,1,0,0:0:0:0:
104,356,98129,6,0,L|108:220,1,120.000004577637
396,180,98674,2,0,B|368:180|368:180|328:168|328:168|304:176|260:172,1,120.000004577637
132,40,99219,2,0,L|128:108,1,60.0000022888184
204,252,99492,5,0,0:0:0:0:
204,252,99629,1,0,0:0:0:0:
204,252,99765,2,0,L|200:184,1,60.0000022888184
44,108,100038,2,0,L|40:167,1,60.0000022888184
283,240,100310,5,0,0:0:0:0:
283,144,100447,1,0,0:0:0:0:
200,192,100583,1,0,0:0:0:0:
300,260,100719,1,0,0:0:0:0:
202,99,100856,1,0,0:0:0:0:
202,292,100992,1,0,0:0:0:0:
368,196,101129,1,0,0:0:0:0:
188,80,101265,1,0,0:0:0:0:
272,360,101401,5,0,0:0:0:0:
368,108,101538,1,0,0:0:0:0:
368,108,101606,1,0,0:0:0:0:
368,108,101674,1,0,0:0:0:0:
100,148,101810,1,0,0:0:0:0:
392,296,101947,1,0,0:0:0:0:
240,8,102083,1,0,0:0:0:0:
32,256,102219,1,0,0:0:0:0:
416,216,102356,1,0,0:0:0:0:
32,32,102492,6,0,L|24:152,1,103.999995239258
148,304,102765,1,0,0:0:0:0:
216,108,102901,1,0,0:0:0:0:
44,224,103038,2,0,B|92:236|92:236|156:224,1,103.999995239258
340,156,103310,1,0,0:0:0:0:
156,60,103447,5,0,0:0:0:0:
156,60,103515,1,0,0:0:0:0:
156,60,103583,2,0,P|140:124|172:176,1,103.999995239258
328,272,103856,2,0,P|294:215|234:201,1,103.999995239258
64,268,104129,2,0,P|127:284|179:252,1,103.999995239258
256,88,104401,5,0,0:0:0:0:
52,132,104538,1,0,0:0:0:0:
188,288,104674,1,0,0:0:0:0:
184,80,104810,1,0,0:0:0:0:
12,200,104947,2,0,P|60:208|128:164,1,103.999995239258
264,48,105219,1,0,0:0:0:0:
320,248,105356,5,0,0:0:0:0:
328,264,105424,1,0,0:0:0:0:
336,280,105492,2,0,L|220:272,1,103.999995239258
160,55,105765,2,0,L|276:47,1,103.999995239258
384,356,106038,2,0,L|268:348,1,103.999995239258
216,124,106310,2,0,L|332:116,1,103.999995239258
432,292,106583,5,0,0:0:0:0:
248,192,106719,1,0,0:0:0:0:
424,80,106856,1,0,0:0:0:0:
298,264,106992,2,0,B|250:276|250:276|166:256,1,103.999995239258
112,200,107265,1,0,0:0:0:0:
372,200,107401,6,0,L|360:340,1,103.999995239258
424,348,107606,1,0,0:0:0:0:
424,348,107674,1,0,0:0:0:0:
452,144,107810,1,0,0:0:0:0:
248,192,107947,1,0,0:0:0:0:
452,228,108083,1,0,0:0:0:0:
280,116,108219,1,0,0:0:0:0:
284,324,108356,1,0,0:0:0:0:
452,144,108492,2,0,B|404:128|404:128|340:140,1,103.999995239258
120,244,108765,6,0,L|240:256,1,103.999995239258
376,276,109038,1,0,0:0:0:0:
376,276,109174,1,0,0:0:0:0:
208,88,109310,2,0,P|184:140|216:200,1,103.999995239258
440,320,109583,2,0,P|452:270|429:225,1,103.999995239258
197,182,109856,6,0,L|77:186,1,103.999995239258
336,316,110129,2,0,L|456:320,1,103.999995239258
504,364,110333,1,0,0:0:0:0:
504,364,110401,1,0,0:0:0:0:
428,112,110538,1,0,0:0:0:0:
236,284,110674,1,0,0:0:0:0:
496,268,110810,1,0,0:0:0:0:
352,48,110947,5,0,0:0:0:0:
416,268,111083,1,0,0:0:0:0:
416,0,111219,1,0,0:0:0:0:
264,208,111356,2,0,L|392:200,1,103.999995239258
492,192,111629,1,0,0:0:0:0:
292,84,111765,1,0,0:0:0:0:
304,312,111901,5,0,0:0:0:0:
304,312,111969,1,0,0:0:0:0:
304,312,112038,1,0,0:0:0:0:
372,96,112174,1,0,0:0:0:0:
152,152,112310,1,0,0:0:0:0:
364,236,112447,1,0,0:0:0:0:
340,8,112583,1,0,0:0:0:0:
216,200,112719,1,0,0:0:0:0:
444,176,112856,6,0,B|396:160|396:160|316:176,1,103.999995239258
156,300,113129,1,0,0:0:0:0:
372,368,113265,1,0,0:0:0:0:
372,368,113333,1,0,0:0:0:0:
372,368,113401,2,0,L|368:260,1,103.999995239258
248,68,113674,1,0,0:0:0:0:
104,244,113810,5,0,0:0:0:0:
104,244,113879,1,0,0:0:0:0:
104,244,113947,1,0,0:0:0:0:
292,236,114083,1,0,0:0:0:0:
120,168,114219,1,0,0:0:0:0:
252,300,114356,1,0,0:0:0:0:
300,120,114492,1,0,0:0:0:0:
88,160,114629,1,0,0:0:0:0:
360,184,114765,1,0,0:0:0:0:
60,156,114901,1,0,0:0:0:0:
425,233,115038,6,0,P|441:177|417:133,1,103.999995239258
252,60,115310,1,0,0:0:0:0:
380,304,115447,2,0,L|496:304,1,103.999995239258
344,184,115719,2,0,L|228:184,1,103.999995239258
60,232,115992,5,0,0:0:0:0:
60,232,116060,1,0,0:0:0:0:
60,232,116129,2,0,B|48:180|48:180|64:116,1,103.999995239258
344,184,116401,2,0,B|356:233|356:233|344:285,1,103.999995239258
136,232,116674,2,0,B|124:180|124:180|140:116,1,103.999995239258
416,184,116947,2,0,B|428:233|428:233|416:285,1,103.999995239258
92,64,117219,6,0,P|136:48|204:92,1,103.999995239258
252,244,117492,1,0,0:0:0:0:
252,244,117629,1,0,0:0:0:0:
348,24,117765,2,0,B|368:72|368:72|348:156,1,103.999995239258
176,288,118038,6,0,B|163:237|163:237|183:189,1,103.999995239258
240,136,118242,1,0,0:0:0:0:
240,136,118310,1,0,0:0:0:0:
396,348,118447,1,0,0:0:0:0:
136,360,118583,5,0,0:0:0:0:
236,104,118719,1,0,0:0:0:0:
216,364,118856,5,0,0:0:0:0:
156,112,118992,1,0,0:0:0:0:
404,192,119129,5,0,0:0:0:0:
108,180,119265,1,0,0:0:0:0:
380,48,119401,5,0,0:0:0:0:
380,48,119538,1,0,0:0:0:0:
312,256,119674,1,0,0:0:0:0:
312,256,119810,1,0,0:0:0:0:
164,92,119947,1,0,0:0:0:0:
164,92,120083,1,0,0:0:0:0:
380,136,120219,1,0,0:0:0:0:
380,136,120356,1,0,0:0:0:0:
236,300,120492,6,0,B|192:304|192:304|128:280,1,88.000002685547
348,60,120765,2,0,B|392:56|392:56|456:80,1,88.000002685547
224,380,121038,6,0,B|180:384|180:384|116:360,1,88.000002685547
336,140,121311,2,0,B|380:136|380:136|444:160,1,88.000002685547
150,288,121583,1,0,0:0:0:0:
75,88,121719,1,0,0:0:0:0:
254,204,121856,1,0,0:0:0:0:
40,216,121992,1,0,0:0:0:0:
207,81,122129,1,0,0:0:0:0:
74,284,122265,1,0,0:0:0:0:
139,40,122401,1,0,0:0:0:0:
150,288,122538,1,0,0:0:0:0:
68,3,122674,6,0,P|62:52|94:112,1,88.000002685547
223,33,122879,1,0,0:0:0:0:
223,33,122947,2,0,P|174:26|114:58,1,88.000002685547
196,188,123151,1,0,0:0:0:0:
196,188,123219,2,0,P|202:139|170:79,1,88.000002685547
36,164,123424,1,0,0:0:0:0:
36,164,123492,2,0,P|85:170|145:138,1,88.000002685547
332,48,123765,5,0,0:0:0:0:
372,264,123901,1,0,0:0:0:0:
184,48,124038,5,0,0:0:0:0:
400,88,124174,1,0,0:0:0:0:
208,216,124310,5,0,0:0:0:0:
248,0,124446,1,0,0:0:0:0:
376,192,124583,5,0,0:0:0:0:
160,152,124719,1,0,0:0:0:0:
456,152,124856,6,0,P|464:204|448:260,1,88.000002685547
84,196,125129,2,0,P|77:152|85:109,1,88.000002685547
216,222,125333,1,0,0:0:0:0:
216,222,125401,2,0,B|224:266|224:266|216:322,1,88.000002685547
167,157,125606,1,0,0:0:0:0:
167,157,125674,2,0,B|159:113|159:113|167:57,1,88.000002685547
388,72,125947,5,0,0:0:0:0:
388,72,126083,1,0,0:0:0:0:
340,284,126219,1,0,0:0:0:0:
340,284,126356,1,0,0:0:0:0:
316,32,126492,1,0,0:0:0:0:
316,32,126629,1,0,0:0:0:0:
400,232,126765,1,0,0:0:0:0:
400,232,126901,1,0,0:0:0:0:
184,180,127038,5,0,0:0:0:0:
216,179,127106,1,0,0:0:0:0:
246,192,127174,1,0,0:0:0:0:
268,216,127242,1,0,0:0:0:0:
278,247,127310,1,0,0:0:0:0:
273,280,127378,1,0,0:0:0:0:
256,307,127447,1,0,0:0:0:0:
228,325,127515,1,0,0:0:0:0:
196,330,127583,1,0,0:0:0:0:
165,320,127651,1,0,0:0:0:0:
140,299,127719,1,0,0:0:0:0:
127,269,127788,1,0,0:0:0:0:
127,236,127856,2,0,P|152:228|184:232,1,44.0000013427735
356,304,127992,5,0,0:0:0:0:
356,304,128060,1,0,0:0:0:0:
356,304,128129,2,0,L|372:188,1,88.000002685547
104,76,128401,2,0,L|116:163,1,88.000002685547
436,264,128674,2,0,L|452:148,1,88.000002685547
184,36,128946,2,0,L|196:123,1,88.000002685547
376,136,129151,1,0,0:0:0:0:
376,136,129219,2,0,B|332:128|332:128|276:144,1,88.000002685547
96,276,129492,5,0,0:0:0:0:
106,278,129560,1,0,0:0:0:0:
117,279,129628,1,0,0:0:0:0:
128,278,129696,1,0,0:0:0:0:
198,256,129765,5,0,0:0:0:0:
207,250,129833,1,0,0:0:0:0:
216,243,129901,1,0,0:0:0:0:
222,235,129969,1,0,0:0:0:0:
252,172,130038,5,0,0:0:0:0:
254,161,130106,1,0,0:0:0:0:
255,150,130174,1,0,0:0:0:0:
254,140,130242,1,0,0:0:0:0:
232,76,130310,6,0,B|192:68|192:68|132:80,1,88.000002685547
332,216,130583,2,0,B|378:225|378:225|418:217,1,88.000002685547
184,148,130856,2,0,L|84:160,1,88.000002685547
368,296,131129,2,0,L|455:306,1,88.000002685547
184,148,131401,6,0,P|168:184|184:240,1,88.000002685547
328,200,131606,1,0,0:0:0:0:
328,200,131674,2,0,P|292:184|236:200,1,88.000002685547
276,344,131879,1,0,0:0:0:0:
276,344,131947,2,0,P|292:308|276:252,1,88.000002685547
132,292,132151,1,0,0:0:0:0:
132,292,132219,2,0,P|168:308|224:292,1,88.000002685547
436,80,132492,5,0,0:0:0:0:
436,80,132629,1,0,0:0:0:0:
368,336,132765,1,0,0:0:0:0:
368,336,132901,1,0,0:0:0:0:
188,140,133038,1,0,0:0:0:0:
188,140,133174,1,0,0:0:0:0:
436,228,133310,1,0,0:0:0:0:
436,228,133447,1,0,0:0:0:0:
220,376,133583,5,0,0:0:0:0:
220,376,133719,1,0,0:0:0:0:
300,124,133856,1,0,0:0:0:0:
300,124,133992,1,0,0:0:0:0:
492,308,134129,1,0,0:0:0:0:
236,252,134265,1,0,0:0:0:0:
236,252,134333,1,0,0:0:0:0:
236,252,134401,2,0,B|276:240|276:240|336:254,1,88.000002685547
72,360,134674,5,0,0:0:0:0:
212,136,134810,1,0,0:0:0:0:
360,356,134947,1,0,0:0:0:0:
124,240,135083,1,0,0:0:0:0:
352,108,135219,1,0,0:0:0:0:
224,340,135356,1,0,0:0:0:0:
340,88,135492,1,0,0:0:0:0:
288,380,135629,5,0,0:0:0:0:
156,184,135901,5,0,0:0:0:0:
376,172,136038,1,0,0:0:0:0:
152,196,136174,1,0,0:0:0:0:
432,100,136310,5,0,0:0:0:0:
228,240,136583,5,0,0:0:0:0:
196,68,136719,1,0,0:0:0:0:
248,248,136856,1,0,0:0:0:0:
112,60,136992,5,0,0:0:0:0:
403,284,137265,5,0,0:0:0:0:
248,160,137401,1,0,0:0:0:0:
441,204,137538,1,0,0:0:0:0:
317,303,137674,1,0,0:0:0:0:
317,105,137810,1,0,0:0:0:0:
248,248,137947,1,0,0:0:0:0:
403,125,138083,1,0,0:0:0:0:
376,368,138219,5,0,0:0:0:0:
360,212,145856,6,0,P|384:200|392:128,1,80
384,76,146129,1,0,0:0:0:0:
288,284,146265,2,0,L|392:284,1,80
448,280,146538,1,0,0:0:0:0:
272,140,146674,2,0,B|232:132|232:132|180:144,1,80
128,184,146947,1,0,0:0:0:0:
276,360,147083,2,0,B|304:360|304:360|332:368|332:368|368:368,1,80
428,364,147356,1,0,0:0:0:0:
200,244,147492,6,0,P|188:284|212:332,1,80
348,184,147765,2,0,P|359:146|347:108,1,80
104,160,148038,6,0,L|212:172,1,80
264,176,148310,1,0,0:0:0:0:
44,108,148447,2,0,P|24:160|32:192,1,80
72,240,148719,1,0,0:0:0:0:
228,92,148856,2,0,B|184:88|184:88|136:100,1,80
104,160,149129,1,0,0:0:0:0:
296,208,149265,2,0,L|312:112,1,80
316,52,149538,1,0,0:0:0:0:
216,272,149674,5,0,0:0:0:0:
428,160,149810,1,0,0:0:0:0:
232,20,149947,1,0,0:0:0:0:
364,220,150083,1,0,0:0:0:0:
468,4,150219,6,0,L|508:0,5,40
436,72,150629,2,0,L|396:64,1,40
320,136,150765,2,0,L|360:132,3,40
428,160,151038,2,0,L|484:172,1,40
312,208,151174,2,0,L|260:212,3,40
400,232,151447,2,0,L|456:244,1,40
276,284,151583,2,0,L|232:288,3,40
376,304,151856,5,0,0:0:0:0:
196,216,151992,1,0,0:0:0:0:
360,328,152129,1,0,0:0:0:0:
208,184,152265,1,0,0:0:0:0:
440,348,152401,6,0,L|484:336,5,40
288,360,152810,1,0,0:0:0:0:
288,360,152879,1,0,0:0:0:0:
288,360,152947,2,0,L|228:348,3,40
252,276,153219,2,0,L|204:265,1,40
200,196,153356,2,0,L|152:185,3,40
168,112,153629,2,0,L|120:101,1,40
248,128,153765,2,0,L|296:117,1,40
80,168,153901,6,0,B|76:196|80:216|80:216|76:240|76:240|80:272,1,95.9999970703126
140,312,154129,1,0,0:0:0:0:
140,312,154219,2,0,B|172:304|172:304|220:316,3,63.9999980468751
300,352,154583,5,0,0:0:0:0:
314,319,154651,1,0,0:0:0:0:
313,283,154719,1,0,0:0:0:0:
296,252,154787,1,0,0:0:0:0:
267,231,154855,1,0,0:0:0:0:
237,210,154924,1,0,0:0:0:0:
220,178,154992,1,0,0:0:0:0:
219,143,155060,1,0,0:0:0:0:
234,110,155129,5,0,0:0:0:0:
261,87,155197,1,0,0:0:0:0:
296,80,155265,1,0,0:0:0:0:
331,88,155333,1,0,0:0:0:0:
358,111,155401,1,0,0:0:0:0:
373,143,155469,1,0,0:0:0:0:
372,179,155538,1,0,0:0:0:0:
355,210,155606,1,0,0:0:0:0:
326,231,155674,1,0,0:0:0:0:
291,237,155742,1,0,0:0:0:0:
257,227,155810,1,0,0:0:0:0:
230,203,155879,1,0,0:0:0:0:
217,170,155947,1,0,0:0:0:0:
204,144,156015,1,0,0:0:0:0:
180,128,156083,6,0,P|116:96|188:208,1,383.99998828125
296,132,156765,6,0,B|332:120|332:120|372:132|372:132|416:120,2,111.999996582031
276,216,157219,6,0,P|276:268|312:196,1,223.999993164063
324,184,157583,2,0,L|220:184,1,95.9999970703126
112,272,157856,2,0,L|216:272,1,95.9999970703126
368,112,158129,2,0,L|264:112,1,95.9999970703126
88,104,158401,5,0,0:0:0:0:
83,119,158469,1,0,0:0:0:0:
80,135,158537,1,0,0:0:0:0:
80,151,158605,1,0,0:0:0:0:
81,166,158673,1,0,0:0:0:0:
82,181,158742,1,0,0:0:0:0:
81,197,158810,1,0,0:0:0:0:
79,213,158878,1,0,0:0:0:0:
72,228,158947,6,0,B|163:180|164:276|268:212,1,191.999994140625
352,56,159356,1,0,0:0:0:0:
356,60,159424,1,0,0:0:0:0:
360,64,159492,5,0,0:0:0:0:
366,74,159560,1,0,0:0:0:0:
371,85,159628,1,0,0:0:0:0:
374,96,159696,1,0,0:0:0:0:
376,108,159764,5,0,0:0:0:0:
372,123,159833,1,0,0:0:0:0:
372,139,159901,1,0,0:0:0:0:
375,155,159969,1,0,0:0:0:0:
382,169,160037,5,0,0:0:0:0:
389,192,160106,1,0,0:0:0:0:
390,216,160174,1,0,0:0:0:0:
385,239,160242,1,0,0:0:0:0:
376,260,160310,5,0,0:0:0:0:
346,271,160378,1,0,0:0:0:0:
314,270,160446,1,0,0:0:0:0:
286,255,160514,1,0,0:0:0:0:
267,229,160583,5,0,0:0:0:0:
246,201,160651,1,0,0:0:0:0:
213,187,160719,1,0,0:0:0:0:
178,192,160787,1,0,0:0:0:0:
150,214,160855,1,0,0:0:0:0:
134,246,160924,1,0,0:0:0:0:
141,280,160992,1,0,0:0:0:0:
169,303,161060,1,0,0:0:0:0:
204,303,161129,5,0,0:0:0:0:
177,264,161197,1,0,0:0:0:0:
132,248,161265,1,0,0:0:0:0:
86,259,161333,1,0,0:0:0:0:
55,294,161401,5,0,0:0:0:0:
82,332,161469,1,0,0:0:0:0:
126,349,161537,1,0,0:0:0:0:
172,338,161605,1,0,0:0:0:0:
204,303,161674,1,0,0:0:0:0:
234,267,161742,1,0,0:0:0:0:
280,261,161810,1,0,0:0:0:0:
318,288,161878,1,0,0:0:0:0:
327,334,161946,1,0,0:0:0:0:
302,373,162014,1,0,0:0:0:0:
257,385,162083,1,0,0:0:0:0:
216,363,162151,1,0,0:0:0:0:
200,320,162219,6,0,P|197:277|240:224,1,95.9999970703126
472,256,162492,2,0,P|443:287|375:295,1,95.9999970703126
200,152,162765,2,0,P|242:149|296:192,1,95.9999970703126
352,372,163038,2,0,P|320:343|312:275,1,95.9999970703126
380,48,163310,6,0,L|392:164,1,95.9999970703126
132,252,163583,5,0,0:0:0:0:
132,252,163719,1,0,0:0:0:0:
132,252,163856,2,0,L|141:156,1,95.9999970703126
440,220,164129,5,0,0:0:0:0:
440,220,164265,1,0,0:0:0:0:
440,220,164401,2,0,P|396:236|328:192,1,95.9999970703126
80,96,164674,5,0,0:0:0:0:
80,96,164810,1,0,0:0:0:0:
272,160,164947,6,0,L|348:156,7,47.9999985351563
72,172,165492,6,0,L|-4:168,7,47.9999985351563
172,264,166038,5,0,0:0:0:0:
197,303,166106,1,0,0:0:0:0:
243,314,166174,1,0,0:0:0:0:
284,291,166242,1,0,0:0:0:0:
298,246,166310,1,0,0:0:0:0:
312,201,166379,1,0,0:0:0:0:
353,178,166447,1,0,0:0:0:0:
398,189,166515,1,0,0:0:0:0:
424,228,166583,5,0,0:0:0:0:
376,220,166651,1,0,0:0:0:0:
353,178,166719,2,0,P|348:148|360:108,1,47.9999985351563
504,248,166856,5,0,0:0:0:0:
496,296,166924,1,0,0:0:0:0:
454,319,166992,2,0,P|424:324|384:312,1,47.9999985351563
212,244,167129,1,0,0:0:0:0:
360,56,167265,1,0,0:0:0:0:
504,248,167401,1,0,0:0:0:0:
264,260,167538,1,0,0:0:0:0:
419,72,167674,5,0,0:0:0:0:
442,112,167742,1,0,0:0:0:0:
435,159,167810,1,0,0:0:0:0:
400,191,167878,1,0,0:0:0:0:
353,194,167946,1,0,0:0:0:0:
315,167,168014,1,0,0:0:0:0:
301,122,168083,1,0,0:0:0:0:
318,79,168151,1,0,0:0:0:0:
360,56,168219,5,0,0:0:0:0:
358,103,168287,1,0,0:0:0:0:
328,139,168355,1,0,0:0:0:0:
282,150,168423,1,0,0:0:0:0:
239,131,168491,1,0,0:0:0:0:
216,90,168559,1,0,0:0:0:0:
223,43,168628,1,0,0:0:0:0:
257,10,168696,1,0,0:0:0:0:
304,5,168765,5,0,0:0:0:0:
321,48,168833,1,0,0:0:0:0:
302,91,168901,1,0,0:0:0:0:
259,108,168969,1,0,0:0:0:0:
216,90,169037,1,0,0:0:0:0:
173,71,169106,1,0,0:0:0:0:
129,88,169174,1,0,0:0:0:0:
110,131,169242,1,0,0:0:0:0:
127,175,169310,5,0,0:0:0:0:
172,196,169379,1,0,0:0:0:0:
220,184,169447,2,0,P|248:176|268:156,1,47.9999985351563
36,80,169583,5,0,0:0:0:0:
15,125,169652,1,0,0:0:0:0:
27,173,169720,2,0,P|35:201|55:221,1,47.9999985351563
366,252,169856,5,0,0:0:0:0:
349,205,169925,1,0,0:0:0:0:
306,179,169993,2,0,P|280:164|252:164,1,47.9999985351563
212,256,170129,2,0,P|235:252|255:240,1,47.9999985351563
292,148,170265,6,0,P|266:133|238:133,1,47.9999985351563
216,276,170401,2,0,P|239:272|259:260,1,47.9999985351563
280,120,170538,6,0,P|254:105|226:105,1,47.9999985351563
220,296,170674,2,0,P|243:292|263:280,1,47.9999985351563
268,96,170810,6,0,P|242:81|214:81,1,47.9999985351563
224,316,170947,6,0,P|247:312|267:300,1,47.9999985351563
260,76,171083,2,0,P|234:61|206:61,1,47.9999985351563
228,336,171219,6,0,P|251:332|271:320,1,47.9999985351563
252,52,171356,2,0,P|226:37|198:37,1,47.9999985351563
40,192,171492,5,0,0:0:0:0:
85,207,171560,1,0,0:0:0:0:
133,202,171628,1,0,0:0:0:0:
174,178,171697,1,0,0:0:0:0:
223,185,171765,1,0,0:0:0:0:
257,217,171833,1,0,0:0:0:0:
298,208,171901,1,0,0:0:0:0:
346,203,171969,1,0,0:0:0:0:
391,217,172038,6,0,L|404:364,1,120.000004577637
328,360,172447,1,0,0:0:0:0:
468,180,172583,2,0,L|481:327,1,120.000004577637
232,120,172992,2,0,B|268:108|268:108|308:120|308:120|368:108,1,120.000004577637
176,180,173401,2,0,P|156:148|156:108,1,60.0000022888184
416,80,173674,2,0,B|424:108|424:108|420:152,1,60.0000022888184
336,204,173947,1,0,0:0:0:0:
480,36,174083,6,0,B|500:92|500:92|496:168,1,120.000004577637
360,276,174492,2,0,P|320:280|288:256,1,60.0000022888184
208,140,174765,2,0,L|216:228,1,60.0000022888184
272,344,175038,5,0,0:0:0:0:
250,338,175106,1,0,0:0:0:0:
228,333,175174,1,0,0:0:0:0:
206,327,175242,1,0,0:0:0:0:
184,320,175310,2,0,L|108:300,1,60.0000022888184
331,145,175583,2,0,P|339:189|331:213,1,60.0000022888184
144,188,175856,1,0,0:0:0:0:
200,60,175992,1,0,0:0:0:0:
268,180,176129,2,0,B|240:192|240:192|200:188,1,60.0000022888184
312,56,176401,6,0,B|372:32|372:80|448:44,1,120.000004577637
496,16,176810,1,0,0:0:0:0:
348,224,176947,2,0,P|320:176|344:120,1,120.000004577637
488,192,177356,2,0,L|496:320,1,120.000004577637
232,264,177765,2,0,P|224:232|232:188,1,60.0000022888184
343,120,178038,5,0,0:0:0:0:
156,96,178174,1,0,0:0:0:0:
133,98,178242,1,0,0:0:0:0:
114,109,178310,1,0,0:0:0:0:
101,127,178378,1,0,0:0:0:0:
96,148,178447,2,0,L|92:288,1,120.000004577637
228,168,178856,2,0,B|200:160|200:160|152:168,1,60.0000022888184
312,256,179129,2,0,B|342:261|342:261|370:253,1,60.0000022888184
452,160,179401,1,0,0:0:0:0:
452,160,179538,1,0,0:0:0:0:
228,264,179674,5,0,0:0:0:0:
364,328,179810,1,0,0:0:0:0:
336,180,179947,1,0,0:0:0:0:
284,320,180083,1,0,0:0:0:0:
432,292,180219,2,0,L|488:280,2,40.000001525879
303,246,180492,2,0,P|267:206|267:158,1,90.0000034332277
336,180,180765,6,0,L|200:164,1,120.000004577637
140,156,181174,1,0,0:0:0:0:
304,12,181310,2,0,P|356:25|380:92,1,120.000004577637
193,84,181719,2,0,L|329:80,1,120.000004577637
140,156,182129,2,0,L|56:156,1,60.0000022888184
264,148,182401,2,0,B|272:180|272:180|264:228,2,60.0000022888184
91,38,182810,6,0,B|76:78|76:78|80:158,1,120.000004577637
60,261,183219,2,0,P|99:264|139:247,1,60.0000022888184
240,76,183492,2,0,P|279:73|319:90,1,60.0000022888184
416,208,183765,5,0,0:0:0:0:
418,230,183833,1,0,0:0:0:0:
420,252,183901,1,0,0:0:0:0:
423,275,183969,1,0,0:0:0:0:
425,297,184038,2,0,P|377:301|345:281,1,60.0000022888184
280,180,184310,2,0,P|316:211|325:247,1,60.0000022888184
252,332,184583,6,0,P|268:306|292:292,2,40.000001525879
188,240,184856,6,0,P|212:237|240:244,2,40.000001525879
144,340,185129,6,0,P|112:344|52:280,1,120.000004577637
40,208,185538,1,0,0:0:0:0:
244,268,185674,2,0,L|120:268,1,120.000004577637
216,80,186083,2,0,B|236:124|236:124|228:208,1,120.000004577637
104,156,186492,2,0,P|144:140|176:144,1,60.0000022888184
344,192,186765,1,0,0:0:0:0:
244,36,186901,5,0,0:0:0:0:
241,58,186969,1,0,0:0:0:0:
239,80,187037,1,0,0:0:0:0:
236,104,187105,1,0,0:0:0:0:
232,124,187174,2,0,B|280:116|280:116|304:124|304:124|360:116,1,120.000004577637
480,24,187583,2,0,P|488:48|480:96,1,60.0000022888184
338,250,187856,2,0,P|335:220|343:191,1,60.0000022888184
472,268,188129,5,0,0:0:0:0:
479,296,188197,1,0,0:0:0:0:
471,325,188265,1,0,0:0:0:0:
450,346,188333,1,0,0:0:0:0:
422,355,188401,2,0,L|344:348,1,60.0000022888184
194,210,188674,1,0,0:0:0:0:
338,250,188810,1,0,0:0:0:0:
232,356,188947,2,0,L|160:356,1,60.0000022888184
51,170,189219,1,0,0:0:0:0:
194,210,189355,1,0,0:0:0:0:
48,320,189492,5,0,0:0:0:0:
132,160,189629,1,0,0:0:0:0:
100,376,189765,1,0,0:0:0:0:
84,88,189901,6,0,P|139:73|214:139,1,160
127,328,190310,2,0,L|18:317,1,80
272,192,190583,2,0,L|381:181,1,80
88,248,190856,2,0,L|-21:237,1,80
233,112,191129,2,0,L|342:101,1,80
172,252,191401,2,0,P|152:208|164:156,1,80
428,164,191674,2,0,P|428:203|410:238,1,80
320,264,191947,1,0,0:0:0:0:
496,112,192083,6,0,B|512:167|512:167|496:208|496:208|512:272,1,160
252,304,192492,2,0,P|240:256|256:216,1,80
384,128,192765,2,0,P|358:170|318:187,1,80
172,136,193038,2,0,P|219:124|260:140,1,80
399,267,193310,2,0,L|311:263,1,80
96,216,193583,2,0,L|184:212,1,80
248,227,193788,1,0,0:0:0:0:
248,227,193856,1,0,0:0:0:0:
88,112,193992,1,0,0:0:0:0:
40,308,194129,1,0,0:0:0:0:
324,176,194265,6,0,B|284:144|284:144|164:144,1,160
40,308,194674,1,0,0:0:0:0:
40,308,194810,1,0,0:0:0:0:
248,227,194947,1,0,0:0:0:0:
248,227,195083,1,0,0:0:0:0:
80,88,195219,1,0,0:0:0:0:
80,88,195356,1,0,0:0:0:0:
152,296,195492,5,0,0:0:0:0:
152,296,195629,1,0,0:0:0:0:
304,128,195765,1,0,0:0:0:0:
304,128,195901,1,0,0:0:0:0:
88,204,196038,1,0,0:0:0:0:
88,204,196174,1,0,0:0:0:0:
268,344,196310,1,0,0:0:0:0:
312,52,196447,6,0,P|241:78|235:162,1,160
372,296,196856,2,0,L|456:296,1,80
304,128,197129,2,0,B|264:120|264:120|192:136,1,80
140,188,197401,1,0,0:0:0:0:
404,188,197538,2,0,L|408:88,1,80
416,4,197810,1,0,0:0:0:0:
362,261,197947,2,0,P|402:273|458:249,1,80
320,32,198219,5,0,0:0:0:0:
260,264,198356,1,0,0:0:0:0:
488,196,198492,1,0,0:0:0:0:
184,144,198629,6,0,B|168:180|168:180|180:216|180:216|160:252|176:308,1,160
337,271,198969,1,0,0:0:0:0:
337,271,199038,2,0,P|285:259|233:275,1,80
20,356,199310,2,0,P|59:359|97:348,1,80
263,147,199583,2,0,L|183:143,1,80
296,360,199856,2,0,L|376:356,1,80
116,104,200129,2,0,B|108:144|108:144|116:192,1,80
341,276,200401,2,0,B|347:237|347:237|339:197,1,80
183,143,200674,1,0,0:0:0:0:
288,333,200810,6,0,P|350:355|416:291,1,160
448,132,201219,1,0,0:0:0:0:
448,132,201356,1,0,0:0:0:0:
248,144,201492,2,0,L|240:244,1,80
420,304,201765,5,0,0:0:0:0:
420,304,201901,1,0,0:0:0:0:
292,80,202038,2,0,P|224:72|196:84,1,80
169,264,202310,1,0,0:0:0:0:
186,283,202378,1,0,0:0:0:0:
209,296,202446,1,0,0:0:0:0:
235,301,202514,1,0,0:0:0:0:
262,297,202582,1,0,0:0:0:0:
285,284,202650,1,0,0:0:0:0:
303,265,202719,1,0,0:0:0:0:
313,240,202787,1,0,0:0:0:0:
315,214,202855,1,0,0:0:0:0:
308,188,202923,1,0,0:0:0:0:
293,166,202991,1,0,0:0:0:0:
272,151,203060,1,0,0:0:0:0:
248,144,203129,6,0,L|136:144,1,103.999995239258
372,296,203401,1,0,0:0:0:0:
372,296,203469,1,0,0:0:0:0:
372,296,203538,2,0,L|484:296,1,103.999995239258
72,100,203810,2,0,P|56:156|104:216,1,103.999995239258
152,244,204015,1,0,0:0:0:0:
152,244,204083,1,0,0:0:0:0:
332,56,204219,5,0,0:0:0:0:
144,144,204356,1,0,0:0:0:0:
316,256,204492,1,0,0:0:0:0:
316,256,204560,1,0,0:0:0:0:
316,256,204629,1,0,0:0:0:0:
200,84,204765,1,0,0:0:0:0:
200,84,204833,1,0,0:0:0:0:
200,84,204901,1,0,0:0:0:0:
96,300,205038,6,0,B|144:320|144:320|208:308,1,103.999995239258
416,84,205310,1,0,0:0:0:0:
416,84,205379,1,0,0:0:0:0:
416,84,205447,2,0,B|368:64|368:64|304:76,1,103.999995239258
36,228,205719,2,0,L|156:224,1,103.999995239258
216,200,205924,1,0,0:0:0:0:
216,200,205992,1,0,0:0:0:0:
24,116,206129,5,0,0:0:0:0:
128,296,206265,1,0,0:0:0:0:
228,116,206401,1,0,0:0:0:0:
228,116,206469,1,0,0:0:0:0:
228,116,206538,1,0,0:0:0:0:
36,228,206674,1,0,0:0:0:0:
36,228,206742,1,0,0:0:0:0:
36,228,206810,1,0,0:0:0:0:
232,336,206947,1,0,0:0:0:0:
232,336,207015,1,0,0:0:0:0:
232,336,207083,1,0,0:0:0:0:
176,52,207219,6,0,P|148:108|164:160,1,103.999995239258
440,324,207492,1,0,0:0:0:0:
440,324,207560,1,0,0:0:0:0:
440,324,207629,2,0,P|446:273|419:229,1,103.999995239258
128,256,207901,2,0,L|248:268,1,103.999995239258
304,232,208106,1,0,0:0:0:0:
304,232,208174,1,0,0:0:0:0:
60,176,208310,5,0,0:0:0:0:
196,336,208447,1,0,0:0:0:0:
264,140,208583,1,0,0:0:0:0:
264,140,208651,1,0,0:0:0:0:
264,140,208719,1,0,0:0:0:0:
56,264,208856,1,0,0:0:0:0:
56,264,208924,1,0,0:0:0:0:
56,264,208992,1,0,0:0:0:0:
344,192,209129,6,0,B|352:140|352:140|340:76,1,103.999995239258
63,166,209401,1,0,0:0:0:0:
63,166,209469,1,0,0:0:0:0:
63,166,209538,2,0,B|53:216|53:216|61:268,1,103.999995239258
345,294,209810,2,0,B|353:242|353:242|343:191,1,103.999995239258
272,148,210015,1,0,0:0:0:0:
272,148,210083,1,0,0:0:0:0:
276,368,210219,5,0,0:0:0:0:
448,248,210356,1,0,0:0:0:0:
240,248,210492,1,0,0:0:0:0:
240,248,210560,1,0,0:0:0:0:
240,248,210629,1,0,0:0:0:0:
460,336,210765,1,0,0:0:0:0:
436,100,210901,1,0,0:0:0:0:
244,252,211038,1,0,0:0:0:0:
512,264,211174,1,0,0:0:0:0:
176,196,211310,5,0,0:0:0:0:
162,218,211378,1,0,0:0:0:0:
156,243,211446,1,0,0:0:0:0:
157,269,211514,1,0,0:0:0:0:
166,293,211582,1,0,0:0:0:0:
182,314,211650,1,0,0:0:0:0:
204,328,211719,1,0,0:0:0:0:
208,116,211992,5,0,0:0:0:0:
182,116,212060,1,0,0:0:0:0:
156,116,212128,1,0,0:0:0:0:
130,116,212196,1,0,0:0:0:0:
104,116,212264,1,0,0:0:0:0:
328,192,212538,5,0,0:0:0:0:
352,192,212606,1,0,0:0:0:0:
376,192,212674,1,0,0:0:0:0:
352,212,212947,5,0,0:0:0:0:
376,212,213015,1,0,0:0:0:0:
400,212,213083,1,0,0:0:0:0:
256,116,213219,5,0,0:0:0:0:
232,116,213287,1,0,0:0:0:0:
208,116,213355,1,0,0:0:0:0:
464,276,213492,5,0,0:0:0:0:
478,254,213560,1,0,0:0:0:0:
486,229,213628,1,0,0:0:0:0:
487,204,213696,1,0,0:0:0:0:
480,179,213764,1,0,0:0:0:0:
466,157,213832,1,0,0:0:0:0:
448,140,213901,1,0,0:0:0:0:
192,264,214174,5,0,0:0:0:0:
167,272,214242,1,0,0:0:0:0:
141,270,214310,1,0,0:0:0:0:
119,257,214378,1,0,0:0:0:0:
104,236,214446,1,0,0:0:0:0:
312,220,214719,5,0,0:0:0:0:
320,244,214788,1,0,0:0:0:0:
316,268,214856,1,0,0:0:0:0:
280,192,215129,5,0,0:0:0:0:
288,216,215198,1,0,0:0:0:0:
284,240,215266,1,0,0:0:0:0:
104,236,215401,5,0,0:0:0:0:
100,212,215469,1,0,0:0:0:0:
108,188,215538,1,0,0:0:0:0:
264,80,215674,5,0,0:0:0:0:
289,78,215742,1,0,0:0:0:0:
315,77,215810,1,0,0:0:0:0:
341,76,215878,1,0,0:0:0:0:
367,75,215946,1,0,0:0:0:0:
393,74,216014,1,0,0:0:0:0:
419,73,216083,1,0,0:0:0:0:
284,240,216356,5,0,0:0:0:0:
258,238,216424,1,0,0:0:0:0:
232,237,216492,1,0,0:0:0:0:
206,236,216560,1,0,0:0:0:0:
180,235,216628,1,0,0:0:0:0:
388,208,216901,5,0,0:0:0:0:
396,232,216969,1,0,0:0:0:0:
392,260,217038,1,0,0:0:0:0:
352,172,217310,5,0,0:0:0:0:
360,196,217378,1,0,0:0:0:0:
356,224,217447,1,0,0:0:0:0:
176,156,217583,5,0,0:0:0:0:
172,128,217652,1,0,0:0:0:0:
180,104,217720,1,0,0:0:0:0:
392,296,217856,5,0,0:0:0:0:
367,304,217924,1,0,0:0:0:0:
341,305,217992,1,0,0:0:0:0:
317,296,218060,1,0,0:0:0:0:
296,281,218128,1,0,0:0:0:0:
282,259,218196,1,0,0:0:0:0:
276,234,218265,1,0,0:0:0:0:
472,260,218538,5,0,0:0:0:0:
481,284,218606,1,0,0:0:0:0:
482,310,218674,1,0,0:0:0:0:
473,334,218742,1,0,0:0:0:0:
458,355,218810,1,0,0:0:0:0:
240,88,218947,5,0,0:0:0:0:
404,300,219083,1,0,0:0:0:0:
132,144,219219,5,0,0:0:0:0:
392,140,219356,1,0,0:0:0:0:
160,256,219492,5,0,0:0:0:0:
312,44,219629,1,0,0:0:0:0:
320,344,219765,5,0,0:0:0:0:
132,144,219901,1,0,0:0:0:0:
444,78,220038,6,0,P|476:150|412:218,1,160
236,142,220447,6,0,B|292:130|292:130|336:146|336:146|404:138,1,160
176,204,220856,6,0,P|144:136|192:68,1,160
264,276,221265,6,0,L|92:280,1,160
396,224,221674,6,0,P|413:285|336:264,1,160
272,88,222083,6,0,B|392:72|392:72|332:96,1,160
216,152,222492,6,0,B|160:152|160:152|116:176|116:176|52:172,1,160
272,88,222901,6,0,P|304:148|256:228,1,160
40,236,223310,6,0,L|50:76,1,160
264,224,223719,6,0,B|188:244|188:244|104:196,1,160
352,168,224129,2,0,B|372:224|344:284|344:284|352:256|340:232,1,160
304,80,224538,6,0,B|356:72|356:72|408:88|408:88|468:80,1,160
250,145,224947,6,0,P|214:85|262:9,1,160
460,80,225356,6,0,L|468:180,1,80
476,264,225629,1,0,0:0:0:0:
248,254,225765,6,0,P|228:198|272:126,1,120
372,180,226038,2,0,B|398:198|398:198|310:198,1,120
152,198,226310,2,0,B|64:198|64:198|90:179,1,120
248,68,226583,5,0,0:0:0:0:
228,200,226719,1,0,0:0:0:0:
128,116,226856,1,0,0:0:0:0:
320,36,226992,2,0,B|328:72|328:72|316:128,1,88.000002685547
204,132,227265,1,0,0:0:0:0:
288,4,227401,2,0,L|392:0,1,88.000002685547
452,44,227674,1,0,0:0:0:0:
204,132,227810,2,0,L|92:132,1,88.000002685547
28,132,228083,1,0,0:0:0:0:
288,96,228219,6,0,P|296:148|272:188,1,88.000002685547
204,220,228492,1,0,0:0:0:0:
150,68,228629,2,0,P|192:99|203:144,1,88.000002685547
204,220,228901,1,0,0:0:0:0:
352,320,229038,2,0,P|335:280|298:256,1,88.000002685547
204,220,229310,1,0,0:0:0:0:
40,276,229447,2,0,P|71:233|116:222,1,88.000002685547
204,220,229719,1,0,0:0:0:0:
324,24,229856,6,0,B|284:12|284:12|232:24,2,88.000002685547
412,228,230265,2,0,B|457:238|457:238|497:226,2,88.000002685547
236,176,230674,2,0,B|224:216|224:216|236:268,2,88.000002685547
480,88,231083,2,0,B|490:42|490:42|478:2,2,88.000002685547
312,224,231492,5,0,0:0:0:0:
312,224,231629,1,0,0:0:0:0:
312,224,231765,1,0,0:0:0:0:
132,100,231901,5,0,0:0:0:0:
132,100,232038,1,0,0:0:0:0:
132,100,232174,1,0,0:0:0:0:
104,317,232310,5,0,0:0:0:0:
255,165,232447,1,0,0:0:0:0:
43,198,232583,1,0,0:0:0:0:
234,295,232719,1,0,0:0:0:0:
137,105,232856,1,0,0:0:0:0:
16,276,232992,1,0,0:0:0:0:
342,351,233129,6,0,B|374:287|334:231|334:231|350:195|330:159,1,200
234,295,233947,6,0,L|486:291,1,239.999992675781
238,40,234765,6,0,B|233:88|209:117|209:117|206:183|251:212|251:212|254:264|222:316,1,279.999991455078
64,172,235583,6,0,B|124:136|124:136|212:160|212:160|288:104|376:144,1,320
440,244,236401,6,0,L|328:252,1,80
432,264,236810,6,0,L|320:275,1,111.999996582031
424,284,237219,6,0,L|296:297,1,128
416,304,237629,6,0,L|272:318,1,143.999995605469
88,200,238038,5,0,0:0:0:0:
72,159,238106,1,0,0:0:0:0:
78,116,238174,1,0,0:0:0:0:
103,80,238242,1,0,0:0:0:0:
143,61,238310,1,0,0:0:0:0:
186,63,238378,1,0,0:0:0:0:
223,86,238447,1,0,0:0:0:0:
246,123,238515,1,0,0:0:0:0:
248,166,238583,1,0,0:0:0:0:
249,209,238651,1,0,0:0:0:0:
272,246,238719,1,0,0:0:0:0:
309,269,238788,1,0,0:0:0:0:
353,271,238856,1,0,0:0:0:0:
392,252,238924,1,0,0:0:0:0:
417,216,238992,1,0,0:0:0:0:
423,173,239060,1,0,0:0:0:0:
408,132,239129,6,0,B|364:116|364:116|308:120,1,95.9999970703126
132,304,239401,2,0,B|181:307|181:307|225:291,1,95.9999970703126
420,64,239674,2,0,B|376:48|376:48|320:52,1,95.9999970703126
124,232,239947,2,0,B|173:235|173:235|217:219,1,95.9999970703126
88,32,240219,6,0,L|76:152,1,95.9999970703126
300,300,240492,2,0,L|290:204,1,95.9999970703126
12,16,240765,2,0,L|0:136,1,95.9999970703126
226,315,241038,2,0,L|216:219,1,95.9999970703126
164,24,241310,5,0,0:0:0:0:
112,248,241447,1,0,0:0:0:0:
240,24,241583,5,0,0:0:0:0:
188,248,241719,1,0,0:0:0:0:
88,24,241856,5,0,0:0:0:0:
264,252,241992,1,0,0:0:0:0:
48,88,242129,5,0,0:0:0:0:
316,196,242265,1,0,0:0:0:0:
28,160,242401,6,0,P|12:216|44:276,1,95.9999970703126
240,180,242606,1,0,0:0:0:0:
240,180,242674,2,0,P|250:133|234:89,1,95.9999970703126
84,212,242879,1,0,0:0:0:0:
84,212,242947,2,0,P|130:222|174:206,1,95.9999970703126
276,20,243151,1,0,0:0:0:0:
276,20,243219,2,0,P|229:9|185:25,1,95.9999970703126
384,208,243492,6,0,L|500:200,1,95.9999970703126
168,136,243765,2,0,L|72:129,1,95.9999970703126
396,280,244038,2,0,L|512:272,1,95.9999970703126
174,206,244310,2,0,L|78:199,1,95.9999970703126
384,208,244583,6,0,P|396:164|348:104,1,95.9999970703126
174,206,244856,2,0,P|153:248|165:293,1,95.9999970703126
328,260,245060,1,0,0:0:0:0:
328,260,245129,2,0,L|196:256,1,95.9999970703126
68,364,245333,1,0,0:0:0:0:
68,364,245402,2,0,L|200:360,1,95.9999970703126
463,294,245674,5,0,0:0:0:0:
298,129,245810,1,0,0:0:0:0:
334,359,245947,1,0,0:0:0:0:
439,151,246083,1,0,0:0:0:0:
232,257,246219,5,0,0:0:0:0:
453,185,246356,1,0,0:0:0:0:
232,113,246492,1,0,0:0:0:0:
369,302,246628,1,0,0:0:0:0:
366,67,246765,5,0,0:0:0:0:
347,32,246833,1,0,0:0:0:0:
312,13,246901,1,0,0:0:0:0:
273,14,246969,1,0,0:0:0:0:
240,37,247037,1,0,0:0:0:0:
225,73,247105,1,0,0:0:0:0:
231,112,247174,1,0,0:0:0:0:
237,151,247242,1,0,0:0:0:0:
221,187,247310,1,0,0:0:0:0:
189,209,247378,1,0,0:0:0:0:
149,211,247446,1,0,0:0:0:0:
115,192,247514,1,0,0:0:0:0:
96,157,247583,2,0,L|88:56,1,95.9999970703126
440,224,247856,6,0,P|404:236|336:212,1,95.9999970703126
225,73,248129,2,0,P|258:89|290:155,1,95.9999970703126
240,328,248401,2,0,P|228:292|252:224,1,95.9999970703126
508,176,248674,2,0,P|521:221|509:267,1,95.9999970703126
168,316,248947,5,0,0:0:0:0:
159,310,249015,1,0,0:0:0:0:
151,303,249083,1,0,0:0:0:0:
143,294,249151,1,0,0:0:0:0:
110,229,249220,5,0,0:0:0:0:
107,219,249288,1,0,0:0:0:0:
106,207,249356,1,0,0:0:0:0:
107,197,249424,1,0,0:0:0:0:
131,132,249493,5,0,0:0:0:0:
137,122,249561,1,0,0:0:0:0:
144,114,249629,1,0,0:0:0:0:
152,108,249697,1,0,0:0:0:0:
208,64,249765,6,0,L|328:68,1,95.9999970703126
509,267,250038,2,0,B|465:279|465:279|405:267,1,95.9999970703126
107,197,250310,6,0,B|156:187|156:187|200:199,1,95.9999970703126
511,336,250583,2,0,B|467:348|467:348|407:336,1,95.9999970703126
109,266,250855,2,0,B|158:256|158:256|202:268,1,95.9999970703126
452,224,251129,2,0,P|464:188|432:120,1,95.9999970703126
292,188,251333,1,0,0:0:0:0:
292,188,251401,2,0,P|328:200|396:168,1,95.9999970703126
328,36,251606,1,0,0:0:0:0:
328,36,251674,2,0,P|316:72|348:140,1,95.9999970703126
488,72,251879,1,0,0:0:0:0:
488,72,251947,2,0,P|452:60|384:92,1,95.9999970703126
188,308,252219,5,0,0:0:0:0:
188,308,252356,1,0,0:0:0:0:
72,20,252492,5,0,0:0:0:0:
72,20,252629,1,0,0:0:0:0:
380,68,252765,5,0,0:0:0:0:
380,68,252901,1,0,0:0:0:0:
260,356,253038,5,0,0:0:0:0:
260,356,253174,1,0,0:0:0:0:
176,56,253310,5,0,0:0:0:0:
176,56,253447,1,0,0:0:0:0:
480,128,253583,5,0,0:0:0:0:
480,128,253719,1,0,0:0:0:0:
192,248,253856,6,0,P|136:248|100:200,1,103.999995239258
320,248,254060,1,0,0:0:0:0:
320,248,254129,6,0,P|376:248|412:200,1,103.999995239258
256,32,254401,5,0,0:0:0:0:
256,344,254538,1,0,0:0:0:0:
256,32,254674,5,0,0:0:0:0:
256,344,254810,1,0,0:0:0:0:
104,68,254947,5,0,0:0:0:0:
408,68,255083,1,0,0:0:0:0:
104,68,255219,5,0,0:0:0:0:
408,68,255355,1,0,0:0:0:0:
140,241,255492,1,0,0:0:0:0:
391,265,255628,1,0,0:0:0:0:
203,97,255765,1,0,0:0:0:0:
256,344,255901,1,0,0:0:0:0:
358,113,256038,1,0,0:0:0:0:
358,364,256310,5,0,0:0:0:0:
358,113,256447,1,0,0:0:0:0:
232,238,256583,1,0,0:0:0:0:
483,238,256719,1,0,0:0:0:0:
496,248,256992,5,0,0:0:0:0:
278,122,257128,1,0,0:0:0:0:
449,76,257264,1,0,0:0:0:0:
324,294,257401,1,0,0:0:0:0:
312,304,257674,5,0,0:0:0:0:
186,86,257810,1,0,0:0:0:0:
140,257,257946,1,0,0:0:0:0:
358,132,258083,1,0,0:0:0:0:
232,350,258219,1,0,0:0:0:0:
186,86,258356,1,0,0:0:0:0:
424,160,258492,1,0,0:0:0:0:
236,328,258629,1,0,0:0:0:0:
488,120,258765,5,0,0:0:0:0:
