osu file format v14

[General]
AudioFilename: Silent Voyage to Eternity.mp3
AudioLeadIn: 0
PreviewTime: 135313
Countdown: 0
SampleSet: Normal
StackLeniency: 0.4
Mode: 1
LetterboxInBreaks: 0
WidescreenStoryboard: 1

[Editor]
Bookmarks: 11299,33887,45181,67769,112946,124240,170652,170828,171063,171181,171357,171446,171622,171799,171975,172240,224475,251299,273887,276710
DistanceSpacing: 0.1
BeatDivisor: 4
GridSize: 32
TimelineZoom: 2.4

[Metadata]
Title:Haru no Minato ni ~ Silent Voyage to Eternity
TitleUnicode:春の湊に ~ Silent Voyage to Eternity
Artist:Demetori
ArtistUnicode:Demetori
Creator:GoldenWolf
Version:A Tiny, Tiny, Clever Commander
Source:東方星蓮船 ~ Undefined Fantastic Object.
Tags:Nazrin Undefined Fantastic Object UFO Stage 1 Theme At the End of the Spring 曼衍珠汝華 ~ Nada Upasana Pundarika Metal ZUN woof
BeatmapID:2051385
BeatmapSetID:726280

[Difficulty]
HPDrainRate:5
CircleSize:2
OverallDifficulty:6
ApproachRate:10
SliderMultiplier:1.4
SliderTickRate:1

[Events]
//Background and Video events
0,0,"orz92.jpg",0,140
//Break Periods
//Storyboard Layer 0 (Background)
//Storyboard Layer 1 (Fail)
//Storyboard Layer 2 (Pass)
//Storyboard Layer 3 (Foreground)
//Storyboard Sound Samples

[TimingPoints]
5,352.941176470588,4,1,0,80,1,0
79063,-100,4,1,0,80,0,1
101652,-100,4,1,0,80,0,0
135534,-100,4,1,0,80,0,1
158122,-100,4,1,0,80,0,0
163769,-90.9090909090909,4,1,0,80,0,0
189181,-90.9090909090909,4,1,0,80,0,1
214063,-93.0232558139535,4,1,0,80,0,1
214240,-95.2380952380952,4,1,0,80,0,1
214416,-97.5609756097561,4,1,0,80,0,1
214593,-100,4,1,0,80,0,0
225887,-100,4,1,0,80,0,1
248475,-100,4,1,0,80,0,0

[Colours]
Combo1 : 200,180,200
Combo2 : 130,150,190
Combo3 : 170,150,170
Combo4 : 160,180,220

[HitObjects]
256,192,5,5,12,0:0:0:0:
256,192,181,1,0,0:0:0:0:
256,192,357,1,0,0:0:0:0:
256,192,534,1,12,0:0:0:0:
256,192,710,1,0,0:0:0:0:
256,192,887,1,0,0:0:0:0:
256,192,1063,1,12,0:0:0:0:
256,192,1240,1,0,0:0:0:0:
256,192,1416,1,0,0:0:0:0:
256,192,1593,1,4,0:0:0:0:
256,192,1769,1,0,0:0:0:0:
256,192,1946,1,0,0:0:0:0:
256,192,2122,1,4,0:0:0:0:
256,192,2299,1,0,0:0:0:0:
256,192,2475,1,0,0:0:0:0:
256,192,2652,1,0,0:0:0:0:
256,192,2828,1,12,0:0:0:0:
256,192,3004,1,0,0:0:0:0:
256,192,3181,1,0,0:0:0:0:
256,192,3357,1,12,0:0:0:0:
256,192,3534,1,0,0:0:0:0:
256,192,3710,1,0,0:0:0:0:
256,192,3887,1,4,0:0:0:0:
256,192,4063,1,0,0:0:0:0:
256,192,4240,1,0,0:0:0:0:
256,192,4416,1,8,0:0:0:0:
256,192,4769,1,0,0:0:0:0:
256,192,4946,1,0,0:0:0:0:
256,192,5004,1,8,0:0:0:0:
256,192,5063,1,8,0:0:0:0:
256,192,5122,1,0,0:0:0:0:
256,192,5210,1,0,0:0:0:0:
256,192,5299,1,8,0:0:0:0:
256,192,5357,1,8,0:0:0:0:
256,192,5416,1,8,0:0:0:0:
256,192,5475,1,0,0:0:0:0:
256,192,5563,1,0,0:0:0:0:
256,192,5652,1,12,0:0:0:0:
256,192,5828,1,0,0:0:0:0:
256,192,6004,1,0,0:0:0:0:
256,192,6181,1,12,0:0:0:0:
256,192,6357,1,0,0:0:0:0:
256,192,6534,1,0,0:0:0:0:
256,192,6710,1,12,0:0:0:0:
256,192,6887,1,0,0:0:0:0:
256,192,7063,1,0,0:0:0:0:
256,192,7240,1,4,0:0:0:0:
256,192,7416,1,0,0:0:0:0:
256,192,7593,1,0,0:0:0:0:
256,192,7769,1,4,0:0:0:0:
256,192,7946,1,0,0:0:0:0:
256,192,8122,1,0,0:0:0:0:
256,192,8299,1,0,0:0:0:0:
256,192,8475,1,12,0:0:0:0:
256,192,8652,1,0,0:0:0:0:
256,192,8828,1,0,0:0:0:0:
256,192,9004,1,12,0:0:0:0:
256,192,9181,1,0,0:0:0:0:
256,192,9357,1,0,0:0:0:0:
256,192,9534,1,0,0:0:0:0:
256,192,9710,1,0,0:0:0:0:
256,192,9886,1,8,0:0:0:0:
256,192,10063,1,8,0:0:0:0:
256,192,10240,1,8,0:0:0:0:
256,192,10416,1,8,0:0:0:0:
256,192,10593,1,8,0:0:0:0:
256,192,10681,1,0,0:0:0:0:
256,192,10769,1,8,0:0:0:0:
256,192,10857,1,8,0:0:0:0:
256,192,10946,1,8,0:0:0:0:
256,192,11034,1,0,0:0:0:0:
256,192,11122,1,0,0:0:0:0:
256,192,11210,1,0,0:0:0:0:
256,192,11299,1,12,0:0:0:0:
256,192,11475,1,0,0:0:0:0:
256,192,11563,1,0,0:0:0:0:
256,192,11652,1,8,0:0:0:0:
256,192,11740,1,0,0:0:0:0:
256,192,11828,1,8,0:0:0:0:
256,192,11916,1,8,0:0:0:0:
256,192,12093,1,0,0:0:0:0:
256,192,12181,1,0,0:0:0:0:
256,192,12269,1,0,0:0:0:0:
256,192,12357,1,8,0:0:0:0:
256,192,12446,1,8,0:0:0:0:
256,192,12534,1,0,0:0:0:0:
256,192,12622,1,0,0:0:0:0:
256,192,12710,1,8,0:0:0:0:
256,192,12799,1,0,0:0:0:0:
256,192,12887,1,0,0:0:0:0:
256,192,12975,1,0,0:0:0:0:
256,192,13063,1,8,0:0:0:0:
256,192,13240,1,0,0:0:0:0:
256,192,13416,1,8,0:0:0:0:
256,192,13504,1,0,0:0:0:0:
256,192,13593,1,0,0:0:0:0:
256,192,13681,1,0,0:0:0:0:
256,192,13769,1,8,0:0:0:0:
256,192,13857,1,8,0:0:0:0:
256,192,13946,1,8,0:0:0:0:
256,192,14034,1,0,0:0:0:0:
256,192,14122,1,12,0:0:0:0:
256,192,14299,1,0,0:0:0:0:
256,192,14387,1,0,0:0:0:0:
256,192,14475,1,8,0:0:0:0:
256,192,14563,1,0,0:0:0:0:
256,192,14652,1,8,0:0:0:0:
256,192,14740,1,8,0:0:0:0:
256,192,14916,1,0,0:0:0:0:
256,192,15004,1,0,0:0:0:0:
256,192,15093,1,0,0:0:0:0:
256,192,15181,1,8,0:0:0:0:
256,192,15269,1,8,0:0:0:0:
256,192,15357,1,0,0:0:0:0:
256,192,15446,1,0,0:0:0:0:
256,192,15534,1,8,0:0:0:0:
256,192,15622,1,0,0:0:0:0:
256,192,15710,1,0,0:0:0:0:
256,192,15799,1,0,0:0:0:0:
256,192,15887,1,8,0:0:0:0:
256,192,16063,1,0,0:0:0:0:
256,192,16152,1,0,0:0:0:0:
256,192,16240,1,8,0:0:0:0:
256,192,16328,1,0,0:0:0:0:
256,192,16416,1,8,0:0:0:0:
256,192,16504,1,8,0:0:0:0:
256,192,16593,1,4,0:0:0:0:
256,192,16769,1,0,0:0:0:0:
256,192,16857,1,0,0:0:0:0:
256,192,16946,1,12,0:0:0:0:
256,192,17122,1,0,0:0:0:0:
256,192,17210,1,0,0:0:0:0:
256,192,17299,1,8,0:0:0:0:
256,192,17387,1,0,0:0:0:0:
256,192,17475,1,8,0:0:0:0:
256,192,17563,1,8,0:0:0:0:
256,192,17740,1,0,0:0:0:0:
256,192,17828,1,0,0:0:0:0:
256,192,17916,1,0,0:0:0:0:
256,192,18004,1,8,0:0:0:0:
256,192,18093,1,8,0:0:0:0:
256,192,18181,1,0,0:0:0:0:
256,192,18269,1,0,0:0:0:0:
256,192,18357,1,8,0:0:0:0:
256,192,18446,1,0,0:0:0:0:
256,192,18534,1,0,0:0:0:0:
256,192,18622,1,0,0:0:0:0:
256,192,18710,1,8,0:0:0:0:
256,192,18887,1,0,0:0:0:0:
256,192,18975,1,0,0:0:0:0:
256,192,19063,1,0,0:0:0:0:
256,192,19152,1,8,0:0:0:0:
256,192,19240,1,0,0:0:0:0:
256,192,19328,1,0,0:0:0:0:
256,192,19416,1,12,0:0:0:0:
256,192,19593,1,0,0:0:0:0:
256,192,19681,1,8,0:0:0:0:
256,192,19769,1,8,0:0:0:0:
256,192,19857,1,8,0:0:0:0:
256,192,19946,1,0,0:0:0:0:
256,192,20034,1,0,0:0:0:0:
256,192,20122,1,8,0:0:0:0:
256,192,20210,1,0,0:0:0:0:
256,192,20299,1,0,0:0:0:0:
256,192,20387,1,0,0:0:0:0:
256,192,20475,1,8,0:0:0:0:
256,192,20563,1,0,0:0:0:0:
256,192,20652,1,0,0:0:0:0:
256,192,20740,1,0,0:0:0:0:
256,192,20828,1,8,0:0:0:0:
256,192,20916,1,8,0:0:0:0:
256,192,21004,1,0,0:0:0:0:
256,192,21093,1,0,0:0:0:0:
256,192,21181,1,8,0:0:0:0:
256,192,21269,1,0,0:0:0:0:
256,192,21357,1,8,0:0:0:0:
256,192,21446,1,0,0:0:0:0:
256,192,21534,1,8,0:0:0:0:
256,192,21622,1,8,0:0:0:0:
256,192,21710,1,0,0:0:0:0:
256,192,21799,1,0,0:0:0:0:
256,192,21887,1,8,0:0:0:0:
256,192,21975,1,8,0:0:0:0:
256,192,22063,1,8,0:0:0:0:
256,192,22152,1,8,0:0:0:0:
256,192,22240,1,0,0:0:0:0:
256,192,22328,1,0,0:0:0:0:
256,192,22416,1,0,0:0:0:0:
256,192,22504,1,0,0:0:0:0:
256,192,22593,1,12,0:0:0:0:
256,192,22769,1,0,0:0:0:0:
256,192,22857,1,0,0:0:0:0:
256,192,22946,1,8,0:0:0:0:
256,192,23034,1,0,0:0:0:0:
256,192,23122,1,8,0:0:0:0:
256,192,23210,1,0,0:0:0:0:
256,192,23387,1,0,0:0:0:0:
256,192,23475,1,0,0:0:0:0:
256,192,23563,1,0,0:0:0:0:
256,192,23652,1,8,0:0:0:0:
256,192,23740,1,8,0:0:0:0:
256,192,23828,1,0,0:0:0:0:
256,192,23916,1,0,0:0:0:0:
256,192,24004,1,8,0:0:0:0:
256,192,24093,1,0,0:0:0:0:
256,192,24181,1,0,0:0:0:0:
256,192,24269,1,0,0:0:0:0:
256,192,24357,1,8,0:0:0:0:
256,192,24534,1,0,0:0:0:0:
256,192,24710,1,8,0:0:0:0:
256,192,24799,1,0,0:0:0:0:
256,192,24887,1,0,0:0:0:0:
256,192,25063,1,8,0:0:0:0:
256,192,25152,1,8,0:0:0:0:
256,192,25240,1,8,0:0:0:0:
256,192,25328,1,0,0:0:0:0:
256,192,25416,1,12,0:0:0:0:
256,192,25593,1,0,0:0:0:0:
256,192,25681,1,0,0:0:0:0:
256,192,25769,1,8,0:0:0:0:
256,192,25857,1,0,0:0:0:0:
256,192,25946,1,8,0:0:0:0:
256,192,26122,1,0,0:0:0:0:
256,192,26299,1,0,0:0:0:0:
256,192,26387,1,0,0:0:0:0:
256,192,26475,1,8,0:0:0:0:
256,192,26563,1,8,0:0:0:0:
256,192,26652,1,0,0:0:0:0:
256,192,26740,1,0,0:0:0:0:
256,192,26828,1,8,0:0:0:0:
256,192,26916,1,0,0:0:0:0:
256,192,27004,1,0,0:0:0:0:
256,192,27093,1,0,0:0:0:0:
256,192,27181,1,8,0:0:0:0:
256,192,27357,1,0,0:0:0:0:
256,192,27446,1,0,0:0:0:0:
257,189,27534,1,8,0:0:0:0:
256,192,27622,1,8,0:0:0:0:
256,192,27710,1,0,0:0:0:0:
256,192,27799,1,0,0:0:0:0:
256,192,27887,1,12,0:0:0:0:
256,192,28063,1,0,0:0:0:0:
256,192,28152,1,0,0:0:0:0:
256,192,28240,1,12,0:0:0:0:
256,192,28416,1,0,0:0:0:0:
256,192,28504,1,0,0:0:0:0:
256,192,28593,1,8,0:0:0:0:
256,192,28681,1,0,0:0:0:0:
256,192,28769,1,8,0:0:0:0:
256,192,28857,1,0,0:0:0:0:
256,192,29034,1,0,0:0:0:0:
256,192,29122,1,0,0:0:0:0:
256,192,29210,1,0,0:0:0:0:
256,192,29299,1,8,0:0:0:0:
256,192,29387,1,8,0:0:0:0:
256,192,29475,1,0,0:0:0:0:
256,192,29563,1,0,0:0:0:0:
256,192,29652,1,8,0:0:0:0:
256,192,29740,1,0,0:0:0:0:
256,192,29828,1,0,0:0:0:0:
256,192,29916,1,0,0:0:0:0:
256,192,30004,1,8,0:0:0:0:
256,192,30181,1,0,0:0:0:0:
256,192,30269,1,0,0:0:0:0:
256,192,30357,1,8,0:0:0:0:
256,192,30446,1,0,0:0:0:0:
256,192,30534,1,0,0:0:0:0:
256,192,30622,1,0,0:0:0:0:
256,192,30710,1,12,0:0:0:0:
256,192,30887,1,0,0:0:0:0:
256,192,30975,1,0,0:0:0:0:
256,192,31063,1,12,0:0:0:0:
256,192,31240,1,0,0:0:0:0:
256,192,31328,1,0,0:0:0:0:
256,192,31416,1,8,0:0:0:0:
256,192,31504,1,0,0:0:0:0:
256,192,31593,1,0,0:0:0:0:
256,192,31681,1,0,0:0:0:0:
256,192,31769,1,8,0:0:0:0:
256,192,31857,1,0,0:0:0:0:
256,192,31946,1,0,0:0:0:0:
256,192,32034,1,0,0:0:0:0:
256,192,32122,1,8,0:0:0:0:
256,192,32299,1,12,0:0:0:0:
256,192,32652,1,0,0:0:0:0:
256,192,32740,1,0,0:0:0:0:
256,192,32828,1,8,0:0:0:0:
256,192,33004,1,0,0:0:0:0:
256,192,33093,1,8,0:0:0:0:
256,192,33181,1,8,0:0:0:0:
256,192,33269,1,8,0:0:0:0:
256,192,33357,1,8,0:0:0:0:
256,192,33446,1,0,0:0:0:0:
256,192,33534,1,8,0:0:0:0:
256,192,33622,1,0,0:0:0:0:
256,192,33710,1,8,0:0:0:0:
256,192,33799,1,8,0:0:0:0:
256,192,33887,1,4,0:0:0:0:
256,192,34063,1,8,0:0:0:0:
256,192,34152,1,8,0:0:0:0:
256,192,34240,1,0,0:0:0:0:
256,192,34328,1,8,0:0:0:0:
256,192,34416,1,0,0:0:0:0:
256,192,34504,1,0,0:0:0:0:
256,192,34593,1,8,0:0:0:0:
256,192,34681,1,0,0:0:0:0:
256,192,34769,1,0,0:0:0:0:
256,192,34946,1,8,0:0:0:0:
256,192,35034,1,0,0:0:0:0:
256,192,35122,1,0,0:0:0:0:
256,192,35210,1,8,0:0:0:0:
256,192,35299,1,0,0:0:0:0:
256,192,35387,1,0,0:0:0:0:
256,192,35475,1,8,0:0:0:0:
256,192,35563,1,8,0:0:0:0:
256,192,35652,1,0,0:0:0:0:
256,192,35740,1,8,0:0:0:0:
256,192,35828,1,0,0:0:0:0:
256,192,35916,1,0,0:0:0:0:
256,192,36004,1,8,0:0:0:0:
256,192,36093,1,0,0:0:0:0:
256,192,36181,1,0,0:0:0:0:
256,192,36269,1,8,0:0:0:0:
256,192,36357,1,8,0:0:0:0:
256,192,36534,1,0,0:0:0:0:
256,192,36622,1,0,0:0:0:0:
256,192,36710,1,8,0:0:0:0:
256,192,36799,1,0,0:0:0:0:
256,192,36887,1,8,0:0:0:0:
256,192,36975,1,8,0:0:0:0:
256,192,37063,1,0,0:0:0:0:
256,192,37152,1,8,0:0:0:0:
256,192,37240,1,0,0:0:0:0:
256,192,37328,1,0,0:0:0:0:
256,192,37416,1,8,0:0:0:0:
256,192,37504,1,0,0:0:0:0:
256,192,37593,1,0,0:0:0:0:
256,192,37681,1,0,0:0:0:0:
256,192,37769,1,8,0:0:0:0:
256,192,37946,1,0,0:0:0:0:
256,192,38034,1,0,0:0:0:0:
256,192,38122,1,8,0:0:0:0:
256,192,38210,1,0,0:0:0:0:
256,192,38299,1,8,0:0:0:0:
256,192,38387,1,8,0:0:0:0:
256,192,38475,1,0,0:0:0:0:
256,192,38563,1,8,0:0:0:0:
256,192,38652,1,8,0:0:0:0:
256,192,38740,1,0,0:0:0:0:
256,192,38828,1,8,0:0:0:0:
256,192,38916,1,0,0:0:0:0:
256,192,39004,1,0,0:0:0:0:
256,192,39093,1,0,0:0:0:0:
256,192,39181,1,12,0:0:0:0:
256,192,39357,1,12,0:0:0:0:
256,192,39534,1,0,0:0:0:0:
256,192,39622,1,0,0:0:0:0:
256,192,39710,1,8,0:0:0:0:
256,192,39799,1,8,0:0:0:0:
256,192,39887,1,0,0:0:0:0:
256,192,39975,1,8,0:0:0:0:
256,192,40063,1,0,0:0:0:0:
256,192,40152,1,0,0:0:0:0:
256,192,40240,1,8,0:0:0:0:
256,192,40328,1,0,0:0:0:0:
256,192,40416,1,0,0:0:0:0:
256,192,40504,1,0,0:0:0:0:
256,192,40593,1,8,0:0:0:0:
256,192,40769,1,0,0:0:0:0:
256,192,40857,1,8,0:0:0:0:
256,192,40946,1,0,0:0:0:0:
256,192,41034,1,0,0:0:0:0:
256,192,41122,1,8,0:0:0:0:
256,192,41210,1,8,0:0:0:0:
256,192,41299,1,0,0:0:0:0:
256,192,41387,1,8,0:0:0:0:
256,192,41475,1,0,0:0:0:0:
256,192,41563,1,0,0:0:0:0:
256,192,41652,1,8,0:0:0:0:
256,192,41740,1,0,0:0:0:0:
256,192,41828,1,0,0:0:0:0:
256,192,41916,1,0,0:0:0:0:
256,192,42004,1,8,0:0:0:0:
256,192,42093,1,0,0:0:0:0:
256,192,42181,1,8,0:0:0:0:
256,192,42269,1,0,0:0:0:0:
256,192,42357,1,12,0:0:0:0:
256,192,42534,1,8,0:0:0:0:
256,192,42622,1,8,0:0:0:0:
256,192,42710,1,0,0:0:0:0:
256,192,42799,1,8,0:0:0:0:
256,192,42887,1,0,0:0:0:0:
256,192,42975,1,0,0:0:0:0:
256,192,43063,1,8,0:0:0:0:
256,192,43152,1,0,0:0:0:0:
256,192,43240,1,0,0:0:0:0:
256,192,43328,1,0,0:0:0:0:
256,192,43416,1,8,0:0:0:0:
256,192,43504,1,0,0:0:0:0:
256,192,43593,1,8,0:0:0:0:
256,192,43681,1,8,0:0:0:0:
256,192,43769,1,4,0:0:0:0:
256,192,45004,1,0,0:0:0:0:
256,192,45093,1,0,0:0:0:0:
256,192,45181,1,12,0:0:0:0:
256,192,45446,1,0,0:0:0:0:
256,192,45534,1,8,0:0:0:0:
256,192,45622,1,0,0:0:0:0:
256,192,45710,1,0,0:0:0:0:
256,192,45887,1,8,0:0:0:0:
256,192,45975,1,0,0:0:0:0:
256,192,46063,1,0,0:0:0:0:
256,192,46152,1,0,0:0:0:0:
256,192,46240,1,8,0:0:0:0:
256,192,46328,1,8,0:0:0:0:
256,192,46416,1,0,0:0:0:0:
256,192,46593,1,8,0:0:0:0:
256,192,46769,1,0,0:0:0:0:
256,192,46857,1,8,0:0:0:0:
256,192,46946,1,0,0:0:0:0:
256,192,47034,1,0,0:0:0:0:
256,192,47122,1,8,0:0:0:0:
256,192,47299,1,8,0:0:0:0:
256,192,47387,1,8,0:0:0:0:
256,192,47475,1,0,0:0:0:0:
256,192,47563,1,0,0:0:0:0:
256,192,47652,1,8,0:0:0:0:
256,192,47828,1,0,0:0:0:0:
256,192,48004,1,8,0:0:0:0:
256,192,48181,1,0,0:0:0:0:
256,192,48269,1,8,0:0:0:0:
256,192,48357,1,8,0:0:0:0:
256,192,48446,1,0,0:0:0:0:
256,192,48534,1,8,0:0:0:0:
256,192,48710,1,8,0:0:0:0:
256,192,48887,1,0,0:0:0:0:
256,192,48975,1,8,0:0:0:0:
256,192,49063,1,0,0:0:0:0:
256,192,49152,1,0,0:0:0:0:
256,192,49240,1,8,0:0:0:0:
256,192,49328,1,0,0:0:0:0:
256,192,49416,1,8,0:0:0:0:
256,192,49593,1,0,0:0:0:0:
256,192,49681,1,0,0:0:0:0:
256,192,49769,1,8,0:0:0:0:
256,192,49946,1,8,0:0:0:0:
256,192,50122,1,0,0:0:0:0:
256,192,50210,1,0,0:0:0:0:
256,192,50299,1,0,0:0:0:0:
256,192,50387,1,0,0:0:0:0:
256,192,50475,1,8,0:0:0:0:
256,192,50563,1,8,0:0:0:0:
256,192,50652,1,0,0:0:0:0:
256,192,50740,1,0,0:0:0:0:
256,192,50828,1,12,0:0:0:0:
256,192,51093,1,0,0:0:0:0:
256,192,51181,1,8,0:0:0:0:
256,192,51269,1,0,0:0:0:0:
256,192,51357,1,0,0:0:0:0:
256,192,51534,1,8,0:0:0:0:
256,192,51622,1,0,0:0:0:0:
256,192,51710,1,0,0:0:0:0:
256,192,51799,1,0,0:0:0:0:
256,192,51887,1,8,0:0:0:0:
256,192,51975,1,0,0:0:0:0:
256,192,52063,1,8,0:0:0:0:
256,192,52240,1,8,0:0:0:0:
256,192,52328,1,8,0:0:0:0:
256,192,52504,1,8,0:0:0:0:
256,192,52593,1,8,0:0:0:0:
256,192,52769,1,8,0:0:0:0:
256,192,52946,1,8,0:0:0:0:
256,192,53034,1,0,0:0:0:0:
256,192,53122,1,0,0:0:0:0:
256,192,53210,1,0,0:0:0:0:
256,192,53299,1,8,0:0:0:0:
256,192,53475,1,0,0:0:0:0:
256,192,53652,1,12,0:0:0:0:
256,192,53916,1,8,0:0:0:0:
256,192,54004,1,8,0:0:0:0:
256,192,54181,1,8,0:0:0:0:
256,192,54357,1,8,0:0:0:0:
256,192,54534,1,0,0:0:0:0:
256,192,54622,1,8,0:0:0:0:
256,192,54710,1,8,0:0:0:0:
256,192,54887,1,8,0:0:0:0:
256,192,55063,1,8,0:0:0:0:
256,192,55152,1,0,0:0:0:0:
256,192,55240,1,0,0:0:0:0:
256,192,55328,1,0,0:0:0:0:
256,192,55416,1,8,0:0:0:0:
256,192,55504,1,0,0:0:0:0:
256,192,55593,1,8,0:0:0:0:
256,192,55681,1,0,0:0:0:0:
256,192,55769,1,0,0:0:0:0:
256,192,55857,1,0,0:0:0:0:
256,192,55946,1,8,0:0:0:0:
256,192,56034,1,0,0:0:0:0:
256,192,56122,1,8,0:0:0:0:
256,192,56210,1,8,0:0:0:0:
256,192,56299,1,8,0:0:0:0:
256,192,56387,1,8,0:0:0:0:
256,192,56475,1,4,0:0:0:0:
256,192,56740,1,0,0:0:0:0:
256,192,56828,1,8,0:0:0:0:
256,192,56916,1,0,0:0:0:0:
256,192,57004,1,0,0:0:0:0:
256,192,57181,1,8,0:0:0:0:
256,192,57269,1,0,0:0:0:0:
256,192,57357,1,0,0:0:0:0:
256,192,57446,1,0,0:0:0:0:
256,192,57534,1,8,0:0:0:0:
256,192,57622,1,8,0:0:0:0:
256,192,57710,1,0,0:0:0:0:
256,192,57799,1,0,0:0:0:0:
256,192,57887,1,8,0:0:0:0:
256,192,58152,1,8,0:0:0:0:
256,192,58240,1,0,0:0:0:0:
256,192,58328,1,0,0:0:0:0:
256,192,58416,1,8,0:0:0:0:
256,192,58593,1,8,0:0:0:0:
256,192,58681,1,8,0:0:0:0:
256,192,58769,1,0,0:0:0:0:
256,192,58857,1,0,0:0:0:0:
256,192,58946,1,8,0:0:0:0:
256,192,59122,1,0,0:0:0:0:
256,192,59299,1,8,0:0:0:0:
256,192,59563,1,8,0:0:0:0:
256,192,59652,1,8,0:0:0:0:
256,192,59740,1,0,0:0:0:0:
256,192,59828,1,8,0:0:0:0:
256,192,60004,1,8,0:0:0:0:
256,192,60181,1,0,0:0:0:0:
256,192,60269,1,8,0:0:0:0:
256,192,60357,1,0,0:0:0:0:
256,192,60446,1,0,0:0:0:0:
256,192,60534,1,8,0:0:0:0:
256,192,60710,1,8,0:0:0:0:
256,192,60975,1,0,0:0:0:0:
256,192,61063,1,8,0:0:0:0:
256,192,61240,1,8,0:0:0:0:
256,192,61416,1,0,0:0:0:0:
256,192,61504,1,0,0:0:0:0:
256,192,61593,1,0,0:0:0:0:
256,192,61681,1,0,0:0:0:0:
256,192,61769,1,12,0:0:0:0:
256,192,61946,1,8,0:0:0:0:
256,192,62122,1,12,0:0:0:0:
256,192,62387,1,0,0:0:0:0:
256,192,62475,1,8,0:0:0:0:
256,192,62563,1,0,0:0:0:0:
256,192,62652,1,0,0:0:0:0:
256,192,62828,1,8,0:0:0:0:
256,192,62916,1,0,0:0:0:0:
256,192,63004,1,0,0:0:0:0:
256,192,63093,1,0,0:0:0:0:
256,192,63181,1,8,0:0:0:0:
256,192,63269,1,8,0:0:0:0:
256,192,63357,1,0,0:0:0:0:
256,192,63446,1,0,0:0:0:0:
256,192,63534,1,8,0:0:0:0:
256,192,63710,1,0,0:0:0:0:
256,192,63799,1,8,0:0:0:0:
256,192,63887,1,8,0:0:0:0:
256,192,63975,1,0,0:0:0:0:
256,192,64063,1,8,0:0:0:0:
256,192,64240,1,8,0:0:0:0:
256,192,64328,1,0,0:0:0:0:
256,192,64416,1,0,0:0:0:0:
256,192,64504,1,0,0:0:0:0:
256,192,64593,1,12,0:0:0:0:
256,192,64769,1,0,0:0:0:0:
256,192,64946,1,12,0:0:0:0:
256,192,65210,1,8,0:0:0:0:
256,192,65299,1,8,0:0:0:0:
256,192,65475,1,8,0:0:0:0:
256,192,65652,1,8,0:0:0:0:
256,192,65828,1,0,0:0:0:0:
256,192,65916,1,8,0:0:0:0:
256,192,66004,1,8,0:0:0:0:
256,192,66181,1,8,0:0:0:0:
256,192,66357,1,12,0:0:0:0:
256,192,66534,1,0,0:0:0:0:
256,192,66622,1,0,0:0:0:0:
256,192,66710,1,12,0:0:0:0:
256,192,66887,1,8,0:0:0:0:
256,192,66975,1,0,0:0:0:0:
256,192,67063,1,0,0:0:0:0:
256,192,67152,1,8,0:0:0:0:
256,192,67240,1,8,0:0:0:0:
256,192,67328,1,8,0:0:0:0:
256,192,67416,1,0,0:0:0:0:
256,192,67504,1,8,0:0:0:0:
256,192,67593,1,0,0:0:0:0:
256,192,67681,1,0,0:0:0:0:
256,192,67769,1,12,0:0:0:0:
256,192,67946,1,0,0:0:0:0:
256,192,68122,1,8,0:0:0:0:
256,192,68299,1,0,0:0:0:0:
256,192,68475,1,0,0:0:0:0:
256,192,68652,1,0,0:0:0:0:
256,192,68828,1,8,0:0:0:0:
256,192,69004,1,0,0:0:0:0:
256,192,69181,1,0,0:0:0:0:
256,192,69357,1,0,0:0:0:0:
256,192,69534,1,8,0:0:0:0:
256,192,69710,1,8,0:0:0:0:
256,192,69887,1,0,0:0:0:0:
256,192,70063,1,8,0:0:0:0:
256,192,70240,1,8,0:0:0:0:
256,192,70328,1,0,0:0:0:0:
256,192,70416,1,0,0:0:0:0:
256,192,70504,1,0,0:0:0:0:
256,192,70593,1,8,0:0:0:0:
256,192,70769,1,0,0:0:0:0:
256,192,70946,1,8,0:0:0:0:
256,192,71122,1,0,0:0:0:0:
256,192,71299,1,0,0:0:0:0:
256,192,71475,1,0,0:0:0:0:
256,192,71652,1,8,0:0:0:0:
256,192,71828,1,0,0:0:0:0:
256,192,72004,1,0,0:0:0:0:
256,192,72181,1,0,0:0:0:0:
256,192,72357,1,8,0:0:0:0:
256,192,72534,1,8,0:0:0:0:
256,192,72710,1,0,0:0:0:0:
256,192,72799,1,0,0:0:0:0:
256,192,72887,1,8,0:0:0:0:
256,192,72975,1,0,0:0:0:0:
256,192,73063,1,8,0:0:0:0:
256,192,73152,1,8,0:0:0:0:
256,192,73240,1,0,0:0:0:0:
256,192,73328,1,0,0:0:0:0:
256,192,73416,1,12,0:0:0:0:
256,192,73593,1,0,0:0:0:0:
256,192,73681,1,0,0:0:0:0:
256,192,73769,1,8,0:0:0:0:
256,192,73857,1,8,0:0:0:0:
256,192,73946,1,0,0:0:0:0:
256,192,74034,1,0,0:0:0:0:
256,192,74122,1,8,0:0:0:0:
256,192,74210,1,0,0:0:0:0:
256,192,74299,1,8,0:0:0:0:
256,192,74387,1,0,0:0:0:0:
256,192,74475,1,8,0:0:0:0:
256,192,74563,1,8,0:0:0:0:
256,192,74652,1,0,0:0:0:0:
256,192,74740,1,0,0:0:0:0:
256,192,74828,1,8,0:0:0:0:
256,192,74916,1,0,0:0:0:0:
256,192,75004,1,8,0:0:0:0:
256,192,75093,1,0,0:0:0:0:
256,192,75181,1,8,0:0:0:0:
256,192,75269,1,8,0:0:0:0:
256,192,75357,1,0,0:0:0:0:
256,192,75446,1,0,0:0:0:0:
256,192,75534,1,12,0:0:0:0:
256,192,75710,1,0,0:0:0:0:
256,192,75799,1,8,0:0:0:0:
256,192,75887,1,8,0:0:0:0:
256,192,75975,1,8,0:0:0:0:
256,192,76063,1,0,0:0:0:0:
256,192,76240,1,12,0:0:0:0:
256,192,76416,1,0,0:0:0:0:
256,192,76504,1,0,0:0:0:0:
256,192,76593,1,8,0:0:0:0:
256,192,76681,1,8,0:0:0:0:
256,192,76769,1,0,0:0:0:0:
256,192,76946,1,12,0:0:0:0:
256,192,77122,1,0,0:0:0:0:
256,192,77210,1,0,0:0:0:0:
256,192,77299,1,8,0:0:0:0:
256,192,77387,1,8,0:0:0:0:
256,192,77475,1,0,0:0:0:0:
256,192,77563,1,0,0:0:0:0:
256,192,77652,1,8,0:0:0:0:
256,192,77740,1,0,0:0:0:0:
256,192,77828,1,8,0:0:0:0:
256,192,77916,1,8,0:0:0:0:
256,192,78004,1,0,0:0:0:0:
256,192,78049,1,0,0:0:0:0:
256,192,78093,1,0,0:0:0:0:
256,192,78181,1,8,0:0:0:0:
256,192,78269,1,8,0:0:0:0:
256,192,78357,1,8,0:0:0:0:
256,192,78446,1,0,0:0:0:0:
256,192,78534,1,8,0:0:0:0:
256,192,78622,1,8,0:0:0:0:
256,192,78710,1,0,0:0:0:0:
256,192,78799,1,8,0:0:0:0:
256,192,78887,1,0,0:0:0:0:
256,192,78975,1,0,0:0:0:0:
256,192,79063,1,12,0:0:0:0:
256,192,79240,1,0,0:0:0:0:
256,192,79328,1,0,0:0:0:0:
256,192,79416,1,8,0:0:0:0:
256,192,79504,1,0,0:0:0:0:
256,192,79593,1,8,0:0:0:0:
256,192,79681,1,8,0:0:0:0:
256,192,79769,1,0,0:0:0:0:
256,192,79857,1,0,0:0:0:0:
256,192,79946,1,0,0:0:0:0:
256,192,80034,1,8,0:0:0:0:
256,192,80122,1,8,0:0:0:0:
256,192,80210,1,0,0:0:0:0:
256,192,80299,1,8,0:0:0:0:
256,192,80387,1,0,0:0:0:0:
256,192,80475,1,8,0:0:0:0:
256,192,80563,1,8,0:0:0:0:
256,192,80652,1,0,0:0:0:0:
256,192,80740,1,8,0:0:0:0:
256,192,80828,1,8,0:0:0:0:
256,192,80916,1,8,0:0:0:0:
256,192,81004,1,0,0:0:0:0:
256,192,81093,1,0,0:0:0:0:
256,192,81181,1,8,0:0:0:0:
256,192,81269,1,8,0:0:0:0:
256,192,81357,1,0,0:0:0:0:
256,192,81446,1,0,0:0:0:0:
256,192,81534,1,8,0:0:0:0:
256,192,81622,1,0,0:0:0:0:
256,192,81710,1,0,0:0:0:0:
256,192,81799,1,8,0:0:0:0:
256,192,81887,1,8,0:0:0:0:
256,192,81975,1,0,0:0:0:0:
256,192,82063,1,0,0:0:0:0:
256,192,82152,1,8,0:0:0:0:
256,192,82240,1,8,0:0:0:0:
256,192,82328,1,8,0:0:0:0:
256,192,82416,1,0,0:0:0:0:
256,192,82504,1,0,0:0:0:0:
256,192,82593,1,8,0:0:0:0:
256,192,82681,1,0,0:0:0:0:
256,192,82769,1,0,0:0:0:0:
256,192,82857,1,8,0:0:0:0:
256,192,82946,1,8,0:0:0:0:
256,192,83034,1,0,0:0:0:0:
256,192,83122,1,0,0:0:0:0:
256,192,83210,1,0,0:0:0:0:
256,192,83299,1,8,0:0:0:0:
256,192,83387,1,8,0:0:0:0:
256,192,83475,1,8,0:0:0:0:
256,192,83563,1,0,0:0:0:0:
256,192,83652,1,8,0:0:0:0:
256,192,83740,1,0,0:0:0:0:
256,192,83828,1,8,0:0:0:0:
256,192,83916,1,0,0:0:0:0:
256,192,84004,1,8,0:0:0:0:
256,192,84093,1,8,0:0:0:0:
256,192,84181,1,0,0:0:0:0:
256,192,84269,1,0,0:0:0:0:
256,192,84357,1,8,0:0:0:0:
256,192,84446,1,8,0:0:0:0:
256,192,84534,1,0,0:0:0:0:
256,192,84622,1,0,0:0:0:0:
256,192,84710,1,12,0:0:0:0:
256,192,84887,1,0,0:0:0:0:
256,192,84975,1,0,0:0:0:0:
256,192,85063,1,8,0:0:0:0:
256,192,85152,1,0,0:0:0:0:
256,192,85240,1,8,0:0:0:0:
256,192,85328,1,8,0:0:0:0:
256,192,85416,1,0,0:0:0:0:
256,192,85504,1,0,0:0:0:0:
256,192,85593,1,0,0:0:0:0:
256,192,85681,1,8,0:0:0:0:
256,192,85769,1,8,0:0:0:0:
256,192,85857,1,0,0:0:0:0:
256,192,85946,1,8,0:0:0:0:
256,192,86034,1,0,0:0:0:0:
256,192,86122,1,8,0:0:0:0:
256,192,86210,1,8,0:0:0:0:
256,192,86299,1,0,0:0:0:0:
256,192,86387,1,8,0:0:0:0:
256,192,86475,1,8,0:0:0:0:
256,192,86563,1,8,0:0:0:0:
256,192,86652,1,0,0:0:0:0:
256,192,86740,1,0,0:0:0:0:
256,192,86828,1,8,0:0:0:0:
256,192,86916,1,8,0:0:0:0:
256,192,87004,1,0,0:0:0:0:
256,192,87093,1,0,0:0:0:0:
256,192,87181,1,8,0:0:0:0:
256,192,87269,1,0,0:0:0:0:
256,192,87357,1,0,0:0:0:0:
256,192,87446,1,8,0:0:0:0:
256,192,87534,1,8,0:0:0:0:
256,192,87622,1,0,0:0:0:0:
256,192,87710,1,0,0:0:0:0:
256,192,87799,1,8,0:0:0:0:
256,192,87887,1,8,0:0:0:0:
256,192,87975,1,8,0:0:0:0:
256,192,88063,1,0,0:0:0:0:
256,192,88152,1,0,0:0:0:0:
256,192,88240,1,8,0:0:0:0:
256,192,88328,1,8,0:0:0:0:
256,192,88416,1,0,0:0:0:0:
256,192,88504,1,8,0:0:0:0:
256,192,88593,1,0,0:0:0:0:
256,192,88681,1,0,0:0:0:0:
256,192,88769,1,8,0:0:0:0:
256,192,88857,1,0,0:0:0:0:
256,192,88946,1,8,0:0:0:0:
256,192,89034,1,8,0:0:0:0:
256,192,89122,1,8,0:0:0:0:
256,192,89210,1,0,0:0:0:0:
256,192,89299,1,12,0:0:0:0:
256,192,89475,1,0,0:0:0:0:
256,192,89563,1,0,0:0:0:0:
256,192,89652,1,8,0:0:0:0:
256,192,89740,1,0,0:0:0:0:
256,192,89828,1,0,0:0:0:0:
256,192,89916,1,8,0:0:0:0:
256,192,90004,1,8,0:0:0:0:
256,192,90093,1,8,0:0:0:0:
256,192,90181,1,0,0:0:0:0:
256,192,90269,1,0,0:0:0:0:
256,192,90357,1,12,0:0:0:0:
256,192,90534,1,0,0:0:0:0:
256,192,90622,1,0,0:0:0:0:
256,192,90710,1,8,0:0:0:0:
256,192,90798,1,0,0:0:0:0:
256,192,90887,1,8,0:0:0:0:
256,192,90975,1,8,0:0:0:0:
256,192,91063,1,0,0:0:0:0:
256,192,91152,1,0,0:0:0:0:
256,192,91240,1,0,0:0:0:0:
256,192,91328,1,8,0:0:0:0:
256,192,91416,1,8,0:0:0:0:
256,192,91504,1,0,0:0:0:0:
256,192,91593,1,8,0:0:0:0:
256,192,91681,1,0,0:0:0:0:
256,192,91769,1,8,0:0:0:0:
256,192,91857,1,8,0:0:0:0:
256,192,91946,1,0,0:0:0:0:
256,192,92034,1,8,0:0:0:0:
256,192,92122,1,8,0:0:0:0:
256,192,92210,1,8,0:0:0:0:
256,192,92298,1,0,0:0:0:0:
256,192,92387,1,0,0:0:0:0:
256,192,92475,1,8,0:0:0:0:
256,192,92563,1,8,0:0:0:0:
256,192,92651,1,0,0:0:0:0:
256,192,92740,1,0,0:0:0:0:
256,192,92828,1,8,0:0:0:0:
256,192,92916,1,0,0:0:0:0:
256,192,93004,1,0,0:0:0:0:
256,192,93093,1,8,0:0:0:0:
256,192,93181,1,8,0:0:0:0:
256,192,93269,1,0,0:0:0:0:
256,192,93357,1,0,0:0:0:0:
256,192,93446,1,8,0:0:0:0:
256,192,93534,1,8,0:0:0:0:
256,192,93622,1,8,0:0:0:0:
256,192,93710,1,0,0:0:0:0:
256,192,93799,1,0,0:0:0:0:
256,192,93887,1,8,0:0:0:0:
256,192,93975,1,8,0:0:0:0:
256,192,94063,1,0,0:0:0:0:
256,192,94151,1,8,0:0:0:0:
256,192,94240,1,0,0:0:0:0:
256,192,94328,1,0,0:0:0:0:
256,192,94416,1,8,0:0:0:0:
256,192,94504,1,0,0:0:0:0:
256,192,94593,1,8,0:0:0:0:
256,192,94681,1,8,0:0:0:0:
256,192,94769,1,0,0:0:0:0:
256,192,94857,1,0,0:0:0:0:
256,192,94946,1,8,0:0:0:0:
256,192,95034,1,0,0:0:0:0:
256,192,95122,1,8,0:0:0:0:
256,192,95210,1,0,0:0:0:0:
256,192,95298,1,8,0:0:0:0:
256,192,95387,1,8,0:0:0:0:
256,192,95475,1,8,0:0:0:0:
256,192,95563,1,0,0:0:0:0:
256,192,95652,1,12,0:0:0:0:
256,192,95828,1,0,0:0:0:0:
256,192,95916,1,0,0:0:0:0:
256,192,96004,1,12,0:0:0:0:
256,192,96181,1,0,0:0:0:0:
256,192,96269,1,0,0:0:0:0:
256,192,96357,1,8,0:0:0:0:
256,192,96446,1,0,0:0:0:0:
256,192,96534,1,8,0:0:0:0:
256,192,96622,1,8,0:0:0:0:
256,192,96710,1,0,0:0:0:0:
256,192,96799,1,0,0:0:0:0:
256,192,96887,1,0,0:0:0:0:
256,192,96975,1,8,0:0:0:0:
256,192,97063,1,8,0:0:0:0:
256,192,97151,1,0,0:0:0:0:
256,192,97240,1,8,0:0:0:0:
256,192,97328,1,0,0:0:0:0:
256,192,97416,1,8,0:0:0:0:
256,192,97504,1,8,0:0:0:0:
256,192,97593,1,0,0:0:0:0:
256,192,97681,1,8,0:0:0:0:
256,192,97769,1,8,0:0:0:0:
256,192,97857,1,8,0:0:0:0:
256,192,97946,1,0,0:0:0:0:
256,192,98034,1,0,0:0:0:0:
256,192,98122,1,8,0:0:0:0:
256,192,98210,1,8,0:0:0:0:
256,192,98298,1,0,0:0:0:0:
256,192,98387,1,0,0:0:0:0:
256,192,98475,1,8,0:0:0:0:
256,192,98563,1,0,0:0:0:0:
256,192,98651,1,0,0:0:0:0:
256,192,98740,1,8,0:0:0:0:
256,192,98828,1,8,0:0:0:0:
256,192,98916,1,0,0:0:0:0:
256,192,99004,1,0,0:0:0:0:
256,192,99093,1,8,0:0:0:0:
256,192,99181,1,8,0:0:0:0:
256,192,99269,1,8,0:0:0:0:
256,192,99357,1,0,0:0:0:0:
256,192,99446,1,0,0:0:0:0:
256,192,99534,1,8,0:0:0:0:
256,192,99622,1,8,0:0:0:0:
256,192,99710,1,0,0:0:0:0:
256,192,99798,1,8,0:0:0:0:
256,192,99887,1,0,0:0:0:0:
256,192,99975,1,0,0:0:0:0:
256,192,100063,1,8,0:0:0:0:
256,192,100152,1,8,0:0:0:0:
256,192,100240,1,4,0:0:0:0:
256,192,100416,1,0,0:0:0:0:
256,192,100504,1,0,0:0:0:0:
256,192,100593,1,8,0:0:0:0:
256,192,100681,1,0,0:0:0:0:
256,192,100769,1,0,0:0:0:0:
256,192,100857,1,0,0:0:0:0:
256,192,100946,1,8,0:0:0:0:
256,192,101034,1,0,0:0:0:0:
256,192,101122,1,0,0:0:0:0:
256,192,101210,1,8,0:0:0:0:
256,192,101299,1,8,0:0:0:0:
256,192,101387,1,8,0:0:0:0:
256,192,101475,1,0,0:0:0:0:
256,192,101563,1,0,0:0:0:0:
256,192,101652,1,12,0:0:0:0:
256,192,101828,1,0,0:0:0:0:
256,192,101916,1,0,0:0:0:0:
256,192,102005,1,8,0:0:0:0:
256,192,102093,1,0,0:0:0:0:
256,192,102181,1,8,0:0:0:0:
256,192,102269,1,8,0:0:0:0:
256,192,102446,1,0,0:0:0:0:
256,192,102534,1,0,0:0:0:0:
256,192,102622,1,0,0:0:0:0:
256,192,102710,1,8,0:0:0:0:
256,192,102799,1,8,0:0:0:0:
256,192,102887,1,0,0:0:0:0:
256,192,102975,1,0,0:0:0:0:
256,192,103063,1,8,0:0:0:0:
256,192,103152,1,0,0:0:0:0:
256,192,103240,1,0,0:0:0:0:
256,192,103328,1,0,0:0:0:0:
256,192,103416,1,8,0:0:0:0:
256,192,103593,1,0,0:0:0:0:
256,192,103769,1,8,0:0:0:0:
256,192,103857,1,0,0:0:0:0:
256,192,103946,1,0,0:0:0:0:
256,192,104034,1,0,0:0:0:0:
256,192,104122,1,8,0:0:0:0:
256,192,104210,1,8,0:0:0:0:
256,192,104299,1,8,0:0:0:0:
256,192,104387,1,0,0:0:0:0:
256,192,104475,1,12,0:0:0:0:
256,192,104652,1,0,0:0:0:0:
256,192,104740,1,0,0:0:0:0:
256,192,104828,1,8,0:0:0:0:
256,192,104916,1,0,0:0:0:0:
256,192,105005,1,8,0:0:0:0:
256,192,105093,1,8,0:0:0:0:
256,192,105269,1,0,0:0:0:0:
256,192,105357,1,0,0:0:0:0:
256,192,105446,1,0,0:0:0:0:
256,192,105534,1,8,0:0:0:0:
256,192,105622,1,8,0:0:0:0:
256,192,105710,1,0,0:0:0:0:
256,192,105799,1,0,0:0:0:0:
256,192,105887,1,8,0:0:0:0:
256,192,105975,1,0,0:0:0:0:
256,192,106063,1,0,0:0:0:0:
256,192,106152,1,0,0:0:0:0:
256,192,106240,1,8,0:0:0:0:
256,192,106416,1,0,0:0:0:0:
256,192,106505,1,0,0:0:0:0:
256,192,106593,1,8,0:0:0:0:
256,192,106681,1,0,0:0:0:0:
256,192,106769,1,8,0:0:0:0:
256,192,106857,1,8,0:0:0:0:
256,192,106946,1,4,0:0:0:0:
256,192,107122,1,0,0:0:0:0:
256,192,107210,1,0,0:0:0:0:
256,192,107299,1,12,0:0:0:0:
256,192,107475,1,0,0:0:0:0:
256,192,107563,1,0,0:0:0:0:
256,192,107652,1,8,0:0:0:0:
256,192,107740,1,0,0:0:0:0:
256,192,107828,1,8,0:0:0:0:
256,192,107916,1,8,0:0:0:0:
256,192,108093,1,0,0:0:0:0:
256,192,108181,1,0,0:0:0:0:
256,192,108269,1,0,0:0:0:0:
256,192,108357,1,8,0:0:0:0:
256,192,108446,1,8,0:0:0:0:
256,192,108534,1,0,0:0:0:0:
256,192,108622,1,0,0:0:0:0:
256,192,108710,1,8,0:0:0:0:
256,192,108799,1,0,0:0:0:0:
256,192,108887,1,0,0:0:0:0:
256,192,108975,1,0,0:0:0:0:
256,192,109063,1,8,0:0:0:0:
256,192,109240,1,0,0:0:0:0:
256,192,109328,1,0,0:0:0:0:
256,192,109416,1,0,0:0:0:0:
256,192,109505,1,8,0:0:0:0:
256,192,109593,1,0,0:0:0:0:
256,192,109681,1,0,0:0:0:0:
256,192,109769,1,12,0:0:0:0:
256,192,109946,1,8,0:0:0:0:
256,192,110034,1,8,0:0:0:0:
256,192,110122,1,4,0:0:0:0:
256,192,110299,1,0,0:0:0:0:
256,192,110387,1,0,0:0:0:0:
256,192,110475,1,12,0:0:0:0:
256,192,110652,1,0,0:0:0:0:
256,192,110740,1,0,0:0:0:0:
256,192,110828,1,12,0:0:0:0:
256,192,111004,1,4,0:0:0:0:
256,192,111181,1,4,0:0:0:0:
256,192,111357,1,12,0:0:0:0:
256,192,111710,1,0,0:0:0:0:
256,192,111799,1,0,0:0:0:0:
256,192,111887,1,8,0:0:0:0:
256,192,111946,1,8,0:0:0:0:
256,192,112004,1,8,0:0:0:0:
256,192,112063,1,0,0:0:0:0:
256,192,112122,1,0,0:0:0:0:
256,192,112181,1,0,0:0:0:0:
256,192,112240,1,8,0:0:0:0:
256,192,112328,1,8,0:0:0:0:
256,192,112416,1,8,0:0:0:0:
256,192,112504,1,8,0:0:0:0:
256,192,112593,1,0,0:0:0:0:
256,192,112681,1,0,0:0:0:0:
256,192,112769,1,0,0:0:0:0:
256,192,112857,1,0,0:0:0:0:
256,192,112946,1,12,0:0:0:0:
256,192,113210,1,0,0:0:0:0:
256,192,113298,1,8,0:0:0:0:
256,192,113386,1,0,0:0:0:0:
256,192,113474,1,0,0:0:0:0:
256,192,113651,1,8,0:0:0:0:
256,192,113739,1,0,0:0:0:0:
256,192,113827,1,0,0:0:0:0:
256,192,113916,1,0,0:0:0:0:
256,192,114004,1,8,0:0:0:0:
256,192,114092,1,8,0:0:0:0:
256,192,114180,1,0,0:0:0:0:
256,192,114269,1,0,0:0:0:0:
256,192,114357,1,8,0:0:0:0:
256,192,114622,1,8,0:0:0:0:
256,192,114710,1,0,0:0:0:0:
256,192,114798,1,0,0:0:0:0:
256,192,114886,1,8,0:0:0:0:
256,192,115063,1,8,0:0:0:0:
256,192,115151,1,8,0:0:0:0:
256,192,115239,1,0,0:0:0:0:
256,192,115327,1,0,0:0:0:0:
256,192,115416,1,8,0:0:0:0:
256,192,115592,1,0,0:0:0:0:
256,192,115769,1,8,0:0:0:0:
256,192,116033,1,8,0:0:0:0:
256,192,116122,1,8,0:0:0:0:
256,192,116210,1,0,0:0:0:0:
256,192,116298,1,8,0:0:0:0:
256,192,116474,1,8,0:0:0:0:
256,192,116651,1,0,0:0:0:0:
256,192,116739,1,8,0:0:0:0:
256,192,116827,1,0,0:0:0:0:
256,192,116916,1,0,0:0:0:0:
256,192,117004,1,8,0:0:0:0:
256,192,117180,1,8,0:0:0:0:
256,192,117445,1,0,0:0:0:0:
256,192,117533,1,8,0:0:0:0:
256,192,117710,1,8,0:0:0:0:
256,192,117886,1,0,0:0:0:0:
256,192,117974,1,0,0:0:0:0:
256,192,118063,1,0,0:0:0:0:
256,192,118151,1,0,0:0:0:0:
256,192,118239,1,12,0:0:0:0:
256,192,118416,1,8,0:0:0:0:
256,192,118592,1,12,0:0:0:0:
256,192,118857,1,0,0:0:0:0:
256,192,118945,1,8,0:0:0:0:
256,192,119033,1,0,0:0:0:0:
256,192,119122,1,0,0:0:0:0:
256,192,119298,1,8,0:0:0:0:
256,192,119386,1,0,0:0:0:0:
256,192,119474,1,0,0:0:0:0:
256,192,119563,1,0,0:0:0:0:
256,192,119651,1,8,0:0:0:0:
256,192,119739,1,8,0:0:0:0:
256,192,119827,1,0,0:0:0:0:
256,192,119916,1,0,0:0:0:0:
256,192,120004,1,8,0:0:0:0:
256,192,120180,1,0,0:0:0:0:
256,192,120269,1,8,0:0:0:0:
256,192,120357,1,8,0:0:0:0:
256,192,120445,1,0,0:0:0:0:
256,192,120533,1,8,0:0:0:0:
256,192,120710,1,8,0:0:0:0:
256,192,120798,1,0,0:0:0:0:
256,192,120886,1,0,0:0:0:0:
256,192,120974,1,0,0:0:0:0:
256,192,121063,1,12,0:0:0:0:
256,192,121239,1,0,0:0:0:0:
256,192,121416,1,12,0:0:0:0:
256,192,121680,1,8,0:0:0:0:
256,192,121769,1,8,0:0:0:0:
256,192,121945,1,8,0:0:0:0:
256,192,122122,1,8,0:0:0:0:
256,192,122298,1,0,0:0:0:0:
256,192,122386,1,8,0:0:0:0:
256,192,122474,1,8,0:0:0:0:
256,192,122651,1,0,0:0:0:0:
256,192,122827,1,8,0:0:0:0:
256,192,122887,1,8,0:0:0:0:
256,192,122946,1,8,0:0:0:0:
256,192,123004,1,0,0:0:0:0:
256,192,123092,1,0,0:0:0:0:
256,192,123180,1,8,0:0:0:0:
256,192,123240,1,8,0:0:0:0:
256,192,123299,1,8,0:0:0:0:
256,192,123357,1,0,0:0:0:0:
256,192,123445,1,8,0:0:0:0:
256,192,123533,1,8,0:0:0:0:
256,192,123622,1,0,0:0:0:0:
256,192,123710,1,8,0:0:0:0:
256,192,123798,1,8,0:0:0:0:
256,192,123886,1,0,0:0:0:0:
256,192,123974,1,0,0:0:0:0:
256,192,124063,1,8,0:0:0:0:
256,192,124151,1,8,0:0:0:0:
256,192,124239,1,4,0:0:0:0:
256,192,124416,1,0,0:0:0:0:
256,192,124592,1,8,0:0:0:0:
256,192,124769,1,0,0:0:0:0:
256,192,124945,1,0,0:0:0:0:
256,192,125122,1,0,0:0:0:0:
256,192,125298,1,8,0:0:0:0:
256,192,125474,1,0,0:0:0:0:
256,192,125651,1,0,0:0:0:0:
256,192,125827,1,0,0:0:0:0:
256,192,126004,1,8,0:0:0:0:
256,192,126180,1,8,0:0:0:0:
256,192,126357,1,0,0:0:0:0:
256,192,126533,1,8,0:0:0:0:
256,192,126710,1,8,0:0:0:0:
256,192,126798,1,0,0:0:0:0:
256,192,126886,1,0,0:0:0:0:
256,192,126974,1,0,0:0:0:0:
256,192,127063,1,8,0:0:0:0:
256,192,127239,1,0,0:0:0:0:
256,192,127416,1,8,0:0:0:0:
256,192,127592,1,0,0:0:0:0:
256,192,127769,1,0,0:0:0:0:
256,192,127945,1,0,0:0:0:0:
256,192,128122,1,8,0:0:0:0:
256,192,128298,1,0,0:0:0:0:
256,192,128474,1,8,0:0:0:0:
256,192,128563,1,0,0:0:0:0:
256,192,128651,1,0,0:0:0:0:
256,192,128740,1,0,0:0:0:0:
256,192,128827,1,8,0:0:0:0:
256,192,128916,1,8,0:0:0:0:
256,192,129004,1,0,0:0:0:0:
256,192,129093,1,0,0:0:0:0:
256,192,129181,1,12,0:0:0:0:
256,192,129357,1,0,0:0:0:0:
256,192,129446,1,0,0:0:0:0:
256,192,129534,1,12,0:0:0:0:
256,192,129710,1,0,0:0:0:0:
256,192,129799,1,0,0:0:0:0:
256,192,129886,1,12,0:0:0:0:
256,192,130063,1,0,0:0:0:0:
256,192,130151,1,0,0:0:0:0:
256,192,130239,1,8,0:0:0:0:
256,192,130327,1,8,0:0:0:0:
256,192,130416,1,0,0:0:0:0:
256,192,130504,1,0,0:0:0:0:
256,192,130592,1,8,0:0:0:0:
256,192,130680,1,0,0:0:0:0:
256,192,130769,1,8,0:0:0:0:
256,192,130857,1,0,0:0:0:0:
256,192,130945,1,8,0:0:0:0:
256,192,131033,1,8,0:0:0:0:
256,192,131122,1,0,0:0:0:0:
256,192,131210,1,0,0:0:0:0:
256,192,131298,1,8,0:0:0:0:
256,192,131386,1,0,0:0:0:0:
256,192,131474,1,8,0:0:0:0:
256,192,131563,1,0,0:0:0:0:
256,192,131651,1,8,0:0:0:0:
256,192,131739,1,8,0:0:0:0:
256,192,131827,1,0,0:0:0:0:
256,192,131916,1,0,0:0:0:0:
256,192,132004,1,12,0:0:0:0:
256,192,132180,1,0,0:0:0:0:
256,192,132269,1,8,0:0:0:0:
256,192,132357,1,8,0:0:0:0:
256,192,132445,1,8,0:0:0:0:
256,192,132533,1,0,0:0:0:0:
256,192,132710,1,12,0:0:0:0:
256,192,132886,1,0,0:0:0:0:
256,192,132974,1,0,0:0:0:0:
256,192,133063,1,8,0:0:0:0:
256,192,133151,1,8,0:0:0:0:
256,192,133239,1,0,0:0:0:0:
256,192,133328,1,0,0:0:0:0:
256,192,133416,1,12,0:0:0:0:
256,192,133592,1,0,0:0:0:0:
256,192,133680,1,0,0:0:0:0:
256,192,133769,1,12,0:0:0:0:
256,192,133945,1,0,0:0:0:0:
256,192,134033,1,0,0:0:0:0:
256,192,134122,1,8,0:0:0:0:
256,192,134210,1,0,0:0:0:0:
256,192,134298,1,8,0:0:0:0:
256,192,134387,1,0,0:0:0:0:
256,192,134474,1,8,0:0:0:0:
256,192,134534,1,8,0:0:0:0:
256,192,134593,1,8,0:0:0:0:
256,192,134652,1,0,0:0:0:0:
256,192,134710,1,0,0:0:0:0:
256,192,134769,1,0,0:0:0:0:
256,192,134827,1,8,0:0:0:0:
256,192,134916,1,8,0:0:0:0:
256,192,135004,1,0,0:0:0:0:
256,192,135092,1,8,0:0:0:0:
256,192,135180,1,8,0:0:0:0:
256,192,135269,1,0,0:0:0:0:
256,192,135357,1,8,0:0:0:0:
256,192,135445,1,0,0:0:0:0:
256,192,135533,1,12,0:0:0:0:
256,192,135710,1,0,0:0:0:0:
256,192,135798,1,0,0:0:0:0:
256,192,135886,1,8,0:0:0:0:
256,192,135974,1,0,0:0:0:0:
256,192,136063,1,8,0:0:0:0:
256,192,136151,1,8,0:0:0:0:
256,192,136239,1,0,0:0:0:0:
256,192,136327,1,0,0:0:0:0:
256,192,136416,1,0,0:0:0:0:
256,192,136504,1,8,0:0:0:0:
256,192,136592,1,8,0:0:0:0:
256,192,136680,1,0,0:0:0:0:
256,192,136769,1,8,0:0:0:0:
256,192,136857,1,0,0:0:0:0:
256,192,136945,1,8,0:0:0:0:
256,192,137033,1,8,0:0:0:0:
256,192,137122,1,0,0:0:0:0:
256,192,137210,1,8,0:0:0:0:
256,192,137298,1,8,0:0:0:0:
256,192,137386,1,8,0:0:0:0:
256,192,137474,1,0,0:0:0:0:
256,192,137563,1,0,0:0:0:0:
256,192,137651,1,8,0:0:0:0:
256,192,137739,1,8,0:0:0:0:
256,192,137827,1,0,0:0:0:0:
256,192,137916,1,0,0:0:0:0:
256,192,138004,1,8,0:0:0:0:
256,192,138092,1,0,0:0:0:0:
256,192,138180,1,0,0:0:0:0:
256,192,138269,1,8,0:0:0:0:
256,192,138357,1,8,0:0:0:0:
256,192,138445,1,0,0:0:0:0:
256,192,138533,1,0,0:0:0:0:
256,192,138622,1,8,0:0:0:0:
256,192,138710,1,8,0:0:0:0:
256,192,138798,1,8,0:0:0:0:
256,192,138886,1,0,0:0:0:0:
256,192,138974,1,0,0:0:0:0:
256,192,139063,1,8,0:0:0:0:
256,192,139151,1,0,0:0:0:0:
256,192,139239,1,0,0:0:0:0:
256,192,139327,1,8,0:0:0:0:
256,192,139416,1,8,0:0:0:0:
256,192,139504,1,0,0:0:0:0:
256,192,139592,1,0,0:0:0:0:
256,192,139680,1,0,0:0:0:0:
256,192,139769,1,8,0:0:0:0:
256,192,139857,1,8,0:0:0:0:
256,192,139945,1,8,0:0:0:0:
256,192,140033,1,0,0:0:0:0:
256,192,140122,1,8,0:0:0:0:
256,192,140210,1,0,0:0:0:0:
256,192,140298,1,8,0:0:0:0:
256,192,140386,1,0,0:0:0:0:
256,192,140474,1,8,0:0:0:0:
256,192,140563,1,8,0:0:0:0:
256,192,140651,1,0,0:0:0:0:
256,192,140739,1,0,0:0:0:0:
256,192,140827,1,8,0:0:0:0:
256,192,140916,1,8,0:0:0:0:
256,192,141004,1,0,0:0:0:0:
256,192,141092,1,0,0:0:0:0:
256,192,141180,1,12,0:0:0:0:
256,192,141357,1,0,0:0:0:0:
256,192,141445,1,0,0:0:0:0:
256,192,141533,1,8,0:0:0:0:
256,192,141622,1,0,0:0:0:0:
256,192,141710,1,8,0:0:0:0:
256,192,141798,1,8,0:0:0:0:
256,192,141886,1,0,0:0:0:0:
256,192,141974,1,0,0:0:0:0:
256,192,142063,1,0,0:0:0:0:
256,192,142151,1,8,0:0:0:0:
256,192,142239,1,8,0:0:0:0:
256,192,142327,1,0,0:0:0:0:
256,192,142416,1,8,0:0:0:0:
256,192,142504,1,0,0:0:0:0:
256,192,142592,1,8,0:0:0:0:
256,192,142680,1,8,0:0:0:0:
256,192,142769,1,0,0:0:0:0:
256,192,142857,1,8,0:0:0:0:
256,192,142945,1,8,0:0:0:0:
256,192,143033,1,8,0:0:0:0:
256,192,143122,1,0,0:0:0:0:
256,192,143210,1,0,0:0:0:0:
256,192,143298,1,8,0:0:0:0:
256,192,143386,1,8,0:0:0:0:
256,192,143474,1,0,0:0:0:0:
256,192,143563,1,0,0:0:0:0:
256,192,143651,1,8,0:0:0:0:
256,192,143739,1,0,0:0:0:0:
256,192,143827,1,0,0:0:0:0:
256,192,143916,1,8,0:0:0:0:
256,192,144004,1,8,0:0:0:0:
256,192,144092,1,0,0:0:0:0:
256,192,144180,1,0,0:0:0:0:
256,192,144269,1,8,0:0:0:0:
256,192,144357,1,8,0:0:0:0:
256,192,144445,1,8,0:0:0:0:
256,192,144533,1,0,0:0:0:0:
256,192,144622,1,0,0:0:0:0:
256,192,144710,1,8,0:0:0:0:
256,192,144798,1,8,0:0:0:0:
256,192,144886,1,0,0:0:0:0:
256,192,144974,1,8,0:0:0:0:
256,192,145063,1,0,0:0:0:0:
256,192,145151,1,0,0:0:0:0:
256,192,145239,1,8,0:0:0:0:
256,192,145327,1,0,0:0:0:0:
256,192,145416,1,8,0:0:0:0:
256,192,145504,1,8,0:0:0:0:
256,192,145592,1,8,0:0:0:0:
256,192,145680,1,0,0:0:0:0:
256,192,145769,1,12,0:0:0:0:
256,192,145945,1,0,0:0:0:0:
256,192,146033,1,0,0:0:0:0:
256,192,146122,1,8,0:0:0:0:
256,192,146210,1,0,0:0:0:0:
256,192,146298,1,0,0:0:0:0:
256,192,146386,1,8,0:0:0:0:
256,192,146474,1,8,0:0:0:0:
256,192,146563,1,8,0:0:0:0:
256,192,146651,1,0,0:0:0:0:
256,192,146739,1,0,0:0:0:0:
256,192,146827,1,12,0:0:0:0:
256,192,147004,1,0,0:0:0:0:
256,192,147092,1,0,0:0:0:0:
256,192,147180,1,8,0:0:0:0:
256,192,147268,1,0,0:0:0:0:
256,192,147357,1,8,0:0:0:0:
256,192,147445,1,8,0:0:0:0:
256,192,147533,1,0,0:0:0:0:
256,192,147622,1,0,0:0:0:0:
256,192,147710,1,0,0:0:0:0:
256,192,147798,1,8,0:0:0:0:
256,192,147886,1,8,0:0:0:0:
256,192,147974,1,0,0:0:0:0:
256,192,148063,1,8,0:0:0:0:
256,192,148151,1,0,0:0:0:0:
256,192,148239,1,8,0:0:0:0:
256,192,148327,1,8,0:0:0:0:
256,192,148416,1,0,0:0:0:0:
256,192,148504,1,8,0:0:0:0:
256,192,148592,1,8,0:0:0:0:
256,192,148680,1,8,0:0:0:0:
256,192,148768,1,0,0:0:0:0:
256,192,148857,1,0,0:0:0:0:
256,192,148945,1,8,0:0:0:0:
256,192,149033,1,8,0:0:0:0:
256,192,149121,1,0,0:0:0:0:
256,192,149210,1,0,0:0:0:0:
256,192,149298,1,8,0:0:0:0:
256,192,149386,1,0,0:0:0:0:
256,192,149474,1,0,0:0:0:0:
256,192,149563,1,8,0:0:0:0:
256,192,149651,1,8,0:0:0:0:
256,192,149739,1,0,0:0:0:0:
256,192,149827,1,0,0:0:0:0:
256,192,149916,1,8,0:0:0:0:
256,192,150004,1,8,0:0:0:0:
256,192,150092,1,8,0:0:0:0:
256,192,150180,1,0,0:0:0:0:
256,192,150269,1,0,0:0:0:0:
256,192,150357,1,8,0:0:0:0:
256,192,150445,1,8,0:0:0:0:
256,192,150533,1,0,0:0:0:0:
256,192,150621,1,8,0:0:0:0:
256,192,150710,1,0,0:0:0:0:
256,192,150798,1,0,0:0:0:0:
256,192,150886,1,8,0:0:0:0:
256,192,150974,1,0,0:0:0:0:
256,192,151063,1,8,0:0:0:0:
256,192,151151,1,8,0:0:0:0:
256,192,151239,1,0,0:0:0:0:
256,192,151327,1,0,0:0:0:0:
256,192,151416,1,8,0:0:0:0:
256,192,151504,1,0,0:0:0:0:
256,192,151592,1,8,0:0:0:0:
256,192,151680,1,8,0:0:0:0:
256,192,151768,1,8,0:0:0:0:
256,192,151857,1,0,0:0:0:0:
256,192,151945,1,12,0:0:0:0:
256,192,152122,1,0,0:0:0:0:
256,192,152210,1,0,0:0:0:0:
256,192,152299,1,12,0:0:0:0:
256,192,152474,1,12,0:0:0:0:
256,192,152651,1,0,0:0:0:0:
256,192,152739,1,0,0:0:0:0:
256,192,152827,1,8,0:0:0:0:
256,192,152916,1,0,0:0:0:0:
256,192,153004,1,8,0:0:0:0:
256,192,153092,1,8,0:0:0:0:
256,192,153180,1,0,0:0:0:0:
256,192,153269,1,0,0:0:0:0:
256,192,153357,1,0,0:0:0:0:
256,192,153445,1,8,0:0:0:0:
256,192,153533,1,8,0:0:0:0:
256,192,153621,1,0,0:0:0:0:
256,192,153710,1,8,0:0:0:0:
256,192,153798,1,0,0:0:0:0:
256,192,153886,1,8,0:0:0:0:
256,192,153974,1,8,0:0:0:0:
256,192,154063,1,0,0:0:0:0:
256,192,154151,1,8,0:0:0:0:
256,192,154239,1,8,0:0:0:0:
256,192,154327,1,8,0:0:0:0:
256,192,154416,1,0,0:0:0:0:
256,192,154504,1,0,0:0:0:0:
256,192,154592,1,8,0:0:0:0:
256,192,154680,1,8,0:0:0:0:
256,192,154768,1,0,0:0:0:0:
256,192,154857,1,0,0:0:0:0:
256,192,154945,1,8,0:0:0:0:
256,192,155033,1,0,0:0:0:0:
256,192,155121,1,0,0:0:0:0:
256,192,155210,1,8,0:0:0:0:
256,192,155298,1,8,0:0:0:0:
256,192,155386,1,0,0:0:0:0:
256,192,155474,1,0,0:0:0:0:
256,192,155563,1,8,0:0:0:0:
256,192,155651,1,8,0:0:0:0:
256,192,155739,1,8,0:0:0:0:
256,192,155827,1,0,0:0:0:0:
256,192,155916,1,0,0:0:0:0:
256,192,156004,1,8,0:0:0:0:
256,192,156092,1,8,0:0:0:0:
256,192,156180,1,0,0:0:0:0:
256,192,156268,1,8,0:0:0:0:
256,192,156357,1,8,0:0:0:0:
256,192,156445,1,8,0:0:0:0:
256,192,156533,1,0,0:0:0:0:
256,192,156622,1,0,0:0:0:0:
256,192,156710,1,8,0:0:0:0:
256,192,156828,1,0,0:0:0:0:
256,192,156887,1,0,0:0:0:0:
256,192,156946,1,8,0:0:0:0:
256,192,157063,1,8,0:0:0:0:
256,192,157122,1,8,0:0:0:0:
256,192,157181,1,0,0:0:0:0:
256,192,157299,1,0,0:0:0:0:
256,192,157416,1,8,0:0:0:0:
256,192,157475,1,0,0:0:0:0:
256,192,157534,1,0,0:0:0:0:
256,192,157652,1,8,0:0:0:0:
256,192,157769,1,8,0:0:0:0:
256,192,157887,1,0,0:0:0:0:
256,192,158004,1,0,0:0:0:0:
256,192,158122,1,12,0:0:0:0:
256,192,158299,1,8,0:0:0:0:
256,192,158475,1,8,0:0:0:0:
256,192,158652,1,0,0:0:0:0:
256,192,158828,1,8,0:0:0:0:
256,192,159004,1,0,0:0:0:0:
256,192,159093,1,0,0:0:0:0:
256,192,159181,1,0,0:0:0:0:
256,192,159357,1,0,0:0:0:0:
256,192,159446,1,0,0:0:0:0:
256,192,159534,1,0,0:0:0:0:
256,192,159710,1,8,0:0:0:0:
256,192,159887,1,8,0:0:0:0:
256,192,160063,1,0,0:0:0:0:
256,192,160240,1,8,0:0:0:0:
256,192,160416,1,0,0:0:0:0:
256,192,160504,1,0,0:0:0:0:
256,192,160593,1,0,0:0:0:0:
256,192,160769,1,0,0:0:0:0:
256,192,160857,1,0,0:0:0:0:
256,192,160946,1,0,0:0:0:0:
256,192,161122,1,8,0:0:0:0:
256,192,161299,1,8,0:0:0:0:
256,192,161475,1,0,0:0:0:0:
256,192,161652,1,8,0:0:0:0:
256,192,161740,1,0,0:0:0:0:
256,192,161828,1,0,0:0:0:0:
256,192,161916,1,8,0:0:0:0:
256,192,162004,1,8,0:0:0:0:
256,192,162093,1,0,0:0:0:0:
256,192,162181,1,0,0:0:0:0:
256,192,162269,1,8,0:0:0:0:
256,192,162357,1,8,0:0:0:0:
256,192,162534,1,8,0:0:0:0:
256,192,162710,1,8,0:0:0:0:
256,192,162887,1,0,0:0:0:0:
256,192,163063,1,8,0:0:0:0:
256,192,163240,1,0,0:0:0:0:
256,192,163328,1,0,0:0:0:0:
256,192,163416,1,8,0:0:0:0:
256,192,163504,1,8,0:0:0:0:
256,192,163593,1,8,0:0:0:0:
256,192,163681,1,8,0:0:0:0:
256,192,163769,1,4,0:0:0:0:
256,192,163946,1,0,0:0:0:0:
256,192,164034,1,0,0:0:0:0:
256,192,164122,1,8,0:0:0:0:
256,192,164299,1,0,0:0:0:0:
256,192,164387,1,0,0:0:0:0:
256,192,164475,1,8,0:0:0:0:
256,192,164563,1,0,0:0:0:0:
256,192,164652,1,0,0:0:0:0:
256,192,164828,1,8,0:0:0:0:
256,192,165004,1,8,0:0:0:0:
256,192,165093,1,0,0:0:0:0:
256,192,165181,1,8,0:0:0:0:
256,192,165269,1,8,0:0:0:0:
256,192,165357,1,8,0:0:0:0:
256,192,165446,1,0,0:0:0:0:
256,192,165534,1,8,0:0:0:0:
256,192,165710,1,0,0:0:0:0:
256,192,165799,1,0,0:0:0:0:
256,192,165887,1,8,0:0:0:0:
256,192,165975,1,0,0:0:0:0:
256,192,166063,1,0,0:0:0:0:
256,192,166240,1,8,0:0:0:0:
256,192,166328,1,8,0:0:0:0:
256,192,166416,1,0,0:0:0:0:
256,192,166504,1,0,0:0:0:0:
256,192,166593,1,8,0:0:0:0:
256,192,166681,1,8,0:0:0:0:
256,192,166769,1,8,0:0:0:0:
256,192,166857,1,0,0:0:0:0:
256,192,166946,1,8,0:0:0:0:
256,192,167034,1,8,0:0:0:0:
256,192,167122,1,0,0:0:0:0:
256,192,167210,1,0,0:0:0:0:
256,192,167299,1,8,0:0:0:0:
256,192,167387,1,8,0:0:0:0:
256,192,167475,1,0,0:0:0:0:
256,192,167563,1,0,0:0:0:0:
256,192,167652,1,8,0:0:0:0:
256,192,167828,1,8,0:0:0:0:
256,192,167916,1,0,0:0:0:0:
256,192,168004,1,8,0:0:0:0:
256,192,168093,1,8,0:0:0:0:
256,192,168181,1,0,0:0:0:0:
256,192,168269,1,0,0:0:0:0:
256,192,168357,1,8,0:0:0:0:
256,192,168446,1,8,0:0:0:0:
256,192,168534,1,8,0:0:0:0:
256,192,168622,1,0,0:0:0:0:
256,192,168710,1,8,0:0:0:0:
256,192,168799,1,0,0:0:0:0:
256,192,168887,1,0,0:0:0:0:
256,192,168975,1,0,0:0:0:0:
256,192,169063,1,12,0:0:0:0:
256,192,169240,1,0,0:0:0:0:
256,192,169328,1,0,0:0:0:0:
256,192,169416,1,12,0:0:0:0:
256,192,169593,1,0,0:0:0:0:
256,192,169681,1,0,0:0:0:0:
256,192,169769,1,8,0:0:0:0:
256,192,169946,1,0,0:0:0:0:
256,192,170034,1,0,0:0:0:0:
256,192,170122,1,8,0:0:0:0:
256,192,170210,1,0,0:0:0:0:
256,192,170299,1,0,0:0:0:0:
256,192,170475,1,8,0:0:0:0:
256,192,170652,1,8,0:0:0:0:
256,192,170828,1,8,0:0:0:0:
256,192,171063,1,8,0:0:0:0:
256,192,171181,1,8,0:0:0:0:
256,192,171357,1,8,0:0:0:0:
256,192,171446,1,8,0:0:0:0:
256,192,171622,1,8,0:0:0:0:
256,192,171799,1,8,0:0:0:0:
256,192,171975,1,8,0:0:0:0:
256,192,172240,1,8,0:0:0:0:
256,192,172328,1,0,0:0:0:0:
256,192,172416,1,0,0:0:0:0:
256,192,172504,1,0,0:0:0:0:
256,192,172593,1,8,0:0:0:0:
256,192,172769,1,0,0:0:0:0:
256,192,172857,1,0,0:0:0:0:
256,192,172946,1,8,0:0:0:0:
256,192,173034,1,0,0:0:0:0:
256,192,173210,1,0,0:0:0:0:
256,192,173299,1,8,0:0:0:0:
256,192,173387,1,8,0:0:0:0:
256,192,173475,1,0,0:0:0:0:
256,192,173563,1,0,0:0:0:0:
256,192,173652,1,8,0:0:0:0:
256,192,173740,1,0,0:0:0:0:
256,192,173828,1,8,0:0:0:0:
256,192,174004,1,8,0:0:0:0:
256,192,174093,1,8,0:0:0:0:
256,192,174181,1,8,0:0:0:0:
256,192,174269,1,0,0:0:0:0:
256,192,174313,1,0,0:0:0:0:
256,192,174357,1,8,0:0:0:0:
256,192,174446,1,8,0:0:0:0:
256,192,174534,1,0,0:0:0:0:
256,192,174622,1,0,0:0:0:0:
256,192,174710,1,8,0:0:0:0:
256,192,174799,1,0,0:0:0:0:
256,192,174887,1,0,0:0:0:0:
256,192,174975,1,0,0:0:0:0:
256,192,175063,1,12,0:0:0:0:
256,192,175240,1,0,0:0:0:0:
256,192,175328,1,0,0:0:0:0:
256,192,175416,1,8,0:0:0:0:
256,192,175504,1,8,0:0:0:0:
256,192,175593,1,0,0:0:0:0:
256,192,175681,1,0,0:0:0:0:
256,192,175769,1,8,0:0:0:0:
256,192,175857,1,8,0:0:0:0:
256,192,175946,1,0,0:0:0:0:
256,192,176034,1,0,0:0:0:0:
256,192,176122,1,8,0:0:0:0:
256,192,176210,1,8,0:0:0:0:
256,192,176299,1,0,0:0:0:0:
256,192,176387,1,0,0:0:0:0:
256,192,176475,1,8,0:0:0:0:
256,192,176563,1,8,0:0:0:0:
256,192,176652,1,0,0:0:0:0:
256,192,176740,1,0,0:0:0:0:
256,192,176828,1,8,0:0:0:0:
256,192,176916,1,8,0:0:0:0:
256,192,177005,1,0,0:0:0:0:
256,192,177093,1,0,0:0:0:0:
256,192,177181,1,8,0:0:0:0:
256,192,177269,1,8,0:0:0:0:
256,192,177358,1,0,0:0:0:0:
256,192,177446,1,0,0:0:0:0:
256,192,177534,1,8,0:0:0:0:
256,192,177622,1,8,0:0:0:0:
256,192,177711,1,0,0:0:0:0:
256,192,177799,1,0,0:0:0:0:
256,192,177887,1,8,0:0:0:0:
256,192,178240,1,8,0:0:0:0:
256,192,178416,1,0,0:0:0:0:
256,192,178504,1,0,0:0:0:0:
256,192,178593,1,8,0:0:0:0:
256,192,178681,1,8,0:0:0:0:
256,192,178769,1,0,0:0:0:0:
256,192,178857,1,8,0:0:0:0:
256,192,178946,1,8,0:0:0:0:
256,192,179122,1,8,0:0:0:0:
256,192,179210,1,8,0:0:0:0:
256,192,179299,1,0,0:0:0:0:
256,192,179387,1,0,0:0:0:0:
256,192,179475,1,8,0:0:0:0:
256,192,179563,1,0,0:0:0:0:
256,192,179652,1,8,0:0:0:0:
256,192,179740,1,8,0:0:0:0:
256,192,179828,1,8,0:0:0:0:
256,192,179916,1,8,0:0:0:0:
256,192,180004,1,4,0:0:0:0:
256,192,180181,1,8,0:0:0:0:
256,192,180269,1,8,0:0:0:0:
256,192,180357,1,0,0:0:0:0:
256,192,180534,1,0,0:0:0:0:
256,192,180710,1,0,0:0:0:0:
256,192,180799,1,0,0:0:0:0:
256,192,180887,1,8,0:0:0:0:
256,192,180975,1,8,0:0:0:0:
256,192,181063,1,0,0:0:0:0:
256,192,181240,1,0,0:0:0:0:
256,192,181328,1,0,0:0:0:0:
256,192,181416,1,0,0:0:0:0:
256,192,181504,1,8,0:0:0:0:
256,192,181593,1,8,0:0:0:0:
256,192,181681,1,8,0:0:0:0:
256,192,181769,1,0,0:0:0:0:
256,192,181946,1,0,0:0:0:0:
256,192,182034,1,0,0:0:0:0:
256,192,182122,1,0,0:0:0:0:
256,192,182210,1,8,0:0:0:0:
256,192,182299,1,8,0:0:0:0:
256,192,182387,1,0,0:0:0:0:
256,192,182475,1,8,0:0:0:0:
256,192,182652,1,0,0:0:0:0:
256,192,182740,1,0,0:0:0:0:
256,192,182828,1,8,0:0:0:0:
256,192,182916,1,8,0:0:0:0:
256,192,183004,1,8,0:0:0:0:
256,192,183093,1,0,0:0:0:0:
256,192,183181,1,8,0:0:0:0:
256,192,183357,1,0,0:0:0:0:
256,192,183446,1,0,0:0:0:0:
256,192,183534,1,8,0:0:0:0:
256,192,183622,1,0,0:0:0:0:
256,192,183710,1,8,0:0:0:0:
256,192,183799,1,8,0:0:0:0:
256,192,183887,1,0,0:0:0:0:
256,192,184063,1,0,0:0:0:0:
256,192,184152,1,8,0:0:0:0:
256,192,184240,1,8,0:0:0:0:
256,192,184328,1,0,0:0:0:0:
256,192,184416,1,0,0:0:0:0:
256,192,184504,1,0,0:0:0:0:
256,192,184593,1,8,0:0:0:0:
256,192,184681,1,8,0:0:0:0:
256,192,184769,1,0,0:0:0:0:
256,192,184857,1,0,0:0:0:0:
256,192,184946,1,12,0:0:0:0:
256,192,185122,1,8,0:0:0:0:
256,192,185210,1,8,0:0:0:0:
256,192,185299,1,4,0:0:0:0:
256,192,185475,1,0,0:0:0:0:
256,192,185563,1,0,0:0:0:0:
256,192,185652,1,12,0:0:0:0:
256,192,185828,1,0,0:0:0:0:
256,192,186004,1,8,0:0:0:0:
256,192,186093,1,8,0:0:0:0:
256,192,186181,1,8,0:0:0:0:
256,192,186269,1,0,0:0:0:0:
256,192,186534,1,8,0:0:0:0:
256,192,186622,1,8,0:0:0:0:
256,192,186710,1,8,0:0:0:0:
256,192,186799,1,0,0:0:0:0:
256,192,187063,1,4,0:0:0:0:
256,192,187299,1,4,0:0:0:0:
256,192,187534,1,4,0:0:0:0:
256,192,189181,1,12,0:0:0:0:
256,192,189357,1,0,0:0:0:0:
256,192,189446,1,0,0:0:0:0:
256,192,189534,1,8,0:0:0:0:
256,192,189622,1,8,0:0:0:0:
256,192,189710,1,0,0:0:0:0:
256,192,189799,1,8,0:0:0:0:
256,192,189887,1,0,0:0:0:0:
256,192,189975,1,8,0:0:0:0:
256,192,190063,1,0,0:0:0:0:
256,192,190152,1,8,0:0:0:0:
256,192,190240,1,8,0:0:0:0:
256,192,190328,1,8,0:0:0:0:
256,192,190416,1,8,0:0:0:0:
256,192,190504,1,0,0:0:0:0:
256,192,190593,1,0,0:0:0:0:
256,192,190681,1,8,0:0:0:0:
256,192,190769,1,8,0:0:0:0:
256,192,190857,1,0,0:0:0:0:
256,192,190946,1,8,0:0:0:0:
256,192,191034,1,8,0:0:0:0:
256,192,191122,1,8,0:0:0:0:
256,192,191210,1,0,0:0:0:0:
256,192,191299,1,8,0:0:0:0:
256,192,191387,1,8,0:0:0:0:
256,192,191475,1,0,0:0:0:0:
256,192,191563,1,0,0:0:0:0:
256,192,191652,1,8,0:0:0:0:
256,192,191740,1,0,0:0:0:0:
256,192,191828,1,8,0:0:0:0:
256,192,191916,1,0,0:0:0:0:
256,192,192004,1,8,0:0:0:0:
256,192,192063,1,8,0:0:0:0:
256,192,192122,1,8,0:0:0:0:
256,192,192181,1,0,0:0:0:0:
256,192,192269,1,0,0:0:0:0:
256,192,192357,1,8,0:0:0:0:
256,192,192446,1,8,0:0:0:0:
256,192,192534,1,8,0:0:0:0:
256,192,192622,1,0,0:0:0:0:
256,192,192710,1,8,0:0:0:0:
256,192,192799,1,0,0:0:0:0:
256,192,192887,1,8,0:0:0:0:
256,192,192975,1,0,0:0:0:0:
256,192,193063,1,8,0:0:0:0:
256,192,193152,1,8,0:0:0:0:
256,192,193240,1,8,0:0:0:0:
256,192,193328,1,0,0:0:0:0:
256,192,193416,1,8,0:0:0:0:
256,192,193504,1,0,0:0:0:0:
256,192,193593,1,0,0:0:0:0:
256,192,193681,1,0,0:0:0:0:
256,192,193769,1,8,0:0:0:0:
256,192,193828,1,8,0:0:0:0:
256,192,193887,1,0,0:0:0:0:
256,192,193946,1,8,0:0:0:0:
256,192,194004,1,8,0:0:0:0:
256,192,194063,1,0,0:0:0:0:
256,192,194122,1,8,0:0:0:0:
256,192,194210,1,8,0:0:0:0:
256,192,194299,1,0,0:0:0:0:
256,192,194387,1,0,0:0:0:0:
256,192,194475,1,8,0:0:0:0:
256,192,194652,1,8,0:0:0:0:
256,192,194740,1,0,0:0:0:0:
256,192,194828,1,8,0:0:0:0:
256,192,194916,1,8,0:0:0:0:
256,192,195004,1,0,0:0:0:0:
256,192,195093,1,0,0:0:0:0:
256,192,195181,1,8,0:0:0:0:
256,192,195269,1,0,0:0:0:0:
256,192,195357,1,8,0:0:0:0:
256,192,195446,1,8,0:0:0:0:
256,192,195534,1,8,0:0:0:0:
256,192,195622,1,0,0:0:0:0:
256,192,195710,1,0,0:0:0:0:
256,192,195799,1,0,0:0:0:0:
256,192,195887,1,8,0:0:0:0:
256,192,195975,1,8,0:0:0:0:
256,192,196063,1,8,0:0:0:0:
256,192,196152,1,8,0:0:0:0:
256,192,196240,1,0,0:0:0:0:
256,192,196328,1,0,0:0:0:0:
256,192,196416,1,8,0:0:0:0:
256,192,196504,1,0,0:0:0:0:
256,192,196593,1,8,0:0:0:0:
256,192,196681,1,0,0:0:0:0:
256,192,196769,1,0,0:0:0:0:
256,192,196857,1,0,0:0:0:0:
256,192,196946,1,8,0:0:0:0:
256,192,197034,1,0,0:0:0:0:
256,192,197122,1,0,0:0:0:0:
256,192,197210,1,0,0:0:0:0:
256,192,197299,1,8,0:0:0:0:
256,192,197387,1,8,0:0:0:0:
256,192,197475,1,0,0:0:0:0:
256,192,197563,1,0,0:0:0:0:
256,192,197652,1,8,0:0:0:0:
256,192,197740,1,8,0:0:0:0:
256,192,197828,1,8,0:0:0:0:
256,192,197916,1,0,0:0:0:0:
256,192,198004,1,8,0:0:0:0:
256,192,198093,1,0,0:0:0:0:
256,192,198181,1,8,0:0:0:0:
256,192,198269,1,8,0:0:0:0:
256,192,198357,1,8,0:0:0:0:
256,192,198446,1,8,0:0:0:0:
256,192,198534,1,0,0:0:0:0:
256,192,198622,1,0,0:0:0:0:
256,192,198710,1,8,0:0:0:0:
256,192,198799,1,0,0:0:0:0:
256,192,198887,1,0,0:0:0:0:
256,192,198975,1,0,0:0:0:0:
256,192,199063,1,8,0:0:0:0:
256,192,199152,1,0,0:0:0:0:
256,192,199240,1,0,0:0:0:0:
256,192,199328,1,0,0:0:0:0:
256,192,199416,1,12,0:0:0:0:
256,192,199593,1,8,0:0:0:0:
256,192,199681,1,0,0:0:0:0:
256,192,199769,1,0,0:0:0:0:
256,192,199857,1,0,0:0:0:0:
256,192,199946,1,0,0:0:0:0:
256,192,200034,1,8,0:0:0:0:
256,192,200122,1,8,0:0:0:0:
256,192,200210,1,8,0:0:0:0:
256,192,200299,1,0,0:0:0:0:
256,192,200387,1,0,0:0:0:0:
256,192,200475,1,12,0:0:0:0:
256,192,200652,1,0,0:0:0:0:
256,192,200740,1,0,0:0:0:0:
256,192,200828,1,8,0:0:0:0:
256,192,200916,1,0,0:0:0:0:
256,192,201004,1,0,0:0:0:0:
256,192,201093,1,0,0:0:0:0:
256,192,201181,1,8,0:0:0:0:
256,192,201269,1,0,0:0:0:0:
256,192,201357,1,0,0:0:0:0:
256,192,201446,1,0,0:0:0:0:
256,192,201534,1,8,0:0:0:0:
256,192,201622,1,0,0:0:0:0:
256,192,201710,1,0,0:0:0:0:
256,192,201799,1,0,0:0:0:0:
256,192,201887,1,8,0:0:0:0:
256,192,201975,1,8,0:0:0:0:
256,192,202063,1,0,0:0:0:0:
256,192,202152,1,8,0:0:0:0:
256,192,202240,1,8,0:0:0:0:
256,192,202328,1,0,0:0:0:0:
256,192,202416,1,8,0:0:0:0:
256,192,202504,1,0,0:0:0:0:
256,192,202593,1,8,0:0:0:0:
256,192,202681,1,8,0:0:0:0:
256,192,202769,1,0,0:0:0:0:
256,192,202857,1,0,0:0:0:0:
256,192,202946,1,8,0:0:0:0:
256,192,203034,1,0,0:0:0:0:
256,192,203122,1,8,0:0:0:0:
256,192,203210,1,0,0:0:0:0:
256,192,203299,1,0,0:0:0:0:
256,192,203387,1,0,0:0:0:0:
256,192,203475,1,8,0:0:0:0:
256,192,203563,1,8,0:0:0:0:
256,192,203652,1,0,0:0:0:0:
256,192,203740,1,8,0:0:0:0:
256,192,203828,1,8,0:0:0:0:
256,192,203916,1,0,0:0:0:0:
256,192,204004,1,8,0:0:0:0:
256,192,204093,1,8,0:0:0:0:
256,192,204181,1,0,0:0:0:0:
256,192,204269,1,8,0:0:0:0:
256,192,204357,1,8,0:0:0:0:
256,192,204446,1,0,0:0:0:0:
256,192,204534,1,8,0:0:0:0:
256,192,204622,1,0,0:0:0:0:
256,192,204710,1,8,0:0:0:0:
256,192,204799,1,8,0:0:0:0:
256,192,204887,1,0,0:0:0:0:
256,192,204975,1,8,0:0:0:0:
256,192,205063,1,8,0:0:0:0:
256,192,205152,1,0,0:0:0:0:
256,192,205240,1,8,0:0:0:0:
256,192,205328,1,0,0:0:0:0:
256,192,205416,1,8,0:0:0:0:
256,192,205504,1,0,0:0:0:0:
256,192,205593,1,8,0:0:0:0:
256,192,205681,1,8,0:0:0:0:
256,192,205769,1,8,0:0:0:0:
256,192,205857,1,0,0:0:0:0:
256,192,205946,1,8,0:0:0:0:
256,192,206034,1,8,0:0:0:0:
256,192,206122,1,4,0:0:0:0:
256,192,206299,1,0,0:0:0:0:
256,192,206387,1,0,0:0:0:0:
256,192,206475,1,0,0:0:0:0:
256,192,206563,1,0,0:0:0:0:
256,192,206652,1,8,0:0:0:0:
256,192,206740,1,0,0:0:0:0:
256,192,206828,1,8,0:0:0:0:
256,192,206916,1,8,0:0:0:0:
256,192,207004,1,0,0:0:0:0:
256,192,207093,1,0,0:0:0:0:
256,192,207181,1,8,0:0:0:0:
256,192,207269,1,0,0:0:0:0:
256,192,207357,1,8,0:0:0:0:
256,192,207446,1,8,0:0:0:0:
256,192,207534,1,8,0:0:0:0:
256,192,207622,1,0,0:0:0:0:
256,192,207710,1,8,0:0:0:0:
256,192,207799,1,0,0:0:0:0:
256,192,207887,1,8,0:0:0:0:
256,192,207975,1,8,0:0:0:0:
256,192,208063,1,0,0:0:0:0:
256,192,208152,1,0,0:0:0:0:
256,192,208240,1,8,0:0:0:0:
256,192,208328,1,8,0:0:0:0:
256,192,208416,1,8,0:0:0:0:
256,192,208504,1,0,0:0:0:0:
256,192,208593,1,8,0:0:0:0:
256,192,208681,1,0,0:0:0:0:
256,192,208769,1,8,0:0:0:0:
256,192,208857,1,0,0:0:0:0:
256,192,208946,1,8,0:0:0:0:
256,192,209034,1,8,0:0:0:0:
256,192,209122,1,8,0:0:0:0:
256,192,209210,1,0,0:0:0:0:
256,192,209299,1,8,0:0:0:0:
256,192,209387,1,8,0:0:0:0:
256,192,209475,1,0,0:0:0:0:
256,192,209563,1,0,0:0:0:0:
256,192,209652,1,8,0:0:0:0:
256,192,209740,1,8,0:0:0:0:
256,192,209828,1,8,0:0:0:0:
256,192,209916,1,0,0:0:0:0:
256,192,210004,1,8,0:0:0:0:
256,192,210093,1,8,0:0:0:0:
256,192,210181,1,0,0:0:0:0:
256,192,210269,1,0,0:0:0:0:
256,192,210357,1,8,0:0:0:0:
256,192,210446,1,8,0:0:0:0:
256,192,210534,1,8,0:0:0:0:
256,192,210622,1,0,0:0:0:0:
256,192,210710,1,8,0:0:0:0:
256,192,210799,1,8,0:0:0:0:
256,192,210887,1,8,0:0:0:0:
256,192,210975,1,0,0:0:0:0:
256,192,211063,1,8,0:0:0:0:
256,192,211152,1,8,0:0:0:0:
256,192,211240,1,8,0:0:0:0:
256,192,211328,1,8,0:0:0:0:
256,192,211416,1,8,0:0:0:0:
256,192,211504,1,0,0:0:0:0:
256,192,211593,1,0,0:0:0:0:
256,192,211681,1,0,0:0:0:0:
256,192,211769,1,12,0:0:0:0:
256,192,211946,1,0,0:0:0:0:
256,192,212034,1,0,0:0:0:0:
256,192,212122,1,12,0:0:0:0:
256,192,212299,1,0,0:0:0:0:
256,192,212387,1,0,0:0:0:0:
256,192,212475,1,12,0:0:0:0:
256,192,212652,1,0,0:0:0:0:
256,192,212740,1,0,0:0:0:0:
256,192,212828,1,12,0:0:0:0:
256,192,213004,1,0,0:0:0:0:
256,192,213093,1,0,0:0:0:0:
256,192,213181,1,8,0:0:0:0:
256,192,213269,1,8,0:0:0:0:
256,192,213357,1,0,0:0:0:0:
256,192,213446,1,0,0:0:0:0:
256,192,213534,1,8,0:0:0:0:
256,192,213593,1,8,0:0:0:0:
256,192,213652,1,8,0:0:0:0:
256,192,213710,1,0,0:0:0:0:
256,192,213769,1,0,0:0:0:0:
256,192,213828,1,0,0:0:0:0:
256,192,213887,1,8,0:0:0:0:
256,192,214063,1,0,0:0:0:0:
256,192,214240,1,0,0:0:0:0:
256,192,214416,1,0,0:0:0:0:
256,192,214593,1,12,0:0:0:0:
256,192,214770,1,0,0:0:0:0:
256,192,214946,1,8,0:0:0:0:
256,192,215123,1,0,0:0:0:0:
256,192,215299,1,0,0:0:0:0:
256,192,215476,1,0,0:0:0:0:
256,192,215652,1,8,0:0:0:0:
256,192,215828,1,0,0:0:0:0:
256,192,216005,1,0,0:0:0:0:
256,192,216181,1,0,0:0:0:0:
256,192,216358,1,8,0:0:0:0:
256,192,216534,1,8,0:0:0:0:
256,192,216711,1,0,0:0:0:0:
256,192,216887,1,8,0:0:0:0:
256,192,217064,1,8,0:0:0:0:
256,192,217152,1,0,0:0:0:0:
256,192,217240,1,0,0:0:0:0:
256,192,217328,1,0,0:0:0:0:
256,192,217417,1,8,0:0:0:0:
256,192,217593,1,0,0:0:0:0:
256,192,217770,1,8,0:0:0:0:
256,192,217946,1,0,0:0:0:0:
256,192,218123,1,0,0:0:0:0:
256,192,218299,1,0,0:0:0:0:
256,192,218476,1,8,0:0:0:0:
256,192,218652,1,0,0:0:0:0:
256,192,218828,1,12,0:0:0:0:
256,192,219005,1,12,0:0:0:0:
256,192,219181,1,8,0:0:0:0:
256,192,219270,1,0,0:0:0:0:
256,192,219358,1,8,0:0:0:0:
256,192,219447,1,0,0:0:0:0:
256,192,219535,1,12,0:0:0:0:
256,192,219711,1,0,0:0:0:0:
256,192,219800,1,0,0:0:0:0:
256,192,219888,1,12,0:0:0:0:
256,192,220064,1,0,0:0:0:0:
256,192,220153,1,0,0:0:0:0:
256,192,220240,1,12,0:0:0:0:
256,192,220417,1,0,0:0:0:0:
256,192,220505,1,0,0:0:0:0:
256,192,220593,1,8,0:0:0:0:
256,192,220681,1,8,0:0:0:0:
256,192,220770,1,0,0:0:0:0:
256,192,220858,1,0,0:0:0:0:
256,192,220946,1,8,0:0:0:0:
256,192,221034,1,0,0:0:0:0:
256,192,221123,1,8,0:0:0:0:
256,192,221211,1,0,0:0:0:0:
256,192,221299,1,8,0:0:0:0:
256,192,221387,1,8,0:0:0:0:
256,192,221476,1,0,0:0:0:0:
256,192,221564,1,0,0:0:0:0:
256,192,221652,1,8,0:0:0:0:
256,192,221740,1,0,0:0:0:0:
256,192,221828,1,8,0:0:0:0:
256,192,221917,1,0,0:0:0:0:
256,192,222005,1,8,0:0:0:0:
256,192,222093,1,8,0:0:0:0:
256,192,222181,1,0,0:0:0:0:
256,192,222270,1,0,0:0:0:0:
256,192,222358,1,12,0:0:0:0:
256,192,222534,1,0,0:0:0:0:
256,192,222623,1,8,0:0:0:0:
256,192,222711,1,8,0:0:0:0:
256,192,222799,1,8,0:0:0:0:
256,192,222887,1,0,0:0:0:0:
256,192,223064,1,12,0:0:0:0:
256,192,223240,1,0,0:0:0:0:
256,192,223328,1,0,0:0:0:0:
256,192,223417,1,8,0:0:0:0:
256,192,223505,1,8,0:0:0:0:
256,192,223593,1,0,0:0:0:0:
256,192,223682,1,0,0:0:0:0:
256,192,223770,1,12,0:0:0:0:
256,192,223946,1,0,0:0:0:0:
256,192,224034,1,0,0:0:0:0:
256,192,224123,1,12,0:0:0:0:
256,192,224299,1,0,0:0:0:0:
256,192,224387,1,0,0:0:0:0:
256,192,224475,1,12,0:0:0:0:
256,192,224710,1,4,0:0:0:0:
256,192,224946,1,4,0:0:0:0:
256,192,225181,1,12,0:0:0:0:
256,192,225416,1,4,0:0:0:0:
256,192,225652,1,12,0:0:0:0:
256,192,225887,1,12,0:0:0:0:
256,192,226064,1,0,0:0:0:0:
256,192,226152,1,0,0:0:0:0:
256,192,226240,1,8,0:0:0:0:
256,192,226328,1,0,0:0:0:0:
256,192,226417,1,8,0:0:0:0:
256,192,226505,1,8,0:0:0:0:
256,192,226593,1,0,0:0:0:0:
256,192,226681,1,0,0:0:0:0:
256,192,226770,1,0,0:0:0:0:
256,192,226858,1,8,0:0:0:0:
256,192,226946,1,8,0:0:0:0:
256,192,227034,1,0,0:0:0:0:
256,192,227123,1,8,0:0:0:0:
256,192,227211,1,0,0:0:0:0:
256,192,227299,1,8,0:0:0:0:
256,192,227387,1,8,0:0:0:0:
256,192,227476,1,0,0:0:0:0:
256,192,227564,1,8,0:0:0:0:
256,192,227652,1,8,0:0:0:0:
256,192,227740,1,8,0:0:0:0:
256,192,227828,1,0,0:0:0:0:
256,192,227917,1,0,0:0:0:0:
256,192,228005,1,8,0:0:0:0:
256,192,228093,1,8,0:0:0:0:
256,192,228181,1,0,0:0:0:0:
256,192,228270,1,0,0:0:0:0:
256,192,228358,1,8,0:0:0:0:
256,192,228446,1,0,0:0:0:0:
256,192,228534,1,0,0:0:0:0:
256,192,228623,1,8,0:0:0:0:
256,192,228711,1,8,0:0:0:0:
256,192,228799,1,0,0:0:0:0:
256,192,228887,1,0,0:0:0:0:
256,192,228976,1,8,0:0:0:0:
256,192,229064,1,8,0:0:0:0:
256,192,229152,1,8,0:0:0:0:
256,192,229240,1,0,0:0:0:0:
256,192,229328,1,0,0:0:0:0:
256,192,229417,1,8,0:0:0:0:
256,192,229505,1,0,0:0:0:0:
256,192,229593,1,0,0:0:0:0:
256,192,229681,1,8,0:0:0:0:
256,192,229770,1,8,0:0:0:0:
256,192,229858,1,0,0:0:0:0:
256,192,229946,1,0,0:0:0:0:
256,192,230034,1,0,0:0:0:0:
256,192,230123,1,8,0:0:0:0:
256,192,230211,1,8,0:0:0:0:
256,192,230299,1,8,0:0:0:0:
256,192,230387,1,0,0:0:0:0:
256,192,230476,1,8,0:0:0:0:
256,192,230564,1,0,0:0:0:0:
256,192,230652,1,8,0:0:0:0:
256,192,230740,1,0,0:0:0:0:
256,192,230828,1,8,0:0:0:0:
256,192,230917,1,8,0:0:0:0:
256,192,231005,1,0,0:0:0:0:
256,192,231093,1,0,0:0:0:0:
256,192,231181,1,8,0:0:0:0:
256,192,231270,1,8,0:0:0:0:
256,192,231358,1,0,0:0:0:0:
256,192,231446,1,0,0:0:0:0:
256,192,231534,1,12,0:0:0:0:
256,192,231711,1,0,0:0:0:0:
256,192,231799,1,0,0:0:0:0:
256,192,231887,1,8,0:0:0:0:
256,192,231976,1,0,0:0:0:0:
256,192,232064,1,8,0:0:0:0:
256,192,232152,1,8,0:0:0:0:
256,192,232240,1,0,0:0:0:0:
256,192,232328,1,0,0:0:0:0:
256,192,232417,1,0,0:0:0:0:
256,192,232505,1,8,0:0:0:0:
256,192,232593,1,8,0:0:0:0:
256,192,232681,1,0,0:0:0:0:
256,192,232770,1,8,0:0:0:0:
256,192,232858,1,0,0:0:0:0:
256,192,232946,1,8,0:0:0:0:
256,192,233034,1,8,0:0:0:0:
256,192,233123,1,0,0:0:0:0:
256,192,233211,1,8,0:0:0:0:
256,192,233299,1,8,0:0:0:0:
256,192,233387,1,8,0:0:0:0:
256,192,233476,1,0,0:0:0:0:
256,192,233564,1,0,0:0:0:0:
256,192,233652,1,8,0:0:0:0:
256,192,233740,1,8,0:0:0:0:
256,192,233828,1,0,0:0:0:0:
256,192,233917,1,0,0:0:0:0:
256,192,234005,1,8,0:0:0:0:
256,192,234093,1,0,0:0:0:0:
256,192,234181,1,0,0:0:0:0:
256,192,234270,1,8,0:0:0:0:
256,192,234358,1,8,0:0:0:0:
256,192,234446,1,0,0:0:0:0:
256,192,234534,1,0,0:0:0:0:
256,192,234623,1,8,0:0:0:0:
256,192,234711,1,8,0:0:0:0:
256,192,234799,1,8,0:0:0:0:
256,192,234887,1,0,0:0:0:0:
256,192,234976,1,0,0:0:0:0:
256,192,235064,1,8,0:0:0:0:
256,192,235152,1,8,0:0:0:0:
256,192,235240,1,0,0:0:0:0:
256,192,235328,1,8,0:0:0:0:
256,192,235417,1,0,0:0:0:0:
256,192,235505,1,0,0:0:0:0:
256,192,235593,1,8,0:0:0:0:
256,192,235681,1,0,0:0:0:0:
256,192,235770,1,8,0:0:0:0:
256,192,235858,1,8,0:0:0:0:
256,192,235946,1,8,0:0:0:0:
256,192,236034,1,0,0:0:0:0:
256,192,236123,1,12,0:0:0:0:
256,192,236299,1,0,0:0:0:0:
256,192,236387,1,0,0:0:0:0:
256,192,236476,1,8,0:0:0:0:
256,192,236563,1,0,0:0:0:0:
256,192,236652,1,8,0:0:0:0:
256,192,236740,1,8,0:0:0:0:
256,192,236828,1,8,0:0:0:0:
256,192,236917,1,0,0:0:0:0:
256,192,237005,1,0,0:0:0:0:
256,192,237093,1,0,0:0:0:0:
256,192,237181,1,12,0:0:0:0:
256,192,237358,1,0,0:0:0:0:
256,192,237446,1,0,0:0:0:0:
256,192,237534,1,8,0:0:0:0:
256,192,237622,1,0,0:0:0:0:
256,192,237711,1,8,0:0:0:0:
256,192,237799,1,8,0:0:0:0:
256,192,237887,1,0,0:0:0:0:
256,192,237976,1,0,0:0:0:0:
256,192,238064,1,0,0:0:0:0:
256,192,238152,1,8,0:0:0:0:
256,192,238240,1,8,0:0:0:0:
256,192,238328,1,0,0:0:0:0:
256,192,238417,1,8,0:0:0:0:
256,192,238505,1,0,0:0:0:0:
256,192,238593,1,8,0:0:0:0:
256,192,238681,1,8,0:0:0:0:
256,192,238770,1,0,0:0:0:0:
256,192,238858,1,8,0:0:0:0:
256,192,238946,1,8,0:0:0:0:
256,192,239034,1,8,0:0:0:0:
256,192,239122,1,0,0:0:0:0:
256,192,239211,1,0,0:0:0:0:
256,192,239299,1,8,0:0:0:0:
256,192,239387,1,8,0:0:0:0:
256,192,239475,1,0,0:0:0:0:
256,192,239564,1,0,0:0:0:0:
256,192,239652,1,8,0:0:0:0:
256,192,239740,1,0,0:0:0:0:
256,192,239828,1,0,0:0:0:0:
256,192,239917,1,8,0:0:0:0:
256,192,240005,1,8,0:0:0:0:
256,192,240093,1,0,0:0:0:0:
256,192,240181,1,0,0:0:0:0:
256,192,240270,1,8,0:0:0:0:
256,192,240358,1,8,0:0:0:0:
256,192,240446,1,8,0:0:0:0:
256,192,240534,1,0,0:0:0:0:
256,192,240623,1,0,0:0:0:0:
256,192,240711,1,8,0:0:0:0:
256,192,240799,1,8,0:0:0:0:
256,192,240887,1,0,0:0:0:0:
256,192,240975,1,8,0:0:0:0:
256,192,241064,1,0,0:0:0:0:
256,192,241152,1,0,0:0:0:0:
256,192,241240,1,8,0:0:0:0:
256,192,241328,1,0,0:0:0:0:
256,192,241417,1,8,0:0:0:0:
256,192,241505,1,8,0:0:0:0:
256,192,241593,1,0,0:0:0:0:
256,192,241681,1,0,0:0:0:0:
256,192,241770,1,8,0:0:0:0:
256,192,241858,1,0,0:0:0:0:
256,192,241946,1,8,0:0:0:0:
256,192,242034,1,8,0:0:0:0:
256,192,242122,1,8,0:0:0:0:
256,192,242211,1,0,0:0:0:0:
256,192,242299,1,12,0:0:0:0:
256,192,242476,1,12,0:0:0:0:
256,192,242652,1,0,0:0:0:0:
256,192,242740,1,0,0:0:0:0:
256,192,242828,1,12,0:0:0:0:
256,192,243005,1,0,0:0:0:0:
256,192,243093,1,0,0:0:0:0:
256,192,243181,1,8,0:0:0:0:
256,192,243270,1,0,0:0:0:0:
256,192,243358,1,8,0:0:0:0:
256,192,243446,1,8,0:0:0:0:
256,192,243534,1,0,0:0:0:0:
256,192,243623,1,0,0:0:0:0:
256,192,243711,1,0,0:0:0:0:
256,192,243799,1,8,0:0:0:0:
256,192,243887,1,8,0:0:0:0:
256,192,243975,1,0,0:0:0:0:
256,192,244064,1,8,0:0:0:0:
256,192,244152,1,0,0:0:0:0:
256,192,244240,1,8,0:0:0:0:
256,192,244328,1,8,0:0:0:0:
256,192,244417,1,0,0:0:0:0:
256,192,244505,1,8,0:0:0:0:
256,192,244593,1,8,0:0:0:0:
256,192,244681,1,8,0:0:0:0:
256,192,244770,1,0,0:0:0:0:
256,192,244858,1,0,0:0:0:0:
256,192,244946,1,8,0:0:0:0:
256,192,245034,1,8,0:0:0:0:
256,192,245122,1,0,0:0:0:0:
256,192,245211,1,0,0:0:0:0:
256,192,245299,1,8,0:0:0:0:
256,192,245387,1,0,0:0:0:0:
256,192,245475,1,0,0:0:0:0:
256,192,245564,1,0,0:0:0:0:
256,192,245652,1,12,0:0:0:0:
256,192,245828,1,0,0:0:0:0:
256,192,245916,1,8,0:0:0:0:
256,192,246004,1,8,0:0:0:0:
256,192,246093,1,0,0:0:0:0:
256,192,246181,1,8,0:0:0:0:
256,192,246269,1,0,0:0:0:0:
256,192,246357,1,8,0:0:0:0:
256,192,246446,1,8,0:0:0:0:
256,192,246534,1,8,0:0:0:0:
256,192,246622,1,0,0:0:0:0:
256,192,246710,1,12,0:0:0:0:
256,192,246887,1,0,0:0:0:0:
256,192,246975,1,0,0:0:0:0:
256,192,247063,1,12,0:0:0:0:
256,192,247240,1,0,0:0:0:0:
256,192,247328,1,0,0:0:0:0:
256,192,247416,1,12,0:0:0:0:
256,192,247593,1,0,0:0:0:0:
256,192,247681,1,0,0:0:0:0:
256,192,247769,1,12,0:0:0:0:
256,192,247946,1,4,0:0:0:0:
256,192,248122,1,4,0:0:0:0:
256,192,248299,1,4,0:0:0:0:
256,192,248475,1,12,0:0:0:0:
256,192,249181,1,4,0:0:0:0:
256,192,249887,1,8,0:0:0:0:
256,192,249946,1,8,0:0:0:0:
256,192,250004,1,8,0:0:0:0:
256,192,250063,1,0,0:0:0:0:
256,192,250122,1,0,0:0:0:0:
256,192,250181,1,0,0:0:0:0:
256,192,250240,1,8,0:0:0:0:
256,192,250299,1,8,0:0:0:0:
256,192,250357,1,8,0:0:0:0:
256,192,250416,1,0,0:0:0:0:
256,192,250475,1,0,0:0:0:0:
256,192,250534,1,0,0:0:0:0:
256,192,250593,1,8,0:0:0:0:
256,192,250681,1,8,0:0:0:0:
256,192,250769,1,8,0:0:0:0:
256,192,250857,1,8,0:0:0:0:
256,192,250946,1,0,0:0:0:0:
256,192,251034,1,0,0:0:0:0:
256,192,251122,1,0,0:0:0:0:
256,192,251210,1,0,0:0:0:0:
256,192,251299,1,12,0:0:0:0:
256,192,251475,1,0,0:0:0:0:
256,192,251563,1,0,0:0:0:0:
256,192,251652,1,8,0:0:0:0:
256,192,251740,1,0,0:0:0:0:
256,192,251828,1,8,0:0:0:0:
256,192,251916,1,8,0:0:0:0:
256,192,252093,1,0,0:0:0:0:
256,192,252181,1,0,0:0:0:0:
256,192,252269,1,0,0:0:0:0:
256,192,252357,1,8,0:0:0:0:
256,192,252446,1,8,0:0:0:0:
256,192,252534,1,0,0:0:0:0:
256,192,252622,1,0,0:0:0:0:
256,192,252710,1,8,0:0:0:0:
256,192,252799,1,0,0:0:0:0:
256,192,252887,1,0,0:0:0:0:
256,192,252975,1,0,0:0:0:0:
256,192,253063,1,8,0:0:0:0:
256,192,253240,1,0,0:0:0:0:
256,192,253416,1,8,0:0:0:0:
256,192,253504,1,0,0:0:0:0:
256,192,253593,1,0,0:0:0:0:
256,192,253681,1,0,0:0:0:0:
256,192,253769,1,8,0:0:0:0:
256,192,253857,1,8,0:0:0:0:
256,192,253946,1,8,0:0:0:0:
256,192,254034,1,0,0:0:0:0:
256,192,254122,1,12,0:0:0:0:
256,192,254299,1,0,0:0:0:0:
256,192,254387,1,0,0:0:0:0:
256,192,254475,1,8,0:0:0:0:
256,192,254563,1,0,0:0:0:0:
256,192,254652,1,8,0:0:0:0:
256,192,254740,1,8,0:0:0:0:
256,192,254916,1,0,0:0:0:0:
256,192,255004,1,0,0:0:0:0:
256,192,255093,1,0,0:0:0:0:
256,192,255181,1,8,0:0:0:0:
256,192,255269,1,8,0:0:0:0:
256,192,255357,1,0,0:0:0:0:
256,192,255446,1,0,0:0:0:0:
256,192,255534,1,8,0:0:0:0:
256,192,255622,1,0,0:0:0:0:
256,192,255710,1,0,0:0:0:0:
256,192,255799,1,0,0:0:0:0:
256,192,255887,1,8,0:0:0:0:
256,192,256063,1,0,0:0:0:0:
256,192,256152,1,0,0:0:0:0:
256,192,256240,1,8,0:0:0:0:
256,192,256328,1,0,0:0:0:0:
256,192,256416,1,8,0:0:0:0:
256,192,256504,1,8,0:0:0:0:
256,192,256593,1,4,0:0:0:0:
256,192,256769,1,0,0:0:0:0:
256,192,256857,1,0,0:0:0:0:
256,192,256946,1,12,0:0:0:0:
256,192,257122,1,0,0:0:0:0:
256,192,257210,1,0,0:0:0:0:
256,192,257299,1,8,0:0:0:0:
256,192,257387,1,0,0:0:0:0:
256,192,257475,1,8,0:0:0:0:
256,192,257563,1,8,0:0:0:0:
256,192,257740,1,0,0:0:0:0:
256,192,257828,1,0,0:0:0:0:
256,192,257916,1,0,0:0:0:0:
256,192,258004,1,8,0:0:0:0:
256,192,258093,1,8,0:0:0:0:
256,192,258181,1,0,0:0:0:0:
256,192,258269,1,0,0:0:0:0:
256,192,258357,1,8,0:0:0:0:
256,192,258446,1,0,0:0:0:0:
256,192,258534,1,0,0:0:0:0:
256,192,258622,1,0,0:0:0:0:
256,192,258710,1,8,0:0:0:0:
256,192,258887,1,0,0:0:0:0:
256,192,258975,1,0,0:0:0:0:
256,192,259063,1,0,0:0:0:0:
256,192,259152,1,8,0:0:0:0:
256,192,259240,1,0,0:0:0:0:
256,192,259328,1,0,0:0:0:0:
256,192,259416,1,12,0:0:0:0:
256,192,259593,1,0,0:0:0:0:
256,192,259681,1,8,0:0:0:0:
256,192,259769,1,8,0:0:0:0:
256,192,259857,1,8,0:0:0:0:
256,192,259946,1,0,0:0:0:0:
256,192,260034,1,0,0:0:0:0:
256,192,260122,1,8,0:0:0:0:
256,192,260210,1,0,0:0:0:0:
256,192,260299,1,0,0:0:0:0:
256,192,260387,1,0,0:0:0:0:
256,192,260475,1,8,0:0:0:0:
256,192,260563,1,0,0:0:0:0:
256,192,260652,1,0,0:0:0:0:
256,192,260740,1,0,0:0:0:0:
256,192,260828,1,8,0:0:0:0:
256,192,260916,1,0,0:0:0:0:
256,192,261004,1,0,0:0:0:0:
256,192,261093,1,8,0:0:0:0:
256,192,261181,1,8,0:0:0:0:
256,192,261269,1,0,0:0:0:0:
256,192,261357,1,12,0:0:0:0:
256,192,261534,1,12,0:0:0:0:
256,192,261710,1,0,0:0:0:0:
256,192,261799,1,0,0:0:0:0:
256,192,261887,1,12,0:0:0:0:
256,192,262063,1,12,0:0:0:0:
256,192,262240,1,8,0:0:0:0:
256,192,262328,1,8,0:0:0:0:
256,192,262416,1,0,0:0:0:0:
256,192,262504,1,0,0:0:0:0:
256,192,262593,1,12,0:0:0:0:
256,192,262769,1,0,0:0:0:0:
256,192,262857,1,0,0:0:0:0:
256,192,262946,1,8,0:0:0:0:
256,192,263034,1,0,0:0:0:0:
256,192,263122,1,8,0:0:0:0:
256,192,263210,1,0,0:0:0:0:
256,192,263387,1,0,0:0:0:0:
256,192,263475,1,0,0:0:0:0:
256,192,263563,1,0,0:0:0:0:
256,192,263652,1,8,0:0:0:0:
256,192,263740,1,8,0:0:0:0:
256,192,263828,1,0,0:0:0:0:
256,192,263916,1,0,0:0:0:0:
256,192,264004,1,8,0:0:0:0:
256,192,264093,1,0,0:0:0:0:
256,192,264181,1,0,0:0:0:0:
256,192,264269,1,0,0:0:0:0:
256,192,264357,1,8,0:0:0:0:
256,192,264534,1,0,0:0:0:0:
256,192,264710,1,8,0:0:0:0:
256,192,264799,1,0,0:0:0:0:
256,192,264887,1,0,0:0:0:0:
256,192,265063,1,8,0:0:0:0:
256,192,265152,1,8,0:0:0:0:
256,192,265240,1,8,0:0:0:0:
256,192,265328,1,0,0:0:0:0:
256,192,265416,1,12,0:0:0:0:
256,192,265593,1,0,0:0:0:0:
256,192,265681,1,0,0:0:0:0:
256,192,265769,1,8,0:0:0:0:
256,192,265857,1,0,0:0:0:0:
256,192,265946,1,8,0:0:0:0:
256,192,266122,1,0,0:0:0:0:
256,192,266299,1,0,0:0:0:0:
256,192,266387,1,0,0:0:0:0:
256,192,266475,1,8,0:0:0:0:
256,192,266563,1,8,0:0:0:0:
256,192,266652,1,0,0:0:0:0:
256,192,266740,1,0,0:0:0:0:
256,192,266828,1,8,0:0:0:0:
256,192,266916,1,0,0:0:0:0:
256,192,267004,1,0,0:0:0:0:
256,192,267093,1,0,0:0:0:0:
256,192,267181,1,8,0:0:0:0:
256,192,267357,1,0,0:0:0:0:
256,192,267446,1,0,0:0:0:0:
257,189,267534,1,8,0:0:0:0:
256,192,267622,1,8,0:0:0:0:
256,192,267710,1,0,0:0:0:0:
256,192,267799,1,0,0:0:0:0:
256,192,267887,1,12,0:0:0:0:
256,192,268063,1,0,0:0:0:0:
256,192,268152,1,0,0:0:0:0:
256,192,268240,1,12,0:0:0:0:
256,192,268416,1,0,0:0:0:0:
256,192,268504,1,0,0:0:0:0:
256,192,268593,1,8,0:0:0:0:
256,192,268681,1,0,0:0:0:0:
256,192,268769,1,8,0:0:0:0:
256,192,268857,1,0,0:0:0:0:
256,192,269034,1,0,0:0:0:0:
256,192,269122,1,0,0:0:0:0:
256,192,269210,1,0,0:0:0:0:
256,192,269299,1,8,0:0:0:0:
256,192,269387,1,8,0:0:0:0:
256,192,269475,1,0,0:0:0:0:
256,192,269563,1,0,0:0:0:0:
256,192,269652,1,8,0:0:0:0:
256,192,269740,1,0,0:0:0:0:
256,192,269828,1,0,0:0:0:0:
256,192,269916,1,0,0:0:0:0:
256,192,270004,1,8,0:0:0:0:
256,192,270181,1,0,0:0:0:0:
256,192,270269,1,0,0:0:0:0:
256,192,270357,1,8,0:0:0:0:
256,192,270446,1,0,0:0:0:0:
256,192,270534,1,0,0:0:0:0:
256,192,270622,1,0,0:0:0:0:
256,192,270710,1,12,0:0:0:0:
256,192,270887,1,0,0:0:0:0:
256,192,270975,1,0,0:0:0:0:
256,192,271063,1,12,0:0:0:0:
256,192,271240,1,0,0:0:0:0:
256,192,271328,1,0,0:0:0:0:
256,192,271416,1,12,0:0:0:0:
256,192,271593,1,0,0:0:0:0:
256,192,271681,1,0,0:0:0:0:
256,192,271769,1,12,0:0:0:0:
256,192,271946,1,8,0:0:0:0:
256,192,272034,1,0,0:0:0:0:
256,192,272122,1,12,0:0:0:0:
256,192,272299,1,8,0:0:0:0:
256,192,272475,1,8,0:0:0:0:
256,192,272563,1,8,0:0:0:0:
256,192,272652,1,0,0:0:0:0:
256,192,272740,1,0,0:0:0:0:
256,192,272828,1,8,0:0:0:0:
256,192,272916,1,8,0:0:0:0:
256,192,273004,1,0,0:0:0:0:
256,192,273093,1,0,0:0:0:0:
256,192,273181,1,8,0:0:0:0:
256,192,273269,1,8,0:0:0:0:
256,192,273357,1,8,0:0:0:0:
256,192,273446,1,8,0:0:0:0:
256,192,273534,1,0,0:0:0:0:
256,192,273622,1,0,0:0:0:0:
256,192,273710,1,0,0:0:0:0:
256,192,273799,1,0,0:0:0:0:
256,192,273887,1,12,0:0:0:0:
256,192,274063,1,8,0:0:0:0:
256,192,274152,1,0,0:0:0:0:
256,192,274240,1,8,0:0:0:0:
256,192,274328,1,8,0:0:0:0:
256,192,274416,1,0,0:0:0:0:
256,192,274504,1,0,0:0:0:0:
256,192,274593,1,8,0:0:0:0:
256,192,274681,1,8,0:0:0:0:
256,192,274769,1,0,0:0:0:0:
256,192,274857,1,0,0:0:0:0:
256,192,274946,1,8,0:0:0:0:
256,192,275034,1,0,0:0:0:0:
256,192,275122,1,0,0:0:0:0:
256,192,275210,1,8,0:0:0:0:
256,192,275299,1,8,0:0:0:0:
256,192,275387,1,0,0:0:0:0:
256,192,275475,1,8,0:0:0:0:
256,192,275563,1,0,0:0:0:0:
256,192,275652,1,8,0:0:0:0:
256,192,275740,1,8,0:0:0:0:
256,192,275828,1,0,0:0:0:0:
256,192,275916,1,0,0:0:0:0:
256,192,276004,1,8,0:0:0:0:
256,192,276093,1,0,0:0:0:0:
256,192,276181,1,0,0:0:0:0:
256,192,276269,1,8,0:0:0:0:
256,192,276357,1,8,0:0:0:0:
256,192,276534,1,8,0:0:0:0:
256,192,276622,1,8,0:0:0:0:
256,192,276710,1,8,0:0:0:0:
