osu file format v14

[General]
AudioFilename: audio.mp3
AudioLeadIn: 0
PreviewTime: 118605
Countdown: 0
SampleSet: None
StackLeniency: 0.7
Mode: 0
LetterboxInBreaks: 0
WidescreenStoryboard: 1

[Editor]
Bookmarks: 12580,28945,37673,54034,69173,85401,102856,119764,135991,146219,154946,172400,190264,203490,220400,233490,239489,256671,259126
DistanceSpacing: 0.4
BeatDivisor: 4
GridSize: 4
TimelineZoom: 2.899999

[Metadata]
Title:Hartmann no Youkai Shoujo ~ Todestrieb und Lebenstrieb
TitleUnicode:ハルトマンの妖怪少女 ~ Todestrieb und Lebenstrieb
Artist:Demetori
ArtistUnicode:Demetori
Creator:celerih
Version:Lunatic
Source:東方地霊殿 ~ Subterranean Animism.
Tags:thicc bish GoldenWolf woof 古明地 こいし Koishi Komeji Extra Stage Theme Hartmann's Youkai Girl Lebenstrieb & Todestrieb Djent C91 Comiket 91 ZUN
BeatmapID:1939638
BeatmapSetID:928647

[Difficulty]
HPDrainRate:4
CircleSize:3.8
OverallDifficulty:8
ApproachRate:9.2
SliderMultiplier:1.6
SliderTickRate:1

[Events]
//Background and Video events
0,0,"Demetori Hartmann BG.jpg",0,0
//Break Periods
2,138782,145635
//Storyboard Layer 0 (Background)
//Storyboard Layer 1 (Fail)
//Storyboard Layer 2 (Pass)
//Storyboard Layer 3 (Foreground)
//Storyboard Sound Samples

[TimingPoints]
4672,272.727272727273,7,2,1,10,1,0
4672,-250,7,2,1,10,0,0
11490,272.727272727273,4,3,4,100,1,0
12581,272.727272727273,7,3,2,70,1,0
12581,-125,7,3,2,70,0,0
14490,-125,7,3,2,100,0,0
14558,-125,7,3,2,70,0,0
16399,-125,7,3,3,70,0,0
16672,272.727272727273,7,3,2,70,1,0
16672,-125,7,3,2,70,0,0
18581,-125,7,3,2,100,0,0
18649,-125,7,3,2,70,0,0
20490,-125,7,3,3,100,0,0
20763,272.727272727273,7,3,2,70,1,0
20899,-125,7,3,2,100,0,0
22672,-125,7,3,2,100,0,0
22740,-125,7,3,2,70,0,0
24581,-125,7,3,3,70,0,0
24854,272.727272727273,7,3,2,70,1,0
24854,-125,7,3,2,70,0,0
26763,-125,7,3,2,100,0,0
26831,-125,7,3,2,70,0,0
28808,-125,7,3,2,85,0,0
28945,272.727272727273,4,3,4,70,1,0
29217,-166.666666666667,4,3,4,70,0,0
30717,-166.666666666667,4,3,3,70,0,0
30990,-125,4,3,7,70,0,0
31263,-125,4,3,4,70,0,0
33172,-100,4,3,7,70,0,0
33445,-166.666666666667,4,3,4,70,0,0
35081,-125,4,3,3,70,0,0
35354,-125,4,3,7,70,0,0
35626,-125,4,3,4,70,0,0
36581,-125,4,3,1,85,0,0
36990,-125,4,3,12,85,0,0
37126,-125,4,3,11,85,0,0
37263,-125,4,3,1,85,0,0
37399,-125,4,3,10,85,0,0
37673,272.727272727273,7,3,1,100,1,0
37673,-125,7,3,1,100,0,0
37809,-125,7,3,2,70,0,0
41423,-125,7,3,2,55,0,0
41491,-125,7,3,2,70,0,0
41763,272.727272727273,7,3,2,85,1,0
41763,-125,7,3,2,85,0,0
41899,-125,7,3,2,70,0,0
45308,-125,7,3,2,85,0,0
45444,-125,7,3,12,85,0,0
45581,-125,7,3,11,85,0,0
45717,-125,7,3,10,85,0,0
45854,272.727272727273,7,3,1,100,1,0
45854,-125,7,3,1,100,0,0
45990,-125,7,3,2,70,0,0
49535,-125,7,3,2,85,0,0
49944,272.727272727273,7,3,1,100,1,0
49944,-125,7,3,1,100,0,0
50080,-125,7,3,2,70,0,0
52262,-125,7,3,7,70,0,0
52944,-125,7,3,2,70,0,0
53216,-125,7,3,3,70,0,0
53489,-125,7,3,1,85,0,0
54035,272.727272727273,4,3,2,70,1,0
54035,-142.857142857143,4,3,2,70,0,0
54171,-142.857142857143,4,3,5,70,0,0
58125,-142.857142857143,4,3,5,70,0,0
58398,-142.857142857143,4,3,1,85,0,0
58535,272.727272727273,4,3,1,85,1,0
58535,-142.857142857143,4,3,1,85,0,0
58671,-142.857142857143,4,3,5,70,0,0
62626,272.727272727273,3,3,5,70,1,0
62626,-142.857142857143,3,3,5,70,0,0
62898,-142.857142857143,3,3,5,70,0,0
63445,272.727272727273,4,3,2,100,1,0
63445,-142.857142857143,4,3,2,100,0,0
63581,-142.857142857143,4,3,5,70,0,0
67263,-142.857142857143,4,3,4,70,0,0
67535,272.727272727273,6,3,1,100,1,0
67535,-166.666666666667,6,3,1,100,0,0
67944,-166.666666666667,6,3,2,100,0,0
68353,-166.666666666667,6,3,3,100,0,0
68489,-166.666666666667,6,2,3,5,0,0
68762,-166.666666666667,6,3,2,100,0,0
68898,-166.666666666667,6,2,2,5,0,0
69173,272.727272727273,4,3,1,100,1,0
69173,-125,4,3,1,100,0,0
69309,-125,4,3,12,85,0,0
69445,-125,4,3,11,85,0,0
69582,-125,4,3,4,85,0,0
69854,-125,4,3,10,85,0,0
70127,-125,4,3,2,85,0,0
70263,-125,4,3,11,85,0,0
70536,-125,4,3,4,85,0,0
70673,-125,4,3,10,85,0,0
70809,-125,4,3,4,85,0,0
70945,-125,4,3,10,85,0,0
71218,-125,4,3,2,85,0,0
71354,-125,4,3,11,85,0,0
71491,-125,4,3,10,85,0,0
71627,-125,4,3,4,85,0,0
71763,-125,4,3,10,85,0,0
71900,-125,4,3,4,85,0,0
72036,-125,4,3,10,85,0,0
72173,-125,4,3,3,85,0,0
72309,-125,4,3,10,85,0,0
72854,-125,4,3,4,85,0,0
73127,-125,4,3,10,85,0,0
73263,-125,4,3,4,85,0,0
73536,-125,4,3,1,100,0,0
73673,272.727272727273,4,3,1,100,1,0
73673,-125,4,3,1,100,0,0
73809,-125,4,3,12,85,0,0
74082,-125,4,3,4,85,0,0
74354,-125,4,3,10,85,0,0
74627,-125,4,3,2,85,0,0
74763,-125,4,3,11,85,0,0
75036,-125,4,3,4,85,0,0
75173,-125,4,3,10,85,0,0
75309,-125,4,3,4,85,0,0
75445,-125,4,3,10,85,0,0
75718,-125,4,3,2,85,0,0
75854,-125,4,3,11,85,0,0
76127,-125,4,3,4,85,0,0
76263,-125,4,3,10,85,0,0
76400,-125,4,3,4,85,0,0
76536,-125,4,3,10,85,0,0
76673,-125,4,3,3,85,0,0
76809,-125,4,3,12,85,0,0
76945,-125,4,3,11,85,0,0
77218,-125,4,3,10,85,0,0
77354,-125,4,3,4,85,0,0
77627,-125,4,3,10,85,0,0
77764,272.727272727273,3,3,2,100,1,0
77764,-125,3,3,2,100,0,0
78036,-125,3,3,10,85,0,0
78173,-125,3,3,3,100,0,0
78445,-125,3,3,10,85,0,0
78583,272.727272727273,4,3,1,100,1,0
78583,-142.857142857143,4,3,1,100,0,0
78719,-142.857142857143,4,3,1,85,0,0
78992,-142.857142857143,4,3,4,85,0,0
79537,-142.857142857143,4,3,2,85,0,0
79946,-142.857142857143,4,3,4,85,0,0
80628,-142.857142857143,4,3,3,85,0,0
81037,-142.857142857143,4,3,4,85,0,0
81583,-142.857142857143,4,3,7,85,0,0
81719,-142.857142857143,4,3,12,85,0,0
81855,-142.857142857143,4,3,11,85,0,0
81992,-142.857142857143,4,3,10,85,0,0
82128,-142.857142857143,4,3,4,85,0,0
82674,272.727272727273,6,3,1,100,1,0
82674,-200,6,3,1,100,0,0
83083,-166.666666666667,6,3,2,100,0,0
83492,-142.857142857143,6,3,1,100,0,0
83901,-125,6,3,3,100,0,0
84311,272.727272727273,4,3,4,85,1,0
85401,272.727272727273,8,3,1,100,1,0
85401,-333.333333333333,8,3,1,100,0,0
85469,-333.333333333333,8,3,1,5,0,0
87582,-333.333333333333,8,3,2,100,0,0
87651,-333.333333333333,8,3,2,5,0,0
88946,-333.333333333333,8,3,2,100,0,0
89491,-333.333333333333,8,3,10,100,0,0
89764,-333.333333333333,8,3,1,100,0,0
89832,-333.333333333333,8,3,1,5,0,0
91264,-333.333333333333,8,3,3,100,0,0
91673,-333.333333333333,8,3,1,100,0,0
91946,-333.333333333333,8,3,2,100,0,0
92491,-333.333333333333,8,3,7,15,0,0
92537,-333.333333333333,8,3,7,25,0,0
92582,-333.333333333333,8,3,7,35,0,0
92628,-333.333333333333,8,3,7,45,0,0
92901,-333.333333333333,8,3,4,100,0,0
93310,-333.333333333333,8,3,11,85,0,0
93582,-333.333333333333,8,3,10,85,0,0
93855,-333.333333333333,8,3,4,100,0,0
94128,-333.333333333333,8,3,2,100,0,0
94264,-333.333333333333,8,3,7,100,0,0
95219,-333.333333333333,8,3,4,100,0,0
95355,-333.333333333333,8,3,7,100,0,0
96310,-333.333333333333,8,3,2,100,0,0
96446,-333.333333333333,8,3,7,100,0,0
97673,-333.333333333333,8,3,11,100,0,0
97946,-333.333333333333,8,3,10,100,0,0
98219,-333.333333333333,8,3,1,70,0,0
98491,-333.333333333333,8,3,1,100,0,0
98628,-333.333333333333,8,3,7,100,0,0
99582,-333.333333333333,8,3,4,100,0,0
99719,-333.333333333333,8,3,3,100,0,0
100401,-333.333333333333,8,3,10,100,0,0
100673,-200,8,3,2,70,0,0
100810,-166.666666666667,8,3,2,25,0,0
101219,-142.857142857143,8,3,2,85,0,0
101355,-142.857142857143,8,3,2,40,0,0
101491,-125,8,3,2,55,0,0
101628,-125,8,3,2,70,0,0
101764,-111.111111111111,8,3,2,85,0,0
101901,-111.111111111111,8,3,2,55,0,0
102037,-100,8,3,2,70,0,0
102173,-100,8,3,2,85,0,0
102310,-100,8,3,2,100,0,0
102856,272.727272727273,7,3,1,100,1,0
102856,-125,7,3,1,100,0,0
102924,-125,7,3,4,70,0,0
104765,-125,7,3,2,85,0,0
104833,-125,7,3,4,70,0,0
106674,-125,7,3,3,70,0,0
106947,272.727272727273,8,3,1,85,1,0
106947,-125,8,3,1,85,0,0
107015,-125,8,3,4,70,0,0
109128,-125,8,3,2,85,0,0
109197,-125,8,3,4,70,0,0
110219,-125,8,3,3,85,0,0
111311,272.727272727273,7,3,1,100,1,0
111311,-125,7,3,1,100,0,0
111379,-125,7,3,2,70,0,0
112947,-125,7,3,7,70,0,0
113220,-125,7,3,3,85,0,0
113288,-125,7,3,2,70,0,0
115401,272.727272727273,8,3,1,85,1,0
115401,-125,8,3,1,85,0,0
115469,-125,8,3,2,70,0,0
117855,-125,8,3,4,70,0,0
117923,-125,8,3,2,70,0,0
118673,-100,8,3,1,85,0,0
118810,-100,8,3,1,70,0,0
118946,-100,8,3,1,85,0,0
119219,-100,8,3,1,100,0,0
119764,272.727272727273,4,3,1,100,1,1
119764,-90.9090909090909,4,3,1,100,0,1
119901,-90.9090909090909,4,3,4,70,0,1
120854,-90.9090909090909,4,3,4,70,0,1
121059,-90.9090909090909,4,3,4,5,0,1
121127,-90.9090909090909,4,3,4,70,0,1
121332,-90.9090909090909,4,3,4,5,0,1
121401,-90.9090909090909,4,3,4,70,0,1
121604,-90.9090909090909,4,3,4,5,0,1
121674,-90.9090909090909,4,3,4,70,0,1
121877,-90.9090909090909,4,3,4,5,0,1
121945,-90.9090909090909,4,3,4,70,0,1
121946,-90.9090909090909,4,3,2,85,0,1
122082,-90.9090909090909,4,3,4,70,0,1
123036,-90.9090909090909,4,3,3,70,0,1
123309,-90.9090909090909,4,3,2,70,0,1
123582,-90.9090909090909,4,3,3,70,0,1
123854,-90.9090909090909,4,3,2,70,0,1
124127,-90.9090909090909,4,3,1,85,0,1
124264,-90.9090909090909,4,3,4,70,0,1
125764,-90.9090909090909,4,3,2,70,0,1
126309,-90.9090909090909,4,3,3,85,0,1
126445,-90.9090909090909,4,3,4,55,0,1
126582,-90.9090909090909,4,3,4,70,0,1
126718,-90.9090909090909,4,3,4,55,0,1
126854,-90.9090909090909,4,3,4,70,0,1
126991,-90.9090909090909,4,3,4,55,0,1
127127,-90.9090909090909,4,3,4,70,0,1
127264,-90.9090909090909,4,3,4,55,0,1
127400,-90.9090909090909,4,3,4,85,0,1
127809,-90.9090909090909,4,3,12,85,0,1
127945,-90.9090909090909,4,3,11,85,0,1
128082,-90.9090909090909,4,3,4,85,0,1
128491,-90.9090909090909,4,3,1,100,0,1
128627,-90.9090909090909,4,3,4,70,0,1
129582,-90.9090909090909,4,3,2,70,0,1
129854,-90.9090909090909,4,3,3,70,0,1
130127,-90.9090909090909,4,3,2,70,0,1
130400,-90.9090909090909,4,3,3,70,0,1
130673,-90.9090909090909,4,3,2,85,0,1
130809,-90.9090909090909,4,3,4,70,0,1
131764,-90.9090909090909,4,3,3,70,0,1
132036,-90.9090909090909,4,3,2,70,0,1
132309,-90.9090909090909,4,3,3,70,0,1
132582,-90.9090909090909,4,3,2,70,0,1
132854,-90.9090909090909,4,3,1,85,0,1
132991,-90.9090909090909,4,3,4,70,0,1
133945,-90.9090909090909,4,3,4,70,0,1
134082,-90.9090909090909,4,3,4,55,0,1
134218,-90.9090909090909,4,3,4,70,0,1
134354,-90.9090909090909,4,3,4,55,0,1
134491,-90.9090909090909,4,3,2,70,0,1
135036,-90.9090909090909,4,3,3,85,0,1
135991,-100,4,3,2,85,0,0
136128,272.727272727273,9,3,12,85,1,0
136673,-125,9,3,1,85,0,0
136946,-100,9,3,11,85,0,0
137355,-166.666666666667,9,3,3,85,0,0
137628,-166.666666666667,9,3,12,85,0,0
137900,-166.666666666667,9,3,11,85,0,0
138173,-166.666666666667,9,3,10,85,0,0
138583,272.727272727273,7,3,4,100,1,0
138583,-100,7,3,4,100,0,0
138719,-100,7,2,1,10,0,0
146219,272.727272727273,4,3,1,100,1,0
146219,-100,4,3,1,100,0,0
147037,-100,4,3,2,100,0,0
147855,-100,4,3,3,100,0,0
148400,-100,4,3,1,100,0,0
149219,-100,4,3,2,100,0,0
150582,-142.857142857143,4,3,1,100,0,0
150719,-142.857142857143,4,3,4,70,0,0
151673,-142.857142857143,4,3,7,70,0,0
151809,-142.857142857143,4,3,4,70,0,0
152764,-125,4,3,3,100,0,0
152900,-125,4,3,4,70,0,0
153855,-125,4,3,7,70,0,0
153991,-125,4,3,4,70,0,0
154400,-100,4,3,12,85,0,0
154582,-100,4,3,11,85,0,0
154764,-100,4,3,10,85,0,0
154946,-100,4,3,1,100,0,0
155014,-100,4,3,4,70,0,0
156446,-142.857142857143,4,3,4,70,0,0
156855,-100,4,3,4,70,0,0
157809,-142.857142857143,4,3,4,70,0,0
158355,-100,4,3,4,70,0,0
158491,-100,4,3,4,70,0,0
160673,-100,4,3,4,70,0,0
161219,-100,4,3,4,70,0,0
161764,-100,4,3,4,70,0,0
162173,-100,4,3,4,70,0,0
162582,-100,4,3,4,70,0,0
162855,-100,4,3,4,70,0,0
163673,-166.666666666667,4,3,1,100,0,0
164082,-100,4,3,8,70,0,0
164628,-100,4,3,8,70,0,0
165173,-100,4,3,8,70,0,0
165241,-100,4,3,8,5,0,0
165309,-100,4,3,8,70,0,0
167491,-100,4,3,8,70,0,0
168037,-100,4,3,1,100,0,0
168105,-100,4,3,4,70,0,0
171309,-100,4,3,4,70,0,0
172400,-125,4,3,1,100,0,0
172537,-125,4,3,5,85,0,0
175673,-125,4,3,5,85,0,0
176764,-125,4,3,2,85,0,0
176900,-125,4,3,5,70,0,0
180037,-125,4,3,5,70,0,0
180855,-125,4,3,7,70,0,0
181128,-125,4,3,3,85,0,0
181264,-125,4,3,5,70,0,0
183855,-125,4,3,4,70,0,0
183991,-125,4,3,5,70,0,0
185491,-125,4,3,2,85,0,0
185628,-125,4,3,5,70,0,0
188219,-100,4,3,7,70,0,0
188491,-100,4,3,12,85,0,0
188764,-100,4,3,11,85,0,0
188900,-100,4,3,1,85,0,0
189037,-100,4,3,12,85,0,0
189173,-100,4,3,11,85,0,0
189309,-100,4,3,1,85,0,0
189446,-100,4,3,12,85,0,0
189582,-100,4,3,11,85,0,0
189719,-100,4,3,3,85,0,0
190264,-125,4,3,3,85,0,0
190400,272.727272727273,4,3,1,100,1,0
190536,-100,4,3,4,70,0,0
190672,-166.666666666667,4,3,4,70,0,0
192445,-125,4,3,1,85,0,0
192581,-125,4,3,4,70,0,0
194627,-125,4,3,2,85,0,0
194900,-166.666666666667,4,3,4,70,0,0
196536,-166.666666666667,4,3,3,85,0,0
196809,-125,4,3,2,85,0,0
197081,-125,4,3,4,70,0,0
198990,-125,4,3,3,85,0,0
199263,-166.666666666667,4,3,4,70,0,0
200900,-125,4,3,3,70,0,0
201172,-125,4,3,7,70,0,0
201445,-100,4,3,2,70,0,0
201854,-100,4,3,3,70,0,0
202400,-100,4,3,4,70,0,0
202672,-100,4,3,1,85,0,0
202945,-100,4,3,12,85,0,0
203081,-100,4,3,11,85,0,0
203218,-100,4,3,10,85,0,0
203490,272.727272727273,7,3,1,100,1,0
203558,-100,7,3,4,70,0,0
205399,-100,7,3,2,85,0,0
205467,-100,7,3,4,70,0,0
207581,272.727272727273,7,3,3,85,1,0
207649,-100,7,3,4,70,0,0
209490,-100,7,3,2,85,0,0
209558,-100,7,3,4,70,0,0
210990,-100,7,3,7,70,0,0
211262,-100,7,3,4,85,0,0
211672,272.727272727273,8,3,1,100,1,0
211740,-100,8,3,4,70,0,0
213853,-100,8,3,2,85,0,0
213922,-100,8,3,4,70,0,0
216035,-100,8,3,2,85,0,0
216103,-100,8,3,4,70,0,0
218217,-100,8,3,7,70,0,0
218285,-100,8,3,4,70,0,0
219308,-100,8,3,7,70,0,0
219376,-100,8,3,4,70,0,0
219717,-100,8,3,4,85,0,0
220400,272.727272727273,6,3,9,100,1,0
220400,-142.857142857143,6,3,9,100,0,0
220536,-142.857142857143,6,3,9,85,0,0
223672,-142.857142857143,6,3,3,85,0,0
223740,-142.857142857143,6,3,9,85,0,0
226127,-142.857142857143,6,3,2,85,0,0
226400,-142.857142857143,6,3,1,85,0,0
226672,-142.857142857143,6,3,3,85,0,0
226945,-111.111111111111,6,3,2,100,0,0
227013,-111.111111111111,6,3,9,85,0,0
228581,-111.111111111111,6,3,2,85,0,0
228650,-111.111111111111,6,3,9,85,0,0
230218,-111.111111111111,6,3,2,85,0,0
230286,-111.111111111111,6,3,9,85,0,0
231854,-111.111111111111,6,3,2,85,0,0
231922,-111.111111111111,6,3,9,85,0,0
232672,-111.111111111111,6,3,1,85,0,0
233490,272.727272727273,3,3,2,100,1,0
233490,-250,3,3,2,100,0,0
233558,-250,3,3,2,5,0,0
234308,-250,3,3,1,100,0,0
234376,-250,3,3,2,5,0,0
235126,-250,3,3,2,100,0,0
235194,-250,3,3,2,5,0,0
235944,-250,3,3,3,100,0,0
236012,-250,3,3,2,5,0,0
236762,-250,3,3,2,100,0,0
236830,-250,3,3,2,5,0,0
237171,-250,3,3,1,100,0,0
237240,-250,3,3,2,5,0,0
237580,-166.666666666667,3,3,2,100,0,0
237649,-166.666666666667,3,3,2,5,0,0
237990,-166.666666666667,3,3,3,100,0,0
238058,-166.666666666667,3,3,2,5,0,0
238399,272.727272727273,4,3,1,85,1,0
238808,-100,4,3,12,85,0,0
238944,-100,4,3,11,85,0,0
239080,-100,4,3,1,85,0,0
239217,-100,4,3,10,85,0,0
239353,-100,4,3,1,85,0,0
239489,-90.9090909090909,4,3,1,100,0,1
239626,-90.9090909090909,4,3,4,70,0,1
240580,-90.9090909090909,4,3,4,70,0,1
240853,-90.9090909090909,4,3,4,70,0,1
241058,-90.9090909090909,4,3,4,5,0,1
241126,-90.9090909090909,4,3,4,70,0,1
241330,-90.9090909090909,4,3,4,5,0,1
241399,-90.9090909090909,4,3,4,70,0,1
241603,-90.9090909090909,4,3,4,5,0,1
241671,-90.9090909090909,4,3,2,85,0,1
241739,-90.9090909090909,4,3,4,70,0,1
242762,-90.9090909090909,4,3,3,70,0,1
243035,-90.9090909090909,4,3,2,70,0,1
243308,-90.9090909090909,4,3,3,70,0,1
243580,-90.9090909090909,4,3,2,70,0,1
243853,-90.9090909090909,4,3,1,85,0,1
243921,-90.9090909090909,4,3,4,70,0,1
245489,-90.9090909090909,4,3,2,70,0,1
246035,-90.9090909090909,4,3,3,85,0,1
246171,-90.9090909090909,4,3,4,55,0,1
246308,-90.9090909090909,4,3,4,85,0,1
246444,-90.9090909090909,4,3,4,55,0,1
246580,-90.9090909090909,4,3,4,85,0,1
246717,-90.9090909090909,4,3,4,55,0,1
246853,-90.9090909090909,4,3,4,85,0,1
246989,-90.9090909090909,4,3,4,55,0,1
247126,-90.9090909090909,4,3,1,85,0,1
247535,-90.9090909090909,4,3,12,85,0,1
247671,-90.9090909090909,4,3,11,85,0,1
247808,-90.9090909090909,4,3,4,85,0,1
248217,-90.9090909090909,4,3,1,100,0,1
248285,-90.9090909090909,4,3,4,70,0,1
249308,-90.9090909090909,4,3,2,70,0,1
249580,-90.9090909090909,4,3,3,70,0,1
249853,-90.9090909090909,4,3,2,70,0,1
250126,-90.9090909090909,4,3,3,70,0,1
250399,-90.9090909090909,4,3,2,85,0,1
250467,-90.9090909090909,4,3,4,70,0,1
251489,-90.9090909090909,4,3,1,70,0,1
251762,-90.9090909090909,4,3,3,70,0,1
252035,-90.9090909090909,4,3,1,70,0,1
252308,-90.9090909090909,4,3,3,70,0,1
252580,-90.9090909090909,4,3,4,70,0,1
254217,-90.9090909090909,4,3,2,70,0,1
254762,-90.9090909090909,4,3,3,85,0,1
254830,-90.9090909090909,4,3,4,70,0,1
256399,-90.9090909090909,4,3,7,70,0,1
256671,272.727272727273,9,3,1,85,1,0
256671,-100,9,3,1,85,0,0
257080,-125,9,3,1,85,0,0
257352,-100,9,3,12,85,0,0
257489,-100,9,3,11,85,0,0
257625,-100,9,3,10,85,0,0
257761,-166.666666666667,9,3,2,85,0,0
258034,-166.666666666667,9,3,12,85,0,0
258307,-166.666666666667,9,3,11,85,0,0
258580,-166.666666666667,9,3,10,85,0,0
258852,-166.666666666667,9,3,1,85,0,0
259126,272.727272727273,4,3,13,100,1,0
259126,-500,4,3,13,100,0,0
260216,-500,4,2,1,5,0,0

[Colours]
Combo1 : 139,226,214
Combo2 : 236,162,79
Combo3 : 241,84,116
Combo4 : 227,197,89

[HitObjects]
173,166,4672,6,0,L|185:96,1,64,2|0,0:0|0:0,0:0:0:0:
171,89,5081,1,2,0:0:0:0:
279,52,5353,2,0,L|312:60,2,32,0|0|2,0:0|0:0|0:0,0:0:0:0:
368,118,5899,2,0,L|401:110,1,32,0|2,0:0|0:0,0:0:0:0:
478,67,6308,1,2,0:0:0:0:
413,224,6581,6,0,L|348:216,1,64,2|0,0:0|0:0,0:0:0:0:
338,195,6990,1,2,0:0:0:0:
264,265,7262,2,0,L|262:300,2,32,0|0|2,0:0|0:0|0:0,0:0:0:0:
219,187,7808,2,0,L|210:147,1,32,0|2,0:0|0:0,0:0:0:0:
294,80,8217,1,2,0:0:0:0:
165,49,8490,6,0,L|93:38,1,64,2|0,0:0|0:0,0:0:0:0:
89,51,8899,1,2,0:0:0:0:
14,121,9172,2,0,L|18:160,2,32,0|0|2,0:0|0:0|0:0,0:0:0:0:
102,198,9717,2,0,L|109:160,1,32,0|2,0:0|0:0,0:0:0:0:
209,128,10126,1,2,0:0:0:0:
296,206,10399,6,0,L|309:283,1,64,2|0,0:0|0:0,0:0:0:0:
290,294,10808,1,2,0:0:0:0:
208,342,11081,2,0,L|165:336,2,32,0|0|2,0:0|0:0|0:0,0:0:0:0:
101,296,11490,6,0,P|93:253|76:186,1,80,14|8,0:0|0:0,0:0:0:0:
330,131,11762,2,0,P|287:109|235:90,1,80,14|8,0:0|0:0,0:0:0:0:
270,321,12035,2,0,P|289:281|310:248,1,80,14|8,0:0|0:0,0:0:0:0:
149,60,12308,2,0,P|157:104|160:148,1,80,14|8,0:0|0:0,0:0:0:0:
197,284,12581,6,0,P|201:249|212:207,1,64,6|0,0:0|0:0,0:0:0:0:
279,244,12853,1,8,0:0:0:0:
103,132,12990,2,0,B|129:173|129:173|117:263,1,128,6|4,0:0|0:0,0:0:0:0:
108,264,13399,1,10,0:0:0:0:
247,143,13535,5,4,0:0:0:0:
210,69,13671,2,0,P|179:55|138:40,2,64,0|6|8,0:0|0:0|0:0,0:0:0:0:
347,141,14081,2,0,P|374:120|411:97,2,64,0|6|8,0:0|0:0|0:0,0:0:0:0:
394,304,14490,6,0,P|419:289|454:274,1,64,6|0,0:0|0:0,0:0:0:0:
462,197,14762,1,8,0:0:0:0:
363,372,14899,2,0,P|353:317|283:297,1,128,6|4,0:0|0:0,0:0:0:0:
279,310,15308,1,10,0:0:0:0:
161,203,15444,5,4,0:0:0:0:
120,267,15581,2,0,P|91:289|66:314,2,64,0|6|8,0:0|0:0|0:0,0:0:0:0:
77,120,15990,2,0,P|59:88|46:55,2,64,0|6|4,0:0|0:0|0:0,0:0:0:0:
41,206,16399,1,10,0:0:0:0:
41,206,16535,1,0,0:0:0:0:
208,128,16671,6,0,P|241:148|283:161,1,64,6|0,0:0|0:0,0:0:0:0:
326,106,16944,1,8,0:0:0:0:
179,209,17081,2,0,B|185:161|185:161|173:120|173:120|181:54,1,128,6|4,0:0|0:0,0:0:0:0:
166,71,17490,1,10,0:0:0:0:
347,129,17626,5,4,0:0:0:0:
407,183,17762,2,0,P|445:167|483:158,2,64,0|6|8,0:0|0:0|0:0,0:0:0:0:
297,276,18172,2,0,P|266:246|231:219,2,64,0|6|8,0:0|0:0|0:0,0:0:0:0:
306,95,18581,6,0,P|320:56|336:29,1,64,6|0,0:0|0:0,0:0:0:0:
263,3,18853,1,8,0:0:0:0:
382,126,18990,2,0,L|230:140,1,128,6|4,0:0|0:0,0:0:0:0:
244,153,19399,1,10,0:0:0:0:
313,286,19535,5,0,0:0:0:0:
388,284,19672,2,0,P|398:248|411:212,2,64,4|6|8,0:0|0:0|0:0,0:0:0:0:
254,361,20081,2,0,P|230:332|203:304,2,64,0|6|4,0:0|0:0|0:0,0:0:0:0:
346,367,20490,1,10,0:0:0:0:
346,367,20626,1,0,0:0:0:0:
250,203,20763,6,0,P|222:181|178:154,1,80,6|0,0:0|0:0,0:0:0:0:
127,203,21035,1,8,0:0:0:0:
270,121,21172,2,0,P|276:78|293:-10,1,128,6|4,0:0|0:0,0:0:0:0:
309,15,21581,1,10,0:0:0:0:
144,92,21717,5,4,0:0:0:0:
79,51,21853,2,0,P|54:65|13:80,2,64,0|6|8,0:0|0:0|0:0,0:0:0:0:
201,151,22263,2,0,P|222:169|259:193,2,64,0|6|8,0:0|0:0|0:0,0:0:0:0:
83,320,22672,6,0,P|92:281|97:229,1,64,6|0,0:0|0:0,0:0:0:0:
34,210,22944,1,8,0:0:0:0:
172,323,23081,2,0,B|218:312|218:312|254:323|254:323|314:315,1,128,6|4,0:0|0:0,0:0:0:0:
307,301,23490,1,10,0:0:0:0:
422,154,23626,5,4,0:0:0:0:
366,95,23763,2,0,P|337:104|289:113,2,64,0|6|8,0:0|0:0|0:0,0:0:0:0:
368,213,24172,2,0,P|390:233|431:260,2,64,0|6|4,0:0|0:0|0:0,0:0:0:0:
261,205,24581,1,10,0:0:0:0:
261,205,24717,1,0,0:0:0:0:
127,92,24854,6,0,P|121:55|111:19,1,64,6|0,0:0|0:0,0:0:0:0:
188,14,25126,1,8,0:0:0:0:
52,129,25263,2,0,P|116:134|191:153,1,128,6|4,0:0|0:0,0:0:0:0:
198,137,25672,1,10,0:0:0:0:
108,291,25808,5,4,0:0:0:0:
32,304,25944,2,0,P|22:269|5:229,2,64,0|6|8,0:0|0:0|0:0,0:0:0:0:
145,365,26354,2,0,P|173:342|210:320,2,64,0|6|8,0:0|0:0|0:0,0:0:0:0:
272,223,26763,6,0,P|309:238|354:247,1,64,6|0,0:0|0:0,0:0:0:0:
377,185,27035,1,8,0:0:0:0:
464,365,27172,2,0,P|469:301|480:232,1,128,6|4,0:0|0:0,0:0:0:0:
464,223,27581,1,10,0:0:0:0:
316,335,27717,5,0,0:0:0:0:
263,274,27854,2,0,P|233:286|200:296,2,64,4|6|8,0:0|0:0|0:0,0:0:0:0:
329,201,28263,2,0,P|355:218|386:235,2,64,4|8|8,0:0|0:0|0:0,0:0:0:0:
431,62,28672,1,8,0:0:0:0:
456,140,28808,6,0,P|464:80|476:13,1,128,6|4,0:0|0:0,0:0:0:0:
371,131,29217,6,0,L|377:194,1,47.9999985351563,14|4,0:0|0:0,0:0:0:0:
358,141,29490,2,0,L|364:204,1,47.9999985351563,14|4,0:0|0:0,0:0:0:0:
345,151,29763,2,0,L|351:214,1,47.9999985351563,14|4,0:0|0:0,0:0:0:0:
332,161,30035,2,0,L|338:224,1,47.9999985351563,14|4,0:0|0:0,0:0:0:0:
319,171,30308,2,0,L|325:234,1,47.9999985351563,14|4,0:0|0:0,0:0:0:0:
306,181,30581,2,0,L|312:244,1,47.9999985351563,14|6,0:0|0:0,0:0:0:0:
273,292,30854,1,12,0:0:0:0:
398,152,30990,6,0,P|337:144|250:139,1,128,6|4,0:0|0:0,0:0:0:0:
217,74,31399,1,14,0:0:0:0:
273,164,31535,1,4,0:0:0:0:
340,59,31672,6,0,P|351:29|368:-10,2,64,14|4|4,0:0|0:0|0:0,0:0:0:0:
154,128,32081,2,0,P|126:108|85:84,1,64,14|4,0:0|0:0,0:0:0:0:
132,23,32354,1,14,0:0:0:0:
0,83,32490,1,4,0:0:0:0:
0,83,32626,1,4,0:0:0:0:
78,186,32763,6,0,L|83:237,2,32,8|8|8,0:0|0:0|0:0,0:0:0:0:
30,287,33035,1,8,0:0:0:0:
175,203,33172,2,0,B|200:204|214:200|214:200|228:221|245:227|245:227|287:226|345:247,1,160,6|4,0:0|0:0,0:0:0:0:
396,220,33513,1,4,0:0:0:0:
387,209,33581,6,0,L|324:215,1,47.9999985351563,14|4,0:0|0:0,0:0:0:0:
377,196,33854,2,0,L|314:202,1,47.9999985351563,14|4,0:0|0:0,0:0:0:0:
367,183,34127,2,0,L|304:189,1,47.9999985351563,14|4,0:0|0:0,0:0:0:0:
357,170,34399,2,0,L|294:176,1,47.9999985351563,14|4,0:0|0:0,0:0:0:0:
347,157,34672,2,0,L|284:163,1,47.9999985351563,14|4,0:0|0:0,0:0:0:0:
337,144,34945,2,0,L|274:150,1,47.9999985351563,14|6,0:0|0:0,0:0:0:0:
395,92,35217,1,12,0:0:0:0:
245,222,35354,6,0,P|182:209|95:199,1,128,6|4,0:0|0:0,0:0:0:0:
90,128,35695,1,4,0:0:0:0:
80,140,35763,2,0,P|70:101|59:69,1,64,14|4,0:0|0:0,0:0:0:0:
180,20,36035,2,0,P|162:56|144:85,1,64,10|4,0:0|0:0,0:0:0:0:
253,175,36308,1,10,0:0:0:0:
293,64,36445,5,4,0:0:0:0:
293,64,36513,1,4,0:0:0:0:
293,64,36581,2,0,L|350:52,1,32,8|8,0:0|0:0,0:0:0:0:
380,107,36717,2,0,L|437:95,1,32,8|8,0:0|0:0,0:0:0:0:
478,148,36854,5,4,0:0:0:0:
478,148,36922,1,4,0:0:0:0:
478,148,36990,2,0,L|469:193,5,32,8|4|8|4|4|4,0:0|0:0|0:0|0:0|0:0|0:0,0:0:0:0:
405,249,37399,2,0,L|414:294,3,32,8|8|4|4,0:0|0:0|0:0|0:0,0:0:0:0:
325,213,37673,6,0,P|287:206|247:204,1,64,6|0,0:0|0:0,0:0:0:0:
226,135,37945,1,4,0:0:0:0:
346,79,38082,2,0,B|376:56|376:56|481:74,1,128,6|0,0:0|0:0,0:0:0:0:
474,57,38491,1,4,0:0:0:0:
313,165,38627,5,6,0:0:0:0:
356,233,38763,2,0,P|345:267|336:302,2,64,0|0|4,0:0|0:0|0:0,0:0:0:0:
185,270,39173,2,0,P|205:298|225:329,1,64,10|4,0:0|0:0,0:0:0:0:
157,370,39445,1,4,0:0:0:0:
233,204,39582,6,0,P|242:164|253:129,1,64,6|0,0:0|0:0,0:0:0:0:
211,74,39854,1,4,0:0:0:0:
133,181,39991,2,0,P|70:177|52:107,1,128,6|4,0:0|0:0,0:0:0:0:
65,115,40400,1,4,0:0:0:0:
6,261,40536,5,6,0:0:0:0:
70,306,40673,2,0,P|104:295|151:284,2,64,0|4|4,0:0|0:0|0:0,0:0:0:0:
149,164,41082,2,0,P|179:181|223:202,1,64,10|4,0:0|0:0,0:0:0:0:
262,138,41354,1,8,0:0:0:0:
203,277,41491,1,8,0:0:0:0:
203,277,41627,1,8,0:0:0:0:
125,160,41763,6,0,P|118:125|101:79,1,64,6|0,0:0|0:0,0:0:0:0:
37,136,42035,1,4,0:0:0:0:
176,55,42172,2,0,B|214:47|214:47|252:68|252:68|317:73,1,128,6|0,0:0|0:0,0:0:0:0:
310,57,42581,1,4,0:0:0:0:
408,208,42717,5,6,0:0:0:0:
470,167,42853,2,0,P|480:135|492:102,2,64,0|0|4,0:0|0:0|0:0,0:0:0:0:
357,272,43263,2,0,P|334:246|310:221,1,64,10|4,0:0|0:0,0:0:0:0:
268,285,43535,1,4,0:0:0:0:
357,136,43672,6,0,P|363:103|377:63,1,64,6|0,0:0|0:0,0:0:0:0:
317,22,43944,1,4,0:0:0:0:
439,157,44081,2,0,L|293:171,1,128,6|4,0:0|0:0,0:0:0:0:
302,157,44490,1,4,0:0:0:0:
216,311,44626,5,8,0:0:0:0:
149,261,44763,2,0,P|135:289|115:326,2,64,6|4|10,0:0|0:0|0:0,0:0:0:0:
276,365,45172,1,4,0:0:0:0:
253,209,45308,2,0,P|260:229|267:260,3,32,8|8|8|4,0:0|0:0|0:0|0:0,0:0:0:0:
331,157,45581,2,0,P|342:138|355:110,3,32,8|4|8|4,0:0|0:0|0:0|0:0,0:0:0:0:
359,250,45854,6,0,P|395:257|440:273,1,64,6|0,0:0|0:0,0:0:0:0:
459,334,46126,1,4,0:0:0:0:
320,349,46263,2,0,B|274:339|274:339|243:352|243:352|172:342,1,128,6|0,0:0|0:0,0:0:0:0:
189,331,46672,1,4,0:0:0:0:
77,199,46808,5,6,0:0:0:0:
25,260,46944,2,0,P|35:290|46:329,2,64,0|4|4,0:0|0:0|0:0,0:0:0:0:
141,252,47354,2,0,P|162:228|188:197,1,64,10|4,0:0|0:0,0:0:0:0:
152,133,47626,1,4,0:0:0:0:
3,32,47763,6,0,P|14:73|21:118,1,64,6|0,0:0|0:0,0:0:0:0:
74,143,48035,1,4,0:0:0:0:
157,24,48172,2,0,B|191:41|191:41|290:32,1,128,6|4,0:0|0:0,0:0:0:0:
293,18,48581,1,4,0:0:0:0:
405,146,48717,5,6,0:0:0:0:
476,118,48854,2,0,P|482:85|491:50,2,64,0|4|0,0:0|0:0|0:0,0:0:0:0:
361,211,49263,2,0,P|373:242|389:274,1,64,6|4,0:0|0:0,0:0:0:0:
457,241,49535,1,8,0:0:0:0:
312,336,49672,1,8,0:0:0:0:
312,336,49808,1,8,0:0:0:0:
217,189,49944,6,0,P|185:203|144:208,1,64,6|0,0:0|0:0,0:0:0:0:
152,134,50216,1,0,0:0:0:0:
56,249,50353,2,0,P|66:218|72:193,1,32,4|4,0:0|0:0,0:0:0:0:
46,192,50489,2,0,L|55:326,1,128,10|4,0:0|0:0,0:0:0:0:
10,105,50898,5,6,0:0:0:0:
81,72,51034,2,0,P|117:83|144:88,2,64,0|0|0,0:0|0:0|0:0,0:0:0:0:
187,184,51444,2,0,P|213:160|260:132,1,64,10|4,0:0|0:0,0:0:0:0:
235,68,51716,1,4,0:0:0:0:
352,192,51853,6,0,P|341:231|333:280,1,64,6|0,0:0|0:0,0:0:0:0:
419,266,52125,1,4,0:0:0:0:
307,113,52262,2,0,L|317:261,1,128,6|4,0:0|0:0,0:0:0:0:
299,252,52671,1,4,0:0:0:0:
437,142,52807,5,8,0:0:0:0:
389,76,52944,2,0,P|359:93|317:109,2,64,6|4|10,0:0|0:0|0:0,0:0:0:0:
376,281,53353,2,0,P|385:247|399:211,1,64,4|12,0:0|0:0,0:0:0:0:
337,167,53625,1,12,0:0:0:0:
463,299,53762,1,8,0:0:0:0:
463,299,53898,1,12,0:0:0:0:
285,333,54035,6,0,P|232:313|172:299,1,111.999996582031,6|0,0:0|2:0,0:0:0:0:
168,311,54444,1,4,0:0:0:0:
40,151,54853,1,0,2:0:0:0:
57,164,54989,2,0,P|48:223|41:299,1,111.999996582031,4|0,0:0|0:0,0:0:0:0:
57,290,55398,1,4,0:0:0:0:
188,157,55807,5,0,2:0:0:0:
175,139,55944,1,0,2:0:0:0:
155,129,56080,2,0,P|201:180|255:171,1,111.999996582031,4|0,0:0|0:0,0:0:0:0:
249,160,56489,1,4,0:0:0:0:
377,57,56898,1,0,2:0:0:0:
397,65,57035,1,4,0:0:0:0:
235,24,57444,5,0,2:0:0:0:
212,31,57580,1,0,2:0:0:0:
193,46,57716,2,0,P|140:29|70:20,1,111.999996582031,4|0,0:0|0:0,0:0:0:0:
17,66,58125,2,0,P|9:38|-3:7,1,55.9999982910157,4|0,0:0|0:0,0:0:0:0:
109,132,58398,1,6,0:0:0:0:
93,116,58535,6,0,P|81:183|75:231,1,111.999996582031,6|0,0:0|2:0,0:0:0:0:
63,249,58944,1,4,0:0:0:0:
186,325,59353,1,0,2:0:0:0:
191,303,59489,2,0,P|243:283|310:265,1,111.999996582031,4|0,0:0|0:0,0:0:0:0:
302,252,59898,1,4,0:0:0:0:
437,141,60307,5,0,2:0:0:0:
453,159,60444,1,0,2:0:0:0:
459,179,60580,2,0,P|418:147|382:79,1,111.999996582031,4|0,0:0|0:0,0:0:0:0:
401,74,60989,1,4,0:0:0:0:
317,185,61398,1,0,2:0:0:0:
300,176,61535,1,4,0:0:0:0:
181,70,61944,5,0,2:0:0:0:
192,44,62080,1,0,2:0:0:0:
191,18,62216,2,0,P|161:67|140:129,1,111.999996582031,4|0,0:0|0:0,0:0:0:0:
113,121,62625,1,4,0:0:0:0:
52,272,63035,1,4,0:0:0:0:
116,315,63171,2,0,P|126:285|137:255,1,55.9999982910157,8|8,0:0|0:0,0:0:0:0:
231,299,63445,6,0,P|285:264|346:257,1,111.999996582031,6|0,0:0|2:0,0:0:0:0:
348,270,63854,1,4,0:0:0:0:
483,346,64262,1,0,2:0:0:0:
459,355,64399,2,0,P|460:302|466:239,1,111.999996582031,4|0,0:0|0:0,0:0:0:0:
447,224,64808,1,4,0:0:0:0:
428,46,65217,5,0,2:0:0:0:
449,61,65354,1,0,2:0:0:0:
472,67,65490,2,0,P|426:17|365:28,1,111.999996582031,4|0,0:0|0:0,0:0:0:0:
371,36,65899,1,4,0:0:0:0:
188,102,66308,1,0,2:0:0:0:
198,83,66445,1,4,0:0:0:0:
68,96,66854,5,0,2:0:0:0:
60,71,66990,1,0,2:0:0:0:
41,51,67126,1,4,0:0:0:0:
140,61,67263,2,0,P|163:54|195:47,1,55.9999982910157,10|0,0:0|2:0,0:0:0:0:
205,179,67535,6,0,P|182:225|162:284,1,95.9999970703126,6|0,0:0|0:0,0:0:0:0:
59,241,67944,2,0,P|86:284|112:340,1,95.9999970703126,6|0,0:0|0:0,0:0:0:0:
41,366,68353,2,0,P|62:349|133:343,1,95.9999970703126,6|0,0:0|0:0,0:0:0:0:
205,365,68762,2,0,P|224:324|282:317,1,95.9999970703126,6|0,0:0|0:0,0:0:0:0:
354,325,69173,6,0,L|369:254,1,64,6|8,0:0|0:0,0:0:0:0:
494,248,69445,1,8,0:0:0:0:
475,257,69582,2,0,P|452:206|411:135,1,128,4|8,0:0|0:0,0:0:0:0:
483,89,69991,1,4,0:0:0:0:
493,107,70127,6,0,P|433:103|363:68,1,128,6|8,0:0|0:0,0:0:0:0:
315,16,70536,2,0,P|253:41|260:111,1,128,4|10,0:0|0:0,0:0:0:0:
334,159,70945,1,8,0:0:0:0:
351,178,71082,1,4,0:0:0:0:
363,201,71218,6,0,P|302:188|226:178,1,128,6|8,0:0|0:0,0:0:0:0:
336,107,71627,2,0,P|401:89|395:26,1,128,4|10,0:0|0:0,0:0:0:0:
285,36,72036,1,4,0:0:0:0:
305,25,72173,6,0,P|293:82|282:173,1,128,6|4,0:0|0:0,0:0:0:0:
202,219,72582,1,4,0:0:0:0:
185,200,72718,1,4,0:0:0:0:
163,191,72854,2,0,P|108:174|15:154,1,128,4|8,0:0|0:0,0:0:0:0:
143,105,73263,2,0,P|178:96|219:78,1,64,4|0,0:0|0:0,0:0:0:0:
39,137,73536,1,6,0:0:0:0:
23,124,73673,6,0,P|9:189|-2:270,1,128,6|4,0:0|0:0,0:0:0:0:
58,310,74082,2,0,P|78:272|165:272,1,128,4|8,0:0|0:0,0:0:0:0:
242,350,74491,1,4,0:0:0:0:
259,344,74627,6,0,P|250:299|170:289,1,128,6|8,0:0|0:0,0:0:0:0:
289,233,75036,2,0,P|316:250|350:265,1,64,4|4,0:0|0:0,0:0:0:0:
397,343,75309,1,10,0:0:0:0:
412,323,75445,1,8,0:0:0:0:
435,310,75582,1,4,0:0:0:0:
460,303,75718,6,0,P|412:286|324:274,1,128,6|8,0:0|0:0,0:0:0:0:
430,203,76127,2,0,P|486:209|501:129,1,128,4|10,0:3|0:3,0:0:0:0:
477,78,76536,1,4,0:3:0:0:
490,62,76673,6,0,P|445:41|367:11,1,128,6|4,3:0|3:0,0:0:0:0:
285,54,77082,1,4,3:0:0:0:
268,39,77218,1,4,3:0:0:0:
242,28,77354,2,0,P|255:97|263:166,1,128,4|8,0:0|0:0,0:0:0:0:
168,202,77763,6,0,P|139:149|68:169,1,128,6|4,0:0|0:0,0:0:0:0:
207,105,78173,2,0,P|246:59|311:93,1,128,6|8,0:0|0:0,0:0:0:0:
132,39,78583,6,0,P|85:67|24:91,1,111.999996582031,6|0,0:0|0:0,0:0:0:0:
0,161,78992,2,0,P|70:171|177:208,1,167.999994873047,4|0,0:0|0:0,0:0:0:0:
215,137,79537,6,0,P|222:81|239:9,1,111.999996582031,6|4,0:0|0:0,0:0:0:0:
339,47,79946,2,0,P|293:111|408:140,1,223.999993164063,4|0,0:0|0:0,0:0:0:0:
489,207,80628,6,0,P|433:231|383:263,1,111.999996582031,6|0,0:0|0:0,0:0:0:0:
323,210,81037,2,0,P|291:268|186:245,1,167.999994873047,4|0,0:0|0:0,0:0:0:0:
126,332,81583,6,0,P|218:324|356:354,1,223.999993164063,6|4,0:0|0:0,0:0:0:0:
425,325,82264,2,0,P|426:290|508:269,1,111.999996582031,4|4,0:0|0:0,0:0:0:0:
469,171,82674,6,0,P|474:150|481:130,2,40,6|0|0,0:0|0:0|0:0,0:0:0:0:
355,186,83083,2,0,P|351:211|344:238,2,47.9999985351563,6|0|0,0:0|0:0|0:0,0:0:0:0:
219,123,83492,2,0,P|208:101|188:65,2,55.9999982910157,6|0|0,0:0|0:0|0:0,0:0:0:0:
110,214,83901,2,0,P|81:227|53:248,2,64,6|0|0,0:0|0:0|0:0,0:0:0:0:
285,345,84311,6,0,P|294:304|314:254,1,80,2|0,0:0|0:0,0:0:0:0:
124,196,84583,2,0,P|152:222|180:252,1,80,2|0,0:0|0:0,0:0:0:0:
409,136,84856,2,0,P|364:151|305:177,1,80,2|0,0:0|0:0,0:0:0:0:
204,17,85129,2,0,P|216:54|227:96,1,80,2|0,0:0|0:0,0:0:0:0:
334,290,85401,6,0,P|323:143|490:174,1,359.999989013672,6|0,0:0|2:0,0:0:0:0:
440,268,87582,2,0,B|408:271|379:281|379:281|352:252|309:240|309:240|281:263|241:274,1,215.999993408203,6|0,0:0|2:0,0:0:0:0:
167,241,88946,5,4,0:0:0:0:
152,221,89082,1,4,0:0:0:0:
129,209,89219,5,8,0:0:0:0:
223,296,89491,1,4,0:0:0:0:
327,230,89764,6,0,B|334:191|347:160|347:160|319:122|299:91|299:91|329:46|384:17,1,263.99999194336,6|4,0:0|0:0,0:0:0:0:
448,42,91332,1,4,0:0:0:0:
456,56,91401,1,10,0:0:0:0:
367,130,91673,1,6,0:0:0:0:
251,82,91946,6,0,P|208:69|154:60,1,95.9999970703126,6|2,0:0|2:3,0:0:0:0:
99,150,92901,1,4,0:0:0:0:
109,162,92969,1,4,0:0:0:0:
114,179,93037,6,0,P|88:170|65:164,1,47.9999985351563,10|4,0:0|0:0,0:0:0:0:
205,81,93582,2,0,P|179:90|156:96,1,47.9999985351563,4|4,0:0|0:0,0:0:0:0:
275,229,94128,5,6,0:0:0:0:
261,207,94401,2,0,P|270:158|284:110,1,95.9999970703126,4|4,0:0|0:0,0:0:0:0:
133,184,95219,5,10,0:0:0:0:
115,162,95491,2,0,P|63:172|19:183,1,95.9999970703126,4|4,0:0|0:0,0:0:0:0:
118,329,96310,5,6,0:0:0:0:
143,347,96582,2,0,P|157:302|176:256,1,95.9999970703126,4|4,0:0|0:0,0:0:0:0:
259,197,97264,1,4,0:0:0:0:
271,190,97401,6,0,P|268:162|260:135,1,47.9999985351563,10|8,0:0|0:0,0:0:0:0:
345,237,97946,2,0,P|353:210|367:185,1,47.9999985351563,8|6,0:0|0:0,0:0:0:0:
472,323,98491,5,6,0:0:0:0:
488,305,98764,2,0,P|440:291|386:283,1,95.9999970703126,4|4,0:0|0:0,0:0:0:0:
285,355,99582,5,10,0:0:0:0:
213,309,99855,1,4,0:0:0:0:
136,343,99991,1,0,0:0:0:0:
70,296,100128,1,10,0:0:0:0:
71,214,100401,1,4,0:0:0:0:
141,178,100673,6,0,P|160:170|188:162,1,40,6|4,0:0|0:0,0:0:0:0:
245,204,100946,2,0,P|256:175|269:147,1,47.9999985351563,8|4,0:0|0:0,0:0:0:0:
209,92,101219,2,0,P|200:59|189:31,1,55.9999982910157,12|8,0:0|0:0,0:0:0:0:
328,21,101491,2,0,P|303:44|278:76,1,64,8|8,0:0|0:0,0:0:0:0:
341,149,101764,5,12,0:0:0:0:
394,90,101901,2,0,L|438:82,2,35.9999989013672,8|8|8,0:0|0:0|0:0,0:0:0:0:
423,172,102173,2,0,P|408:212|392:267,1,80,8|12,0:3|0:0,0:0:0:0:
225,352,102446,1,8,0:0:0:0:
272,291,102582,1,8,0:0:0:0:
346,304,102719,1,8,0:0:0:0:
158,296,102856,6,0,P|138:268|105:231,1,64,6|4,0:0|0:0,0:0:0:0:
163,181,103128,1,10,0:0:0:0:
26,348,103265,2,0,P|36:276|54:207,1,128,4|4,0:0|0:0,0:0:0:0:
28,208,103674,1,10,0:0:0:0:
154,318,103810,5,4,0:0:0:0:
226,350,103946,2,0,P|246:328|283:298,2,64,6|4|10,0:0|0:0|0:0,0:0:0:0:
193,240,104356,2,0,P|178:214|148:177,2,64,4|6|10,0:0|0:0|0:0,0:0:0:0:
357,183,104765,6,0,P|391:197|431:203,1,64,6|4,0:0|0:0,0:0:0:0:
484,147,105037,1,10,0:0:0:0:
360,24,105174,2,0,P|398:74|458:60,1,128,4|4,0:0|0:0,0:0:0:0:
450,44,105583,1,10,0:0:0:0:
298,149,105719,5,4,0:0:0:0:
231,96,105856,2,0,P|226:68|213:22,2,64,6|4|0,0:0|0:0|0:0,0:0:0:0:
322,151,106265,2,0,P|332:124|354:82,2,64,4|6|4,0:0|0:0|0:0,0:0:0:0:
378,243,106674,1,10,0:0:0:0:
378,243,106810,1,4,0:0:0:0:
178,295,106947,6,0,P|144:274|105:257,1,64,6|4,0:0|0:0,0:0:0:0:
119,189,107219,1,10,0:0:0:0:
36,363,107356,2,0,P|68:297|129:299,1,128,4|4,0:0|0:0,0:0:0:0:
125,308,107765,1,10,0:0:0:0:
289,246,107901,5,4,0:0:0:0:
224,299,108037,2,0,P|214:335|206:384,2,64,6|4|10,0:0|0:0|0:0,0:0:0:0:
352,379,108447,2,0,P|334:345|316:299,2,64,4|6|4,0:0|0:0|0:0,0:0:0:0:
426,270,108856,1,10,0:0:0:0:
426,270,108992,1,4,0:0:0:0:
289,167,109128,6,0,P|255:160|202:152,1,64,6|4,0:0|0:0,0:0:0:0:
299,84,109401,2,0,P|328:71|358:59,1,64,6|4,0:0|0:0,0:0:0:0:
245,25,109674,1,10,0:0:0:0:
207,93,109810,1,4,0:0:0:0:
127,104,109947,2,0,P|108:73|84:41,1,64,6|4,0:0|0:0,0:0:0:0:
289,241,110219,6,0,P|301:199|317:164,1,64,10|4,0:0|0:0,0:0:0:0:
122,329,110492,2,0,P|96:311|62:294,1,64,10|4,0:0|0:0,0:0:0:0:
16,234,110697,1,4,0:0:0:0:
25,220,110765,2,0,P|60:204|96:193,1,64,8|8,0:0|0:0,0:0:0:0:
230,287,111037,1,8,0:0:0:0:
194,164,111174,1,8,0:0:0:0:
137,320,111311,6,0,P|130:349|121:393,2,64,6|4|10,0:0|0:0|0:0,0:0:0:0:
27,309,111720,2,0,P|20:258|1:159,1,128,4|4,0:0|0:0,0:0:0:0:
18,172,112129,1,10,0:0:0:0:
161,80,112265,6,0,P|182:92|208:114,1,32,4|0,0:0|0:0,0:0:0:0:
224,117,112401,2,0,P|250:100|286:83,2,64,6|4|10,0:0|0:0|0:0,0:0:0:0:
129,69,112811,2,0,P|106:46|75:22,2,64,4|6|8,0:0|0:0|0:0,0:0:0:0:
314,16,113220,6,0,P|344:8|398:-2,1,64,6|4,0:0|0:0,0:0:0:0:
439,50,113492,1,10,0:0:0:0:
360,161,113629,2,0,P|350:118|268:112,1,128,4|4,0:0|0:0,0:0:0:0:
266,123,114038,1,10,0:0:0:0:
403,247,114174,6,0,P|415:234|435:224,1,32,4|0,0:0|0:0,0:0:0:0:
469,219,114311,2,0,P|478:244|496:281,2,64,6|4|10,0:0|0:0|0:0,0:0:0:0:
378,278,114720,2,0,P|363:300|338:333,2,64,4|6|4,0:0|0:0|0:0,0:0:0:0:
260,231,115129,1,10,0:0:0:0:
260,231,115265,1,4,0:0:0:0:
150,356,115401,6,0,P|136:315|120:282,1,64,6|4,0:0|0:0,0:0:0:0:
151,222,115673,1,10,0:0:0:0:
273,258,115810,2,0,P|342:261|343:194,1,128,4|4,0:0|0:0,0:0:0:0:
339,196,116219,1,6,0:0:0:0:
228,320,116355,6,0,L|174:309,1,32,4|0,0:0|0:0,0:0:0:0:
167,335,116491,2,0,P|132:342|90:359,2,64,10|4|10,0:0|0:0|0:0,0:0:0:0:
172,239,116901,2,0,P|186:206|211:168,2,64,4|6|4,0:0|0:0|0:0,0:0:0:0:
84,174,117310,1,10,0:0:0:0:
84,174,117446,1,4,0:0:0:0:
278,257,117582,6,0,P|306:234|346:210,1,64,10|4,0:0|0:0,0:0:0:0:
242,120,117855,2,0,P|225:87|198:49,1,64,6|4,0:0|0:0,0:0:0:0:
334,104,118128,1,10,0:0:0:0:
402,144,118264,1,4,0:0:0:0:
480,134,118401,2,0,L|464:44,1,64,10|4,0:0|0:0,0:0:0:0:
406,27,118605,1,4,0:0:0:0:
395,44,118673,6,0,P|351:31|298:25,1,80,8|8,0:0|0:0,0:0:0:0:
216,160,118946,2,0,P|257:137|301:121,1,80,8|8,0:0|0:0,0:0:0:0:
174,44,119219,5,8,0:0:0:0:
174,44,119355,1,8,0:0:0:0:
86,188,119491,1,8,0:0:0:0:
60,96,119628,1,8,0:0:0:0:
282,204,119764,6,0,P|326:190|374:181,1,88.000002685547,6|4,0:0|0:0,0:0:0:0:
338,26,120036,2,0,P|307:60|279:100,1,88.000002685547,10|4,0:0|0:0,0:0:0:0:
435,94,120309,1,10,0:0:0:0:
435,94,120445,1,4,0:0:0:0:
315,162,120582,2,0,P|272:145|225:131,1,88.000002685547,10|4,0:0|0:0,0:0:0:0:
185,72,120786,1,0,0:0:0:0:
201,69,120854,6,0,P|220:28|232:-18,1,88.000002685547,10|0,0:0|0:0,0:0:0:0:
47,110,121127,2,0,P|92:168|124:222,1,132.00000402832,10|0,0:0|2:0,0:0:0:0:
128,237,121400,2,0,P|165:177|223:170,1,132.00000402832,10|0,0:0|2:0,0:0:0:0:
219,187,121673,2,0,P|276:239|325:213,1,132.00000402832,10|0,0:0|2:0,0:0:0:0:
337,213,121945,6,0,P|347:168|361:127,1,88.000002685547,10|4,0:0|0:0,0:0:0:0:
471,251,122218,1,10,0:0:0:0:
471,251,122354,1,4,0:0:0:0:
378,357,122491,2,0,P|343:338|265:308,1,88.000002685547,10|4,0:0|0:0,0:0:0:0:
442,249,122764,2,0,P|459:214|504:142,1,88.000002685547,10|4,0:0|0:0,0:0:0:0:
356,89,123036,6,0,P|317:66|246:37,1,88.000002685547,10|4,0:0|0:0,0:0:0:0:
218,102,123241,1,4,0:0:0:0:
202,109,123309,2,0,P|178:70|141:28,1,88.000002685547,10|4,0:0|0:0,0:0:0:0:
76,73,123514,1,4,0:0:0:0:
89,87,123582,2,0,P|100:134|106:179,1,88.000002685547,10|4,0:0|0:0,0:0:0:0:
160,295,123854,2,0,P|205:272|250:257,1,88.000002685547,10|4,0:0|0:0,0:0:0:0:
304,300,124059,1,4,0:0:0:0:
312,317,124127,6,0,P|355:328|402:346,1,88.000002685547,10|4,0:0|0:0,0:0:0:0:
460,228,124400,2,0,P|454:185|452:125,1,88.000002685547,10|4,0:0|0:0,0:0:0:0:
338,160,124673,2,0,P|357:206|373:254,1,88.000002685547,10|4,0:0|0:0,0:0:0:0:
398,73,124945,1,10,0:0:0:0:
398,73,125082,1,4,0:0:0:0:
243,122,125218,6,0,P|265:79|292:38,1,88.000002685547,10|4,0:0|0:0,0:0:0:0:
135,75,125491,2,0,P|147:121|165:166,1,88.000002685547,10|4,0:3|0:0,0:0:0:0:
154,174,125695,1,0,0:0:0:0:
143,188,125764,1,10,0:0:0:0:
33,103,125900,1,4,0:0:0:0:
45,89,125968,1,4,0:0:0:0:
62,81,126036,2,0,P|104:97|163:113,1,88.000002685547,10|4,0:0|0:0,0:0:0:0:
291,239,126309,6,0,P|312:188|337:140,1,88.000002685547,10|8,0:0|0:0,0:0:0:0:
458,306,126582,2,0,P|418:267|375:234,1,88.000002685547,10|8,0:0|0:0,0:0:0:0:
499,85,126854,1,10,0:0:0:0:
461,199,126991,1,8,0:0:0:0:
386,100,127127,1,10,0:0:0:0:
386,100,127264,1,8,0:0:0:0:
301,225,127400,6,0,P|307:201|316:177,3,44.0000013427735,8|8|8|8,0:0|0:0|0:0|0:0,0:0:0:0:
208,285,127673,2,0,P|218:307|232:328,3,44.0000013427735,4|4|8|4,0:0|0:0|0:0|0:0,0:0:0:0:
135,217,127945,2,0,P|151:192|169:170,1,44.0000013427735,8|4,0:0|0:0,0:0:0:0:
68,267,128082,2,0,P|88:288|111:305,1,44.0000013427735,4|0,0:0|0:0,0:0:0:0:
50,180,128218,2,0,P|36:137|17:86,1,88.000002685547,10|4,0:0|0:0,0:0:0:0:
65,34,128423,1,4,0:0:0:0:
78,21,128491,6,0,P|124:28|174:39,1,88.000002685547,10|4,0:0|0:0,0:0:0:0:
214,187,128764,2,0,P|184:150|150:112,1,88.000002685547,10|4,0:0|0:0,0:0:0:0:
274,83,129036,1,10,0:0:0:0:
274,83,129173,1,4,0:0:0:0:
368,245,129309,2,0,P|356:195|344:157,1,88.000002685547,10|0,0:3|0:0,0:0:0:0:
384,96,129514,1,0,0:0:0:0:
401,85,129582,6,0,P|447:99|487:115,1,88.000002685547,10|4,0:0|0:0,0:0:0:0:
476,186,129786,1,0,0:0:0:0:
462,203,129854,6,0,P|481:221|506:249,3,44.0000013427735,14|0|0|0,0:0|0:0|0:0|0:0,0:0:0:0:
370,260,130127,2,0,P|349:251|328:244,3,44.0000013427735,14|0|0|0,0:0|0:0|0:0|0:0,0:0:0:0:
420,357,130400,2,0,P|438:343|457:332,3,44.0000013427735,14|0|0|0,0:0|0:0|0:0|0:0,0:0:0:0:
285,344,130673,6,0,P|241:330|191:321,1,88.000002685547,10|4,0:0|0:0,0:0:0:0:
28,325,130945,2,0,P|68:355|103:386,1,88.000002685547,10|4,0:0|0:0,0:0:0:0:
117,242,131218,1,10,0:0:0:0:
117,242,131354,1,4,0:0:0:0:
47,123,131491,2,0,P|32:165|15:229,1,88.000002685547,10|4,0:0|0:0,0:0:0:0:
160,112,131764,6,0,P|200:91|254:74,1,88.000002685547,10|4,0:0|0:0,0:0:0:0:
303,127,131968,1,4,0:0:0:0:
306,146,132036,2,0,P|346:167|400:184,1,88.000002685547,10|4,0:0|0:0,0:0:0:0:
453,141,132241,1,4,0:0:0:0:
472,149,132309,2,0,P|481:100|493:52,1,88.000002685547,10|4,0:0|0:0,0:0:0:0:
302,53,132582,2,0,P|255:64|198:81,1,88.000002685547,10|4,0:0|0:0,0:0:0:0:
148,103,132786,1,4,0:0:0:0:
141,119,132854,6,0,P|127:63|108:14,1,88.000002685547,10|4,0:0|0:0,0:0:0:0:
242,99,133127,2,0,P|220:137|202:177,1,88.000002685547,10|4,0:0|0:0,0:0:0:0:
61,179,133400,2,0,P|95:210|123:241,1,88.000002685547,10|4,0:0|0:0,0:0:0:0:
46,88,133672,1,10,0:0:0:0:
46,88,133809,1,4,0:0:0:0:
231,195,133945,6,0,P|273:176|330:159,1,88.000002685547,10|12,0:0|0:0,0:0:0:0:
177,44,134218,2,0,P|214:71|266:99,1,88.000002685547,10|12,0:0|0:0,0:0:0:0:
112,166,134491,2,0,P|127:211|141:277,1,88.000002685547,10|4,0:0|0:0,0:0:0:0:
203,277,134695,1,4,0:0:0:0:
214,291,134764,2,0,P|199:336|185:402,1,88.000002685547,10|4,0:0|0:0,0:0:0:0:
114,344,134968,1,4,0:0:0:0:
97,353,135036,6,0,P|53:336|7:324,1,88.000002685547,10|4,0:0|0:0,0:0:0:0:
105,241,135309,1,8,0:0:0:0:
105,241,135445,1,4,0:0:0:0:
218,148,135582,5,8,0:0:0:0:
185,238,135718,1,12,0:0:0:0:
129,116,135854,1,8,0:0:0:0:
265,213,135991,6,0,B|241:210|217:215|217:215|201:195|184:183|184:183|155:191|102:196,1,160,6|8,0:0|0:0,0:0:0:0:
234,101,136400,1,4,0:0:0:0:
302,140,136537,1,4,0:0:0:0:
378,111,136673,6,0,B|383:155|383:155|368:179|368:179|359:257,1,128,6|8,0:0|0:0,0:0:0:0:
451,193,137082,1,4,0:0:0:0:
496,127,137218,1,4,0:0:0:0:
460,60,137355,6,0,B|428:57|428:57|400:42|400:42|364:44,1,95.9999970703126,6|8,0:0|0:0,0:0:0:0:
218,81,137764,1,4,0:0:0:0:
264,144,137900,2,0,P|256:173|248:209,1,47.9999985351563,8|4,0:0|0:0,0:0:0:0:
124,222,138173,1,8,0:0:0:0:
116,203,138309,2,0,P|143:188|166:179,1,47.9999985351563,4|4,0:0|0:0,0:0:0:0:
132,98,138582,5,6,0:0:0:0:
32,240,146219,6,0,P|26:203|9:144,2,80,10|4|4,0:0|0:0|0:0,0:0:0:0:
108,160,146628,2,0,P|115:123|135:65,2,80,10|4|4,0:0|0:0|0:0,0:0:0:0:
237,245,147037,2,0,P|216:205|190:166,2,80,10|4|4,0:0|0:0|0:0,0:0:0:0:
313,171,147446,2,0,P|334:140|376:95,2,80,10|4|4,0:0|0:0|0:0,0:0:0:0:
448,258,147855,6,0,P|424:223|380:216,1,80,10|4,0:0|0:0,0:0:0:0:
442,269,148128,2,0,P|416:234|372:229,1,80,4|4,0:0|0:0,0:0:0:0:
208,352,148400,6,0,P|173:336|111:316,2,80,10|4|4,0:0|0:0|0:0,0:0:0:0:
301,221,148809,2,0,P|270:243|213:276,2,80,10|4|4,0:0|0:0|0:0,0:0:0:0:
181,180,149219,2,0,P|150:157|93:124,2,80,10|4|4,0:0|0:0|0:0,0:0:0:0:
302,69,149628,2,0,P|276:97|228:141,2,80,10|4|4,0:0|0:0|0:0,0:0:0:0:
176,40,150037,5,8,0:3:0:0:
176,40,150173,1,8,0:3:0:0:
137,166,150309,1,8,0:3:0:0:
137,166,150446,1,8,0:3:0:0:
12,43,150582,6,0,P|22:104|31:175,1,111.999996582031,6|6,0:0|0:0,0:0:0:0:
74,220,150991,1,4,0:0:0:0:
74,220,151128,1,10,0:0:0:0:
250,164,151537,6,0,P|257:130|266:92,1,55.9999982910157,4|6,0:0|0:0,0:0:0:0:
191,50,151809,2,0,P|198:105|251:93,1,111.999996582031,8|4,0:0|0:0,0:0:0:0:
402,142,152219,6,0,P|427:132|456:124,1,55.9999982910157,10|4,0:0|0:0,0:0:0:0:
343,31,152491,2,0,P|365:45|392:59,1,55.9999982910157,6|12,0:0|0:0,0:0:0:0:
331,268,152764,6,0,P|321:199|280:81,1,192,6|4,0:0|0:0,0:0:0:0:
207,75,153241,1,4,0:0:0:0:
203,84,153309,1,10,0:0:0:0:
379,206,153719,1,4,0:0:0:0:
325,350,153991,2,0,P|268:329|187:311,1,128,8|4,0:0|0:0,0:0:0:0:
97,222,154400,5,8,0:0:0:0:
129,154,154491,1,4,0:0:0:0:
181,128,154582,1,8,0:0:0:0:
225,133,154673,1,4,0:0:0:0:
255,159,154764,1,8,0:0:0:0:
286,169,154855,1,4,0:0:0:0:
317,165,154946,6,0,L|329:109,3,40,6|0|0|0,0:0|2:0|2:0|2:0,0:0:0:0:
239,61,155219,2,0,P|231:33|218:-1,3,40,10|0|4|0,0:0|2:0|0:0|2:0,0:0:0:0:
150,140,155491,2,0,P|163:116|180:91,3,40,2|0|4|0,2:3|2:0|0:0|2:0,0:0:0:0:
87,63,155764,2,0,P|78:38|64:11,1,40,10|0,0:0|2:0,0:0:0:0:
15,112,155900,1,4,0:0:0:0:
93,201,156037,6,0,P|78:241|63:296,1,80,2|4,2:3|0:0,0:0:0:0:
119,340,156309,1,10,0:0:0:0:
281,238,156446,2,0,B|292:212|314:186|314:186|298:147|260:130|260:130|272:92|272:28,1,223.999993164063,4|0,0:0|0:0,0:0:0:0:
169,135,157128,6,0,P|161:94|143:33,1,80,6|0,0:0|2:0,0:0:0:0:
70,211,157400,2,0,P|55:179|-2:105,1,120
145,335,157809,6,0,P|170:235|290:221,1,223.999993164063,4|4,0:0|0:0,0:0:0:0:
475,290,158491,6,0,P|478:268|485:238,1,53.3333333333333,10|0,0:0|0:0,0:0:0:0:
393,208,158673,1,0,2:0:0:0:
372,205,158764,2,0,P|355:179|340:158,1,53.3333333333333,6|0,0:0|0:0,0:0:0:0:
398,93,158946,1,0,2:0:0:0:
384,79,159037,2,0,P|389:46|398:16,1,53.3333333333333,10|0,0:0|0:0,0:0:0:0:
481,131,159219,1,0,2:0:0:0:
470,144,159309,6,0,B|441:100|441:100|457:-7,1,160,6|10,0:0|0:0,0:0:0:0:
333,108,159719,1,4,0:0:0:0:
315,98,159787,1,0,2:0:0:0:
295,95,159855,2,0,P|283:113|270:141,3,40,2|0|4|0,2:3|2:0|0:0|2:0,0:0:0:0:
210,55,160128,2,0,P|194:40|168:17,3,40,10|0|4|0,0:0|2:0|0:0|2:0,0:0:0:0:
96,112,160400,6,0,P|63:101|-3:82,1,80,2|4,2:3|0:0,0:0:0:0:
61,221,160673,2,0,P|82:254|108:304,1,80,10|0,0:0|2:0,0:0:0:0:
178,174,160946,1,6,0:0:0:0:
178,174,161082,1,4,0:0:0:0:
290,285,161219,2,0,P|272:324|254:378,1,80,10|0,0:0|2:0,0:0:0:0:
448,264,161491,5,6,0:0:0:0:
432,240,161559,1,0,2:0:0:0:
408,224,161628,1,0,2:0:0:0:
380,217,161696,1,0,2:0:0:0:
353,224,161764,2,0,P|362:253|372:292,3,40,10|0|4|0,0:0|2:0|0:0|2:0,0:0:0:0:
265,164,162037,2,0,P|283:139|308:108,3,40,2|0|4|0,2:3|0:0|0:0|2:0,0:0:0:0:
278,253,162309,1,10,0:0:0:0:
359,143,162446,1,4,0:0:0:0:
277,19,162582,6,0,B|270:63|270:63|288:98|288:98|276:199,1,160,2|10,0:0|0:0,0:0:0:0:
119,159,162991,1,4,0:0:0:0:
119,159,163128,2,0,P|130:110|133:67,1,80,10|4,0:0|0:0,0:0:0:0:
243,265,163400,2,0,P|215:234|165:210,1,80,10|4,0:0|0:0,0:0:0:0:
511,231,163673,6,0,B|465:226|416:205|416:205|370:225|345:260|345:260|305:194|243:162|243:162|201:198|151:212|151:212|97:163|40:144,1,551.999983154297,10|0,0:0|0:0,0:0:0:0:
47,122,165309,6,0,P|57:104|65:88,16,26.6666666666667,10|0|4|0|6|0|4|0|10|0|4|0|0|0|0|0|0,0:0|0:0|0:0|0:0|0:0|0:0|0:0|0:0|0:0|0:0|0:0|0:0|0:0|0:0|0:0|0:0|0:0,0:0:0:0:
122,197,166128,6,0,P|114:233|106:286,1,80,2|4,2:3|0:0,0:0:0:0:
43,319,166332,1,0,2:0:0:0:
43,319,166400,2,0,P|51:340|57:360,3,40,10|0|4|0,0:0|2:0|0:0|2:0,0:0:0:0:
136,283,166673,2,0,P|151:267|165:251,3,40,0|0|4|0,2:0|2:0|0:0|2:0,0:0:0:0:
178,362,166946,6,0,P|221:366|279:374,1,80,10|4,0:0|2:3,0:0:0:0:
314,318,167150,1,0,0:0:0:0:
329,314,167219,2,0,P|334:297|344:270,3,40,2|0|4|0,2:3|0:0|2:3|0:0,0:0:0:0:
442,283,167491,6,0,P|434:244|426:218,1,40,8|0,0:0|2:0,0:0:0:0:
453,294,167628,2,0,P|461:255|468:229,1,40,8|0,0:0|2:0,0:0:0:0:
291,182,167764,2,0,P|298:142|306:116,1,40,8|0,0:0|2:0,0:0:0:0:
279,191,167901,2,0,P|271:152|263:125,1,40,8|0,0:0|2:0,0:0:0:0:
418,51,168037,6,0,P|407:96|398:156,1,80,6|0,0:0|2:0,0:0:0:0:
432,198,168241,1,0,2:0:0:0:
443,206,168309,2,0,P|477:178|510:156,1,80,10|4,0:0|0:0,0:0:0:0:
388,305,168582,2,0,P|380:324|370:355,2,40,2|0|4,2:3|2:0|0:0,0:0:0:0:
291,182,168855,2,0,P|285:159|271:124,1,40,10|0,0:0|2:0,0:0:0:0:
354,228,168991,2,0,P|361:206|374:170,1,40,4|0,0:0|2:0,0:0:0:0:
271,269,169128,6,0,P|248:262|211:252,3,40,2|0|4|0,2:3|2:0|0:0|2:0,0:0:0:0:
171,312,169400,2,0,P|152:278|120:229,1,80,10|0,0:0|2:0,0:0:0:0:
55,225,169605,1,0,2:0:0:0:
46,234,169673,1,6,0:0:0:0:
4,312,169809,1,4,0:0:0:0:
79,370,169946,1,10,0:0:0:0:
99,350,170014,1,0,2:0:0:0:
124,338,170082,1,0,2:0:0:0:
151,333,170150,1,0,2:0:0:0:
179,336,170219,6,0,P|184:355|189:373,4,26.6666666666667,6|0|0|0|0,0:0|0:0|2:0|0:0|0:0,0:0:0:0:
257,291,170491,2,0,P|266:272|271:252,4,26.6666666666667,10|0|0|4|0,0:0|2:0|0:0|0:0|0:0,0:0:0:0:
360,319,170764,2,0,P|373:334|383:351,4,26.6666666666667,2|0|0|4|0,2:3|0:0|0:0|2:0|0:0,0:0:0:0:
488,350,171037,2,0,P|501:334|512:321,4,26.6666666666667,10|0|0|4|0,0:0|0:0|0:0|0:0|0:0,0:0:0:0:
497,120,171309,5,2,2:3:0:0:
479,142,171378,1,0,2:0:0:0:
454,154,171446,1,4,0:0:0:0:
426,156,171514,1,0,2:0:0:0:
399,146,171582,2,0,P|412:130|425:116,3,40,10|0|4|0,0:0|2:0|0:0|2:0,0:0:0:0:
317,216,171855,6,0,P|312:194|302:162,1,40,6|0,0:0|2:0,0:0:0:0:
202,276,171991,2,0,P|211:255|227:226,1,40,4|0,0:0|2:0,0:0:0:0:
302,325,172128,2,0,P|288:302|277:272,1,40,10|0,0:0|2:0,0:0:0:0:
157,194,172264,2,0,P|163:171|165:150,1,40,4|0,0:0|2:0,0:0:0:0:
314,137,172400,6,0,P|322:83|338:8,1,128,6|0,0:0|0:0,0:0:0:0:
357,32,172809,1,0,0:0:0:0:
195,107,173219,1,0,0:0:0:0:
181,119,173355,2,0,P|121:96|139:30,1,128,0|0,0:0|0:0,0:0:0:0:
144,35,173764,1,4,0:0:0:0:
256,162,174173,5,0,0:0:0:0:
271,176,174309,1,0,0:0:0:0:
282,194,174446,2,0,P|300:126|320:64,1,128,4|0,0:0|0:0,0:0:0:0:
335,76,174855,1,4,0:0:0:0:
437,188,175400,1,4,0:0:0:0:
452,199,175469,1,4,0:0:0:0:
464,213,175537,1,4,0:0:0:0:
474,229,175605,1,4,0:0:0:0:
478,246,175673,6,0,P|443:235|403:228,1,64,6|0,0:0|0:0,0:0:0:0:
372,147,175946,2,0,P|340:165|302:180,1,64,0|4,0:0|0:0,0:0:0:0:
315,306,176219,2,0,P|330:272|349:237,1,64,10|4,0:0|0:0,0:0:0:0:
223,184,176491,2,0,P|240:219|258:262,1,64,0|4,0:0|0:0,0:0:0:0:
160,330,176764,6,0,P|98:308|31:290,1,128,6|0,0:0|0:0,0:0:0:0:
20,303,177173,1,0,0:0:0:0:
92,178,177582,1,0,0:0:0:0:
115,182,177719,2,0,P|130:132|56:86,1,128,0|0,0:0|0:0,0:0:0:0:
60,93,178128,1,4,0:0:0:0:
116,270,178537,1,4,0:0:0:0:
127,285,178605,1,4,0:0:0:0:
142,296,178673,1,4,0:0:0:0:
159,303,178741,1,4,0:0:0:0:
178,305,178809,6,0,P|202:239|228:178,1,128,4|0,0:0|0:0,0:0:0:0:
210,170,179219,1,4,0:0:0:0:
336,285,179764,1,0,0:0:0:0:
351,274,179900,1,4,0:0:0:0:
370,268,180037,6,0,P|383:231|400:196,1,64,6|0,0:0|0:0,0:0:0:0:
492,321,180309,2,0,P|470:294|443:266,1,64,0|4,0:0|0:0,0:0:0:0:
397,343,180582,2,0,L|382:389,2,42.6666666666667,10|4|4,0:0|0:0|0:0,0:0:0:0:
323,300,180855,1,6,0:0:0:0:
200,358,181128,6,0,P|157:330|72:300,1,128,6|0,0:0|0:0,0:0:0:0:
67,314,181537,1,0,0:0:0:0:
26,199,181946,1,0,0:0:0:0:
17,183,182082,2,0,P|33:124|105:119,1,128,0|0,0:0|0:0,0:0:0:0:
106,129,182491,1,4,0:0:0:0:
197,44,182900,5,0,0:0:0:0:
212,55,183037,1,0,0:0:0:0:
225,72,183173,2,0,P|276:39|345:27,1,128,4|0,0:0|0:0,0:0:0:0:
353,40,183582,1,4,0:0:0:0:
450,144,183855,5,10,0:0:0:0:
376,258,184128,1,4,0:0:0:0:
365,242,184196,1,4,0:0:0:0:
349,231,184264,1,4,0:0:0:0:
331,224,184332,1,4,0:0:0:0:
311,224,184400,6,0,P|302:257|294:298,1,64,6|0,0:0|0:0,0:0:0:0:
230,206,184673,2,0,P|218:184|187:146,1,64,0|4,0:0|0:0,0:0:0:0:
295,149,184946,2,0,P|325:137|365:126,1,64,10|4,0:0|0:0,0:0:0:0:
228,28,185219,2,0,P|239:56|250:92,1,64,0|4,0:0|0:0,0:0:0:0:
334,53,185491,6,0,P|395:34|466:24,1,128,6|0,0:0|0:0,0:0:0:0:
472,38,185900,1,0,0:0:0:0:
422,209,186309,1,0,0:0:0:0:
443,216,186446,2,0,P|444:157|371:151,1,128,0|0,0:0|0:0,0:0:0:0:
373,152,186855,1,4,0:0:0:0:
252,316,187264,1,4,0:0:0:0:
239,301,187332,1,4,0:0:0:0:
222,292,187400,1,4,0:0:0:0:
202,288,187469,1,4,0:0:0:0:
182,289,187537,6,0,P|166:226|139:154,1,128,4|0,0:0|0:0,0:0:0:0:
124,163,187946,1,4,0:0:0:0:
86,329,188219,1,10,0:0:0:0:
226,241,188491,1,8,0:0:0:0:
244,225,188559,1,0,0:0:0:0:
266,217,188628,1,4,0:0:0:0:
289,217,188696,1,0,0:0:0:0:
312,223,188764,6,0,P|295:268|282:322,2,80,8|8|8,0:0|0:0|0:0,0:0:0:0:
449,193,189173,1,8,0:0:0:0:
487,127,189309,2,0,P|448:113|388:97,1,80,8|8,0:3|0:3,0:0:0:0:
416,271,189582,2,0,P|408:233|395:175,1,80,8|4,0:3|0:3,0:0:0:0:
265,109,189855,5,8,0:0:0:0:
265,109,189991,1,8,0:0:0:0:
265,109,190128,1,8,0:0:0:0:
166,248,190264,6,0,P|174:180|186:113,1,128,6|4,0:0|0:0,0:0:0:0:
91,176,190672,6,0,L|83:113,1,47.9999985351563,10|4,0:0|0:0,0:0:0:0:
76,168,190945,2,0,L|68:105,1,47.9999985351563,10|4,0:0|0:0,0:0:0:0:
61,161,191218,2,0,L|53:98,1,47.9999985351563,10|4,0:0|0:0,0:0:0:0:
46,154,191490,2,0,L|38:91,1,47.9999985351563,10|4,0:0|0:0,0:0:0:0:
31,147,191763,2,0,L|23:84,1,47.9999985351563,10|4,0:0|0:0,0:0:0:0:
17,140,192036,2,0,L|9:77,1,47.9999985351563,10|6,0:0|0:0,0:0:0:0:
79,24,192309,1,10,0:0:0:0:
119,174,192445,6,0,P|99:230|83:300,1,128,6|4,0:0|0:0,0:0:0:0:
146,348,192854,1,10,0:0:0:0:
78,264,192990,1,4,0:0:0:0:
201,228,193127,6,0,P|234:217|270:209,2,64,10|4|10,0:0|0:0|0:0,0:0:0:0:
245,68,193536,1,4,0:0:0:0:
180,119,193672,2,0,L|169:171,2,32,10|0|4,0:0|2:0|0:0,0:0:0:0:
106,81,193945,1,10,0:0:0:0:
236,219,194081,5,4,0:0:0:0:
251,207,194150,1,4,0:0:0:0:
269,200,194218,1,8,0:0:0:0:
331,76,194354,1,8,0:0:0:0:
331,76,194490,1,8,0:0:0:0:
453,219,194627,6,0,P|403:232|324:259,1,128,6|4,0:0|0:0,0:0:0:0:
271,167,195036,6,0,P|282:146|297:123,1,47.9999985351563,10|4,0:0|0:0,0:0:0:0:
259,158,195309,2,0,P|272:138|289:116,1,47.9999985351563,10|4,0:0|0:0,0:0:0:0:
248,147,195581,2,0,P|263:128|282:109,1,47.9999985351563,10|4,0:0|0:0,0:0:0:0:
238,135,195855,2,0,P|254:118|276:101,1,47.9999985351563,10|0,0:0|0:0,0:0:0:0:
229,122,196127,2,0,P|247:107|270:92,1,47.9999985351563,10|4,0:0|0:0,0:0:0:0:
221,108,196400,2,0,P|241:95|265:82,1,47.9999985351563,10|6,0:0|0:0,0:0:0:0:
326,23,196672,1,8,0:0:0:0:
153,156,196809,6,0,P|104:136|18:112,1,128,6|4,0:0|0:0,0:0:0:0:
33,83,197218,1,10,0:0:0:0:
73,163,197354,1,4,0:0:0:0:
195,87,197490,6,0,P|203:52|216:4,2,64,10|4|4,0:0|0:0|0:0,0:0:0:0:
327,146,197900,2,0,P|354:117|393:88,1,64,10|4,0:0|0:0,0:0:0:0:
344,34,198172,1,10,0:0:0:0:
405,198,198309,1,4,0:0:0:0:
405,198,198445,1,4,0:0:0:0:
490,130,198581,2,0,L|501:74,2,32,8|8|8,0:0|0:0|0:0,0:0:0:0:
412,53,198854,1,8,0:0:0:0:
279,212,198990,6,0,P|234:194|136:170,1,128,6|4,0:0|0:0,0:0:0:0:
108,113,199331,1,4,0:0:0:0:
105,99,199400,6,0,P|126:110|149:125,1,47.9999985351563,10|4,0:0|0:0,0:0:0:0:
114,87,199673,2,0,P|134:100|156:117,1,47.9999985351563,10|4,0:0|0:0,0:0:0:0:
125,76,199945,2,0,P|144:91|163:110,1,47.9999985351563,10|4,0:0|0:0,0:0:0:0:
137,66,200219,2,0,P|154:82|171:104,1,47.9999985351563,10|0,0:0|0:0,0:0:0:0:
150,57,200491,2,0,P|165:75|180:98,1,47.9999985351563,10|4,0:0|0:0,0:0:0:0:
164,49,200764,2,0,P|177:69|190:93,1,47.9999985351563,10|6,0:0|0:0,0:0:0:0:
223,165,201036,1,8,0:0:0:0:
59,23,201172,6,0,P|48:81|38:157,1,128,6|8,0:0|0:0,0:0:0:0:
154,254,201581,1,6,0:0:0:0:
172,253,201718,2,0,P|160:212|138:163,1,80,4|8,0:0|0:0,0:0:0:0:
273,62,201990,1,6,0:0:0:0:
290,76,202127,2,0,P|268:109|242:139,1,80,4|8,0:0|0:0,0:0:0:0:
338,259,202400,5,6,0:0:0:0:
312,243,202536,1,4,0:0:0:0:
473,322,202672,1,8,0:0:0:0:
458,341,202740,1,8,0:0:0:0:
438,354,202809,1,8,0:0:0:0:
414,360,202877,1,8,0:0:0:0:
391,352,202945,2,0,L|382:297,3,40,8|4|8|4,0:0|0:0|0:0|0:0,0:0:0:0:
287,228,203218,2,0,L|278:283,3,40,8|8|4|4,0:0|0:0|0:0|0:0,0:0:0:0:
406,189,203490,6,0,P|414:138|425:94,1,80,6|10,0:0|0:0,0:0:0:0:
287,17,203762,1,4,0:0:0:0:
272,22,203830,1,4,0:0:0:0:
259,32,203899,2,0,P|277:75|302:121,1,80,10|4,0:0|0:0,0:0:0:0:
178,43,204171,2,0,P|142:29|98:15,1,80,10|4,0:0|0:0,0:0:0:0:
128,196,204444,5,10,0:0:0:0:
197,238,204580,2,0,P|236:221|275:209,2,80,4|10|4,0:0|0:0|0:0,0:0:0:0:
69,324,204990,2,0,P|43:289|15:259,2,80,10|4|10,0:0|0:0|0:0,0:0:0:0:
127,178,205399,6,0,P|132:138|144:79,1,80,6|10,0:0|0:0,0:0:0:0:
8,39,205671,1,4,0:0:0:0:
19,50,205740,1,4,0:0:0:0:
34,54,205808,2,0,L|117:27,1,80,10|4,0:0|0:0,0:0:0:0:
209,135,206080,2,0,P|249:148|307:176,1,80,10|4,0:0|0:0,0:0:0:0:
389,44,206353,5,10,0:0:0:0:
470,158,206490,2,0,P|484:120|502:79,2,80,4|10|4,0:0|0:0|0:0,0:0:0:0:
301,73,206899,2,0,P|275:40|238:2,2,80,10|4|10,0:0|0:0|0:0,0:0:0:0:
338,258,207308,1,4,0:0:0:0:
380,153,207444,1,10,0:0:0:0:
219,190,207581,6,0,P|182:177|121:163,1,80,6|10,0:0|0:0,0:0:0:0:
87,338,207853,1,4,0:0:0:0:
101,345,207921,1,4,0:0:0:0:
117,345,207990,2,0,L|75:255,1,80,10|4,0:0|0:0,0:0:0:0:
228,210,208262,2,0,P|209:246|182:308,1,80,10|4,0:0|0:0,0:0:0:0:
366,333,208535,5,10,0:0:0:0:
421,272,208671,2,0,P|456:281|501:290,2,80,4|10|4,0:0|0:0|0:0,0:0:0:0:
278,336,209081,2,0,P|245:352|203:370,2,80,10|4|10,0:0|0:0|0:0,0:0:0:0:
427,155,209490,6,0,P|470:161|520:175,1,80,6|10,0:0|0:0,0:0:0:0:
428,26,209762,1,4,0:0:0:0:
439,14,209831,1,4,0:0:0:0:
453,6,209899,2,0,P|469:52|480:96,1,80,10|4,0:0|0:0,0:0:0:0:
336,162,210171,2,0,P|361:120|381:79,1,80,10|4,0:0|0:0,0:0:0:0:
196,34,210444,5,10,0:0:0:0:
137,96,210581,2,0,P|147:128|158:181,2,80,4|10|4,0:0|0:0|0:0,0:0:0:0:
8,81,210990,2,0,P|24:51|46:2,2,80,10|6|8,0:0|0:0|0:0,0:0:0:0:
76,193,211399,1,0,0:0:0:0:
157,105,211535,1,8,0:0:0:0:
223,248,211672,6,0,L|219:306,1,40,6|0,0:0|0:0,0:0:0:0:
201,264,211808,2,0,L|205:312,1,40,10|0,0:0|0:0,0:0:0:0:
234,292,211944,2,0,L|225:334,1,40,4|0,0:0|0:0,0:0:0:0:
202,361,212081,1,10,0:0:0:0:
313,336,212353,6,0,L|330:275,1,40,10|4,0:0|0:0,0:0:0:0:
331,323,212490,2,0,L|348:262,1,40,4|4,0:0|0:0,0:0:0:0:
350,313,212626,1,10,0:0:0:0:
458,315,212899,6,0,L|467:366,2,40,10|4|4,0:0|0:0|0:0,0:0:0:0:
488,244,213172,1,10,0:0:0:0:
380,191,213308,2,0,L|341:196,2,40,4|4|10,0:0|0:0|0:0,0:0:0:0:
447,140,213581,2,0,L|486:145,2,40,4|4|10,0:0|0:0|0:0,0:0:0:0:
382,33,213853,6,0,L|326:41,1,40,6|0,0:0|0:0,0:0:0:0:
370,54,213989,2,0,L|322:50,1,40,10|0,0:0|0:0,0:0:0:0:
335,20,214126,2,0,L|293:29,1,40,4|0,0:0|0:0,0:0:0:0:
279,47,214262,1,10,0:0:0:0:
183,79,214535,6,0,P|158:71|122:64,1,40,10|4,0:0|0:0,0:0:0:0:
176,62,214672,2,0,P|149:59|113:60,1,40,4|4,0:0|0:0,0:0:0:0:
161,46,214808,1,10,0:0:0:0:
70,135,215081,6,0,L|57:81,2,40,10|4|4,0:0|0:0|0:0,0:0:0:0:
122,188,215353,1,10,0:0:0:0:
18,263,215490,2,0,L|55:246,2,40,4|4|10,0:0|0:0|0:0,0:0:0:0:
127,325,215762,2,0,L|88:315,2,40,4|4|10,0:0|0:0|0:0,0:0:0:0:
252,282,216035,6,0,L|308:274,1,40,6|0,0:0|0:0,0:0:0:0:
268,259,216171,2,0,L|316:263,1,40,6|0,0:0|0:0,0:0:0:0:
291,288,216307,2,0,L|333:279,1,40,4|0,0:0|0:0,0:0:0:0:
342,260,216444,1,10,0:0:0:0:
482,317,216717,6,0,L|474:257,1,40,10|4,0:0|0:0,0:0:0:0:
468,309,216853,2,0,L|461:260,1,40,4|4,0:0|0:0,0:0:0:0:
452,301,216990,1,10,0:0:0:0:
291,142,217262,6,0,L|277:77,2,40,10|4|4,0:0|0:0|0:0,0:0:0:0:
339,41,217535,1,10,0:0:0:0:
174,108,217672,2,0,P|163:129|155:152,2,40,4|4|10,0:0|0:0|0:0,0:0:0:0:
92,67,217944,2,0,P|81:46|73:23,2,40,4|4|10,0:0|0:0|0:0,0:0:0:0:
42,164,218217,6,0,L|50:220,1,40,6|0,0:0|0:0,0:0:0:0:
63,176,218353,2,0,L|59:224,1,40,10|0,0:0|0:0,0:0:0:0:
29,211,218490,2,0,L|38:253,1,40,4|0,0:0|0:0,0:0:0:0:
54,263,218626,1,10,0:0:0:0:
172,352,218899,6,0,L|226:345,1,40,10|4,0:0|0:0,0:0:0:0:
178,336,219035,2,0,L|239:325,1,40,4|4,0:0|0:0,0:0:0:0:
183,315,219172,1,10,0:0:0:0:
142,174,219308,6,0,P|131:126|113:74,1,80,6|10,0:0|0:0,0:0:0:0:
259,155,219581,2,0,P|282:205|311:249,1,80,4|8,0:0|0:0,0:0:0:0:
444,82,219853,2,0,P|407:97|366:118,1,80,8|8,0:0|0:0,0:0:0:0:
433,291,220126,1,8,0:0:0:0:
486,184,220262,1,8,0:0:0:0:
314,272,220400,6,0,P|259:257|188:247,1,111.999996582031,6|4,0:0|0:0,0:0:0:0:
153,173,220809,1,10,0:0:0:0:
153,173,220945,1,4,0:0:0:0:
328,134,221218,2,0,P|339:80|357:17,1,111.999996582031,6|4,0:0|0:0,0:0:0:0:
271,27,221627,1,10,0:0:0:0:
271,27,221763,1,4,0:0:0:0:
360,248,222036,6,0,P|411:229|480:212,1,111.999996582031,6|4,0:0|0:0,0:0:0:0:
477,137,222445,1,10,0:0:0:0:
477,137,222582,1,4,0:0:0:0:
311,358,222854,2,0,P|272:328|213:298,1,111.999996582031,6|4,0:0|0:0,0:0:0:0:
151,340,223263,1,10,0:0:0:0:
151,340,223400,1,6,0:0:0:0:
28,181,223672,6,0,P|74:137|133:91,1,111.999996582031,6|4,0:0|0:0,0:0:0:0:
43,63,224081,1,10,0:0:0:0:
43,63,224218,1,4,0:0:0:0:
232,186,224490,2,0,P|224:132|205:54,1,111.999996582031,6|4,0:0|0:0,0:0:0:0:
280,38,224900,1,10,0:0:0:0:
280,38,225036,1,4,0:0:0:0:
335,231,225309,6,0,P|282:243|224:264,1,111.999996582031,6|4,0:0|0:0,0:0:0:0:
171,207,225718,1,10,0:0:0:0:
171,207,225854,1,4,0:0:0:0:
204,131,225990,1,8,0:0:0:0:
86,249,226127,6,0,P|77:215|64:173,1,55.9999982910157,6|0,0:0|0:0,0:0:0:0:
163,294,226400,2,0,P|154:323|146:358,1,55.9999982910157,6|0,0:0|0:0,0:0:0:0:
254,250,226672,2,0,P|258:218|264:186,1,55.9999982910157,10|0,0:0|0:0,0:0:0:0:
365,316,226945,6,0,P|400:301|449:286,1,71.9999978027344,6|4,0:0|0:0,0:0:0:0:
452,186,227218,1,4,0:0:0:0:
452,186,227354,2,0,P|460:147|480:90,2,71.9999978027344,10|4|4,0:0|0:0|0:0,0:0:0:0:
338,32,227763,6,0,P|315:66|294:104,1,71.9999978027344,6|4,0:0|0:0,0:0:0:0:
205,98,228036,1,4,0:0:0:0:
205,98,228172,2,0,P|194:137|177:188,2,71.9999978027344,10|4|4,0:0|0:0|0:0,0:0:0:0:
72,218,228581,6,0,P|37:200|-15:184,1,71.9999978027344,6|4,0:0|0:0,0:0:0:0:
60,84,228854,1,4,0:0:0:0:
60,84,228990,2,0,P|80:113|106:141,2,71.9999978027344,10|4|4,0:0|0:0|0:0,0:0:0:0:
141,232,229400,6,0,P|127:271|115:323,1,71.9999978027344,6|4,0:0|0:0,0:0:0:0:
35,347,229672,1,0,0:0:0:0:
35,347,229809,2,0,P|29:309|19:264,2,71.9999978027344,10|4|4,0:0|0:0|0:0,0:0:0:0:
232,322,230218,6,0,P|269:312|331:304,1,71.9999978027344,6|4,0:0|0:0,0:0:0:0:
408,358,230490,1,4,0:0:0:0:
408,358,230627,2,0,P|424:319|444:279,2,71.9999978027344,10|4|4,0:0|0:0|0:0,0:0:0:0:
329,214,231036,6,0,P|302:191|251:157,1,71.9999978027344,6|4,0:0|0:0,0:0:0:0:
346,82,231309,1,4,0:0:0:0:
346,82,231445,2,0,P|382:98|422:109,2,71.9999978027344,10|4|4,0:0|0:0|0:0,0:0:0:0:
439,260,231854,6,0,P|464:221|487:188,1,71.9999978027344,6|4,0:0|0:0,0:0:0:0:
329,214,232127,1,4,0:0:0:0:
329,214,232263,2,0,P|343:251|359:307,2,71.9999978027344,10|4|4,0:0|0:0|0:0,0:0:0:0:
187,346,232672,6,0,P|159:334|119:322,1,71.9999978027344,8|8,0:0|0:0,0:0:0:0:
94,164,232945,1,8,0:0:0:0:
94,164,233081,1,8,0:0:0:0:
223,220,233218,1,8,0:0:0:0:
252,123,233354,1,8,0:0:0:0:
82,272,233490,6,0,B|82:207|82:207|53:163|53:163|60:100,1,176,6|0,0:0|0:0,0:0:0:0:
59,105,234308,2,0,B|81:158|81:158|65:209|65:209|83:271,1,176,6|0,0:0|0:0,0:0:0:0:
165,316,235126,6,0,B|229:311|229:311|277:341|277:341|339:336,1,176,6|0,0:0|0:0,0:0:0:0:
332,336,235944,2,0,B|279:318|279:318|225:335|225:335|164:315,1,176,6|0,0:0|0:0,0:0:0:0:
179,203,236762,6,0,P|215:184|264:182,1,80,6|0,0:0|0:0,0:0:0:0:
253,180,237171,2,0,P|217:198|178:202,1,80,6|0,0:0|0:0,0:0:0:0:
330,238,237580,6,0,P|388:256|443:306,1,119.999996337891,6|0,0:0|0:0,0:0:0:0:
433,291,237989,2,0,P|375:273|329:235,1,119.999996337891,6|0,0:0|0:0,0:0:0:0:
366,135,238399,6,0,P|371:112|379:83,3,40,8|8|8|8,0:0|0:0|0:0|0:0,0:0:0:0:
292,73,238671,2,0,P|281:47|270:24,3,40,4|4|8|4,0:0|0:0|0:0|0:0,0:0:0:0:
232,145,238944,1,8,0:0:0:0:
220,155,239012,1,4,0:0:0:0:
206,162,239080,1,4,0:0:0:0:
190,166,239149,1,4,0:0:0:0:
174,167,239217,1,8,0:0:0:0:
143,157,239285,1,4,0:0:0:0:
117,137,239353,1,4,0:0:0:0:
86,127,239421,1,4,0:0:0:0:
54,132,239489,6,0,P|87:171|117:209,1,88.000002685547,10|4,0:0|0:0,0:0:0:0:
216,6,239762,2,0,P|199:42|176:99,1,88.000002685547,10|4,0:0|0:0,0:0:0:0:
75,25,240035,1,10,0:0:0:0:
75,25,240171,1,4,0:0:0:0:
194,173,240308,2,0,P|237:156|284:142,1,88.000002685547,10|4,0:0|0:0,0:0:0:0:
314,70,240512,1,0,0:0:0:0:
328,61,240580,6,0,P|347:102|359:148,1,88.000002685547,10|0,0:0|0:0,0:0:0:0:
285,297,240853,2,0,P|221:305|146:333,1,132.00000402832,10|0,0:0|2:0,0:0:0:0:
143,336,241126,2,0,P|117:281|47:254,1,132.00000402832,10|0,0:0|2:0,0:0:0:0:
45,271,241399,2,0,P|129:246|175:236,1,132.00000402832,10|0,0:0|2:0,0:0:0:0:
201,162,241671,6,0,P|190:129|169:78,1,88.000002685547,10|4,0:0|0:0,0:0:0:0:
262,30,241944,1,10,0:0:0:0:
262,30,242080,1,4,0:0:0:0:
341,133,242217,2,0,P|384:115|441:98,1,88.000002685547,10|4,0:0|0:0,0:0:0:0:
501,235,242489,2,0,P|462:208|410:179,1,88.000002685547,10|4,0:0|0:0,0:0:0:0:
332,362,242762,6,0,P|378:332|414:314,1,88.000002685547,10|4,0:0|0:0,0:0:0:0:
374,239,242967,1,4,0:0:0:0:
361,248,243035,2,0,P|322:232|269:217,1,88.000002685547,10|4,0:0|0:0,0:0:0:0:
207,246,243240,1,4,0:0:0:0:
194,259,243308,2,0,P|187:215|177:172,1,88.000002685547,10|4,0:0|0:0,0:0:0:0:
37,271,243580,2,0,P|54:313|72:368,1,88.000002685547,10|4,0:0|0:0,0:0:0:0:
144,362,243785,1,4,0:0:0:0:
159,367,243853,6,0,P|198:353|249:338,1,88.000002685547,10|4,0:0|0:0,0:0:0:0:
415,356,244126,2,0,P|458:334|498:319,1,88.000002685547,10|4,0:0|0:0,0:0:0:0:
390,193,244399,2,0,P|368:236|353:276,1,88.000002685547,10|4,0:0|0:0,0:0:0:0:
287,145,244671,1,10,0:0:0:0:
287,145,244808,1,4,0:0:0:0:
212,269,244944,6,0,P|172:252|107:234,1,88.000002685547,10|4,0:0|0:0,0:0:0:0:
161,94,245217,2,0,P|182:136|209:176,1,88.000002685547,10|4,0:0|0:0,0:0:0:0:
232,28,245490,1,10,0:0:0:0:
94,46,245626,1,4,0:0:0:0:
81,58,245694,1,4,0:0:0:0:
71,72,245762,2,0,P|86:117|98:169,1,88.000002685547,10|4,0:0|0:0,0:0:0:0:
30,358,246035,6,0,P|21:312|5:260,1,88.000002685547,10|12,0:0|0:0,0:0:0:0:
138,333,246308,2,0,P|154:286|168:245,1,88.000002685547,10|12,0:0|0:0,0:0:0:0:
338,351,246580,1,10,0:0:0:0:
308,225,246717,1,12,0:0:0:0:
245,320,246853,1,10,0:0:0:0:
245,320,246990,1,12,0:0:0:0:
208,180,247126,5,8,0:0:0:0:
218,160,247194,1,8,0:0:0:0:
232,143,247262,1,8,0:0:0:0:
250,131,247330,1,8,0:0:0:0:
271,125,247399,2,0,P|267:147|264:169,3,44.0000013427735,4|4|8|4,0:0|0:0|0:0|0:0,0:0:0:0:
365,142,247671,2,0,P|382:134|407:126,1,44.0000013427735,8|4,0:0|0:0,0:0:0:0:
321,66,247808,2,0,P|304:58|279:50,1,44.0000013427735,4|0,0:0|0:0,0:0:0:0:
392,25,247944,2,0,P|436:9|481:-2,1,88.000002685547,10|4,0:0|0:0,0:0:0:0:
508,68,248149,1,4,0:0:0:0:
494,78,248217,6,0,P|481:117|468:166,1,88.000002685547,10|4,0:0|0:0,0:0:0:0:
372,237,248490,2,0,P|353:195|331:154,1,88.000002685547,10|4,0:0|0:0,0:0:0:0:
483,265,248762,1,10,0:0:0:0:
483,265,248899,1,4,0:0:0:0:
338,353,249035,2,0,P|294:337|235:323,1,88.000002685547,10|4,0:0|0:0,0:0:0:0:
220,257,249240,1,4,0:0:0:0:
227,241,249308,6,0,P|220:214|214:187,3,44.0000013427735,10|0|0|0,0:0|0:0|0:0|0:0,0:0:0:0:
157,325,249580,2,0,P|144:349|133:374,3,44.0000013427735,10|0|0|0,0:0|0:0|0:0|0:0,0:0:0:0:
54,298,249853,2,0,P|31:300|9:305,3,44.0000013427735,10|0|0|0,0:0|0:0|0:0|0:0,0:0:0:0:
13,205,250126,2,0,P|31:191|50:180,3,44.0000013427735,10|0|0|0,0:0|0:0|0:0|0:0,0:0:0:0:
126,101,250399,6,0,P|133:54|143:0,1,88.000002685547,10|4,0:0|0:0,0:0:0:0:
2,97,250671,2,0,P|28:140|48:180,1,88.000002685547,10|4,0:0|0:0,0:0:0:0:
55,40,250944,1,10,0:0:0:0:
55,40,251080,1,4,0:0:0:0:
142,184,251217,2,0,P|126:228|110:290,1,88.000002685547,10|4,0:0|0:0,0:0:0:0:
239,64,251490,6,0,P|281:51|327:45,1,88.000002685547,10|4,0:0|0:0,0:0:0:0:
365,109,251694,1,4,0:0:0:0:
368,125,251762,2,0,P|401:154|444:184,1,88.000002685547,10|4,0:0|0:0,0:0:0:0:
503,149,251967,1,4,0:0:0:0:
492,133,252035,2,0,P|501:84|513:36,1,88.000002685547,10|4,0:0|0:0,0:0:0:0:
386,182,252308,2,0,P|368:218|350:266,1,88.000002685547,10|4,0:0|0:0,0:0:0:0:
386,332,252512,1,4,0:0:0:0:
375,346,252580,6,0,P|331:337|284:331,1,88.000002685547,10|4,0:0|0:0,0:0:0:0:
180,196,252853,2,0,P|222:216|260:239,1,88.000002685547,10|4,0:0|0:0,0:0:0:0:
166,374,253126,2,0,P|154:326|138:281,1,88.000002685547,10|4,0:0|0:0,0:0:0:0:
31,231,253398,1,10,0:0:0:0:
31,231,253535,1,4,0:0:0:0:
122,97,253671,6,0,P|165:110|215:118,1,88.000002685547,10|12,0:0|0:0,0:0:0:0:
343,17,253944,2,0,P|303:36|253:52,1,88.000002685547,10|12,0:0|0:0,0:0:0:0:
305,188,254217,2,0,P|320:233|334:299,1,88.000002685547,10|4,0:0|0:0,0:0:0:0:
275,327,254421,1,4,0:0:0:0:
259,332,254490,2,0,P|217:318|161:304,1,88.000002685547,10|4,0:0|0:0,0:0:0:0:
110,267,254694,1,4,0:0:0:0:
96,271,254762,6,0,P|74:312|58:355,1,88.000002685547,10|4,0:0|0:0,0:0:0:0:
16,224,255035,1,10,0:0:0:0:
16,224,255171,1,4,0:0:0:0:
92,133,255308,2,0,P|133:119|199:104,1,88.000002685547,10|4,0:0|0:0,0:0:0:0:
293,209,255580,1,10,0:0:0:0:
408,138,255717,1,4,0:0:0:0:
362,301,255853,5,10,0:0:0:0:
362,301,255989,1,4,0:0:0:0:
458,165,256126,1,10,0:0:0:0:
373,217,256262,1,4,0:0:0:0:
481,346,256399,6,0,B|460:340|441:330|441:330|424:338|396:341|396:341|364:321|292:313,1,176.000005371094,10|8,0:0|0:0,0:0:0:0:
406,248,256807,1,8,0:0:0:0:
438,174,256943,1,8,0:0:0:0:
372,123,257080,6,0,B|373:98|371:85|371:85|379:64|392:41|392:41|392:23|396:-5,1,128,6|8,0:0|0:0,0:0:0:0:
290,102,257489,1,8,0:0:0:0:
220,66,257625,1,8,0:0:0:0:
152,118,257761,6,0,B|161:150|161:150|153:182|153:182|163:227,1,95.9999970703126,6|8,0:0|0:0,0:0:0:0:
34,281,258171,1,4,0:0:0:0:
41,200,258307,2,0,P|67:191|93:177,1,47.9999985351563,8|4,0:0|0:0,0:0:0:0:
196,282,258580,1,8,0:0:0:0:
209,273,258716,2,0,P|197:250|177:214,1,47.9999985351563,4|4,0:0|0:0,0:0:0:0:
217,148,258989,1,4,0:0:0:0:
123,336,259126,6,0,P|117:273|107:209,1,128,4|0,0:0|0:0,0:0:0:0:
