osu file format v14

[General]
AudioFilename: audio.mp3
AudioLeadIn: 0
PreviewTime: 118605
Countdown: 0
SampleSet: None
StackLeniency: 0
Mode: 0
LetterboxInBreaks: 0
WidescreenStoryboard: 1

[Editor]
Bookmarks: 12580,28945,37673,54034,69173,85401,102856,119764,135991,146219,154946,172400,190264,203490,220400,233490,239489,256671,259126
DistanceSpacing: 1
BeatDivisor: 4
GridSize: 4
TimelineZoom: 3.099999

[Metadata]
Title:Hartmann no Youkai Shoujo ~ Todestrieb und Lebenstrieb
TitleUnicode:ハルトマンの妖怪少女 ~ Todestrieb und Lebenstrieb
Artist:Demetori
ArtistUnicode:Demetori
Creator:celerih
Version:GoldenWolf's Thanatos kai Eros
Source:東方地霊殿 ~ Subterranean Animism.
Tags:thicc bish GoldenWolf woof 古明地 こいし Koishi Komeji Extra Stage Theme Hartmann's Youkai Girl Lebenstrieb & Todestrieb Djent C91 Comiket 91 ZUN
BeatmapID:1939637
BeatmapSetID:928647

[Difficulty]
HPDrainRate:6
CircleSize:5
OverallDifficulty:9
ApproachRate:9.6
SliderMultiplier:1.8
SliderTickRate:1

[Events]
//Background and Video events
0,0,"orz167.jpg",0,0
//Break Periods
//Storyboard Layer 0 (Background)
//Storyboard Layer 1 (Fail)
//Storyboard Layer 2 (Pass)
//Storyboard Layer 3 (Foreground)
//Storyboard Sound Samples

[TimingPoints]
4672,272.727272727273,7,2,1,10,1,0
4672,-200,7,2,1,10,0,0
6103,-200,7,2,1,5,0,0
6308,-200,7,2,1,10,0,0
6376,-200,7,2,1,5,0,0
6581,-200,7,2,1,10,0,0
8012,-200,7,2,1,5,0,0
8217,-200,7,2,1,10,0,0
8285,-200,7,2,1,5,0,0
8490,-200,7,2,1,10,0,0
9922,-200,7,2,1,5,0,0
10126,-200,7,2,1,10,0,0
10194,-200,7,2,1,5,0,0
10399,-200,7,2,1,10,0,0
11490,272.727272727273,4,3,4,100,1,0
12581,272.727272727273,7,3,2,70,1,0
14490,-100,7,3,2,100,0,0
14558,-100,7,3,2,70,0,0
16399,-100,7,3,3,70,0,0
16672,272.727272727273,7,3,2,70,1,0
18581,-100,7,3,2,100,0,0
18649,-100,7,3,2,70,0,0
20490,-100,7,3,3,100,0,0
20763,272.727272727273,7,3,2,70,1,0
22672,-100,7,3,2,100,0,0
22740,-100,7,3,2,70,0,0
24581,-100,7,3,3,70,0,0
24854,272.727272727273,7,3,2,70,1,0
26763,-100,7,3,2,100,0,0
26831,-100,7,3,2,70,0,0
28808,-153.846153846153,7,3,2,85,0,0
28945,272.727272727273,4,3,4,70,1,0
30717,-100,4,3,3,70,0,0
30990,-153.846153846153,4,3,7,70,0,0
31263,-100,4,3,4,70,0,0
33172,-200,4,3,7,70,0,0
33445,-100,4,3,4,70,0,0
35081,-100,4,3,3,70,0,0
35354,-200,4,3,7,70,0,0
35626,-100,4,3,4,70,0,0
36581,-100,4,3,1,85,0,0
36990,-100,4,3,12,85,0,0
37126,-100,4,3,11,85,0,0
37263,-100,4,3,1,85,0,0
37399,-100,4,3,10,85,0,0
37673,272.727272727273,7,3,1,100,1,0
37809,-100,7,3,2,70,0,0
41423,-100,7,3,2,55,0,0
41491,-100,7,3,2,70,0,0
41763,272.727272727273,7,3,2,85,1,0
41899,-100,7,3,2,70,0,0
45308,-100,7,3,2,85,0,0
45444,-100,7,3,12,85,0,0
45581,-100,7,3,11,85,0,0
45717,-100,7,3,10,85,0,0
45854,272.727272727273,7,3,1,100,1,0
45990,-100,7,3,2,70,0,0
49535,-100,7,3,2,85,0,0
49944,272.727272727273,7,3,1,100,1,0
50080,-100,7,3,2,70,0,0
52262,-100,7,3,7,70,0,0
52944,-100,7,3,2,70,0,0
53216,-100,7,3,3,70,0,0
53489,-100,7,3,1,85,0,0
54035,272.727272727273,4,3,2,70,1,0
54171,-100,4,3,5,70,0,0
58125,-181.818181818182,4,3,5,70,0,0
58398,-100,4,3,1,85,0,0
58535,272.727272727273,4,3,1,85,1,0
58671,-100,4,3,5,70,0,0
62626,272.727272727273,3,3,5,70,1,0
62626,-181.818181818182,3,3,5,70,0,0
62898,-100,3,3,5,70,0,0
63445,272.727272727273,4,3,2,100,1,0
63581,-100,4,3,5,70,0,0
67263,-100,4,3,4,70,0,0
67535,272.727272727273,6,3,1,100,1,0
67535,-153.846153846154,6,3,1,100,0,0
67671,-153.846153846154,6,2,1,5,0,0
67944,-95.2380952380952,6,3,2,100,0,0
68080,-95.2380952380952,6,2,2,5,0,0
68353,-117.647058823529,6,3,3,100,0,0
68489,-117.647058823529,6,2,3,5,0,0
68762,-80,6,3,2,100,0,0
68898,-80,6,2,2,5,0,0
69173,272.727272727273,4,3,1,100,1,0
69309,-100,4,3,12,85,0,0
69445,-100,4,3,11,85,0,0
69582,-100,4,3,4,85,0,0
69854,-100,4,3,10,85,0,0
70127,-100,4,3,2,85,0,0
70263,-100,4,3,11,85,0,0
70536,-100,4,3,4,85,0,0
70673,-100,4,3,10,85,0,0
70809,-100,4,3,4,85,0,0
70945,-100,4,3,10,85,0,0
71218,-100,4,3,2,85,0,0
71354,-100,4,3,11,85,0,0
71491,-100,4,3,10,85,0,0
71627,-100,4,3,4,85,0,0
71763,-100,4,3,10,85,0,0
71900,-100,4,3,4,85,0,0
72036,-100,4,3,10,85,0,0
72173,-100,4,3,3,85,0,0
72309,-100,4,3,10,85,0,0
72854,-100,4,3,4,85,0,0
73127,-100,4,3,10,85,0,0
73263,-200,4,3,4,85,0,0
73536,-100,4,3,1,100,0,0
73673,272.727272727273,4,3,1,100,1,0
73809,-100,4,3,12,85,0,0
74082,-100,4,3,4,85,0,0
74354,-100,4,3,10,85,0,0
74627,-100,4,3,2,85,0,0
74763,-100,4,3,11,85,0,0
75036,-100,4,3,4,85,0,0
75173,-100,4,3,10,85,0,0
75309,-100,4,3,4,85,0,0
75445,-100,4,3,10,85,0,0
75718,-100,4,3,2,85,0,0
75854,-100,4,3,11,85,0,0
76127,-100,4,3,4,85,0,0
76263,-100,4,3,10,85,0,0
76400,-100,4,3,4,85,0,0
76536,-100,4,3,10,85,0,0
76673,-100,4,3,3,85,0,0
76809,-100,4,3,12,85,0,0
76945,-100,4,3,11,85,0,0
77218,-100,4,3,10,85,0,0
77354,-100,4,3,4,85,0,0
77627,-100,4,3,10,85,0,0
77764,272.727272727273,3,3,2,100,1,0
77764,-142.857142857143,3,3,2,100,0,0
78036,-142.857142857143,3,3,10,85,0,0
78173,-142.857142857143,3,3,3,100,0,0
78445,-142.857142857143,3,3,10,85,0,0
78583,272.727272727273,4,3,1,100,1,0
78583,-200,4,3,1,100,0,0
78719,-200,4,3,1,85,0,0
78992,-200,4,3,4,85,0,0
79537,-200,4,3,2,85,0,0
79946,-200,4,3,4,85,0,0
80628,-200,4,3,3,85,0,0
81037,-200,4,3,4,85,0,0
81583,-200,4,3,7,85,0,0
81719,-200,4,3,12,85,0,0
81855,-200,4,3,11,85,0,0
81992,-200,4,3,10,85,0,0
82128,-200,4,3,4,85,0,0
82674,272.727272727273,6,3,1,100,1,0
82674,-142.857142857143,6,3,1,100,0,0
83083,-111.111111111111,6,3,2,100,0,0
83492,-90.9090909090909,6,3,1,100,0,0
83901,-76.9230769230769,6,3,3,100,0,0
84311,272.727272727273,4,3,4,85,1,0
85401,272.727272727273,8,3,1,100,1,0
85401,-500,8,3,1,100,0,0
85469,-500,8,3,1,5,0,0
87582,-500,8,3,2,100,0,0
87651,-500,8,3,2,5,0,0
88946,-500,8,3,2,100,0,0
89491,-500,8,3,10,100,0,0
89764,-500,8,3,1,100,0,0
89832,-500,8,3,1,5,0,0
91264,-500,8,3,3,100,0,0
91673,-500,8,3,1,100,0,0
91946,-500,8,3,2,100,0,0
92014,-500,8,3,2,5,0,0
92491,-500,8,3,7,15,0,0
92537,-500,8,3,7,25,0,0
92582,-500,8,3,7,35,0,0
92628,-500,8,3,7,45,0,0
92901,-500,8,3,4,100,0,0
93310,-500,8,3,11,85,0,0
93582,-500,8,3,10,85,0,0
93855,-500,8,3,4,100,0,0
94128,-400,8,3,2,100,0,0
94264,-400,8,3,7,100,0,0
95219,-400,8,3,4,100,0,0
95355,-400,8,3,7,100,0,0
96310,-400,8,3,2,100,0,0
96446,-400,8,3,7,100,0,0
97673,-400,8,3,11,100,0,0
97946,-400,8,3,10,100,0,0
98219,-400,8,3,1,70,0,0
98491,-400,8,3,1,100,0,0
98628,-400,8,3,7,100,0,0
99582,-400,8,3,4,100,0,0
99719,-400,8,3,3,100,0,0
100401,-400,8,3,10,100,0,0
100673,-200,8,3,2,70,0,0
100810,-200,8,3,2,25,0,0
101219,-200,8,3,2,85,0,0
101355,-200,8,3,2,40,0,0
101491,-200,8,3,2,55,0,0
101628,-200,8,3,2,70,0,0
101764,-200,8,3,2,85,0,0
101901,-200,8,3,2,55,0,0
102037,-200,8,3,2,70,0,0
102173,-200,8,3,2,85,0,0
102310,-200,8,3,2,100,0,0
102856,272.727272727273,7,3,1,100,1,0
102924,-100,7,3,4,70,0,0
104765,-100,7,3,2,85,0,0
104833,-100,7,3,4,70,0,0
106674,-100,7,3,3,70,0,0
106947,272.727272727273,8,3,1,85,1,0
107015,-100,8,3,4,70,0,0
109128,-100,8,3,2,85,0,0
109197,-100,8,3,4,70,0,0
110219,-100,8,3,3,85,0,0
111311,272.727272727273,7,3,1,100,1,0
111379,-100,7,3,2,70,0,0
112947,-100,7,3,7,70,0,0
113220,-100,7,3,3,85,0,0
113288,-100,7,3,2,70,0,0
115401,272.727272727273,8,3,1,85,1,0
115469,-100,8,3,2,70,0,0
117855,-100,8,3,4,70,0,0
117923,-100,8,3,2,70,0,0
118673,-100,8,3,1,85,0,0
118810,-100,8,3,1,70,0,0
118946,-100,8,3,1,85,0,0
119219,-100,8,3,1,100,0,0
119764,272.727272727273,4,3,1,100,1,1
119764,-66.6666666666667,4,3,1,100,0,1
119901,-66.6666666666667,4,3,4,70,0,1
120854,-133.333333333333,4,3,4,70,0,1
121059,-100,4,3,4,5,0,1
121127,-66.6666666666667,4,3,4,70,0,1
121333,-66.6666666666667,4,3,4,5,0,1
121401,-66.6666666666667,4,3,4,70,0,1
121605,-66.6666666666667,4,3,4,5,0,1
121674,-66.6666666666667,4,3,4,70,0,1
121878,-66.6666666666667,4,3,4,5,0,1
121945,-66.6666666666667,4,3,4,70,0,1
121946,-66.6666666666667,4,3,2,85,0,1
122082,-66.6666666666667,4,3,4,70,0,1
123036,-66.6666666666667,4,3,3,70,0,1
123309,-66.6666666666667,4,3,2,70,0,1
123582,-66.6666666666667,4,3,3,70,0,1
123854,-66.6666666666667,4,3,2,70,0,1
124127,-66.6666666666667,4,3,1,85,0,1
124264,-66.6666666666667,4,3,4,70,0,1
125764,-66.6666666666667,4,3,2,70,0,1
126309,-66.6666666666667,4,3,3,85,0,1
126445,-66.6666666666667,4,3,4,55,0,1
126582,-66.6666666666667,4,3,4,70,0,1
126718,-66.6666666666667,4,3,4,55,0,1
126854,-66.6666666666667,4,3,4,70,0,1
126991,-66.6666666666667,4,3,4,55,0,1
127127,-66.6666666666667,4,3,4,70,0,1
127264,-66.6666666666667,4,3,4,55,0,1
127400,-66.6666666666667,4,3,4,85,0,1
127809,-66.6666666666667,4,3,12,85,0,1
127945,-66.6666666666667,4,3,11,85,0,1
128082,-66.6666666666667,4,3,4,85,0,1
128491,-66.6666666666667,4,3,1,100,0,1
128627,-66.6666666666667,4,3,4,70,0,1
129582,-100,4,3,2,70,0,1
129854,-100,4,3,3,70,0,1
130127,-100,4,3,2,70,0,1
130400,-100,4,3,3,70,0,1
130673,-66.6666666666667,4,3,2,85,0,1
130809,-66.6666666666667,4,3,4,70,0,1
131764,-66.6666666666667,4,3,3,70,0,1
132036,-66.6666666666667,4,3,2,70,0,1
132309,-66.6666666666667,4,3,3,70,0,1
132582,-66.6666666666667,4,3,2,70,0,1
132854,-66.6666666666667,4,3,1,85,0,1
132991,-66.6666666666667,4,3,4,70,0,1
133945,-66.6666666666667,4,3,4,70,0,1
134082,-66.6666666666667,4,3,4,55,0,1
134218,-66.6666666666667,4,3,4,70,0,1
134354,-66.6666666666667,4,3,4,55,0,1
134491,-66.6666666666667,4,3,2,70,0,1
135036,-80,4,3,3,85,0,1
135991,-200,4,3,2,85,0,0
136128,272.727272727273,9,3,12,85,1,0
136673,-200,9,3,1,85,0,0
136946,-200,9,3,11,85,0,0
137355,-200,9,3,3,85,0,0
137628,-200,9,3,12,85,0,0
137900,-200,9,3,11,85,0,0
138173,-200,9,3,10,85,0,0
138583,272.727272727273,7,3,4,100,1,0
138583,-200,7,3,4,100,0,0
138719,-200,7,2,1,10,0,0
146219,272.727272727273,4,3,1,100,1,0
146219,-74.0740740740741,4,3,1,100,0,0
147037,-74.0740740740741,4,3,2,100,0,0
147855,-74.0740740740741,4,3,3,100,0,0
148400,-74.0740740740741,4,3,1,100,0,0
149219,-74.0740740740741,4,3,2,100,0,0
150582,-86.9565217391304,4,3,1,100,0,0
150719,-86.9565217391304,4,3,4,70,0,0
151673,-86.9565217391304,4,3,7,70,0,0
151809,-86.9565217391304,4,3,4,70,0,0
152764,-86.9565217391304,4,3,3,100,0,0
152900,-86.9565217391304,4,3,4,70,0,0
153855,-86.9565217391304,4,3,7,70,0,0
153991,-86.9565217391304,4,3,4,70,0,0
154400,-86.9565217391304,4,3,12,85,0,0
154582,-86.9565217391304,4,3,11,85,0,0
154764,-86.9565217391304,4,3,10,85,0,0
154946,-83.3333333333333,4,3,1,100,0,0
155014,-83.3333333333333,4,3,4,70,0,0
156446,-153.846153846154,4,3,4,70,0,0
156514,-153.846153846154,4,3,4,5,0,0
156855,-153.846153846154,4,3,4,70,0,0
158014,-153.846153846154,4,3,4,5,0,0
158355,-153.846153846154,4,3,4,70,0,0
158491,-105.263157894737,4,3,4,70,0,0
160673,-95.2380952380954,4,3,4,70,0,0
161219,-86.9565217391304,4,3,4,70,0,0
161764,-74.0740740740741,4,3,4,70,0,0
162173,-80,4,3,4,70,0,0
162582,-66.6666666666667,4,3,4,70,0,0
162855,-86.9565217391304,4,3,4,70,0,0
163673,-153.846153846154,4,3,1,100,0,0
163741,-153.846153846154,4,3,8,5,0,0
164082,-153.846153846154,4,3,8,70,0,0
164287,-153.846153846154,4,3,8,5,0,0
164628,-153.846153846154,4,3,8,70,0,0
164832,-153.846153846154,4,3,8,5,0,0
165173,-153.846153846154,4,3,8,70,0,0
165309,-111.111111111111,4,3,8,70,0,0
167491,-86.9565217391304,4,3,8,70,0,0
168037,-86.9565217391305,4,3,1,100,0,0
168105,-86.9565217391305,4,3,4,70,0,0
171309,-76.9230769230769,4,3,4,70,0,0
172400,-200,4,3,1,100,0,0
172537,-200,4,3,5,85,0,0
175673,-125,4,3,5,85,0,0
176764,-200,4,3,2,85,0,0
176900,-200,4,3,5,70,0,0
180037,-125,4,3,5,70,0,0
180855,-200,4,3,7,70,0,0
180923,-125,4,3,7,5,0,0
181128,-200,4,3,3,85,0,0
181264,-200,4,3,5,70,0,0
183855,-200,4,3,4,70,0,0
183991,-125,4,3,5,70,0,0
185491,-200,4,3,2,85,0,0
185628,-200,4,3,5,70,0,0
188219,-200,4,3,7,70,0,0
188491,-133.333333333333,4,3,12,85,0,0
188764,-100,4,3,11,85,0,0
188900,-100,4,3,1,85,0,0
189037,-100,4,3,12,85,0,0
189173,-100,4,3,11,85,0,0
189309,-100,4,3,1,85,0,0
189446,-100,4,3,12,85,0,0
189582,-100,4,3,11,85,0,0
189719,-100,4,3,3,85,0,0
190264,-200,4,3,3,85,0,0
190400,272.727272727273,4,3,1,100,1,0
190536,-100,4,3,4,70,0,0
192445,-200,4,3,1,85,0,0
192581,-100,4,3,4,70,0,0
194627,-200,4,3,2,85,0,0
194900,-100,4,3,4,70,0,0
196536,-100,4,3,3,85,0,0
196809,-200,4,3,2,85,0,0
197081,-100,4,3,4,70,0,0
198990,-200,4,3,3,85,0,0
199263,-100,4,3,4,70,0,0
200900,-100,4,3,3,70,0,0
201172,-200,4,3,7,70,0,0
201445,-100,4,3,2,70,0,0
201854,-100,4,3,3,70,0,0
202400,-100,4,3,4,70,0,0
202672,-100,4,3,1,85,0,0
202945,-100,4,3,12,85,0,0
203081,-100,4,3,11,85,0,0
203218,-100,4,3,10,85,0,0
203490,272.727272727273,7,3,1,100,1,0
203558,-100,7,3,4,70,0,0
205399,-100,7,3,2,85,0,0
205467,-100,7,3,4,70,0,0
207581,272.727272727273,7,3,3,85,1,0
207649,-100,7,3,4,70,0,0
209490,-100,7,3,2,85,0,0
209558,-100,7,3,4,70,0,0
210990,-100,7,3,7,70,0,0
211262,-100,7,3,4,85,0,0
211672,272.727272727273,8,3,1,100,1,0
211740,-100,8,3,4,70,0,0
213853,-100,8,3,2,85,0,0
213922,-100,8,3,4,70,0,0
216035,-100,8,3,2,85,0,0
216103,-100,8,3,4,70,0,0
218217,-100,8,3,7,70,0,0
218285,-100,8,3,4,70,0,0
219308,-100,8,3,7,70,0,0
219376,-100,8,3,4,70,0,0
219717,-100,8,3,4,85,0,0
220400,272.727272727273,6,3,9,100,1,0
220400,-200,6,3,9,100,0,0
220536,-200,6,3,9,85,0,0
223672,-200,6,3,3,85,0,0
223740,-200,6,3,9,85,0,0
226127,-100,6,3,2,85,0,0
226195,-100,6,3,9,5,0,0
226400,-100,6,3,1,85,0,0
226468,-100,6,3,1,5,0,0
226672,-100,6,3,3,85,0,0
226740,-100,6,3,3,5,0,0
226945,-133.333333333333,6,3,2,100,0,0
227013,-133.333333333333,6,3,9,85,0,0
228581,-133.333333333333,6,3,2,85,0,0
228650,-133.333333333333,6,3,9,85,0,0
230218,-133.333333333333,6,3,2,85,0,0
230286,-133.333333333333,6,3,9,85,0,0
231854,-133.333333333333,6,3,2,85,0,0
231922,-133.333333333333,6,3,9,85,0,0
232672,-200,6,3,1,85,0,0
233490,272.727272727273,3,3,2,100,1,0
234308,-100,3,3,1,100,0,0
235126,-100,3,3,2,100,0,0
235944,-100,3,3,3,100,0,0
236762,-100,3,3,2,100,0,0
237171,-100,3,3,1,100,0,0
237580,-100,3,3,2,100,0,0
237990,-100,3,3,3,100,0,0
238399,272.727272727273,4,3,1,85,1,0
238808,-100,4,3,12,85,0,0
238944,-100,4,3,11,85,0,0
239080,-100,4,3,1,85,0,0
239217,-100,4,3,10,85,0,0
239353,-100,4,3,1,85,0,0
239489,-66.6666666666667,4,3,1,100,0,1
239626,-66.6666666666667,4,3,4,70,0,1
240580,-133.333333333333,4,3,4,70,0,1
240785,-133.333333333333,4,3,4,5,0,1
240853,-66.6666666666667,4,3,4,70,0,1
241058,-66.6666666666667,4,3,4,5,0,1
241126,-66.6666666666667,4,3,4,70,0,1
241330,-66.6666666666667,4,3,4,5,0,1
241399,-66.6666666666667,4,3,4,70,0,1
241603,-66.6666666666667,4,3,4,5,0,1
241671,-66.6666666666667,4,3,2,85,0,1
241739,-66.6666666666667,4,3,4,70,0,1
242762,-66.6666666666667,4,3,3,70,0,1
243035,-66.6666666666667,4,3,2,70,0,1
243308,-66.6666666666667,4,3,3,70,0,1
243580,-66.6666666666667,4,3,2,70,0,1
243853,-66.6666666666667,4,3,1,85,0,1
243921,-66.6666666666667,4,3,4,70,0,1
245489,-66.6666666666667,4,3,2,70,0,1
246035,-66.6666666666667,4,3,3,85,0,1
246171,-66.6666666666667,4,3,4,55,0,1
246308,-66.6666666666667,4,3,4,85,0,1
246444,-66.6666666666667,4,3,4,55,0,1
246580,-66.6666666666667,4,3,4,85,0,1
246717,-66.6666666666667,4,3,4,55,0,1
246853,-66.6666666666667,4,3,4,85,0,1
246989,-66.6666666666667,4,3,4,55,0,1
247126,-66.6666666666667,4,3,1,85,0,1
247535,-66.6666666666667,4,3,12,85,0,1
247671,-66.6666666666667,4,3,11,85,0,1
247808,-66.6666666666667,4,3,4,85,0,1
248217,-66.6666666666667,4,3,1,100,0,1
248285,-66.6666666666667,4,3,4,70,0,1
249308,-100,4,3,2,70,0,1
249580,-100,4,3,3,70,0,1
249853,-100,4,3,2,70,0,1
250126,-100,4,3,3,70,0,1
250399,-66.6666666666667,4,3,2,85,0,1
250467,-66.6666666666667,4,3,4,70,0,1
251489,-66.6666666666667,4,3,1,70,0,1
251762,-66.6666666666667,4,3,3,70,0,1
252035,-66.6666666666667,4,3,1,70,0,1
252308,-66.6666666666667,4,3,3,70,0,1
252580,-66.6666666666667,4,3,4,70,0,1
254217,-66.6666666666667,4,3,2,70,0,1
254762,-66.6666666666667,4,3,3,85,0,1
254830,-66.6666666666667,4,3,4,70,0,1
256399,-163.934426229508,4,3,7,70,0,1
256671,272.727272727273,9,3,1,85,1,0
256671,-200,9,3,1,85,0,0
257352,-200,9,3,12,85,0,0
257489,-200,9,3,11,85,0,0
257625,-200,9,3,10,85,0,0
257761,-200,9,3,2,85,0,0
258034,-200,9,3,12,85,0,0
258307,-200,9,3,11,85,0,0
258580,-200,9,3,10,85,0,0
258852,-200,9,3,1,85,0,0
259126,272.727272727273,4,3,13,100,1,0
259126,-500,4,3,13,100,0,0
259194,-500,4,2,1,5,0,0

[Colours]
Combo1 : 52,85,139
Combo2 : 216,39,39
Combo3 : 39,105,216
Combo4 : 216,150,39
Combo5 : 84,39,216
Combo6 : 170,170,170
Combo7 : 223,223,223
Combo8 : 139,52,52

[HitObjects]
40,228,4672,70,0,L|84:220,1,45,2|0,0:0|0:0,0:0:0:0:
120,148,4944,1,0,0:0:0:0:
148,244,5081,2,0,L|192:236,1,45,2|0,0:0|0:0,0:0:0:0:
228,164,5353,1,0,0:0:0:0:
228,164,5490,1,0,0:0:0:0:
256,260,5626,6,0,L|300:252,1,45,2|0,0:0|0:0,0:0:0:0:
336,180,5898,1,0,0:0:0:0:
364,276,6035,2,0,L|432:264,1,67.5,2|0,0:0|0:0,0:0:0:0:
452,272,6308,2,0,L|384:284,1,67.5,2|0,0:0|0:0,0:0:0:0:
406,290,6581,102,0,L|398:246,1,45,2|0,0:0|0:0,0:0:0:0:
440,176,6853,1,0,0:0:0:0:
336,180,6990,2,0,L|328:136,1,45,2|0,0:0|0:0,0:0:0:0:
370,66,7262,1,0,0:0:0:0:
370,66,7399,1,0,0:0:0:0:
260,104,7535,6,0,L|215:100,1,45,2|0,0:0|0:0,0:0:0:0:
158,41,7807,1,0,0:0:0:0:
135,143,7944,2,0,L|64:136,1,67.5,2|0,0:0|0:0,0:0:0:0:
84,152,8217,2,0,L|155:159,1,67.5,2|0,0:0|0:0,0:0:0:0:
100,167,8490,102,0,L|108:120,1,45,2|0,0:0|0:0,0:0:0:0:
140,228,8762,1,0,0:0:0:0:
204,124,8899,2,0,L|212:77,1,45,2|0,0:0|0:0,0:0:0:0:
244,185,9171,1,0,0:0:0:0:
244,185,9308,1,0,0:0:0:0:
180,289,9444,6,0,L|172:336,1,45,2|0,0:0|0:0,0:0:0:0:
140,228,9716,1,0,0:0:0:0:
76,332,9853,2,0,L|8:320,1,67.5,2|0,0:0|0:0,0:0:0:0:
32,316,10126,2,0,L|100:328,1,67.5,2|0,0:0|0:0,0:0:0:0:
54,311,10399,102,0,L|48:264,1,45,2|0,0:0|0:0,0:0:0:0:
0,200,10672,1,0,0:0:0:0:
140,228,10808,2,0,L|134:181,1,45,2|0,0:0|0:0,0:0:0:0:
86,117,11081,1,0,0:0:0:0:
86,117,11217,1,0,0:0:0:0:
226,145,11353,1,2,0:0:0:0:
181,10,11490,53,14,0:0:0:0:
184,4,11626,1,8,0:0:0:0:
438,117,11762,5,14,0:0:0:0:
444,120,11898,1,8,0:0:0:0:
331,374,12035,5,14,0:0:0:0:
328,380,12171,1,8,0:0:0:0:
74,267,12308,5,14,0:0:0:0:
68,264,12444,1,8,0:0:0:0:
288,88,12580,70,0,P|308:124|304:172,1,90,6|0,0:0|0:0,0:0:0:0:
226,145,12853,1,8,0:0:0:0:
372,56,12990,2,0,B|400:104|400:104|376:228,1,180,6|4,0:0|0:0,0:0:0:0:
180,256,13399,2,0,L|272:244,1,90,10|4,0:0|0:0,0:0:0:0:
80,270,13671,5,0,0:0:0:0:
64,144,13808,1,6,0:0:0:0:
86,273,13944,1,8,0:0:0:0:
196,130,14081,5,0,0:0:0:0:
180,256,14218,1,6,0:0:0:0:
202,127,14354,1,8,0:0:0:0:
324,336,14490,6,0,P|284:332|248:300,1,90,6|0,0:0|0:0,0:0:0:0:
316,256,14762,1,8,0:0:0:0:
176,368,14899,2,0,B|148:316|148:316|176:196,1,180,6|4,0:0|0:0,0:0:0:0:
372,160,15308,2,0,L|280:176,1,90,10|4,0:0|0:0,0:0:0:0:
120,56,15581,69,0,0:0:0:0:
300,72,15717,1,6,0:0:0:0:
116,60,15853,1,8,0:0:0:0:
224,204,15990,5,0,0:0:0:0:
100,216,16126,1,6,0:0:0:0:
228,208,16262,1,4,0:0:0:0:
40,260,16399,6,0,P|24:220|36:176,1,90,10|0,0:0|0:0,0:0:0:0:
288,164,16671,2,0,P|304:204|292:248,1,90,6|0,0:0|0:0,0:0:0:0:
158,89,16944,1,8,0:0:0:0:
156,98,17081,2,0,B|144:158|144:158|168:206|168:206|156:270,1,180,6|4,0:0|0:0,0:0:0:0:
52,156,17490,2,0,L|72:60,1,90,10|4,0:0|0:0,0:0:0:0:
288,164,17762,5,0,0:0:0:0:
271,254,17899,2,0,B|256:296|256:296|217:319,1,90,6|8,0:0|0:0,0:0:0:0:
392,276,18172,1,0,0:0:0:0:
409,186,18309,2,0,B|423:143|423:143|462:120,1,90,6|8,0:0|0:0,0:0:0:0:
271,254,18581,69,6,0:0:0:0:
144,181,18717,2,0,P|136:141|156:97,1,90,0|8,0:0|0:0,0:0:0:0:
332,304,18990,2,0,B|288:336|288:336|164:312,1,180,6|4,0:0|0:0,0:0:0:0:
319,193,19399,2,0,L|411:185,1,90,10|0,0:0|0:0,0:0:0:0:
271,254,19672,5,4,0:0:0:0:
280,128,19808,1,6,0:0:0:0:
268,260,19944,1,8,0:0:0:0:
144,181,20081,5,0,0:0:0:0:
153,307,20217,1,6,0:0:0:0:
141,175,20353,1,4,0:0:0:0:
148,320,20490,5,10,0:0:0:0:
136,162,20626,1,0,0:0:0:0:
260,340,20763,70,0,P|304:336|336:304,1,90,6|0,0:0|0:0,0:0:0:0:
268,260,21035,1,8,0:0:0:0:
388,380,21172,2,0,B|440:352|440:352|460:228,1,180,6|4,0:0|0:0,0:0:0:0:
268,260,21581,2,0,L|360:244,1,90,10|4,0:0|0:0,0:0:0:0:
264,136,21853,5,0,0:0:0:0:
136,162,21990,1,6,0:0:0:0:
272,140,22126,1,8,0:0:0:0:
140,234,22263,5,0,0:0:0:0:
268,260,22400,1,6,0:0:0:0:
132,238,22536,1,8,0:0:0:0:
344,296,22672,6,0,P|352:252|336:208,1,90,6|0,0:0|0:0,0:0:0:0:
268,260,22944,1,8,0:0:0:0:
448,344,23081,2,0,B|460:304|460:304|440:276|440:276|464:232|444:176,1,180,6|4,0:0|0:0,0:0:0:0:
264,136,23490,2,0,P|305:152|352:144,1,90,10|4,0:0|0:0,0:0:0:0:
316,64,23763,69,0,0:0:0:0:
340,224,23899,1,6,0:0:0:0:
312,56,24035,1,8,0:0:0:0:
180,180,24172,5,0,0:0:0:0:
204,20,24308,1,6,0:0:0:0:
176,188,24444,1,4,0:0:0:0:
392,92,24581,6,0,P|396:48|376:8,1,90,10|0,0:0|0:0,0:0:0:0:
100,160,24854,2,0,P|96:204|116:244,1,90,6|0,0:0|0:0,0:0:0:0:
333,126,25126,1,8,0:0:0:0:
324,128,25263,2,0,B|264:136|264:136|216:104|216:104|152:112,1,180,6|4,0:0|0:0,0:0:0:0:
340,224,25672,2,0,L|432:212,1,90,10|4,0:0|0:0,0:0:0:0:
176,188,25944,5,0,0:0:0:0:
216,288,26081,2,0,B|236:328|236:328|280:344,1,90,6|8,0:0|0:0,0:0:0:0:
104,324,26354,1,0,0:0:0:0:
64,224,26491,2,0,B|44:184|44:184|0:168,1,90,6|8,0:0|0:0,0:0:0:0:
292,272,26763,69,6,0:0:0:0:
388,160,26899,2,0,P|396:116|376:76,1,90,0|8,0:0|0:0,0:0:0:0:
216,288,27172,2,0,B|244:344|244:344|360:360,1,180,6|4,0:0|0:0,0:0:0:0:
324,128,27581,2,0,L|232:136,1,90,10|0,0:0|0:0,0:0:0:0:
292,272,27854,5,4,0:0:0:0:
340,60,27990,1,6,0:0:0:0:
296,280,28126,1,8,0:0:0:0:
336,52,28263,1,4,0:0:0:0:
168,224,28399,5,8,0:0:0:0:
444,188,28535,1,8,0:0:0:0:
160,232,28672,1,8,0:0:0:0:
452,180,28808,38,0,B|456:140|456:140|436:116|436:116|440:68,1,116.999994644165,6|4,0:0|0:0,0:0:0:0:
512,90,29217,37,14,0:0:0:0:
508,100,29354,1,4,0:0:0:0:
336,52,29490,1,14,0:0:0:0:
340,42,29627,1,4,0:0:0:0:
444,188,29763,1,14,0:0:0:0:
440,198,29900,1,4,0:0:0:0:
268,150,30036,1,14,0:0:0:0:
272,140,30173,1,4,0:0:0:0:
376,286,30308,5,14,0:0:0:0:
198,304,30445,1,4,0:0:0:0:
188,300,30513,1,4,0:0:0:0:
180,296,30581,1,14,0:0:0:0:
376,286,30717,1,6,0:0:0:0:
386,290,30785,1,4,0:0:0:0:
394,294,30853,1,12,0:0:0:0:
124,352,30990,54,0,B|96:300|96:300|120:248,1,116.999994644165,6|4,0:0|0:0,0:0:0:0:
268,300,31399,85,14,0:0:0:0:
276,304,31535,1,4,0:0:0:0:
156,188,31672,1,14,0:0:0:0:
317,143,31808,1,4,0:0:0:0:
148,184,31945,1,4,0:0:0:0:
384,124,32081,69,14,0:0:0:0:
392,120,32217,1,4,0:0:0:0:
156,98,32353,1,14,0:0:0:0:
317,143,32490,1,4,0:0:0:0:
148,102,32626,1,4,0:0:0:0:
372,200,32763,5,8,0:0:0:0:
376,203,32831,1,8,0:0:0:0:
380,206,32899,1,8,0:0:0:0:
175,344,33035,1,8,0:0:0:0:
148,102,33172,54,0,B|196:96|196:96|232:116,1,90,6|4,0:0|0:0,0:0:0:0:
237,119,33513,69,4,0:0:0:0:
242,122,33581,1,14,0:0:0:0:
148,184,33717,1,4,0:0:0:0:
108,36,33854,1,14,0:0:0:0:
106,27,33922,1,4,0:0:0:0:
104,18,33990,1,4,0:0:0:0:
232,116,34126,5,14,0:0:0:0:
172,252,34263,1,4,0:0:0:0:
168,260,34331,1,4,0:0:0:0:
164,268,34399,1,14,0:0:0:0:
28,88,34535,1,4,0:0:0:0:
88,223,34672,1,14,0:0:0:0:
92,231,34740,1,4,0:0:0:0:
96,239,34808,1,4,0:0:0:0:
192,32,34945,69,14,0:0:0:0:
340,136,35081,1,6,0:0:0:0:
352,132,35149,1,4,0:0:0:0:
364,128,35217,1,12,0:0:0:0:
248,284,35354,70,0,B|204:292|204:292|164:268,1,90,6|4,0:0|0:0,0:0:0:0:
161,266,35695,53,4,0:0:0:0:
157,263,35763,1,14,0:0:0:0:
224,200,35899,1,4,0:0:0:0:
272,368,36035,1,10,0:0:0:0:
276,380,36172,1,4,0:0:0:0:
166,269,36308,1,10,0:0:0:0:
276,125,36445,5,4,0:0:0:0:
279,128,36513,1,4,0:0:0:0:
282,131,36581,2,0,L|280:176,1,45,8|8,0:0|0:0,0:0:0:0:
174,100,36717,2,0,L|176:55,1,45,8|8,0:0|0:0,0:0:0:0:
78,145,36854,1,4,0:0:0:0:
41,169,36922,1,4,0:0:0:0:
23,209,36990,1,8,0:0:0:0:
24,253,37058,1,4,0:0:0:0:
49,290,37126,1,8,0:0:0:0:
90,307,37194,1,4,0:0:0:0:
133,299,37262,1,4,0:0:0:0:
166,269,37331,1,4,0:0:0:0:
198,239,37399,1,8,0:0:0:0:
242,231,37467,1,8,0:0:0:0:
283,248,37535,1,4,0:0:0:0:
308,285,37603,1,4,0:0:0:0:
309,329,37673,6,0,P|268:348|228:376,1,90,6|0,0:0|0:0,0:0:0:0:
100,224,37945,1,4,0:0:0:0:
282,131,38082,2,0,B|298:175|298:175|286:219,1,90,6|8,0:0|0:0,0:0:0:0:
432,112,38354,2,0,B|416:68|416:68|428:24,1,90,0|4,0:0|0:0,0:0:0:0:
480,260,38627,1,6,0:0:0:0:
309,329,38763,70,0,P|266:319|218:315,2,90,0|0|4,0:0|0:0|0:0,0:0:0:0:
100,224,39173,1,10,0:0:0:0:
309,329,39309,1,4,0:0:0:0:
104,234,39445,1,4,0:0:0:0:
356,152,39582,6,0,P|372:192|368:240,1,90,6|0,0:0|0:0,0:0:0:0:
264,208,39854,1,4,0:0:0:0:
376,72,39991,2,0,P|420:68|464:56,1,90,6|8,0:0|0:0,0:0:0:0:
264,208,40263,2,0,P|220:212|176:224,1,90,4|4,0:0|0:0,0:0:0:0:
416,300,40536,1,6,0:0:0:0:
284,140,40673,6,0,B|272:112|272:112|280:52,1,90,0|4,0:0|0:0,0:0:0:0:
332,244,40945,1,4,0:0:0:0:
152,232,41082,2,0,B|164:260|164:260|156:320,1,90,10|4,0:0|0:0,0:0:0:0:
104,128,41354,1,8,0:0:0:0:
101,126,41423,1,8,0:0:0:0:
98,124,41491,1,8,0:0:0:0:
332,244,41627,1,8,0:0:0:0:
88,360,41763,6,0,B|76:316|76:316|92:272,1,90,6|0,0:0|0:0,0:0:0:0:
224,324,42035,1,4,0:0:0:0:
28,216,42172,2,0,P|24:172|12:128,1,90,6|8,0:0|0:0,0:0:0:0:
256,192,42444,2,0,P|260:236|272:280,1,90,0|4,0:0|0:0,0:0:0:0:
336,72,42717,69,6,0:0:0:0:
192,144,42853,2,0,P|160:136|104:128,2,90,0|0|4,0:0|0:0|0:0,0:0:0:0:
76,24,43263,1,10,0:0:0:0:
124,236,43399,1,4,0:0:0:0:
65,32,43535,1,4,0:0:0:0:
96,300,43672,6,0,P|140:304|176:280,1,90,6|0,0:0|0:0,0:0:0:0:
104,168,43944,1,4,0:0:0:0:
224,324,44081,2,0,P|268:316|316:312,1,90,6|8,0:0|0:0,0:0:0:0:
104,168,44353,2,0,P|60:176|12:180,1,90,4|4,0:0|0:0,0:0:0:0:
252,48,44626,1,8,0:0:0:0:
320,216,44763,6,0,B|340:256|340:256|384:272,1,90,6|4,0:0|0:0,0:0:0:0:
104,168,45035,2,0,B|84:128|84:128|40:112,1,90,10|4,0:0|0:0,0:0:0:0:
74,345,45308,1,8,0:0:0:0:
110,370,45376,1,8,0:0:0:0:
154,375,45444,1,8,0:0:0:0:
195,358,45512,1,4,0:0:0:0:
224,324,45581,1,8,0:0:0:0:
252,289,45649,1,4,0:0:0:0:
293,272,45717,1,8,0:0:0:0:
337,277,45785,1,4,0:0:0:0:
374,303,45854,6,0,P|404:296|464:288,1,90,6|0,0:0|0:0,0:0:0:0:
248,212,46126,1,4,0:0:0:0:
356,84,46263,2,0,P|360:40|336:0,1,90,6|8,0:0|0:0,0:0:0:0:
104,168,46535,2,0,P|100:212|124:252,1,90,0|4,0:0|0:0,0:0:0:0:
280,60,46808,1,6,0:0:0:0:
192,264,46944,70,0,P|204:304|212:352,2,90,0|4|4,0:0|0:0|0:0,0:0:0:0:
40,232,47354,1,10,0:0:0:0:
293,272,47490,1,4,0:0:0:0:
48,240,47626,1,4,0:0:0:0:
348,316,47763,6,0,P|363:273|351:231,1,90,6|0,0:0|0:0,0:0:0:0:
192,264,48035,1,4,0:0:0:0:
412,352,48172,2,0,B|440:360|440:360|464:344|504:340,1,90,6|8,0:0|0:0,0:0:0:0:
381,121,48444,2,0,P|341:117|293:133,1,90,4|4,0:0|0:0,0:0:0:0:
504,260,48717,5,6,0:0:0:0:
284,340,48854,1,0,0:0:0:0:
512,252,48990,1,4,0:0:0:0:
276,348,49126,1,0,0:0:0:0:
381,121,49263,5,6,0:0:0:0:
412,352,49399,1,4,0:0:0:0:
384,108,49535,1,8,0:0:0:0:
420,364,49672,1,8,0:0:0:0:
181,268,49808,1,8,0:0:0:0:
491,175,49944,70,0,B|511:216|511:216|503:260,2,90,6|0|0,0:0|0:0|0:0,0:0:0:0:
320,248,50353,1,4,0:0:0:0:
315,249,50421,1,4,0:0:0:0:
310,250,50489,1,10,0:0:0:0:
220,92,50625,2,0,P|232:48|236:4,1,90,0|4,0:0|0:0,0:0:0:0:
92,208,50898,1,6,0:0:0:0:
220,336,51034,6,0,P|264:328|312:324,2,90
408,212,51444,1,10,0:0:0:0:
220,336,51580,1,4,0:0:0:0:
400,220,51716,1,4,0:0:0:0:
152,136,51853,6,0,P|140:92|152:48,1,90,6|0,0:0|0:0,0:0:0:0:
296,96,52125,1,4,0:0:0:0:
92,208,52262,2,0,P|48:200|0:196,1,90,6|8,0:0|0:0,0:0:0:0:
296,96,52534,2,0,P|340:88|388:84,1,90,4|4,0:0|0:0,0:0:0:0:
220,336,52807,1,8,0:0:0:0:
232,148,52944,5,6,0:0:0:0:
295,177,53080,1,4,0:0:0:0:
265,242,53216,1,10,0:0:0:0:
200,211,53353,1,4,0:0:0:0:
199,54,53489,69,12,0:0:0:0:
104,245,53625,1,12,0:0:0:0:
299,337,53762,1,8,0:0:0:0:
390,142,53898,1,12,0:0:0:0:
199,54,54035,102,0,B|226:53|252:40|252:40|280:72|280:72|312:48|356:40,1,180,6|0,0:0|2:0,0:0:0:0:
395,228,54444,2,0,P|380:184|390:143,1,90,4|8,0:0|2:3,0:0:0:0:
390,142,54853,1,0,2:0:0:0:
390,142,54989,2,0,L|300:152,1,90,4|2,0:0|2:3,0:0:0:0:
300,152,55398,102,0,L|390:142,1,90,4|0,0:0|2:0,0:0:0:0:
390,142,55671,1,8,2:3:0:0:
390,142,55807,1,0,2:0:0:0:
390,142,55944,1,0,2:0:0:0:
390,142,56080,2,0,P|380:186|395:228,1,90,4|2,0:0|2:3,0:0:0:0:
395,227,56489,6,0,L|385:316,1,90,4|0,0:0|2:0,0:0:0:0:
384,316,56762,1,8,2:3:0:0:
384,316,56898,1,0,2:0:0:0:
384,316,57035,2,0,P|340:304|296:300,1,90,4|0,0:0|2:0,0:0:0:0:
295,299,57307,101,2,2:3:0:0:
295,299,57444,1,0,2:0:0:0:
295,299,57580,1,0,2:0:0:0:
295,299,57716,2,0,L|304:208,1,90,4|8,0:0|2:3,0:0:0:0:
304,210,58125,86,0,B|320:255|320:255|296:299,1,99.0000030212403,4|6,0:0|0:0,0:0:0:0:
256,104,58535,22,0,L|264:12,1,90,6|0,0:0|0:0,0:0:0:0:
263,14,58807,1,0,2:0:0:0:
263,14,58944,2,0,P|220:24|176:12,1,90,4|8,0:0|2:3,0:0:0:0:
177,12,59353,1,0,2:0:0:0:
177,12,59489,2,0,L|88:28,1,90,4|2,0:0|2:3,0:0:0:0:
88,28,59898,6,0,L|177:12,1,90,4|0,0:0|2:0,0:0:0:0:
177,12,60171,1,8,2:3:0:0:
177,12,60307,1,0,2:0:0:0:
177,12,60444,1,0,2:0:0:0:
177,12,60580,2,0,P|164:56|180:100,1,90,4|2,0:0|2:3,0:0:0:0:
177,96,60989,102,0,L|268:104,1,90,4|0,0:0|2:0,0:0:0:0:
266,103,61262,1,8,2:3:0:0:
266,103,61398,1,0,2:0:0:0:
266,103,61535,2,0,P|279:145|266:187,1,90,4|0,0:0|2:0,0:0:0:0:
266,187,61807,5,2,2:3:0:0:
266,187,61944,1,0,2:0:0:0:
266,187,62080,1,0,2:0:0:0:
266,187,62216,2,0,L|357:179,1,90,4|8,0:0|2:3,0:0:0:0:
355,179,62626,70,0,B|313:203|313:203|266:187,1,99.0000030212403,4|4,0:0|2:3,0:0:0:0:
304,100,63035,21,4,0:0:0:0:
324,284,63171,1,8,0:0:0:0:
324,284,63307,1,8,0:0:0:0:
216,60,63445,6,0,P|284:4|368:28,1,180,6|0,0:0|2:0,0:0:0:0:
144,144,63854,2,0,L|52:136,1,90,4|8,0:0|2:3,0:0:0:0:
54,136,64263,1,0,2:0:0:0:
54,136,64399,2,0,L|64:228,1,90,4|2,0:0|2:3,0:0:0:0:
63,225,64808,102,0,L|54:136,1,90,4|0,0:0|2:0,0:0:0:0:
54,136,65081,1,8,2:3:0:0:
54,136,65217,1,0,2:0:0:0:
54,136,65354,1,0,2:0:0:0:
54,136,65490,2,0,P|100:140|144:120,1,90,4|2,0:0|2:3,0:0:0:0:
139,123,65899,6,0,L|228:140,1,90,4|0,0:0|2:0,0:0:0:0:
227,139,66172,1,8,2:3:0:0:
227,139,66308,1,0,2:0:0:0:
227,139,66445,2,0,P|248:104|236:60,1,90,4|0,0:0|2:0,0:0:0:0:
235,59,66717,101,2,2:3:0:0:
235,59,66854,1,0,2:0:0:0:
235,59,66990,1,0,2:0:0:0:
235,59,67126,2,0,L|328:48,1,90,4|10,0:0|0:0,0:0:0:0:
482,154,67399,1,0,2:0:0:0:
485,157,67467,1,0,2:0:0:0:
488,160,67535,38,0,B|480:200|480:200|448:216|448:216|440:256,1,116.999994644165,6|0,0:0|0:0,0:0:0:0:
104,180,67944,102,0,B|112:116|112:116|160:80|160:80|168:16,1,188.999994232178,6|0,0:0|0:0,0:0:0:0:
360,252,68353,6,0,B|370:304|370:304|412:324|412:324|422:376,1,153.000002918243,6|0,0:0|0:0,0:0:0:0:
112,340,68762,102,0,B|96:263|96:263|35:232|35:232|20:156,1,225,6|0,0:0|0:0,0:0:0:0:
251,45,69173,101,6,0:0:0:0:
272,107,69309,1,8,0:0:0:0:
207,95,69445,1,8,0:0:0:0:
384,10,69582,101,4,0:0:0:0:
401,75,69718,1,10,0:0:0:0:
336,92,69854,1,8,0:0:0:0:
318,27,69991,1,4,0:0:0:0:
420,138,70127,5,6,0:0:0:0:
403,200,70263,1,8,0:0:0:0:
354,155,70399,1,8,0:0:0:0:
466,226,70536,101,4,0:0:0:0:
462,292,70673,1,4,0:0:0:0:
396,309,70809,1,10,0:0:0:0:
360,252,70945,1,8,0:0:0:0:
403,200,71082,1,4,0:0:0:0:
296,270,71218,5,6,0:0:0:0:
243,226,71354,1,8,0:0:0:0:
306,206,71490,1,8,0:0:0:0:
211,374,71627,101,4,0:0:0:0:
157,333,71763,1,4,0:0:0:0:
200,280,71900,1,10,0:0:0:0:
252,321,72036,1,4,0:0:0:0:
68,280,72173,5,6,0:0:0:0:
38,220,72310,1,8,0:0:0:0:
87,172,72446,1,4,0:0:0:0:
147,203,72582,1,4,0:0:0:0:
135,270,72719,1,4,0:0:0:0:
36,124,72854,101,4,0:0:0:0:
50,58,72990,1,2,0:0:0:0:
97,105,73127,1,8,0:0:0:0:
68,280,73263,86,0,B|40:244|40:244|48:200,1,90,4|6,0:0|0:0,0:0:0:0:
264,301,73673,37,6,0:0:0:0:
251,236,73809,1,8,0:0:0:0:
200,280,73945,1,4,0:0:0:0:
396,277,74082,101,4,0:0:0:0:
383,211,74218,1,10,0:0:0:0:
317,222,74355,1,8,0:0:0:0:
328,288,74491,1,4,0:0:0:0:
372,140,74627,5,6,0:0:0:0:
330,90,74763,1,8,0:0:0:0:
304,152,74899,1,8,0:0:0:0:
256,32,75036,101,4,0:0:0:0:
191,18,75173,1,4,0:0:0:0:
157,78,75309,1,10,0:0:0:0:
203,127,75445,1,8,0:0:0:0:
264,99,75582,1,4,0:0:0:0:
96,104,75718,5,6,0:0:0:0:
75,168,75854,1,8,0:0:0:0:
140,150,75990,1,8,0:0:0:0:
28,220,76127,101,4,0:3:0:0:
13,284,76263,1,4,0:3:0:0:
79,297,76400,1,10,0:3:0:0:
94,232,76536,1,4,0:3:0:0:
184,332,76673,5,6,3:0:0:0:
247,310,76810,1,8,3:0:0:0:
246,242,76946,1,4,3:0:0:0:
182,221,77082,1,4,3:0:0:0:
143,277,77219,1,4,3:0:0:0:
292,192,77354,101,4,0:0:0:0:
278,126,77490,1,2,0:0:0:0:
231,173,77627,1,8,0:0:0:0:
356,212,77764,38,0,B|399:223|399:223|477:198,1,125.999996154785,6|4,0:0|0:0,0:0:0:0:
367,296,78173,2,0,B|323:284|323:284|245:309,1,125.999996154785,6|8,0:0|0:0,0:0:0:0:
98,224,78583,70,0,P|138:207|180:219,1,90,6|0,0:0|0:0,0:3:0:0:
143,277,78992,1,4,0:0:0:0:
143,277,79128,2,0,L|128:368,1,90,10|0,0:0|0:0,0:0:0:0:
238,259,79537,2,4,B|246:215|246:215|230:171,1,90,6|4,0:0|0:0,0:0:0:0:
288,308,79946,6,0,P|328:324|370:312,2,90,4|10|0,0:0|0:0|0:0,0:0:0:0:
324,160,80628,2,0,L|332:252,1,90,6|0,0:0|0:0,0:0:0:0:
230,172,81037,2,0,L|238:80,1,90,4|10,0:0|0:0,0:0:0:0:
238,82,81583,102,0,P|217:88|189:92,1,45,6|8,0:0|0:0,0:0:0:0:
324,160,81855,2,0,P|345:154|373:150,1,45,8|8,0:0|0:0,0:0:0:0:
248,248,82128,1,4,0:0:0:0:
244,244,82264,2,0,B|220:240|220:240|200:240,2,45,4|10|4,0:0|0:0|0:0,0:0:0:0:
336,320,82674,38,0,B|345:350|345:350|344:384,2,62.9999980773926,6|0|0,0:0|0:0|0:0,0:0:0:0:
392,132,83083,102,0,B|379:92|379:92|381:48,2,80.9999975280763,6|0|0,0:0|0:0|0:0,0:0:0:0:
184,280,83492,6,0,B|168:328|168:328|171:382,2,99.0000030212403,6|0|0,0:0|0:0|0:0,0:0:0:0:
100,116,83901,102,0,B|117:60|117:60|112:0,2,116.999994644165,6|0|0,0:0|0:0|0:0,0:0:0:0:
36,248,84311,53,2,0:0:0:0:
32,256,84447,1,0,0:0:0:0:
320,240,84583,5,2,0:0:0:0:
324,232,84720,1,0,0:0:0:0:
36,248,84856,101,2,0:0:0:0:
32,256,84992,1,0,0:0:0:0:
320,240,85128,5,2,0:0:0:0:
324,232,85265,1,0,0:0:0:0:
188,376,85401,6,0,B|204:320|176:276|176:276|216:232|216:232|184:184|204:128,1,270,6|0,0:0|2:0,0:0:0:0:
320,164,87582,6,0,B|312:220|312:220|344:260|344:260|336:316,1,162,6|0,0:0|2:0,0:0:0:0:
248,352,88946,101,4,0:0:0:0:
182,336,89082,1,4,0:0:0:0:
116,320,89219,5,8,0:0:0:0:
116,320,89491,1,4,0:0:0:0:
116,320,89764,102,0,B|116:284|96:252|96:252|136:256|136:256|112:216|112:168,1,198,6|4,0:0|0:0,0:0:0:0:
113,170,91332,1,4,0:0:0:0:
115,166,91401,5,10,0:0:0:0:
350,211,91673,1,6,0:0:0:0:
115,166,91946,102,0,L|108:112,1,54,6|0,0:0|2:0,0:0:0:0:
98,40,92491,6,0,L|97:31,3,6,2|2|2|2,2:3|2:3|2:3|2:3,0:0:0:0:
194,130,92901,101,4,0:0:0:0:
197,133,92969,1,4,0:0:0:0:
200,136,93037,2,0,L|236:132,1,36,10|4,0:0|0:0,0:0:0:0:
300,32,93582,2,0,L|264:36,1,36,4|4,0:0|0:0,0:0:0:0:
408,112,94128,5,6,0:0:0:0:
480,168,94401,2,0,L|472:264,1,90,4|4,0:0|0:0,0:0:0:0:
336,336,95219,1,10,0:0:0:0:
264,280,95492,2,0,L|272:184,1,90,4|4,0:0|0:0,0:0:0:0:
28,248,96310,101,6,0:0:0:0:
100,300,96582,2,0,P|144:300|180:272,1,90,4|4,0:0|0:0,0:0:0:0:
190,253,97264,1,4,0:0:0:0:
198,233,97401,2,0,L|192:188,2,45,10|8|8,0:0|0:0|0:0,0:0:0:0:
368,292,98219,5,6,0:0:0:0:
176,116,98491,1,6,0:0:0:0:
452,160,98764,2,0,L|440:68,1,90,4|4,0:0|0:0,0:0:0:0:
288,212,99582,102,0,L|244:208,1,45,10|4,0:0|0:0,0:0:0:0:
192,160,99991,1,0,0:0:0:0:
140,112,100128,2,0,L|96:108,1,45,10|4,0:0|0:0,0:0:0:0:
152,312,100673,38,0,L|196:308,1,45,6|4,0:0|0:0,0:0:0:0:
108,224,100946,2,0,L|64:228,1,45,8|4,0:0|0:0,0:0:0:0:
184,376,101219,1,12,0:0:0:0:
208,240,101355,1,8,0:0:0:0:
184,376,101491,1,8,0:0:0:0:
84,148,101628,1,8,0:0:0:0:
184,376,101764,101,12,0:0:0:0:
240,100,101901,1,8,0:0:0:0:
242,94,101969,1,8,0:0:0:0:
244,88,102037,1,8,0:0:0:0:
184,376,102173,1,8,0:3:0:0:
84,148,102310,21,12,0:0:0:0:
312,48,102446,1,8,0:0:0:0:
412,276,102582,1,8,0:0:0:0:
184,376,102718,1,8,0:0:0:0:
84,148,102856,86,0,B|80:104|80:104|104:64,1,90,6|4,0:0|0:0,0:0:0:0:
172,124,103128,1,10,0:0:0:0:
4,128,103265,2,0,P|0:88|24:44,1,90,4|6,0:0|0:0,0:0:0:0:
260,104,103537,2,0,P|264:144|240:188,1,90,4|10,0:0|0:0,0:0:0:0:
166,214,103765,5,0,2:0:0:0:
160,216,103810,2,0,L|172:308,1,90,4|6,0:0|0:0,0:0:0:0:
84,148,104083,1,4,0:0:0:0:
241,187,104219,1,10,0:0:0:0:
96,280,104356,2,0,P|52:272|4:268,1,90,4|6,0:0|0:0,0:0:0:0:
253,318,104628,1,10,0:0:0:0:
292,116,104765,6,0,P|252:100|204:108,1,90,6|4,0:0|0:0,0:0:0:0:
241,187,105037,1,10,0:0:0:0:
360,156,105174,2,0,B|372:120|372:120|356:68,1,90,4|6,0:0|0:0,0:0:0:0:
160,216,105446,2,0,B|148:252|148:252|164:304,1,90,4|10,0:0|0:0,0:0:0:0:
247,319,105674,5,0,2:0:0:0:
253,318,105719,2,0,L|344:304,1,90,4|6,0:0|0:0,0:0:0:0:
160,216,105992,1,4,0:0:0:0:
351,232,106128,1,10,0:0:0:0:
196,372,106265,1,4,0:0:0:0:
241,187,106401,2,0,P|232:144|224:96,1,90,6|4,0:0|0:0,0:0:0:0:
96,272,106674,2,0,P|87:315|79:363,1,90,10|4,0:0|0:0,0:0:0:0:
28,168,106947,70,0,P|60:152|116:148,1,90,6|4,0:0|0:0,0:0:0:0:
96,272,107219,1,10,0:0:0:0:
120,60,107356,2,0,B|164:72|164:72|192:108,1,90,4|6,0:0|0:0,0:0:0:0:
312,234,107628,2,0,B|268:222|268:222|240:186,1,90,4|10,0:0|0:0,0:0:0:0:
397,139,107856,5,0,2:0:0:0:
400,144,107901,2,0,P|356:148|312:160,1,90,4|6,0:0|0:0,0:0:0:0:
496,208,108174,1,4,0:0:0:0:
460,44,108310,1,10,0:0:0:0:
400,144,108447,2,0,P|356:140|312:128,1,90,4|6,0:0|0:0,0:0:0:0:
460,44,108719,1,4,0:0:0:0:
496,208,108856,2,0,P|484:244|472:296,1,90,10|4,0:0|0:0,0:0:0:0:
200,312,109128,6,0,B|184:272|184:272|192:224,1,90,6|4,0:0|0:0,0:0:0:0:
380,212,109401,2,0,B|396:252|396:252|388:300,1,90,6|4,0:0|0:0,0:0:0:0:
220,48,109674,1,10,0:0:0:0:
328,64,109810,1,4,0:0:0:0:
312,172,109947,1,6,0:0:0:0:
204,156,110083,1,4,0:0:0:0:
328,64,110219,5,10,0:0:0:0:
380,212,110356,1,4,0:0:0:0:
204,156,110492,1,10,0:0:0:0:
147,308,110629,1,4,0:0:0:0:
151,312,110697,1,4,0:0:0:0:
155,316,110765,2,0,L|199:312,1,45,8|0,0:0|2:0,0:0:0:0:
340,300,110901,69,8,0:0:0:0:
96,244,111037,1,8,0:0:0:0:
267,61,111174,1,8,0:0:0:0:
340,300,111311,6,0,P|296:312|256:296,1,90,6|4,0:0|0:0,0:0:0:0:
302,236,111583,1,10,0:0:0:0:
208,360,111720,2,0,P|172:352|120:344,1,90,4|6,0:0|0:0,0:0:0:0:
302,236,111992,2,0,P|338:228|390:220,1,90,4|10,0:0|0:0,0:0:0:0:
235,209,112220,5,0,2:0:0:0:
232,204,112265,2,0,B|216:172|216:172|224:116,1,90,4|6,0:0|0:0,0:0:0:0:
336,148,112538,1,4,0:0:0:0:
148,192,112674,1,10,0:0:0:0:
267,61,112811,1,4,0:0:0:0:
180,272,112947,1,6,0:0:0:0:
267,61,113083,1,8,0:0:0:0:
180,272,113220,6,0,P|192:312|200:360,1,90,6|4,0:0|0:0,0:0:0:0:
76,232,113492,1,10,0:0:0:0:
200,124,113629,2,0,P|244:120|288:140,1,90,4|6,0:0|0:0,0:0:0:0:
352,324,113901,2,0,P|308:328|264:308,1,90,4|10,0:0|0:0,0:0:0:0:
394,254,114129,69,0,2:0:0:0:
400,252,114174,2,0,P|440:244|500:236,1,90,4|6,0:0|0:0,0:0:0:0:
324,192,114447,1,4,0:0:0:0:
476,312,114583,1,10,0:0:0:0:
504,121,114720,1,4,0:0:0:0:
352,324,114856,2,0,B|312:308|312:308|288:268,1,90,6|4,0:0|0:0,0:0:0:0:
76,232,115129,2,0,B|116:248|116:248|140:288,1,90,10|4,0:0|0:0,0:0:0:0:
282,101,115401,6,0,P|238:101|198:125,1,90,6|4,0:0|0:0,0:0:0:0:
264,196,115673,1,10,0:0:0:0:
124,96,115810,2,0,P|88:88|36:80,1,90,4|6,0:0|0:0,0:0:0:0:
264,196,116082,2,0,P|300:188|352:180,1,90,4|6,0:0|0:0,0:0:0:0:
222,258,116310,5,0,2:0:0:0:
216,256,116355,2,0,P|188:220|188:176,1,90,4|10,0:0|0:0,0:0:0:0:
292,268,116628,1,4,0:0:0:0:
128,244,116764,1,10,0:0:0:0:
320,340,116901,1,4,0:0:0:0:
236,124,117037,1,6,0:0:0:0:
316,348,117173,1,4,0:0:0:0:
384,152,117310,6,0,B|400:112|400:112|440:88,1,90,10|4,0:0|0:0,0:0:0:0:
512,252,117582,2,0,B|496:292|496:292|456:316,1,90,10|4,0:0|0:0,0:0:0:0:
392,293,117787,1,0,0:0:0:0:
379,288,117855,2,0,P|335:276|291:268,1,90,6|4,0:0|0:0,0:0:0:0:
158,331,118060,1,0,0:0:0:0:
168,340,118128,2,0,P|208:348|252:324,1,90,10|4,0:0|0:0,0:0:0:0:
192,240,118401,69,10,0:0:0:0:
48,296,118537,1,4,0:0:0:0:
40,300,118605,1,4,0:0:0:0:
32,304,118673,2,0,B|40:268|40:268|28:216,1,90,8|8,0:0|0:0,0:0:0:0:
287,180,118946,2,0,B|279:216|279:216|291:268,1,90,8|8,0:0|0:0,0:0:0:0:
464,96,119219,1,8,0:0:0:0:
320,4,119355,1,8,0:0:0:0:
216,140,119491,1,8,0:0:0:0:
72,48,119627,1,8,0:0:0:0:
287,180,119764,6,4,B|331:176|331:176|359:144|359:144|407:140,1,135.000005149842,6|4,0:0|0:0,0:0:0:0:
168,336,120036,2,0,B|124:332|124:332|96:300|96:300|48:296,1,135.000005149842,10|4,0:0|0:0,0:0:0:0:
287,180,120309,1,10,0:0:0:0:
72,48,120445,1,4,0:0:0:0:
320,4,120582,1,10,0:0:0:0:
194,227,120718,5,4,0:0:0:0:
198,235,120786,1,0,0:0:0:0:
202,243,120854,2,0,P|243:259|286:295,1,101.250003862381,10|0,0:0|2:0,0:0:0:0:
287,296,121128,6,0,B|355:284|355:284|391:228|391:228|463:216,1,202.500007724762,10|0,0:0|2:0,0:0:0:0:
287,180,121401,2,0,B|219:168|219:168|183:112|183:112|111:100,1,202.500007724762,10|0,0:0|2:0,0:0:0:0:
287,64,121674,2,0,P|383:52|443:132,1,202.500007724762,10|0,0:0|2:0,0:0:0:0:
208,328,121945,70,0,B|148:304|148:304|120:240,1,135.000005149842,10|4,0:0|0:0,0:0:0:0:
384,52,122218,1,10,0:0:0:0:
364,228,122354,1,4,0:0:0:0:
184,72,122491,1,10,0:0:0:0:
204,248,122627,1,4,0:0:0:0:
24,52,122764,1,10,0:0:0:0:
4,228,122900,1,4,0:0:0:0:
287,296,123036,6,0,P|299:236|264:172,1,135.000005149842,10|4,0:0|0:0,0:0:0:0:
124,194,123241,1,4,0:0:0:0:
120,200,123309,2,0,P|108:260|143:324,1,135.000005149842,10|4,0:0|0:0,0:0:0:0:
204,255,123514,1,4,0:0:0:0:
204,248,123582,2,0,B|208:204|208:204|184:168|184:168|188:120,1,135.000005149842,10|4,0:0|0:0,0:0:0:0:
195,30,123786,1,4,0:0:0:0:
196,20,123854,1,10,0:0:0:0:
340,164,123991,5,4,0:0:0:0:
372,172,124059,1,4,0:0:0:0:
404,180,124127,2,0,B|464:152|464:152|488:88,1,135.000005149842,10|4,0:0|0:0,0:0:0:0:
204,248,124400,2,0,B|144:220|144:220|120:156,1,135.000005149842,10|4,0:0|0:0,0:0:0:0:
412,332,124673,5,10,0:0:0:0:
392,88,124809,1,4,0:0:0:0:
244,360,124945,1,10,0:0:0:0:
264,116,125081,1,4,0:0:0:0:
116,332,125218,69,10,0:0:0:0:
96,88,125354,1,4,0:0:0:0:
318,193,125491,1,10,0:3:0:0:
116,332,125627,1,4,0:0:0:0:
84,324,125695,1,4,0:0:0:0:
52,316,125764,6,0,B|48:268|48:268|72:236|72:236|68:188,1,135.000005149842,10|4,0:0|0:0,0:0:0:0:
250,230,125968,1,4,0:0:0:0:
260,233,126036,2,0,B|264:281|264:281|240:313|240:313|244:361,1,135.000005149842,10|4,0:0|0:0,0:0:0:0:
430,327,126241,1,4,0:0:0:0:
440,324,126309,5,10,0:0:0:0:
396,188,126445,1,8,0:0:0:0:
260,233,126582,1,10,0:0:0:0:
304,369,126718,1,8,0:0:0:0:
156,340,126854,5,10,0:0:0:0:
185,200,126990,1,8,0:0:0:0:
45,171,127127,1,10,0:0:0:0:
15,310,127263,1,8,0:0:0:0:
156,340,127400,70,8,B|188:348|188:348|224:340,1,67.5000025749208
216,136,127536,2,8,B|184:128|184:128|148:136,1,67.5000025749208,8|8,0:0|0:0,0:0:0:0:
112,244,127673,1,4,0:0:0:0:
151,274,127741,1,4,0:0:0:0:
200,279,127809,1,8,0:0:0:0:
244,255,127877,1,4,0:0:0:0:
268,211,127945,1,8,0:0:0:0:
291,166,128013,1,4,0:0:0:0:
335,143,128081,1,4,0:0:0:0:
384,147,128149,1,4,0:0:0:0:
424,178,128218,1,10,0:0:0:0:
389,362,128354,1,4,0:0:0:0:
378,357,128423,1,4,0:0:0:0:
368,352,128491,6,0,P|336:296|352:228,1,135.000005149842,10|4,0:0|0:0,0:0:0:0:
168,70,128764,2,0,P|200:126|184:194,1,135.000005149842,10|4,0:0|0:0,0:0:0:0:
56,148,129036,1,10,0:0:0:0:
284,96,129173,1,4,0:0:0:0:
216,320,129309,1,10,0:3:0:0:
56,148,129445,5,0,0:0:0:0:
60,140,129514,1,0,0:0:0:0:
64,132,129582,2,0,B|88:164|88:164|72:212,1,90,10|4,0:0|0:0,0:0:0:0:
280,308,129854,5,14,0:0:0:0:
332,300,129923,1,0,0:0:0:0:
384,292,129991,1,0,0:0:0:0:
436,284,130059,1,0,0:0:0:0:
488,276,130127,1,14,0:0:0:0:
464,244,130195,1,0,0:0:0:0:
440,212,130264,1,0,0:0:0:0:
416,180,130332,1,0,0:0:0:0:
392,148,130401,1,14,0:0:0:0:
380,172,130468,1,0,0:0:0:0:
368,196,130536,1,0,0:0:0:0:
356,220,130604,1,0,0:0:0:0:
344,244,130673,70,0,B|296:224|296:224|212:240,1,135.000005149842,10|4,0:0|0:0,0:0:0:0:
28,272,130945,1,10,0:0:0:0:
56,72,131082,1,4,0:0:0:0:
212,304,131218,1,10,0:0:0:0:
184,104,131355,1,4,0:0:0:0:
340,272,131491,1,10,0:0:0:0:
368,72,131628,1,4,0:0:0:0:
184,104,131764,6,0,P|168:148|208:220,1,135.000005149842,10|4,0:0|0:0,0:0:0:0:
388,193,131968,1,4,0:0:0:0:
393,188,132036,2,0,P|409:144|369:72,1,135.000005149842,10|4,0:0|0:0,0:0:0:0:
288,136,132241,1,4,0:0:0:0:
288,144,132309,2,0,B|284:188|284:188|308:224|308:224|304:272,1,135.000005149842,10|4,0:0|0:0,0:0:0:0:
294,370,132514,1,4,0:0:0:0:
293,380,132582,1,10,0:0:0:0:
80,252,132718,5,4,0:0:0:0:
84,220,132786,1,4,0:0:0:0:
88,188,132854,2,0,B|152:172|152:172|216:200,1,135.000005149842,10|4,0:0|0:0,0:0:0:0:
488,360,133127,2,0,B|424:376|424:376|360:348,1,135.000005149842,10|4,0:0|0:0,0:0:0:0:
472,100,133400,5,10,0:0:0:0:
432,296,133536,1,4,0:0:0:0:
288,144,133673,1,10,0:0:0:0:
328,340,133809,1,4,0:0:0:0:
184,104,133945,69,10,0:0:0:0:
144,296,134081,1,12,0:0:0:0:
0,144,134218,1,10,0:0:0:0:
40,340,134354,1,12,0:0:0:0:
300,268,134491,6,0,B|320:216|320:216|288:144,1,135.000005149842,10|4,0:0|0:0,0:0:0:0:
136,162,134695,1,4,0:0:0:0:
132,171,134764,2,0,B|112:223|112:223|144:295,1,135.000005149842,10|4,0:0|0:0,0:0:0:0:
214,228,134968,1,4,0:0:0:0:
216,220,135036,5,10,0:0:0:0:
184,104,135173,1,4,0:0:0:0:
300,268,135309,1,8,0:0:0:0:
332,152,135446,1,4,0:0:0:0:
226,302,135582,1,8,0:0:0:0:
221,309,135650,1,8,0:0:0:0:
216,316,135718,2,0,B|164:292|164:292|108:300,1,112.5,12|8,0:0|0:0,0:0:0:0:
28,168,135991,38,0,L|20:76,1,90,6|8,0:0|0:0,0:0:0:0:
132,171,136400,5,4,0:0:0:0:
40,284,136537,1,4,0:0:0:0:
216,316,136673,6,0,L|308:332,1,90,6|8,0:0|0:0,0:0:0:0:
384,244,137082,1,4,0:0:0:0:
304,160,137218,1,4,0:0:0:0:
496,128,137355,102,0,L|484:232,1,90,6|8,0:0|0:0,0:0:0:0:
384,244,137764,1,4,0:0:0:0:
336,168,137900,1,8,0:0:0:0:
372,100,138037,1,4,0:0:0:0:
432,88,138173,1,8,0:0:0:0:
472,116,138309,1,4,0:0:0:0:
476,152,138446,1,4,0:0:0:0:
464,172,138583,86,0,L|420:176,1,45,6|0,0:0|0:0,0:0:0:0:
384,244,138855,1,0,0:0:0:0:
336,168,138992,2,0,P|296:160|248:176,1,90,2|0,0:0|0:0,0:0:0:0:
300,240,139401,1,0,0:0:0:0:
192,216,139537,2,0,L|148:220,1,45,2|0,0:0|0:0,0:0:0:0:
72,360,139810,5,2,0:0:0:0:
156,376,139946,1,2,0:0:0:0:
172,292,140083,1,2,0:0:0:0:
88,276,140219,2,0,L|44:268,1,45,2|0,0:0|0:0,0:0:0:0:
240,340,140492,102,0,L|248:296,1,45,2|0,0:0|0:0,0:0:0:0:
192,216,140764,1,0,0:0:0:0:
272,168,140901,2,0,P|280:120|264:84,1,90,2|0,0:0|0:0,0:0:0:0:
208,132,141310,1,0,0:0:0:0:
336,204,141446,2,0,L|380:196,1,45,2|0,0:0|0:0,0:0:0:0:
208,132,141719,5,2,0:0:0:0:
124,116,141855,1,2,0:0:0:0:
108,200,141992,1,2,0:0:0:0:
192,216,142128,2,0,L|236:224,1,45,2|0,0:0|0:0,0:0:0:0:
344,24,142401,102,0,L|336:68,1,45,2|0,0:0|0:0,0:0:0:0:
400,136,142673,1,0,0:0:0:0:
336,204,142810,2,0,P|328:252|344:288,1,90,2|0,0:0|0:0,0:0:0:0:
411,239,143219,1,0,0:0:0:0:
272,328,143355,2,0,L|228:320,1,45,2|0,0:0|0:0,0:0:0:0:
92,148,143628,5,2,0:0:0:0:
176,132,143764,1,2,0:0:0:0:
192,216,143901,1,2,0:0:0:0:
108,232,144037,2,0,L|64:240,1,45,2|0,0:0|0:0,0:0:0:0:
272,328,144310,102,0,L|280:284,1,45,2|0,0:0|0:0,0:0:0:0:
348,220,144583,1,0,0:0:0:0:
272,168,144719,2,0,P|256:128|268:80,1,90,2|0,0:0|0:0,0:0:0:0:
352,120,145128,1,0,0:0:0:0:
192,216,145264,2,0,L|177:253,1,45,2|0,0:0|0:0,0:0:0:0:
192,216,145537,2,0,L|180:256,1,45,2|0,0:0|0:0,0:0:0:0:
192,216,145810,2,0,L|184:260,1,45,2|0,0:0|0:0,0:0:0:0:
272,328,146083,1,2,0:0:0:0:
440,188,146219,54,0,B|448:152|448:152|428:132|428:132|424:72,2,121.500000463486,10|4|4,0:0|0:0|0:0,0:0:0:0:
256,220,146628,2,0,B|260:260|260:260|244:288|244:288|272:328,2,121.500000463486,10|4|4,0:0|0:0|0:0,0:0:0:0:
212,40,147037,2,0,B|240:20|276:28|276:28|296:12|296:12|332:16,2,121.500000463486,10|4|4,0:0|0:0|0:0,0:0:0:0:
128,204,147446,2,0,B|96:208|68:220|68:220|44:204|44:204|12:196,2,121.500000463486,10|4|4,0:0|0:0|0:0,0:0:0:0:
344,284,147855,6,0,B|376:288|376:288|402:305|402:305|428:287|428:287|455:281,3,121.500000463486,10|4|4|4,0:0|0:0|0:0|0:0,0:0:0:0:
148,136,148400,6,0,B|135:103|135:103|150:78|150:78|132:53|129:19,2,121.500000463486,10|4|4,0:0|0:0|0:0,0:0:0:0:
352,136,148809,2,0,B|380:120|380:120|416:128|416:128|432:112|432:112|460:104,2,121.500000463486,10|4|4,0:0|0:0|0:0,0:0:0:0:
176,280,149219,2,0,B|144:284|144:284|120:300|120:300|88:296|60:272,2,121.500000463486,10|4|4,0:0|0:0|0:0,0:0:0:0:
408,316,149628,2,0,B|444:332|460:356|460:356|488:356|488:356|512:372,2,121.500000463486,10|4|4,0:0|0:0|0:0,0:0:0:0:
188,80,150037,5,8,0:3:0:0:
375,130,150173,1,8,0:3:0:0:
325,318,150309,1,8,0:3:0:0:
137,267,150446,1,8,0:3:0:0:
344,64,150582,70,0,P|396:60|436:88,1,103.500001974106,6|4,0:0|0:0,0:0:0:0:
272,124,150855,1,6,0:0:0:0:
400,288,150991,2,0,P|404:340|376:380,1,103.500001974106,4|10,0:0|0:0,0:0:0:0:
340,216,151264,1,4,0:0:0:0:
168,336,151400,2,0,P|116:340|76:312,1,103.500001974106,6|4,0:0|0:0,0:0:0:0:
240,276,151673,1,6,0:0:0:0:
112,112,151809,2,0,P|107:60|135:19,1,103.500001974106,8|6,0:0|0:0,0:0:0:0:
172,184,152082,1,4,0:0:0:0:
344,64,152219,6,0,B|380:60|380:60|407:67|407:67|440:48,3,103.500001974106,10|4|6|12,0:0|0:0|0:0|0:0,0:0:0:0:
200,260,152764,6,0,B|136:252|136:252|88:200|88:200|16:192,1,207.000003948212,6|6,0:0|0:0,0:0:0:0:
238,364,153173,1,4,0:0:0:0:
245,360,153241,1,4,0:0:0:0:
252,356,153309,2,0,B|273:307|273:307|307:271|307:271|282:227|282:227|280:173,1,207.000003948212,10|6,0:0|0:0,0:0:0:0:
384,232,153719,2,0,B|400:280|400:280|376:328,1,103.500001974106,4|6,0:0|0:0,0:0:0:0:
340,104,153991,2,0,B|324:56|324:56|348:8,1,103.500001974106,8|6,0:0|0:0,0:0:0:0:
299,233,154264,6,0,P|247:241|199:261,1,103.500001974106,4|8,0:0|0:0,0:0:0:0:
140,300,154491,1,4,0:0:0:0:
70,293,154581,1,8,0:0:0:0:
29,235,154673,1,4,0:0:0:0:
46,167,154763,1,8,0:0:0:0:
108,135,154854,1,4,0:0:0:0:
173,162,154946,69,6,0:0:0:0:
194,146,155014,1,0,2:0:0:0:
219,134,155082,1,0,2:0:0:0:
245,128,155150,1,0,2:0:0:0:
272,128,155219,2,0,L|280:72,1,53.9999983520508,10|0,0:0|2:0,0:0:0:0:
347,157,155355,2,0,L|339:100,1,53.9999983520508,4|0,0:0|2:0,0:0:0:0:
372,276,155491,5,2,2:3:0:0:
355,263,155559,1,0,2:0:0:0:
336,254,155627,1,4,0:0:0:0:
317,250,155695,1,0,2:0:0:0:
297,250,155764,2,0,L|289:193,1,53.9999983520508,10|0,0:0|2:0,0:0:0:0:
222,278,155900,2,0,L|229:221,1,53.9999983520508,4|0,0:0|2:0,0:0:0:0:
228,364,156037,5,2,2:3:0:0:
239,357,156105,1,0,2:0:0:0:
251,351,156173,1,4,0:0:0:0:
264,348,156241,1,0,2:0:0:0:
278,348,156309,1,10,0:0:0:0:
290,351,156377,1,0,2:0:0:0:
302,358,156446,6,0,B|360:348|360:348|396:304|396:304|456:296,1,175.499991966248,4|10,0:0|0:0,0:0:0:0:
455,296,157128,2,0,P|460:268|476:240,1,58.4999973220826,6|0,0:0|2:0,0:0:0:0:
344,198,157400,2,0,P|340:242|316:278,2,87.749995983124,10|0|4,0:0|2:0|0:0,0:0:0:0:
260,100,157946,2,0,B|212:96|180:124|180:124|132:136|96:104,1,175.499991966248,10|4,0:0|0:0,0:0:0:0:
336,76,158491,70,0,P|340:104|332:132,1,56.9999984779358,10|0,0:0|2:0,0:0:0:0:
272,172,158673,1,0,2:0:0:0:
240,176,158764,2,0,P|213:165|193:144,1,56.9999984779358,6|0,0:0|2:0,0:0:0:0:
189,72,158946,1,0,2:0:0:0:
201,42,159037,2,0,P|223:24|251:17,1,56.9999984779358,10|0,0:0|2:0,0:0:0:0:
317,51,159219,1,0,2:0:0:0:
336,76,159309,6,0,B|324:132|324:132|356:176|356:176|344:236,1,170.999995433807,6|10,0:0|0:0,0:0:0:0:
196,284,159719,1,4,0:0:0:0:
182,288,159787,1,0,2:0:0:0:
169,294,159855,1,2,2:3:0:0:
157,301,159923,1,0,2:0:0:0:
145,309,159991,1,4,0:0:0:0:
134,318,160059,1,0,2:0:0:0:
123,328,160128,2,0,P|108:324|80:320,3,42.7499988584519,10|0|4|0,0:0|2:0|0:0|2:0,0:0:0:0:
64,228,160400,2,0,P|79:232|107:236,3,42.7499988584519,2|0|4|0,2:3|2:0|0:0|2:0,0:0:0:0:
116,136,160673,5,10,0:0:0:0:
136,139,160741,1,0,2:0:0:0:
156,148,160809,1,0,2:0:0:0:
173,160,160877,1,0,2:0:0:0:
187,177,160946,2,0,P|208:172|236:168,1,47.2499985580445,6|0,0:0|2:0,0:0:0:0:
276,248,161082,2,0,P|296:253|324:256,1,47.2499985580445,4|0,0:0|2:0,0:0:0:0:
436,164,161219,5,10,0:0:0:0:
441,154,161287,1,0,2:0:0:0:
445,139,161355,1,0,2:0:0:0:
445,118,161423,1,0,2:0:0:0:
436,93,161491,1,6,0:0:0:0:
414,70,161559,1,0,2:0:0:0:
378,62,161628,1,0,2:0:0:0:
339,78,161696,1,0,2:0:0:0:
316,127,161764,70,0,B|296:148|296:148|264:156,1,60.7500002317429,10|0,0:0|2:0,0:0:0:0:
32,68,161900,1,4,0:0:0:0:
77,39,161968,1,0,2:0:0:0:
131,40,162036,1,2,2:3:0:0:
174,71,162104,1,0,2:0:0:0:
193,122,162173,2,0,B|184:148|184:148|188:180,1,56.25,4|0,0:0|2:0,0:0:0:0:
424,215,162309,1,10,0:0:0:0:
384,199,162377,1,0,2:0:0:0:
343,200,162445,1,4,0:0:0:0:
304,217,162513,1,0,2:0:0:0:
275,247,162582,6,0,P|208:232|288:204,1,202.500007724762,2|0,0:0|2:0,0:0:0:0:
324,300,162855,2,0,P|322:323|316:352,2,51.7500009870529,10|0|4,0:0|2:0|0:0,0:0:0:0:
139,244,163059,1,0,2:0:0:0:
136,224,163128,2,0,P|138:194|144:172,2,51.7500009870529,10|0|4,0:0|2:0|0:0,0:0:0:0:
319,55,163332,1,0,2:0:0:0:
322,75,163401,2,0,P|320:105|314:127,2,51.7500009870529,10|0|4,0:0|2:0|0:0,0:0:0:0:
192,325,163605,1,0,2:3:0:0:
184,332,163673,6,0,P|102:345|39:285,1,175.499991966248,10|4,0:0|0:0,0:0:0:0:
204,128,164219,2,0,P|256:191|236:276,1,175.499991966248,10|4,0:0|0:0,0:0:0:0:
17,212,164764,2,0,P|46:134|129:110,1,175.499991966248,10|4,0:0|0:0,0:0:0:0:
125,261,165309,5,10,0:0:0:0:
124,265,165355,1,0,2:0:0:0:
123,269,165400,2,0,L|115:297,3,26.9999991760254,0|4|0|0,2:0|0:0|2:0|2:0,0:0:0:0:
104,194,165582,69,6,0:0:0:0:
101,191,165628,1,0,2:0:0:0:
98,188,165673,2,0,L|77:167,3,26.9999991760254,0|4|0|0,2:0|0:0|2:0|2:0,0:0:0:0:
172,208,165855,5,10,0:0:0:0:
176,207,165900,1,0,2:0:0:0:
180,206,165946,2,0,L|208:198,3,26.9999991760254,0|4|0|0,2:0|0:0|2:0|2:0,0:0:0:0:
240,284,166128,5,2,2:3:0:0:
277,297,166196,1,0,2:0:0:0:
317,289,166264,1,4,0:0:0:0:
347,263,166332,1,0,2:0:0:0:
359,225,166400,5,10,0:0:0:0:
340,188,166469,1,0,2:0:0:0:
320,152,166537,1,4,0:0:0:0:
332,112,166605,1,0,2:0:0:0:
344,72,166673,70,0,L|384:64,1,40.4999987640381,0|0,2:0|2:0,0:0:0:0:
248,156,166809,2,0,L|208:148,1,40.4999987640381,4|0,0:0|2:0,0:0:0:0:
160,48,166946,5,10,0:0:0:0:
159,44,166991,1,0,2:0:0:0:
158,40,167037,2,0,L|152:11,3,26.9999991760254,0|4|0|0,2:0|2:3|2:0|2:0,0:0:0:0:
88,100,167219,5,2,2:3:0:0:
89,104,167264,1,0,2:0:0:0:
90,108,167310,2,0,L|96:137,3,26.9999991760254,0|4|0|0,2:0|2:3|2:0|2:0,0:0:0:0:
172,208,167491,6,0,L|180:260,1,51.7500009870529,8|0,0:0|2:0,0:0:0:0:
277,297,167628,2,0,L|269:245,1,51.7500009870529,8|0,0:0|2:0,0:0:0:0:
344,176,167764,2,0,L|352:228,1,51.7500009870529,8|0,0:0|2:0,0:0:0:0:
449,265,167901,2,0,L|441:213,1,51.7500009870529,8|0,0:0|2:0,0:0:0:0:
512,136,168037,69,6,0:0:0:0:
505,86,168105,1,0,2:0:0:0:
465,55,168173,1,0,2:0:0:0:
415,61,168241,1,0,2:0:0:0:
383,100,168309,1,10,0:0:0:0:
351,139,168377,1,0,2:0:0:0:
301,145,168445,1,4,0:0:0:0:
261,114,168513,1,0,2:0:0:0:
254,64,168582,6,0,P|264:40|280:20,1,51.7500009870529,2|0,2:3|2:0,0:0:0:0:
424,160,168719,1,4,0:0:0:0:
392,200,168787,1,0,2:0:0:0:
346,222,168855,1,10,0:0:0:0:
294,221,168923,1,0,2:0:0:0:
249,197,168991,6,0,P|224:184|200:176,1,51.7500009870529,4|0,0:0|2:0,0:0:0:0:
104,288,169128,1,2,2:3:0:0:
136,328,169196,1,0,2:0:0:0:
182,350,169264,1,4,0:0:0:0:
234,349,169332,1,0,2:0:0:0:
279,325,169400,6,0,P|304:312|328:304,1,51.7500009870529,10|0,0:0|2:0,0:0:0:0:
449,265,169537,1,0,2:0:0:0:
474,263,169605,1,0,2:0:0:0:
499,267,169673,2,0,P|500:238|505:214,1,51.7500009870529,6|0,0:0|2:0,0:0:0:0:
351,139,169809,1,4,0:0:0:0:
326,137,169877,1,0,2:0:0:0:
301,141,169945,70,0,P|299:112|294:88,1,51.7500009870529,10|0,0:0|2:0,0:0:0:0:
415,61,170082,2,0,P|416:89|421:113,1,51.7500009870529,0|0,2:0|2:0,0:0:0:0:
336,248,170219,5,6,0:0:0:0:
332,249,170264,1,0,2:0:0:0:
328,250,170309,2,0,L|292:258,3,34.5000006580353,0|0|0|0,2:0|2:0|2:0|2:0,0:0:0:0:
249,197,170491,2,0,P|221:189|193:185,1,51.7500009870529,10|0,0:0|2:0,0:0:0:0:
84,248,170628,5,4,0:0:0:0:
88,247,170673,1,0,2:0:0:0:
92,246,170718,2,0,L|128:238,3,34.5000006580353,0|2|0|0,2:0|2:3|2:0|2:0,0:0:0:0:
171,299,170900,2,0,P|199:307|227:311,1,51.7500009870529,4|0,0:0|2:0,0:0:0:0:
336,248,171037,6,0,L|344:212,2,34.5000006580353,10|0|0,0:0|2:0|2:0,0:0:0:0:
249,197,171173,2,0,L|241:161,2,34.5000006580353,4|0|0,0:0|2:0|2:0,0:0:0:0:
312,112,171309,70,0,P|332:108|376:104,1,58.4999973220826,2|0,2:3|2:0,0:0:0:0:
336,248,171446,2,0,P|340:268|344:312,1,58.4999973220826,4|0,0:0|2:0,0:0:0:0:
199,272,171582,6,0,P|180:275|136:280,1,58.4999973220826,10|0,0:0|2:0,0:0:0:0:
176,135,171719,2,0,P|172:116|168:72,1,58.4999973220826,4|0,0:0|2:0,0:0:0:0:
352,175,171855,6,0,P|369:186|403:214,1,58.4999973220826,6|0,0:0|2:0,0:0:0:0:
272,288,171992,2,0,P|261:305|233:339,1,58.4999973220826,4|0,0:0|2:0,0:0:0:0:
159,208,172128,6,0,P|142:197|108:169,1,58.4999973220826,10|0,0:0|2:0,0:0:0:0:
239,95,172264,2,0,P|250:78|278:44,1,58.4999973220826,4|0,0:0|2:0,0:0:0:0:
272,288,172400,70,0,B|216:300|216:300|160:284|160:284|96:296,2,180,6|10|6,0:0|0:0|0:0,0:0:0:0:
216,128,173764,2,0,B|202:170|202:170|218:214,1,90,4|10,0:0|0:0,0:0:0:0:
328,160,174173,2,0,L|284:168,2,45,0|0|4,0:0|0:0|0:0,0:0:0:0:
416,96,174582,6,0,P|420:52|392:16,2,90,2|4|10,0:0|0:0|0:0,0:0:0:0:
216,28,175400,1,4,0:0:0:0:
217,32,175469,1,4,0:0:0:0:
218,36,175537,1,4,0:0:0:0:
219,40,175605,1,4,0:0:0:0:
220,44,175673,6,0,B|200:56|200:56|152:52,1,72,6|0,0:0|0:0,0:0:0:0:
259,167,175946,2,0,B|279:155|279:155|327:159,1,72,0|4,0:0|0:0,0:0:0:0:
176,264,176219,2,0,L|104:272,1,72,10|4,0:0|0:0,0:0:0:0:
276,344,176491,2,0,L|348:336,1,72,0|4,0:0|0:0,0:0:0:0:
429,183,176764,6,0,P|345:151|257:167,2,180,6|10|6,0:0|0:0|0:0,0:0:0:0:
276,344,178128,2,0,B|260:300|260:300|276:260,1,90,4|10,0:0|0:0,0:0:0:0:
364,300,178537,1,4,0:0:0:0:
359,301,178605,1,4,0:0:0:0:
354,302,178673,1,4,0:0:0:0:
349,303,178741,1,4,0:0:0:0:
344,304,178809,1,4,0:0:0:0:
420,248,178946,70,0,P|440:288|428:336,2,90,6|4|10,0:0|0:0|0:0,0:0:0:0:
348,184,179628,2,0,L|356:92,1,90,4|4,0:0|0:0,0:0:0:0:
248,156,180037,6,0,B|212:164|212:164|180:152,1,72,6|0,0:0|0:0,0:0:0:0:
260,268,180309,2,0,B|296:260|296:260|328:272,1,72,0|4,0:0|0:0,0:0:0:0:
144,336,180582,2,0,P|120:328|96:324,2,48,10|4|4,0:0|0:0|0:0,0:0:0:0:
8,316,180855,2,0,L|4:248,1,67.5,6|0,0:0|2:0,0:0:0:0:
4,248,181128,6,0,P|88:248|136:172,2,180,6|10|6,0:0|0:0|0:0,0:0:0:0:
44,84,182491,2,0,P|60:124|48:168,1,90,4|10,0:0|0:0,0:0:0:0:
44,84,182900,2,0,L|48:40,2,45,0|0|4,0:0|0:0|0:0,0:0:0:0:
144,176,183309,6,0,B|176:184|176:184|232:172,2,90,6|4|10,0:0|0:0|0:0,0:0:0:0:
304,56,184128,1,4,0:0:0:0:
303,64,184196,1,4,0:0:0:0:
302,72,184264,1,4,0:0:0:0:
301,80,184332,1,4,0:0:0:0:
300,88,184400,70,0,P|332:96|368:84,1,72,6|0,0:0|0:0,0:0:0:0:
212,172,184673,2,0,P|180:164|144:176,1,72,0|4,0:0|0:0,0:0:0:0:
292,272,184946,2,0,B|328:276|328:276|364:264,1,72,10|4,0:0|0:0,0:0:0:0:
208,348,185219,2,0,B|172:344|172:344|136:356,1,72,0|4,0:0|0:0,0:0:0:0:
436,320,185491,6,0,P|448:244|384:172,2,180,6|10|6,0:0|0:0|0:0,0:0:0:0:
296,144,186855,2,0,B|308:102|308:102|299:58,1,90,4|10,0:0|0:0,0:0:0:0:
212,172,187264,1,4,0:0:0:0:
213,176,187332,1,4,0:0:0:0:
214,180,187400,1,4,0:0:0:0:
215,184,187469,1,4,0:0:0:0:
216,188,187537,1,4,0:0:0:0:
48,120,187673,6,0,P|92:108|132:124,1,90,6|4,0:0|0:0,0:0:0:0:
131,123,188219,2,0,L|140:168,1,45,10|4,0:0|0:0,0:0:0:0:
48,240,188491,6,0,L|40:276,1,33.7500012874604,8|0,0:0|0:0,0:0:0:0:
104,296,188628,2,0,L|96:332,1,33.7500012874604,4|0,0:0|0:0,0:0:0:0:
160,352,188764,69,8,0:0:0:0:
275,304,188900,1,8,0:0:0:0:
177,228,189037,1,8,0:0:0:0:
151,366,189173,1,8,0:0:0:0:
322,246,189309,5,8,0:3:0:0:
204,294,189445,1,8,0:3:0:0:
304,369,189582,1,8,0:3:0:0:
332,233,189718,1,4,0:3:0:0:
104,296,189855,5,8,0:0:0:0:
376,344,189991,1,8,0:0:0:0:
96,288,190128,1,8,0:0:0:0:
384,352,190264,38,0,P|428:356|472:368,1,90,6|4,0:0|0:0,0:0:0:0:
508,192,190672,37,10,0:0:0:0:
504,184,190809,1,4,0:0:0:0:
332,233,190945,1,10,0:0:0:0:
336,241,191082,1,4,0:0:0:0:
424,84,191218,1,10,0:0:0:0:
420,76,191355,1,4,0:0:0:0:
248,125,191491,1,10,0:0:0:0:
252,133,191628,1,4,0:0:0:0:
100,40,191763,5,10,0:0:0:0:
132,220,191900,1,4,0:0:0:0:
128,240,191968,1,4,0:0:0:0:
124,260,192036,1,10,0:0:0:0:
304,244,192172,1,6,0:0:0:0:
100,40,192309,1,10,0:0:0:0:
280,56,192445,54,0,B|326:60|326:60|364:36,1,90,6|4,0:0|0:0,0:0:0:0:
168,48,192854,69,10,0:0:0:0:
170,56,192990,1,4,0:0:0:0:
344,132,193127,1,10,0:0:0:0:
342,124,193263,1,4,0:0:0:0:
129,170,193400,1,10,0:0:0:0:
304,244,193536,1,4,0:0:0:0:
280,56,193672,6,0,L|274:12,1,45,10|0,0:0|2:0,0:0:0:0:
238,150,193809,1,4,0:0:0:0:
304,244,193945,1,10,0:0:0:0:
129,170,194081,1,4,0:0:0:0:
128,164,194150,1,4,0:0:0:0:
127,158,194218,69,8,0:0:0:0:
156,364,194354,1,8,0:0:0:0:
342,124,194490,1,8,0:0:0:0:
313,330,194627,70,0,B|268:336|268:336|232:308,1,90,6|4,0:0|0:0,0:0:0:0:
416,228,195036,53,10,0:0:0:0:
424,226,195172,1,4,0:0:0:0:
264,140,195309,1,10,0:0:0:0:
256,142,195445,1,4,0:0:0:0:
160,296,195581,1,10,0:0:0:0:
168,294,195717,1,4,0:0:0:0:
8,208,195854,1,10,0:0:0:0:
0,210,195990,1,4,0:0:0:0:
176,292,196127,5,10,0:0:0:0:
268,140,196263,1,4,0:0:0:0:
272,132,196331,1,4,0:0:0:0:
276,124,196400,1,10,0:0:0:0:
432,224,196536,1,6,0:0:0:0:
428,232,196604,1,4,0:0:0:0:
424,240,196673,1,8,0:0:0:0:
184,288,196809,38,0,B|164:248|164:248|176:204,1,90,6|4,0:0|0:0,0:0:0:0:
316,320,197218,85,10,0:0:0:0:
312,332,197354,1,4,0:0:0:0:
200,116,197490,1,10,0:0:0:0:
364,164,197627,1,4,0:0:0:0:
204,104,197763,1,4,0:0:0:0:
432,140,197900,69,10,0:0:0:0:
428,128,198036,1,4,0:0:0:0:
200,212,198172,1,10,0:0:0:0:
364,164,198309,1,4,0:0:0:0:
204,224,198445,1,4,0:0:0:0:
364,92,198581,5,8,0:0:0:0:
366,87,198650,1,8,0:0:0:0:
368,83,198718,1,8,0:0:0:0:
240,336,198854,1,8,0:0:0:0:
496,288,198990,54,0,B|504:244|504:244|484:204,1,90,6|4,0:0|0:0,0:0:0:0:
481,199,199331,69,4,0:0:0:0:
478,195,199400,1,10,0:0:0:0:
372,316,199536,1,4,0:0:0:0:
288,176,199672,1,10,0:0:0:0:
290,171,199740,1,4,0:0:0:0:
292,166,199809,1,4,0:0:0:0:
144,268,199945,5,10,0:0:0:0:
84,116,200081,1,4,0:0:0:0:
82,111,200150,1,4,0:0:0:0:
80,106,200218,1,10,0:0:0:0:
212,220,200354,1,4,0:0:0:0:
272,68,200490,1,10,0:0:0:0:
274,63,200559,1,4,0:0:0:0:
276,58,200627,1,4,0:0:0:0:
385,195,200763,69,10,0:0:0:0:
321,357,200900,1,6,0:0:0:0:
319,362,200969,1,4,0:0:0:0:
317,367,201036,1,8,0:0:0:0:
212,220,201172,70,0,B|256:204|256:204|300:216,1,90,6|8,0:0|0:0,0:0:0:0:
496,264,201581,53,6,0:0:0:0:
504,267,201718,1,4,0:0:0:0:
324,156,201854,5,8,0:0:0:0:
500,92,201990,1,6,0:0:0:0:
508,89,202127,1,4,0:0:0:0:
260,272,202263,5,8,0:0:0:0:
436,336,202399,1,6,0:0:0:0:
444,339,202536,1,4,0:0:0:0:
324,156,202672,70,0,L|328:112,1,45,8|8,0:0|0:0,0:0:0:0:
176,212,202809,2,0,L|172:256,1,45,8|8,0:0|0:0,0:0:0:0:
110,81,202945,1,8,0:0:0:0:
145,54,203013,1,4,0:0:0:0:
189,49,203081,1,8,0:0:0:0:
230,67,203149,1,4,0:0:0:0:
257,103,203218,1,8,0:0:0:0:
283,138,203286,1,8,0:0:0:0:
324,156,203354,1,4,0:0:0:0:
368,151,203422,1,4,0:0:0:0:
404,125,203490,6,0,B|416:92|416:92|400:36,1,90,6|10,0:0|0:0,0:0:0:0:
273,220,203762,1,4,0:0:0:0:
269,224,203830,1,4,0:0:0:0:
265,228,203899,2,0,P|233:220|177:212,1,90,10|4,0:0|0:0,0:0:0:0:
355,355,204171,2,0,P|387:347|443:339,1,90,10|4,0:0|0:0,0:0:0:0:
449,339,204376,1,4,0:0:0:0:
455,339,204444,6,0,B|436:296|436:296|440:252,1,90,10|4,0:0|0:0,0:0:0:0:
204,280,204717,2,0,B|223:323|223:323|219:367,1,90,10|4,0:0|0:0,0:0:0:0:
218,371,204921,1,4,0:0:0:0:
217,376,204990,1,10,0:0:0:0:
52,240,205126,1,4,0:0:0:0:
53,235,205195,1,4,0:0:0:0:
54,230,205262,1,10,0:0:0:0:
292,244,205399,6,0,P|304:284|288:328,1,90,6|10,0:0|0:0,0:0:0:0:
184,136,205671,1,4,0:0:0:0:
180,128,205740,1,4,0:0:0:0:
176,120,205808,2,0,P|184:84|192:32,1,90,10|4,0:0|0:0,0:0:0:0:
367,259,206080,2,0,P|359:295|351:347,1,90,10|4,0:0|0:0,0:0:0:0:
355,355,206285,1,4,0:0:0:0:
359,363,206353,70,0,B|404:352|404:352|448:360,1,90,10|4,0:0|0:0,0:0:0:0:
352,168,206626,2,0,B|307:179|307:179|263:171,1,90,10|4,0:0|0:0,0:0:0:0:
255,169,206830,1,4,0:0:0:0:
246,167,206899,1,10,0:0:0:0:
460,112,207035,1,4,0:0:0:0:
468,114,207103,1,4,0:0:0:0:
476,116,207171,1,10,0:0:0:0:
367,259,207308,1,4,0:0:0:0:
359,257,207376,1,4,0:0:0:0:
351,255,207444,1,10,0:0:0:0:
300,36,207581,6,0,P|344:24|388:32,1,90,6|10,0:0|0:0,0:0:0:0:
188,132,207853,1,4,0:0:0:0:
180,128,207921,1,4,0:0:0:0:
172,124,207990,2,0,P|132:136|84:144,1,90,10|4,0:0|0:0,0:0:0:0:
180,296,208262,2,0,P|224:288|267:276,1,90,10|4,0:0|0:0,0:0:0:0:
276,272,208467,1,4,0:0:0:0:
284,268,208535,6,0,B|276:312|276:312|292:356,1,90,10|4,0:0|0:0,0:0:0:0:
384,168,208808,2,0,B|392:124|392:124|376:80,1,90,10|4,0:0|0:0,0:0:0:0:
372,72,209012,1,4,0:0:0:0:
368,64,209081,1,10,0:0:0:0:
220,204,209217,1,4,0:0:0:0:
216,212,209285,1,4,0:0:0:0:
212,220,209353,1,10,0:0:0:0:
88,88,209490,6,0,B|100:48|100:48|88:0,1,90,6|10,0:0|0:0,0:0:0:0:
32,228,209762,1,4,0:0:0:0:
28,236,209831,1,4,0:0:0:0:
24,244,209899,2,0,B|60:240|60:240|112:256,1,90,10|4,0:0|0:0,0:0:0:0:
264,128,210171,2,0,B|228:132|228:132|176:116,1,90,10|4,0:0|0:0,0:0:0:0:
167,113,210376,1,4,0:0:0:0:
158,110,210444,70,0,L|168:200,1,90,10|4,0:0|0:0,0:0:0:0:
362,162,210717,2,0,L|352:72,1,90,10|4,0:0|0:0,0:0:0:0:
360,68,210921,1,4,0:0:0:0:
368,64,210990,5,10,0:0:0:0:
316,348,211126,1,6,0:0:0:0:
264,128,211262,1,8,0:0:0:0:
318,361,211399,1,0,0:0:0:0:
362,162,211535,1,8,0:0:0:0:
320,374,211672,5,6,0:0:0:0:
311,371,211740,1,4,0:0:0:0:
302,368,211808,1,10,0:0:0:0:
293,365,211876,1,4,0:0:0:0:
284,362,211944,1,4,0:0:0:0:
275,359,212012,1,4,0:0:0:0:
266,356,212081,1,10,0:0:0:0:
266,356,212353,5,10,0:0:0:0:
270,348,212422,1,4,0:0:0:0:
274,340,212490,1,4,0:0:0:0:
278,332,212558,1,4,0:0:0:0:
282,324,212626,1,10,0:0:0:0:
282,324,212899,69,10,0:0:0:0:
278,316,212967,1,4,0:0:0:0:
274,308,213035,1,4,0:0:0:0:
360,192,213172,1,10,0:0:0:0:
216,192,213308,1,4,0:0:0:0:
212,184,213376,1,4,0:0:0:0:
208,176,213444,1,10,0:0:0:0:
302,76,213581,1,4,0:0:0:0:
298,68,213649,1,4,0:0:0:0:
294,60,213717,1,10,0:0:0:0:
150,60,213853,5,6,0:0:0:0:
141,63,213922,1,4,0:0:0:0:
132,66,213990,1,10,0:0:0:0:
123,69,214058,1,4,0:0:0:0:
114,72,214126,1,4,0:0:0:0:
105,75,214194,1,4,0:0:0:0:
96,78,214262,1,10,0:0:0:0:
96,78,214535,5,10,0:0:0:0:
100,86,214603,1,4,0:0:0:0:
104,94,214672,1,4,0:0:0:0:
108,102,214740,1,4,0:0:0:0:
112,110,214808,1,10,0:0:0:0:
112,110,215081,5,10,0:0:0:0:
108,118,215149,1,4,0:0:0:0:
104,126,215217,1,4,0:0:0:0:
200,232,215353,1,10,0:0:0:0:
56,236,215490,1,4,0:0:0:0:
52,244,215558,1,4,0:0:0:0:
48,252,215626,1,10,0:0:0:0:
144,358,215762,1,4,0:0:0:0:
140,366,215830,1,4,0:0:0:0:
136,374,215898,1,10,0:0:0:0:
291,359,216035,69,6,0:0:0:0:
299,357,216103,1,4,0:0:0:0:
307,355,216172,1,10,0:0:0:0:
315,353,216240,1,4,0:0:0:0:
323,351,216308,1,4,0:0:0:0:
331,349,216376,1,4,0:0:0:0:
339,347,216444,1,10,0:0:0:0:
339,347,216717,5,10,0:0:0:0:
334,339,216785,1,4,0:0:0:0:
329,331,216853,1,4,0:0:0:0:
324,323,216922,1,4,0:0:0:0:
319,315,216990,1,10,0:0:0:0:
319,315,217262,5,10,0:0:0:0:
321,306,217331,1,4,0:0:0:0:
323,297,217399,1,4,0:0:0:0:
208,212,217535,1,10,0:0:0:0:
348,176,217672,1,4,0:0:0:0:
350,167,217741,1,4,0:0:0:0:
352,158,217808,1,10,0:0:0:0:
237,73,217944,1,4,0:0:0:0:
239,64,218013,1,4,0:0:0:0:
241,55,218080,1,10,0:0:0:0:
380,16,218217,5,6,0:0:0:0:
388,18,218285,1,4,0:0:0:0:
396,20,218353,1,10,0:0:0:0:
404,22,218422,1,4,0:0:0:0:
412,24,218490,1,4,0:0:0:0:
420,26,218558,1,4,0:0:0:0:
428,28,218626,1,10,0:0:0:0:
428,28,218899,69,10,0:0:0:0:
422,35,218967,1,4,0:0:0:0:
416,42,219035,1,4,0:0:0:0:
410,49,219103,1,4,0:0:0:0:
404,56,219172,2,0,B|416:92|416:92|392:140,1,90,10|6,0:0|0:0,0:0:0:0:
208,212,219444,2,0,B|196:176|196:176|220:128,1,90,10|4,0:0|0:0,0:0:0:0:
400,300,219717,5,8,0:0:0:0:
180,344,219853,1,8,0:0:0:0:
410,297,219990,1,8,0:0:0:0:
132,224,220126,1,8,0:0:0:0:
420,294,220262,1,8,0:0:0:0:
180,104,220400,70,0,L|168:12,1,90,6|4,0:0|0:0,0:0:0:0:
288,144,220809,1,10,0:0:0:0:
132,224,220945,2,0,L|144:316,2,90,4|6|4,0:0|0:0|0:0,0:0:0:0:
116,64,221627,1,10,0:0:0:0:
288,144,221763,6,0,L|380:132,2,90,4|6|4,0:0|0:0|0:0,0:0:0:0:
416,272,222445,1,10,0:0:0:0:
504,116,222581,2,0,L|492:24,2,90,4|6|4,0:0|0:0|0:0,0:0:0:0:
352,208,223263,1,10,0:0:0:0:
224,80,223400,1,6,0:0:0:0:
480,336,223672,101,6,0:0:0:0:
224,80,223945,1,4,0:0:0:0:
156,196,224081,1,10,0:0:0:0:
268,272,224218,2,0,L|288:360,2,90,4|6|4,0:0|0:0|0:0,0:0:0:0:
336,156,224900,1,10,0:0:0:0:
224,80,225036,6,0,L|136:96,2,90,4|6|4,0:0|0:0|0:0,0:0:0:0:
336,156,225718,1,10,0:0:0:0:
268,272,225854,1,4,0:0:0:0:
156,196,225990,1,8,0:0:0:0:
412,112,226127,6,0,P|430:166|389:226,1,135,6|0,0:0|2:0,0:0:0:0:
260,196,226400,2,0,P|241:141|282:81,1,135,6|0,0:0|2:0,0:0:0:0:
336,156,226672,2,0,L|312:288,1,135,10|4,0:0|2:0,0:0:0:0:
228,336,226945,102,0,P|184:324|160:320,2,67.5000025749208,6|4|4,0:0|0:0|0:0,0:0:0:0:
156,196,227354,2,0,P|200:208|224:212,2,67.5000025749208,10|4|4,0:0|0:0|0:0,0:0:0:0:
329,280,227763,2,0,P|373:268|397:264,2,67.5000025749208,6|4|4,0:0|0:0|0:0,0:0:0:0:
401,140,228172,2,0,P|357:152|333:156,2,67.5000025749208,10|4|4,0:0|0:0|0:0,0:0:0:0:
208,76,228581,101,6,0:0:0:0:
128,112,228718,2,0,L|120:44,1,67.5000025749208,4|4,0:0|0:0,0:0:0:0:
313,171,228990,1,10,0:0:0:0:
393,207,229127,2,0,L|401:139,1,67.5000025749208,4|4,0:0|0:0,0:0:0:0:
152,244,229400,1,6,0:0:0:0:
116,324,229537,2,0,L|184:332,1,67.5000025749208,4|4,0:0|0:0,0:0:0:0:
357,127,229809,1,10,0:0:0:0:
393,207,229946,2,0,L|325:215,1,67.5000025749208,4|4,0:0|0:0,0:0:0:0:
128,112,230218,6,0,P|116:84|112:44,2,67.5000025749208,6|4|4,0:0|0:0|0:0,0:0:0:0:
384,272,230627,2,0,P|396:300|400:340,2,67.5000025749208,10|4|4,0:0|0:0|0:0,0:0:0:0:
336,64,231036,2,0,P|364:52|404:47,2,67.5000025749208,6|4|4,0:0|0:0|0:0,0:0:0:0:
176,320,231445,2,0,P|148:332|108:336,2,67.5000025749208,10|4|4,0:0|0:0|0:0,0:0:0:0:
340,128,231854,101,6,0:0:0:0:
380,206,231990,2,0,P|388:238|384:274,1,67.5000025749208,4|4,0:0|0:0,0:0:0:0:
176,320,232263,1,10,0:0:0:0:
136,242,232399,2,0,P|128:210|132:174,1,67.5000025749208,4|4,0:0|0:0,0:0:0:0:
340,128,232672,37,8,0:0:0:0:
176,320,232809,1,8,0:0:0:0:
92,82,232945,1,8,0:0:0:0:
313,271,233081,101,8,0:0:0:0:
65,225,233218,1,8,0:0:0:0:
229,33,233354,1,8,0:0:0:0:
176,320,233490,53,6,0:0:0:0:
229,33,234308,5,6,0:0:0:0:
176,320,235126,101,6,0:0:0:0:
229,33,235944,5,6,0:0:0:0:
176,320,236762,5,6,0:0:0:0:
229,33,237171,5,6,0:0:0:0:
176,320,237580,101,6,0:0:0:0:
229,33,237990,5,6,0:0:0:0:
177,320,238399,5,8,0:0:0:0:
172,322,238467,1,8,0:0:0:0:
163,323,238535,1,8,0:0:0:0:
149,326,238603,1,8,0:0:0:0:
131,325,238671,1,4,0:0:0:0:
109,319,238739,1,4,0:0:0:0:
85,305,238808,1,8,0:0:0:0:
64,281,238876,1,4,0:0:0:0:
51,247,238944,1,8,0:0:0:0:
53,206,239012,1,4,0:0:0:0:
74,166,239080,1,4,0:0:0:0:
116,139,239149,1,4,0:0:0:0:
169,138,239217,1,8,0:0:0:0:
218,168,239285,1,4,0:0:0:0:
249,222,239353,1,4,0:0:0:0:
305,258,239421,1,4,0:0:0:0:
375,246,239489,6,0,B|400:208|400:208|388:120,1,135.000005149842,10|4,0:0|0:0,0:0:0:0:
144,228,239762,2,0,B|119:190|119:190|131:102,1,135.000005149842,10|4,0:0|0:0,0:0:0:0:
372,36,240035,1,10,0:0:0:0:
270,262,240171,1,4,0:0:0:0:
140,16,240308,1,10,0:0:0:0:
273,266,240444,5,4,0:0:0:0:
276,270,240512,1,0,0:0:0:0:
279,274,240580,2,0,P|321:256|375:246,1,101.250003862381,10|0,0:0|2:0,0:0:0:0:
375,246,240853,6,0,P|405:168|341:78,1,202.500007724762,10|0,0:0|2:0,0:0:0:0:
147,122,241126,2,0,P|116:199|180:289,1,202.500007724762,10|0,0:0|2:0,0:0:0:0:
279,274,241399,2,0,B|287:206|287:206|243:154|243:154|251:86,1,202.500007724762,10|0,0:0|2:0,0:0:0:0:
474,248,241671,70,0,B|454:312|454:312|394:344,1,135.000005149842,10|4,0:0|0:0,0:0:0:0:
100,72,241944,1,10,0:0:0:0:
116,248,242080,1,4,0:0:0:0:
295,98,242217,1,10,0:0:0:0:
279,274,242353,1,4,0:0:0:0:
458,72,242489,1,10,0:0:0:0:
474,248,242625,1,4,0:0:0:0:
196,328,242762,6,0,P|176:268|208:208,1,135.000005149842,10|4,0:0|0:0,0:0:0:0:
355,219,242967,1,4,0:0:0:0:
360,224,243035,2,0,P|380:284|348:344,1,135.000005149842,10|4,0:0|0:0,0:0:0:0:
281,281,243239,1,4,0:0:0:0:
279,274,243308,2,0,B|272:228|272:228|292:192|292:192|284:144,1,135.000005149842,10|4,0:0|0:0,0:0:0:0:
268,56,243512,1,4,0:0:0:0:
266,46,243580,1,10,0:0:0:0:
124,192,243717,5,4,0:0:0:0:
92,200,243785,1,4,0:0:0:0:
60,208,243853,2,0,B|24:156|24:156|36:84,1,135.000005149842,10|4,0:0|0:0,0:0:0:0:
360,224,244126,2,0,B|396:172|396:172|384:100,1,135.000005149842,10|4,0:0|0:0,0:0:0:0:
128,360,244399,5,10,0:0:0:0:
108,120,244535,1,4,0:0:0:0:
268,336,244671,1,10,0:0:0:0:
288,96,244807,1,4,0:0:0:0:
448,360,244944,69,10,0:0:0:0:
428,120,245080,1,4,0:0:0:0:
232,256,245217,1,10,0:0:0:0:
448,360,245353,1,4,0:0:0:0:
480,352,245421,1,4,0:0:0:0:
512,344,245489,6,0,B|496:300|496:300|504:268|504:268|484:216,1,135.000005149842,10|4,0:0|0:0,0:0:0:0:
308,200,245694,1,4,0:0:0:0:
292,204,245762,2,0,B|308:248|308:248|300:280|300:280|320:332,1,135.000005149842,10|4,0:0|0:0,0:0:0:0:
108,340,245967,1,4,0:0:0:0:
92,336,246035,5,10,0:0:0:0:
205,203,246171,1,12,0:0:0:0:
264,368,246308,1,10,0:0:0:0:
128,108,246444,5,12,0:0:0:0:
180,312,246580,1,10,0:0:0:0:
136,112,246717,1,12,0:0:0:0:
188,316,246853,1,10,0:0:0:0:
333,167,246989,1,12,0:0:0:0:
64,200,247126,70,0,B|60:232|60:232|76:264,1,67.5000025749208,8|8,0:0|0:0,0:0:0:0:
268,224,247262,2,0,B|272:192|272:192|256:160,1,67.5000025749208,8|8,0:0|0:0,0:0:0:0:
188,316,247399,1,4,0:0:0:0:
223,350,247467,1,4,0:0:0:0:
272,358,247535,1,8,0:0:0:0:
318,339,247603,1,4,0:0:0:0:
345,297,247671,1,8,0:0:0:0:
373,256,247739,1,4,0:0:0:0:
419,237,247807,1,4,0:0:0:0:
468,246,247875,1,4,0:0:0:0:
504,281,247943,1,10,0:0:0:0:
333,167,248080,1,4,0:0:0:0:
328,152,248149,1,4,0:0:0:0:
324,140,248217,6,0,B|384:112|384:112|456:128,1,135.000005149842,10|4,0:0|0:0,0:0:0:0:
191,213,248489,2,0,B|131:185|131:185|59:201,1,135.000005149842,10|4,0:0|0:0,0:0:0:0:
345,297,248762,1,10,0:0:0:0:
200,120,248899,1,4,0:0:0:0:
120,335,249035,1,10,0:0:0:0:
345,297,249171,5,4,0:0:0:0:
357,293,249239,1,4,0:0:0:0:
369,289,249308,5,10,0:0:0:0:
373,267,249376,1,0,0:0:0:0:
379,245,249444,1,0,0:0:0:0:
386,223,249512,1,0,0:0:0:0:
394,202,249580,1,10,0:0:0:0:
338,206,249648,1,0,0:0:0:0:
284,192,249716,1,0,0:0:0:0:
236,162,249784,1,0,0:0:0:0:
200,120,249853,1,10,0:0:0:0:
209,152,249921,1,0,0:0:0:0:
217,185,249989,1,0,0:0:0:0:
223,218,250057,1,0,0:0:0:0:
257,231,250126,1,10,0:0:0:0:
248,256,250194,1,0,0:0:0:0:
241,282,250262,1,0,0:0:0:0:
236,309,250330,1,0,0:0:0:0:
202,315,250399,70,0,P|268:336|320:376,1,135.000005149842,10|4,0:0|0:0,0:0:0:0:
472,92,250671,1,10,0:0:0:0:
444,292,250808,1,4,0:0:0:0:
272,64,250944,1,10,0:0:0:0:
300,264,251081,1,4,0:0:0:0:
128,92,251217,1,10,0:0:0:0:
100,292,251354,1,4,0:0:0:0:
300,264,251489,6,0,P|312:200|276:144,1,135.000005149842,10|4,0:0|0:0,0:0:0:0:
80,166,251694,1,4,0:0:0:0:
76,172,251762,2,0,P|64:236|100:292,1,135.000005149842,10|4,0:0|0:0,0:0:0:0:
194,279,251967,1,4,0:0:0:0:
195,272,252035,2,0,B|199:228|199:228|175:192|175:192|181:144,1,135.000005149842,10|4,0:0|0:0,0:0:0:0:
193,44,252240,1,4,0:0:0:0:
195,31,252308,1,10,0:0:0:0:
436,212,252444,5,4,0:0:0:0:
432,244,252512,1,4,0:0:0:0:
428,276,252580,2,0,B|364:292|364:292|300:264,1,135.000005149842,10|4,0:0|0:0,0:0:0:0:
19,97,252853,2,0,B|83:81|83:81|147:109,1,135.000005149842,10|4,0:0|0:0,0:0:0:0:
36,368,253126,5,10,0:0:0:0:
76,172,253262,1,4,0:0:0:0:
220,324,253399,1,10,0:0:0:0:
180,128,253535,1,4,0:0:0:0:
324,364,253671,69,10,0:0:0:0:
364,172,253807,1,12,0:0:0:0:
508,324,253944,1,10,0:0:0:0:
468,128,254080,1,12,0:0:0:0:
205,198,254217,6,0,B|189:262|189:262|221:326,1,135.000005149842,10|4,0:0|0:0,0:0:0:0:
376,308,254421,1,4,0:0:0:0:
379,298,254489,2,0,B|395:234|395:234|363:170,1,135.000005149842,10|4,0:0|0:0,0:0:0:0:
296,239,254694,1,4,0:0:0:0:
292,248,254762,5,10,0:0:0:0:
324,364,254899,1,4,0:0:0:0:
205,198,255035,1,10,0:0:0:0:
166,337,255172,1,4,0:0:0:0:
335,136,255308,1,10,0:0:0:0:
379,298,255445,1,4,0:0:0:0:
166,337,255580,5,10,0:0:0:0:
379,298,255717,1,4,0:0:0:0:
136,168,255853,1,10,0:0:0:0:
349,207,255990,1,4,0:0:0:0:
166,77,256126,1,10,0:0:0:0:
379,38,256263,1,4,0:0:0:0:
244,192,256399,22,0,P|200:180|136:168,1,109.79999547638,10|8,0:0|0:0,0:0:0:0:
166,337,256807,5,8,0:0:0:0:
349,207,256943,1,8,0:0:0:0:
156,344,257080,6,0,P|112:348|64:356,1,90,6|8,0:0|0:0,0:0:0:0:
136,168,257489,1,8,0:0:0:0:
349,207,257625,1,8,0:0:0:0:
124,164,257761,102,0,P|80:176|36:184,1,90,6|8,0:0|0:0,0:0:0:0:
160,72,258171,1,4,0:0:0:0:
223,160,258307,1,8,0:0:0:0:
186,242,258443,1,4,0:0:0:0:
117,264,258580,1,8,0:0:0:0:
66,244,258716,1,4,0:0:0:0:
41,217,258852,1,4,0:0:0:0:
34,200,258989,1,4,0:0:0:0:
124,164,259126,6,0,B|138:210|138:210|123:255|123:255|138:301,1,144,4|0,0:0|0:0,0:0:0:0:
