osu file format v14

[General]
AudioFilename: audio.mp3
AudioLeadIn: 0
PreviewTime: 118605
Countdown: 0
SampleSet: None
StackLeniency: 0.7
Mode: 0
LetterboxInBreaks: 0
WidescreenStoryboard: 0

[Editor]
Bookmarks: 12580,28945,37673,54034,69173,85401,102856,119764,135991,146219,154946,172400,190264,203490,220400,233490,239489,256671,259126
DistanceSpacing: 0.8
BeatDivisor: 4
GridSize: 4
TimelineZoom: 3.699998

[Metadata]
Title:Hartmann no Youkai Shoujo ~ Todestrieb und Lebenstrieb
TitleUnicode:ハルトマンの妖怪少女 ~ Todestrieb und Lebenstrieb
Artist:Demetori
ArtistUnicode:Demetori
Creator:celerih
Version:Extra Stage
Source:東方地霊殿 ~ Subterranean Animism.
Tags:thicc bish GoldenWolf woof 古明地 こいし Koishi Komeji Extra Stage Theme Hartmann's Youkai Girl Lebenstrieb & Todestrieb Djent C91 Comiket 91 ZUN
BeatmapID:1939636
BeatmapSetID:928647

[Difficulty]
HPDrainRate:5
CircleSize:4.4
OverallDifficulty:8.5
ApproachRate:9.4
SliderMultiplier:1.8
SliderTickRate:1

[Events]
//Background and Video events
0,0,"Demetori Hartmann BG.jpg",0,0
//Break Periods
2,138782,145665
//Storyboard Layer 0 (Background)
//Storyboard Layer 1 (Fail)
//Storyboard Layer 2 (Pass)
//Storyboard Layer 3 (Foreground)
//Storyboard Sound Samples

[TimingPoints]
4672,272.727272727273,7,2,1,10,1,0
4672,-250,7,2,1,10,0,0
11490,272.727272727273,4,3,4,100,1,0
12581,272.727272727273,7,3,2,70,1,0
12581,-125,7,3,2,70,0,0
14490,-125,7,3,2,100,0,0
14558,-125,7,3,2,70,0,0
16399,-125,7,3,3,70,0,0
16672,272.727272727273,7,3,2,70,1,0
16672,-125,7,3,2,70,0,0
18581,-125,7,3,2,100,0,0
18649,-125,7,3,2,70,0,0
20490,-125,7,3,3,100,0,0
20763,272.727272727273,7,3,2,70,1,0
20763,-125,7,3,2,70,0,0
22672,-125,7,3,2,100,0,0
22740,-125,7,3,2,70,0,0
24581,-125,7,3,3,70,0,0
24854,272.727272727273,7,3,2,70,1,0
24854,-125,7,3,2,70,0,0
26763,-125,7,3,2,100,0,0
26831,-125,7,3,2,70,0,0
28808,-100,7,3,2,85,0,0
28945,272.727272727273,4,3,4,70,1,0
29217,-166.666666666667,4,3,4,70,0,0
30717,-100,4,3,3,70,0,0
30990,-125,4,3,7,70,0,0
31263,-100,4,3,4,70,0,0
33172,-100,4,3,7,70,0,0
33445,-100,4,3,4,70,0,0
33581,-166.666666666667,4,3,4,70,0,0
35081,-100,4,3,3,70,0,0
35354,-125,4,3,7,70,0,0
35626,-100,4,3,4,70,0,0
35763,-166.666666666667,4,3,4,70,0,0
36581,-100,4,3,1,85,0,0
36990,-100,4,3,12,85,0,0
37126,-100,4,3,11,85,0,0
37263,-100,4,3,1,85,0,0
37399,-100,4,3,10,85,0,0
37673,272.727272727273,7,3,1,100,1,0
37673,-125,7,3,1,70,0,0
37809,-125,7,3,2,70,0,0
41423,-125,7,3,2,55,0,0
41491,-125,7,3,2,70,0,0
41763,272.727272727273,7,3,2,85,1,0
41763,-125,7,3,2,70,0,0
41899,-125,7,3,2,70,0,0
45308,-125,7,3,2,85,0,0
45444,-125,7,3,12,85,0,0
45581,-125,7,3,11,85,0,0
45717,-125,7,3,10,85,0,0
45854,272.727272727273,7,3,1,100,1,0
45854,-125,7,3,1,70,0,0
45990,-125,7,3,2,70,0,0
49535,-125,7,3,2,85,0,0
49944,272.727272727273,7,3,1,100,1,0
49944,-125,7,3,1,70,0,0
50080,-125,7,3,2,70,0,0
52262,-125,7,3,7,70,0,0
52944,-125,7,3,2,70,0,0
53216,-125,7,3,3,70,0,0
53489,-125,7,3,1,85,0,0
54035,272.727272727273,4,3,2,70,1,0
54035,-166.666666666667,4,3,2,70,0,0
54171,-166.666666666667,4,3,5,70,0,0
58125,-166.666666666667,4,3,5,70,0,0
58398,-166.666666666667,4,3,1,85,0,0
58535,272.727272727273,4,3,1,85,1,0
58535,-166.666666666667,4,3,1,70,0,0
58671,-166.666666666667,4,3,5,70,0,0
62626,272.727272727273,3,3,5,70,1,0
62626,-166.666666666667,3,3,5,70,0,0
62898,-166.666666666667,3,3,5,70,0,0
63445,272.727272727273,4,3,2,100,1,0
63445,-166.666666666667,4,3,2,70,0,0
63581,-166.666666666667,4,3,5,70,0,0
67263,-166.666666666667,4,3,4,70,0,0
67535,272.727272727273,6,3,1,100,1,0
67535,-166.666666666667,6,3,1,100,0,0
67671,-166.666666666667,6,2,3,5,0,0
67944,-166.666666666667,6,3,2,100,0,0
68080,-166.666666666667,6,2,3,5,0,0
68353,-166.666666666667,6,3,3,100,0,0
68489,-166.666666666667,6,2,3,5,0,0
68762,-166.666666666667,6,3,2,100,0,0
68898,-100,6,2,2,5,0,0
69173,272.727272727273,4,3,1,100,1,0
69173,-125,4,3,1,70,0,0
69309,-125,4,3,12,85,0,0
69445,-125,4,3,11,85,0,0
69582,-125,4,3,4,85,0,0
69854,-125,4,3,10,85,0,0
70127,-125,4,3,2,85,0,0
70263,-125,4,3,11,85,0,0
70536,-125,4,3,4,85,0,0
70673,-125,4,3,10,85,0,0
70809,-125,4,3,4,85,0,0
70945,-125,4,3,10,85,0,0
71218,-125,4,3,2,85,0,0
71354,-125,4,3,11,85,0,0
71491,-125,4,3,10,85,0,0
71627,-125,4,3,4,85,0,0
71763,-125,4,3,10,85,0,0
71900,-125,4,3,4,85,0,0
72036,-125,4,3,10,85,0,0
72173,-125,4,3,3,85,0,0
72309,-125,4,3,10,85,0,0
72854,-125,4,3,4,85,0,0
73127,-125,4,3,10,85,0,0
73263,-125,4,3,4,85,0,0
73536,-125,4,3,1,100,0,0
73673,272.727272727273,4,3,1,100,1,0
73673,-125,4,3,1,70,0,0
73809,-125,4,3,12,85,0,0
74082,-125,4,3,4,85,0,0
74354,-125,4,3,10,85,0,0
74627,-125,4,3,2,85,0,0
74763,-125,4,3,11,85,0,0
75036,-125,4,3,4,85,0,0
75173,-125,4,3,10,85,0,0
75309,-125,4,3,4,85,0,0
75445,-125,4,3,10,85,0,0
75718,-125,4,3,2,85,0,0
75854,-125,4,3,11,85,0,0
76127,-125,4,3,4,85,0,0
76263,-125,4,3,10,85,0,0
76400,-125,4,3,4,85,0,0
76536,-125,4,3,10,85,0,0
76673,-125,4,3,3,85,0,0
76809,-125,4,3,12,85,0,0
76945,-125,4,3,11,85,0,0
77218,-125,4,3,10,85,0,0
77354,-125,4,3,4,85,0,0
77627,-125,4,3,10,85,0,0
77764,272.727272727273,3,3,2,100,1,0
77764,-125,3,3,2,100,0,0
78036,-125,3,3,10,85,0,0
78173,-125,3,3,3,100,0,0
78445,-125,3,3,10,85,0,0
78583,272.727272727273,4,3,1,100,1,0
78583,-125,4,3,1,100,0,0
78719,-125,4,3,1,85,0,0
78992,-125,4,3,4,85,0,0
79537,-125,4,3,2,85,0,0
79946,-125,4,3,4,85,0,0
80628,-125,4,3,3,85,0,0
81037,-125,4,3,4,85,0,0
81583,-125,4,3,7,85,0,0
81719,-125,4,3,12,85,0,0
81855,-125,4,3,11,85,0,0
81992,-125,4,3,10,85,0,0
82128,-125,4,3,4,85,0,0
82674,272.727272727273,6,3,1,100,1,0
82674,-166.666666666667,6,3,1,100,0,0
83083,-125,6,3,2,100,0,0
83492,-100,6,3,1,100,0,0
83901,-100,6,3,3,100,0,0
84311,272.727272727273,4,3,4,85,1,0
85401,272.727272727273,8,3,1,100,1,0
85401,-500,8,3,1,100,0,0
85469,-500,8,3,1,5,0,0
87582,-500,8,3,2,100,0,0
87651,-500,8,3,2,5,0,0
88946,-500,8,3,2,100,0,0
89491,-500,8,3,10,100,0,0
89764,-500,8,3,1,100,0,0
89832,-500,8,3,1,5,0,0
91264,-500,8,3,3,100,0,0
91673,-500,8,3,1,100,0,0
91946,-250,8,3,2,100,0,0
92491,-250,8,3,7,15,0,0
92901,-250,8,3,4,100,0,0
93310,-250,8,3,11,85,0,0
93582,-250,8,3,10,85,0,0
93855,-250,8,3,4,100,0,0
94128,-250,8,3,2,100,0,0
94264,-250,8,3,7,100,0,0
95219,-250,8,3,4,100,0,0
95355,-250,8,3,7,100,0,0
96310,-250,8,3,2,100,0,0
96446,-250,8,3,7,100,0,0
97537,-250,8,3,1,5,0,0
97673,-250,8,3,11,100,0,0
97810,-250,8,3,1,5,0,0
97946,-250,8,3,10,100,0,0
98082,-250,8,3,1,5,0,0
98219,-250,8,3,1,100,0,0
98491,-250,8,3,1,100,0,0
98628,-250,8,3,7,100,0,0
99582,-250,8,3,4,100,0,0
99719,-250,8,3,3,100,0,0
100401,-100,8,3,10,100,0,0
100673,-166.666666666667,8,3,2,70,0,0
100810,-166.666666666667,8,3,2,25,0,0
101219,-125,8,3,2,85,0,0
101355,-125,8,3,2,40,0,0
101491,-125,8,3,2,55,0,0
101628,-125,8,3,2,70,0,0
101764,-125,8,3,2,85,0,0
101901,-125,8,3,2,55,0,0
102037,-125,8,3,2,70,0,0
102173,-125,8,3,2,85,0,0
102310,-125,8,3,2,100,0,0
102856,272.727272727273,7,3,1,100,1,0
102856,-111.111111111111,8,3,1,100,0,0
102924,-111.111111111111,7,3,4,70,0,0
104765,-111.111111111111,7,3,2,85,0,0
104833,-111.111111111111,7,3,4,70,0,0
106674,-111.111111111111,7,3,3,70,0,0
106947,272.727272727273,8,3,1,85,1,0
106947,-111.111111111111,8,3,1,100,0,0
107015,-111.111111111111,8,3,4,70,0,0
109128,-111.111111111111,8,3,2,85,0,0
109197,-111.111111111111,8,3,4,70,0,0
110219,-111.111111111111,8,3,3,85,0,0
111311,272.727272727273,7,3,1,100,1,0
111311,-111.111111111111,8,3,1,100,0,0
111379,-111.111111111111,7,3,2,70,0,0
112947,-111.111111111111,7,3,7,70,0,0
113220,-111.111111111111,7,3,3,85,0,0
113288,-111.111111111111,7,3,2,70,0,0
115401,272.727272727273,8,3,1,85,1,0
115401,-111.111111111111,8,3,1,100,0,0
115469,-111.111111111111,8,3,2,70,0,0
117855,-111.111111111111,8,3,4,70,0,0
117923,-111.111111111111,8,3,2,70,0,0
118673,-111.111111111111,8,3,1,85,0,0
118810,-111.111111111111,8,3,1,70,0,0
118946,-111.111111111111,8,3,1,85,0,0
119219,-111.111111111111,8,3,1,100,0,0
119764,272.727272727273,4,3,1,100,1,1
119764,-83.3333333333333,4,3,1,100,0,1
119901,-83.3333333333333,4,3,4,70,0,1
120854,-83.3333333333333,4,3,4,70,0,1
121059,-83.3333333333333,4,3,4,5,0,1
121127,-71.4285714285714,4,3,4,70,0,1
121332,-71.4285714285714,4,3,4,5,0,1
121400,-66.6666666666667,4,3,4,70,0,1
121604,-66.6666666666667,4,3,4,5,0,1
121673,-58.8235294117647,4,3,4,70,0,1
121877,-58.8235294117647,4,3,4,5,0,1
121945,-83.3333333333333,4,3,4,70,0,1
121946,-83.3333333333333,4,3,2,85,0,1
122082,-83.3333333333333,4,3,4,70,0,1
123036,-83.3333333333333,4,3,3,70,0,1
123309,-83.3333333333333,4,3,2,70,0,1
123582,-83.3333333333333,4,3,3,70,0,1
123854,-83.3333333333333,4,3,2,70,0,1
124127,-83.3333333333333,4,3,1,85,0,1
124264,-83.3333333333333,4,3,4,70,0,1
125764,-83.3333333333333,4,3,2,70,0,1
126309,-83.3333333333333,4,3,3,85,0,1
126445,-83.3333333333333,4,3,4,55,0,1
126582,-83.3333333333333,4,3,4,70,0,1
126718,-83.3333333333333,4,3,4,55,0,1
126854,-83.3333333333333,4,3,4,70,0,1
126991,-83.3333333333333,4,3,4,55,0,1
127127,-83.3333333333333,4,3,4,70,0,1
127264,-83.3333333333333,4,3,4,55,0,1
127400,-83.3333333333333,4,3,4,85,0,1
127809,-83.3333333333333,4,3,12,85,0,1
127945,-83.3333333333333,4,3,11,85,0,1
128082,-83.3333333333333,4,3,4,85,0,1
128491,-83.3333333333333,4,3,1,100,0,1
128627,-83.3333333333333,4,3,4,70,0,1
129582,-83.3333333333333,4,3,2,70,0,1
129854,-83.3333333333333,4,3,3,70,0,1
130127,-83.3333333333333,4,3,2,70,0,1
130400,-83.3333333333333,4,3,3,70,0,1
130673,-83.3333333333333,4,3,2,85,0,1
130809,-83.3333333333333,4,3,4,70,0,1
131764,-83.3333333333333,4,3,3,70,0,1
132036,-83.3333333333333,4,3,2,70,0,1
132309,-83.3333333333333,4,3,3,70,0,1
132582,-83.3333333333333,4,3,2,70,0,1
132854,-83.3333333333333,4,3,1,85,0,1
132991,-83.3333333333333,4,3,4,70,0,1
133945,-83.3333333333333,4,3,4,70,0,1
134082,-83.3333333333333,4,3,4,55,0,1
134218,-83.3333333333333,4,3,4,70,0,1
134354,-83.3333333333333,4,3,4,55,0,1
134491,-83.3333333333333,4,3,2,70,0,1
135036,-83.3333333333333,4,3,3,85,0,1
135991,-83.3333333333333,4,3,2,85,0,0
136128,272.727272727273,9,3,12,85,1,0
136673,-111.111111111111,9,3,1,85,0,0
136946,-111.111111111111,9,3,11,85,0,0
137355,-166.666666666667,9,3,3,85,0,0
137628,-166.666666666667,9,3,12,85,0,0
137900,-166.666666666667,9,3,11,85,0,0
138173,-166.666666666667,9,3,10,85,0,0
138583,272.727272727273,7,3,4,100,1,0
138583,-100,7,3,4,100,0,0
146219,272.727272727273,4,3,1,100,1,0
146219,-100,4,3,1,100,0,0
147037,-100,4,3,2,100,0,0
147855,-100,4,3,3,100,0,0
148400,-100,4,3,1,100,0,0
149219,-100,4,3,2,100,0,0
150582,-142.857142857143,4,3,1,100,0,0
150719,-142.857142857143,4,3,4,70,0,0
151673,-142.857142857143,4,3,7,70,0,0
151809,-142.857142857143,4,3,4,70,0,0
152764,-142.857142857143,4,3,3,100,0,0
152900,-142.857142857143,4,3,4,70,0,0
153855,-142.857142857143,4,3,7,70,0,0
153991,-142.857142857143,4,3,4,70,0,0
154400,-100,4,3,12,85,0,0
154582,-100,4,3,11,85,0,0
154764,-100,4,3,10,85,0,0
154946,-90.9090909090909,4,3,1,100,0,0
155014,-90.9090909090909,4,3,4,70,0,0
156446,-90.9090909090909,4,3,4,70,0,0
156855,-90.9090909090909,4,3,4,70,0,0
158355,-90.9090909090909,4,3,4,70,0,0
158491,-90.9090909090909,4,3,4,70,0,0
160673,-90.9090909090909,4,3,4,70,0,0
161219,-90.9090909090909,4,3,4,70,0,0
161764,-90.9090909090909,4,3,4,70,0,0
162173,-90.9090909090909,4,3,4,70,0,0
162582,-90.9090909090909,4,3,4,70,0,0
162855,-90.9090909090909,4,3,4,70,0,0
163673,-142.857142857143,4,3,1,100,0,0
164082,-142.857142857143,4,3,8,70,0,0
164628,-142.857142857143,4,3,8,70,0,0
165173,-142.857142857143,4,3,8,70,0,0
165309,-142.857142857143,4,3,8,70,0,0
166128,-90.9090909090909,4,3,1,100,0,0
167491,-90.9090909090909,4,3,8,70,0,0
168037,-90.9090909090909,4,3,1,100,0,0
168105,-90.9090909090909,4,3,4,70,0,0
171309,-90.9090909090909,4,3,4,70,0,0
172400,-166.666666666667,4,3,1,100,0,0
172537,-166.666666666667,4,3,5,85,0,0
175673,-166.666666666667,4,3,5,85,0,0
176764,-166.666666666667,4,3,2,85,0,0
176900,-166.666666666667,4,3,5,70,0,0
180037,-166.666666666667,4,3,5,70,0,0
180855,-166.666666666667,4,3,7,70,0,0
181128,-166.666666666667,4,3,3,85,0,0
181264,-166.666666666667,4,3,5,70,0,0
183855,-166.666666666667,4,3,4,70,0,0
183991,-166.666666666667,4,3,5,70,0,0
185491,-166.666666666667,4,3,2,85,0,0
185628,-166.666666666667,4,3,5,70,0,0
188219,-166.666666666667,4,3,7,70,0,0
188491,-166.666666666667,4,3,12,85,0,0
188764,-166.666666666667,4,3,11,85,0,0
188900,-166.666666666667,4,3,1,85,0,0
189037,-166.666666666667,4,3,12,85,0,0
189173,-166.666666666667,4,3,11,85,0,0
189309,-166.666666666667,4,3,1,85,0,0
189446,-166.666666666667,4,3,12,85,0,0
189582,-166.666666666667,4,3,11,85,0,0
189719,-166.666666666667,4,3,3,85,0,0
190264,-100,4,3,1,100,0,0
190400,272.727272727273,4,3,1,100,1,0
190536,-100,4,3,4,70,0,0
190672,-166.666666666667,4,3,4,100,0,0
192445,-125,4,3,1,85,0,0
192581,-125,4,3,4,70,0,0
194627,-125,4,3,2,85,0,0
194900,-100,4,3,4,70,0,0
195036,-166.666666666667,4,3,4,100,0,0
196536,-100,4,3,3,85,0,0
196809,-125,4,3,2,85,0,0
197081,-100,4,3,4,70,0,0
198990,-100,4,3,1,100,0,0
199263,-100,4,3,4,70,0,0
199400,-166.666666666667,4,3,4,100,0,0
200900,-100,4,3,3,70,0,0
201172,-125,4,3,7,70,0,0
201445,-100,4,3,2,70,0,0
201854,-100,4,3,3,70,0,0
202400,-100,4,3,4,70,0,0
202672,-100,4,3,1,85,0,0
202945,-100,4,3,12,85,0,0
203081,-100,4,3,11,85,0,0
203218,-100,4,3,10,85,0,0
203490,272.727272727273,7,3,1,100,1,0
203490,-125,4,3,1,100,0,0
203558,-125,7,3,4,70,0,0
205399,-125,7,3,2,85,0,0
205467,-125,7,3,4,70,0,0
207581,272.727272727273,7,3,3,85,1,0
207581,-125,4,3,3,100,0,0
207649,-125,7,3,4,70,0,0
209490,-125,7,3,2,85,0,0
209558,-125,7,3,4,70,0,0
210990,-125,7,3,7,70,0,0
211262,-125,7,3,4,85,0,0
211672,272.727272727273,8,3,1,100,1,0
211672,-125,4,3,1,100,0,0
211740,-125,8,3,4,70,0,0
213853,-125,8,3,2,85,0,0
213922,-125,8,3,4,70,0,0
216035,-125,8,3,2,85,0,0
216103,-125,8,3,4,70,0,0
218217,-125,8,3,7,70,0,0
218285,-125,8,3,4,70,0,0
219308,-125,8,3,7,70,0,0
219376,-125,8,3,4,70,0,0
219717,-125,8,3,4,85,0,0
220400,272.727272727273,6,3,9,100,1,0
220400,-142.857142857143,6,3,9,100,0,0
220536,-142.857142857143,6,3,9,85,0,0
223672,-142.857142857143,6,3,3,85,0,0
223740,-142.857142857143,6,3,9,85,0,0
226127,-142.857142857143,6,3,2,85,0,0
226400,-142.857142857143,6,3,1,85,0,0
226672,-142.857142857143,6,3,3,85,0,0
226945,-111.111111111111,6,3,2,100,0,0
227013,-111.111111111111,6,3,9,85,0,0
228581,-111.111111111111,6,3,2,85,0,0
228650,-111.111111111111,6,3,9,85,0,0
230218,-111.111111111111,6,3,2,85,0,0
230286,-111.111111111111,6,3,9,85,0,0
231854,-111.111111111111,6,3,2,85,0,0
231922,-111.111111111111,6,3,9,85,0,0
232672,-111.111111111111,6,3,1,85,0,0
233490,272.727272727273,3,3,2,100,1,0
233490,-250,3,3,2,100,0,0
233558,-250,3,3,2,5,0,0
234308,-250,3,3,2,100,0,0
234376,-250,3,3,2,5,0,0
235126,-250,3,3,2,100,0,0
235194,-250,3,3,2,5,0,0
235944,-250,3,3,3,100,0,0
236012,-250,3,3,2,5,0,0
236762,-250,3,3,2,100,0,0
236830,-250,3,3,2,5,0,0
237171,-250,3,3,1,100,0,0
237240,-250,3,3,2,5,0,0
237580,-166.666666666667,3,3,2,100,0,0
237649,-166.666666666667,3,3,2,5,0,0
237990,-166.666666666667,3,3,3,100,0,0
238058,-166.666666666667,3,3,2,5,0,0
238399,272.727272727273,4,3,1,85,1,0
238808,-100,4,3,12,85,0,0
238944,-100,4,3,11,85,0,0
239080,-100,4,3,1,85,0,0
239217,-100,4,3,10,85,0,0
239353,-100,4,3,1,85,0,0
239489,-83.3333333333333,4,3,1,100,0,1
239626,-83.3333333333333,4,3,4,70,0,1
240580,-83.3333333333333,4,3,4,70,0,1
240853,-71.4285714285714,4,3,4,70,0,1
241058,-71.4285714285714,4,3,1,5,0,1
241126,-66.6666666666667,4,3,4,70,0,1
241330,-66.6666666666667,4,3,1,5,0,1
241399,-58.8235294117647,4,3,4,70,0,1
241603,-58.8235294117647,4,3,1,5,0,1
241671,-83.3333333333333,4,3,2,85,0,1
241739,-83.3333333333333,4,3,4,70,0,1
242762,-83.3333333333333,4,3,3,70,0,1
243035,-83.3333333333333,4,3,2,70,0,1
243308,-83.3333333333333,4,3,3,70,0,1
243580,-83.3333333333333,4,3,2,70,0,1
243853,-83.3333333333333,4,3,1,85,0,1
243921,-83.3333333333333,4,3,4,70,0,1
245489,-83.3333333333333,4,3,2,70,0,1
246035,-83.3333333333333,4,3,3,85,0,1
246171,-83.3333333333333,4,3,4,55,0,1
246308,-83.3333333333333,4,3,4,85,0,1
246444,-83.3333333333333,4,3,4,55,0,1
246580,-83.3333333333333,4,3,4,85,0,1
246717,-83.3333333333333,4,3,4,55,0,1
246853,-83.3333333333333,4,3,4,85,0,1
246989,-83.3333333333333,4,3,4,55,0,1
247126,-83.3333333333333,4,3,1,85,0,1
247535,-83.3333333333333,4,3,12,85,0,1
247671,-83.3333333333333,4,3,11,85,0,1
247808,-83.3333333333333,4,3,4,85,0,1
248217,-83.3333333333333,4,3,1,100,0,1
248285,-83.3333333333333,4,3,4,70,0,1
249308,-83.3333333333333,4,3,2,70,0,1
249580,-83.3333333333333,4,3,3,70,0,1
249853,-83.3333333333333,4,3,2,70,0,1
250126,-83.3333333333333,4,3,3,70,0,1
250399,-83.3333333333333,4,3,2,85,0,1
250467,-83.3333333333333,4,3,4,70,0,1
251489,-83.3333333333333,4,3,1,70,0,1
251762,-83.3333333333333,4,3,3,70,0,1
252035,-83.3333333333333,4,3,1,70,0,1
252308,-83.3333333333333,4,3,3,70,0,1
252580,-83.3333333333333,4,3,4,70,0,1
254217,-83.3333333333333,4,3,2,70,0,1
254762,-83.3333333333333,4,3,3,85,0,1
254830,-83.3333333333333,4,3,4,70,0,1
256399,-83.3333333333333,4,3,7,70,0,1
256671,272.727272727273,9,3,1,85,1,0
256671,-100,9,3,1,85,0,0
257080,-111.111111111111,9,3,1,85,0,0
257352,-111.111111111111,9,3,12,85,0,0
257489,-111.111111111111,9,3,11,85,0,0
257625,-111.111111111111,9,3,10,85,0,0
257761,-166.666666666667,9,3,2,85,0,0
258034,-166.666666666667,9,3,12,85,0,0
258307,-166.666666666667,9,3,11,85,0,0
258580,-166.666666666667,9,3,10,85,0,0
258852,-166.666666666667,9,3,1,85,0,0
259126,272.727272727273,4,3,13,100,1,0
259126,-500,4,3,13,100,0,0
260216,-250,4,2,1,5,0,0

[Colours]
Combo1 : 139,226,214
Combo2 : 236,162,79
Combo3 : 241,84,116
Combo4 : 227,197,89

[HitObjects]
166,210,4672,6,0,P|154:168|139:135,1,72,2|0,0:0|0:0,0:0:0:0:
188,89,5081,2,0,P|193:68|200:45,1,36,2|0,0:0|0:0,0:0:0:0:
273,76,5353,1,0,0:0:0:0:
286,85,5490,1,0,0:0:0:0:
345,45,5626,2,0,P|325:52|304:58,1,36,2|0,0:0|0:0,0:0:0:0:
390,113,5899,1,0,0:0:0:0:
454,88,6035,2,0,P|434:81|413:75,1,36,2|0,0:0|0:0,0:0:0:0:
502,148,6308,2,0,P|485:161|470:177,1,36,2|0,0:0|0:0,0:0:0:0:
449,280,6581,6,0,P|441:318|425:364,1,72,2|0,0:0|0:0,0:0:0:0:
357,345,6990,2,0,P|362:361|368:390,1,36,2|0,0:0|0:0,0:0:0:0:
285,350,7262,1,0,0:0:0:0:
281,334,7399,1,0,0:0:0:0:
218,292,7535,2,0,P|204:305|190:322,1,36,2|0,0:0|0:0,0:0:0:0:
112,274,7808,1,0,0:0:0:0:
75,336,7944,2,0,P|70:313|63:290,1,36,2|0,0:0|0:0,0:0:0:0:
125,252,8217,2,0,P|144:245|161:241,1,36,2|0,0:0|0:0,0:0:0:0:
118,135,8490,6,0,P|111:94|103:57,1,72,2|0,0:0|0:0,0:0:0:0:
39,85,8899,2,0,P|26:97|10:110,1,36,2|0,0:0|0:0,0:0:0:0:
41,180,9172,1,0,0:0:0:0:
52,193,9308,1,0,0:0:0:0:
125,216,9444,2,0,P|142:206|163:198,1,36,2|0,0:0|0:0,0:0:0:0:
230,260,9717,1,0,0:0:0:0:
279,310,9853,2,0,P|275:292|272:269,1,36,2|0,0:0|0:0,0:0:0:0:
359,214,10126,2,0,P|351:230|343:252,1,36,2|0,0:0|0:0,0:0:0:0:
407,321,10399,6,0,P|439:302|482:283,1,72,2|0,0:0|0:0,0:0:0:0:
474,217,10808,2,0,P|477:196|484:176,1,36,2|0,0:0|0:0,0:0:0:0:
431,103,11081,1,0,0:0:0:0:
423,116,11217,1,0,0:0:0:0:
418,132,11353,1,2,0:0:0:0:
262,265,11490,5,14,0:0:0:0:
227,199,11626,1,8,0:0:0:0:
377,239,11762,5,14,0:0:0:0:
362,308,11898,1,8,0:0:0:0:
132,190,12035,5,14,0:0:0:0:
182,138,12171,1,8,0:0:0:0:
276,350,12308,5,14,0:0:0:0:
238,267,12444,1,8,0:0:0:0:
104,372,12581,6,0,P|67:360|21:350,2,72,6|0|8,0:0|0:0|0:0,0:0:0:0:
252,268,12990,2,0,P|264:223|281:185,1,72,6|0,0:0|0:0,0:0:0:0:
113,295,13262,2,0,P|91:253|67:219,1,72,4|10,0:0|0:0,0:0:0:0:
147,77,13535,1,4,0:0:0:0:
178,245,13671,5,0,0:0:0:0:
195,167,13808,1,6,0:0:0:0:
243,104,13944,1,8,0:0:0:0:
188,263,14081,5,0,0:0:0:0:
179,166,14217,1,6,0:0:0:0:
259,111,14353,1,8,0:0:0:0:
418,166,14490,6,0,P|452:154|491:147,2,72,6|0|8,0:0|0:0|0:0,0:0:0:0:
303,349,14899,2,0,P|331:319|367:293,1,72,6|0,0:0|0:0,0:0:0:0:
221,194,15171,2,0,P|242:229|271:262,1,72,4|10,0:0|0:0,0:0:0:0:
160,337,15444,1,4,0:0:0:0:
76,165,15581,5,0,0:0:0:0:
32,231,15717,1,6,0:0:0:0:
23,309,15853,1,8,0:0:0:0:
93,170,15990,5,0,0:0:0:0:
17,228,16126,1,6,0:0:0:0:
34,322,16262,1,4,0:0:0:0:
41,112,16399,5,10,0:0:0:0:
103,180,16535,1,0,0:0:0:0:
244,123,16672,6,0,P|251:84|261:53,2,72,6|0|8,0:0|0:0|0:0,0:0:0:0:
339,232,17081,2,0,P|373:216|408:205,1,72,6|0,0:0|0:0,0:0:0:0:
512,155,17353,2,0,P|478:139|443:128,1,72,4|10,0:0|0:0,0:0:0:0:
340,31,17626,1,4,0:0:0:0:
214,149,17762,5,0,0:0:0:0:
271,204,17899,1,6,0:0:0:0:
349,207,18035,1,8,0:0:0:0:
225,149,18172,5,0,0:0:0:0:
275,194,18308,1,6,0:0:0:0:
343,196,18444,1,0,0:0:0:0:
136,94,18581,6,0,P|105:116|64:135,2,72,6|0|8,0:0|0:0|0:0,0:0:0:0:
186,284,18990,2,0,P|170:247|146:209,1,72,6|0,0:0|0:0,0:0:0:0:
30,314,19262,2,0,P|59:286|97:261,1,72,4|10,0:0|0:0,0:0:0:0:
223,353,19535,1,0,0:0:0:0:
188,94,19672,5,4,0:0:0:0:
235,157,19808,1,6,0:0:0:0:
315,171,19944,1,8,0:0:0:0:
313,152,20081,1,0,0:0:0:0:
469,44,20217,5,6,0:0:0:0:
425,104,20353,1,4,0:0:0:0:
431,285,20489,5,10,0:0:0:0:
359,252,20626,1,0,0:0:0:0:
283,132,20763,6,0,P|292:93|305:58,1,72,6|0,0:0|0:0,0:0:0:0:
246,18,21035,1,8,0:0:0:0:
97,173,21172,2,0,P|69:150|27:122,1,72,6|0,0:0|0:0,0:0:0:0:
171,46,21444,2,0,P|148:74|113:110,1,72,4|10,0:0|0:0,0:0:0:0:
199,171,21717,1,4,0:0:0:0:
395,245,21853,5,0,0:0:0:0:
317,262,21990,1,6,0:0:0:0:
275,328,22126,1,8,0:0:0:0:
408,250,22263,5,0,0:0:0:0:
310,249,22399,1,6,0:0:0:0:
278,341,22535,1,8,0:0:0:0:
486,254,22672,6,0,P|498:213|505:172,1,72,6|0,0:0|0:0,0:0:0:0:
444,137,22944,1,8,0:0:0:0:
354,363,23081,2,0,P|386:341|424:323,1,72,6|0,0:0|0:0,0:0:0:0:
250,241,23353,2,0,P|288:233|330:232,1,72,4|10,0:0|0:0,0:0:0:0:
260,329,23626,1,4,0:0:0:0:
359,102,23763,5,0,0:0:0:0:
297,151,23899,1,6,0:0:0:0:
218,150,24035,1,8,0:0:0:0:
361,88,24172,5,0,0:0:0:0:
302,165,24308,1,6,0:0:0:0:
208,142,24444,1,4,0:0:0:0:
100,39,24581,5,10,0:0:0:0:
130,111,24717,1,0,0:0:0:0:
26,287,24854,6,0,P|59:271|94:258,1,72,6|0,0:0|0:0,0:0:0:0:
115,188,25126,1,8,0:0:0:0:
216,352,25263,2,0,P|236:313|257:283,1,72,6|0,0:0|0:0,0:0:0:0:
129,332,25535,2,0,P|94:304|63:285,1,72,4|10,0:0|0:0,0:0:0:0:
167,222,25808,1,4,0:0:0:0:
350,355,25944,5,0,0:0:0:0:
402,295,26081,1,6,0:0:0:0:
480,290,26217,1,8,0:0:0:0:
362,364,26354,5,0,0:0:0:0:
407,309,26490,1,6,0:0:0:0:
478,304,26626,1,0,0:0:0:0:
283,207,26763,6,0,P|253:194|206:182,1,72,6|0,0:0|0:0,0:0:0:0:
199,110,27035,1,8,0:0:0:0:
371,110,27172,2,0,P|389:76|404:34,1,72,6|0,0:0|0:0,0:0:0:0:
503,174,27444,2,0,P|478:144|454:106,1,72,4|10,0:0|0:0,0:0:0:0:
427,243,27717,1,0,0:0:0:0:
284,132,27854,5,4,0:0:0:0:
212,165,27990,1,6,0:0:0:0:
193,241,28126,1,8,0:0:0:0:
137,98,28263,1,4,0:0:0:0:
318,331,28399,5,8,0:0:0:0:
369,162,28535,1,8,0:0:0:0:
245,231,28672,1,8,0:0:0:0:
503,371,28808,6,0,B|477:355|462:353|462:353|442:366|419:369|419:369|383:342|329:332,1,180,6|4,0:0|0:0,0:0:0:0:
218,317,29217,2,0,P|200:338|180:369,1,53.9999983520508,14|4,0:0|0:0,0:0:0:0:
200,293,29490,2,0,P|186:317|173:351,1,53.9999983520508,14|4,0:0|0:0,0:0:0:0:
180,274,29763,2,0,P|172:300|166:336,1,53.9999983520508,14|4,0:0|0:0,0:0:0:0:
153,259,30036,2,0,P|150:286|152:323,1,53.9999983520508,14|4,0:0|0:0,0:0:0:0:
125,250,30308,2,0,P|128:277|138:313,1,53.9999983520508,14|4,0:0|0:0,0:0:0:0:
94,247,30581,2,0,P|103:273|120:305,1,53.9999983520508,14|6,0:0|0:0,0:0:0:0:
67,377,30854,5,12,0:0:0:0:
201,237,30990,2,0,P|215:164|236:84,1,144,6|4,0:0|0:0,0:0:0:0:
211,75,31399,1,14,0:0:0:0:
249,137,31535,1,4,0:0:0:0:
53,225,31672,5,14,0:0:0:0:
113,186,31808,1,4,0:0:0:0:
134,116,31945,1,4,0:0:0:0:
291,296,32081,5,14,0:0:0:0:
219,236,32217,1,4,0:0:0:0:
206,142,32354,1,14,0:0:0:0:
194,355,32490,5,4,0:0:0:0:
274,194,32626,1,4,0:0:0:0:
311,310,32763,1,8,0:0:0:0:
306,292,32831,1,8,0:0:0:0:
297,276,32899,1,8,0:0:0:0:
366,226,33035,1,8,0:0:0:0:
216,362,33172,6,0,B|213:344|221:323|221:323|211:303|197:290|197:290|205:250|195:179,1,180,6|4,0:0|0:0,0:0:0:0:
130,117,33513,1,4,0:0:0:0:
124,133,33581,2,0,P|150:123|182:106,1,53.9999983520508,14|4,0:0|0:0,0:0:0:0:
127,162,33854,2,0,P|151:148|179:125,1,53.9999983520508,14|4,0:0|0:0,0:0:0:0:
135,189,34127,2,0,P|154:170|178:142,1,53.9999983520508,14|4,0:0|0:0,0:0:0:0:
151,215,34400,2,0,P|167:193|183:160,1,53.9999983520508,14|0,0:0|0:0,0:0:0:0:
171,237,34672,2,0,P|181:212|191:175,1,53.9999983520508,14|4,0:0|0:0,0:0:0:0:
196,255,34945,2,0,P|201:227|202:191,1,53.9999983520508,14|6,0:0|0:0,0:0:0:0:
280,179,35217,5,12,0:0:0:0:
96,325,35354,2,0,P|175:300|245:285,1,144,6|4,0:0|0:0,0:0:0:0:
301,348,35695,1,4,0:0:0:0:
290,362,35763,2,0,P|282:331|270:297,1,53.9999983520508,14|4,0:0|0:0,0:0:0:0:
390,377,36035,2,0,P|370:351|345:325,1,53.9999983520508,10|4,0:0|0:0,0:0:0:0:
453,322,36308,2,0,P|467:293|486:262,1,53.9999983520508,10|4,0:0|0:0,0:0:0:0:
423,206,36513,1,4,0:0:0:0:
435,218,36581,5,8,0:0:0:0:
423,251,36649,1,8,0:0:0:0:
394,270,36717,1,8,0:0:0:0:
359,272,36785,1,8,0:0:0:0:
327,254,36854,5,4,0:0:0:0:
325,227,36922,1,4,0:0:0:0:
318,200,36990,1,8,0:0:0:0:
301,178,37058,1,4,0:0:0:0:
276,166,37126,1,8,0:0:0:0:
248,164,37195,1,4,0:0:0:0:
222,172,37263,5,4,0:0:0:0:
202,207,37331,1,4,0:0:0:0:
168,229,37399,1,8,0:0:0:0:
153,217,37467,1,8,0:0:0:0:
135,211,37535,1,4,0:0:0:0:
115,209,37604,1,4,0:0:0:0:
96,213,37673,6,0,P|111:256|121:298,1,72,6|0,0:0|0:0,0:0:0:0:
178,337,37945,1,4,0:0:0:0:
199,135,38082,1,6,0:0:0:0:
218,150,38218,2,0,B|166:161|166:161|125:145|125:145|66:159,1,144,8|4,0:0|0:0,0:0:0:0:
74,239,38627,1,6,0:0:0:0:
157,49,38763,5,0,0:0:0:0:
219,100,38900,1,0,0:0:0:0:
297,100,39036,1,4,0:0:0:0:
162,34,39173,5,10,0:0:0:0:
213,112,39309,1,4,0:0:0:0:
307,88,39445,1,4,0:0:0:0:
419,298,39582,6,0,P|388:277|340:254,1,72,6|0,0:0|0:0,0:0:0:0:
291,299,39854,1,4,0:0:0:0:
475,243,39991,2,0,P|483:196|494:156,1,72,6|8,0:0|0:0,0:0:0:0:
335,110,40263,2,0,P|317:65|298:28,1,72,4|4,0:0|0:0,0:0:0:0:
432,90,40536,1,6,0:0:0:0:
316,246,40672,5,0,0:0:0:0:
272,189,40809,1,4,0:0:0:0:
200,180,40945,1,4,0:0:0:0:
312,259,41082,5,10,0:0:0:0:
278,176,41218,1,4,0:0:0:0:
190,192,41354,1,8,0:0:0:0:
74,317,41491,5,8,0:0:0:0:
93,243,41627,1,8,0:0:0:0:
10,106,41763,6,0,P|20:61|33:19,1,72,6|0,0:0|0:0,0:0:0:0:
100,19,42035,1,4,0:0:0:0:
138,234,42172,1,6,0:0:0:0:
120,248,42308,2,0,B|107:205|107:205|131:91,1,144,8|4,0:0|0:0,0:0:0:0:
15,36,42717,1,6,0:0:0:0:
178,186,42853,5,0,0:0:0:0:
125,137,42989,1,0,0:0:0:0:
123,66,43125,1,4,0:0:0:0:
193,180,43263,5,10,0:0:0:0:
112,143,43399,1,4,0:0:0:0:
133,55,43535,1,4,0:0:0:0:
296,88,43672,6,0,P|316:59|341:27,1,72,6|0,0:0|0:0,0:0:0:0:
262,6,43944,1,4,0:0:0:0:
360,168,44081,1,6,0:0:0:0:
348,188,44217,2,0,P|314:171|270:160,1,72,8|4,0:0|0:0,0:0:0:0:
251,95,44490,1,4,0:0:0:0:
446,244,44626,1,8,0:0:0:0:
328,368,44763,6,0,P|316:328|304:295,2,72,6|4|10,0:0|0:0|0:0,0:0:0:0:
365,254,45172,1,4,0:0:0:0:
240,343,45308,1,8,0:0:0:0:
206,356,45376,1,8,0:0:0:0:
170,348,45444,1,8,0:0:0:0:
147,319,45513,1,4,0:0:0:0:
143,283,45581,5,8,0:0:0:0:
158,291,45649,1,4,0:0:0:0:
172,302,45717,1,8,0:0:0:0:
183,316,45785,1,4,0:0:0:0:
189,333,45854,6,0,P|199:296|211:258,1,72,6|0,0:0|0:0,0:0:0:0:
163,199,46126,1,4,0:0:0:0:
69,321,46263,2,0,P|38:305|1:290,1,72,6|8,0:0|0:0,0:0:0:0:
191,345,46535,2,0,P|160:361|123:376,1,72,0|4,0:0|0:0,0:0:0:0:
89,239,46808,1,6,0:0:0:0:
297,239,46945,5,0,0:0:0:0:
225,233,47081,1,4,0:0:0:0:
190,169,47217,1,4,0:0:0:0:
306,227,47354,5,10,0:0:0:0:
218,241,47490,1,4,0:0:0:0:
190,154,47626,1,4,0:0:0:0:
368,82,47763,6,0,P|399:64|440:46,1,72,6|0,0:0|0:0,0:0:0:0:
494,83,48035,1,4,0:0:0:0:
285,35,48172,2,0,P|259:22|216:6,1,72,6|8,0:0|0:0,0:0:0:0:
303,115,48444,2,0,P|325:96|364:72,1,72,4|4,0:0|0:0,0:0:0:0:
375,207,48717,1,6,0:0:0:0:
234,305,48854,5,0,0:0:0:0:
188,249,48990,1,4,0:0:0:0:
116,239,49126,1,0,0:0:0:0:
230,318,49263,5,6,0:0:0:0:
195,237,49399,1,4,0:0:0:0:
108,252,49535,1,8,0:0:0:0:
323,246,49672,5,8,0:0:0:0:
253,288,49808,1,8,0:0:0:0:
71,172,49944,6,0,P|59:135|39:94,1,72,6|0,0:0|0:0,0:0:0:0:
90,43,50216,1,0,0:0:0:0:
198,147,50353,1,4,0:0:0:0:
207,136,50421,1,4,0:0:0:0:
220,132,50489,2,0,B|257:144|257:144|291:127|291:127|369:139,1,144,10|4,0:0|0:0,0:0:0:0:
415,77,50898,1,6,0:0:0:0:
276,238,51035,5,0,0:0:0:0:
347,237,51171,1,0,0:0:0:0:
398,287,51307,1,0,0:0:0:0:
280,251,51444,5,10,0:0:0:0:
343,247,51580,1,4,0:0:0:0:
388,291,51716,1,4,0:0:0:0:
206,355,51853,6,0,P|169:328|132:307,2,72,6|0|4,0:0|0:0|0:0,0:0:0:0:
179,207,52262,2,0,P|163:165|142:123,1,72,6|8,0:0|0:0,0:0:0:0:
294,68,52534,2,0,P|269:105|240:142,1,72,4|4,0:0|0:0,0:0:0:0:
298,242,52807,1,8,0:0:0:0:
169,77,52944,5,6,0:0:0:0:
222,124,53080,1,4,0:0:0:0:
293,123,53216,1,10,0:0:0:0:
368,258,53353,5,4,0:0:0:0:
389,167,53489,1,12,0:0:0:0:
472,126,53625,1,12,0:0:0:0:
281,20,53762,5,8,0:0:0:0:
311,133,53898,1,12,0:0:0:0:
68,237,54035,6,0,P|51:176|34:127,1,107.999996704102,6|0,0:0|2:0,0:0:0:0:
99,102,54444,2,0,P|106:74|115:46,1,53.9999983520508,4|8,0:0|2:3,0:0:0:0:
127,43,54853,5,0,2:0:0:0:
82,112,54989,2,0,P|108:139|192:124,1,107.999996704102,4|0,0:0|0:0,0:0:0:0:
242,147,55398,2,0,P|251:119|264:91,1,53.9999983520508,4|0,0:0|2:0,0:0:0:0:
245,82,55807,5,0,2:0:0:0:
253,164,55944,1,0,2:0:0:0:
210,223,56080,2,0,P|255:200|317:179,1,107.999996704102,4|0,0:0|0:0,0:0:0:0:
356,126,56489,2,0,P|350:149|344:180,1,53.9999983520508,4|0,0:0|2:0,0:0:0:0:
362,195,56898,5,0,2:0:0:0:
340,116,57035,2,0,P|329:86|322:53,1,53.9999983520508,4|0,0:0|2:0,0:0:0:0:
304,54,57444,5,0,2:0:0:0:
354,119,57580,1,0,2:0:0:0:
436,108,57716,2,0,P|443:77|454:45,1,53.9999983520508,4|8,0:0|2:3,0:0:0:0:
435,41,58125,6,0,P|409:33|376:25,1,53.9999983520508,4|0,0:0|0:0,0:0:0:0:
284,127,58398,1,6,0:0:0:0:
322,68,58535,6,0,P|312:122|304:192,1,107.999996704102,6|0,0:0|2:0,0:0:0:0:
365,213,58944,2,0,P|392:202|427:193,1,53.9999983520508,4|8,0:0|2:3,0:0:0:0:
427,209,59353,5,0,2:0:0:0:
350,198,59489,2,0,P|328:251|310:320,1,107.999996704102,4|0,0:0|0:0,0:0:0:0:
246,329,59898,2,0,P|225:308|202:290,1,53.9999983520508,4|0,0:0|2:0,0:0:0:0:
182,296,60307,5,0,2:0:0:0:
257,320,60444,1,0,2:0:0:0:
328,290,60580,2,0,P|312:234|283:167,1,107.999996704102,4|0,0:0|0:0,0:0:0:0:
249,131,60989,2,0,P|228:151|201:171,1,53.9999983520508,4|0,0:0|2:0,0:0:0:0:
200,187,61398,5,0,2:0:0:0:
256,118,61535,2,0,P|246:90|225:52,1,53.9999983520508,4|0,0:0|2:0,0:0:0:0:
247,50,61944,5,0,2:0:0:0:
270,129,62080,1,0,2:0:0:0:
195,168,62216,2,0,P|163:159|118:151,1,53.9999983520508,4|8,0:0|2:3,0:0:0:0:
126,138,62626,6,0,P|140:202|148:257,1,107.999996704102,4|4,0:0|2:3,0:0:0:0:
79,277,63035,2,0,P|59:261|34:246,2,53.9999983520508,4|8|8,0:0|0:0|0:0,0:0:0:0:
140,362,63444,6,0,P|85:368|16:385,1,107.999996704102,6|0,0:0|2:0,0:0:0:0:
22,310,63854,2,0,P|18:283|9:257,1,53.9999983520508,4|8,0:0|2:3,0:0:0:0:
24,242,64263,5,0,2:0:0:0:
16,327,64399,2,0,P|66:304|117:292,1,107.999996704102,4|0,0:0|0:0,0:0:0:0:
176,331,64808,2,0,P|206:340|231:353,1,53.9999983520508,4|0,0:0|2:0,0:0:0:0:
242,356,65217,5,0,2:0:0:0:
179,313,65354,1,0,2:0:0:0:
187,235,65490,2,0,P|238:223|298:198,1,107.999996704102,4|0,0:0|0:0,0:0:0:0:
340,255,65899,2,0,P|370:262|398:272,1,53.9999983520508,4|0,0:0|2:0,0:0:0:0:
403,290,66308,5,0,2:0:0:0:
335,236,66445,2,0,P|327:205|315:172,1,53.9999983520508,4|0,0:0|2:0,0:0:0:0:
341,172,66854,1,0,2:0:0:0:
318,243,66990,1,0,2:0:0:0:
368,298,67126,1,4,0:0:0:0:
331,359,67263,2,0,P|310:347|275:334,1,53.9999983520508,10|0,0:0|2:0,0:0:0:0:
430,357,67535,6,0,P|409:301|382:243,1,107.999996704102,6|0,0:0|0:0,0:0:0:0:
387,117,67944,2,0,P|364:169|324:222,1,107.999996704102,6|0,0:0|0:0,0:0:0:0:
257,359,68353,2,0,P|228:313|173:269,1,107.999996704102,6|0,0:0|0:0,0:0:0:0:
197,114,68762,2,0,P|152:146|92:145,1,107.999996704102,6|0,0:0|0:0,0:0:0:0:
49,268,69173,6,0,P|38:237|18:199,1,72,6|8,0:0|0:0,0:0:0:0:
118,299,69445,1,8,0:0:0:0:
193,273,69582,1,4,0:0:0:0:
193,273,69718,1,10,0:0:0:0:
240,90,69854,5,8,0:0:0:0:
296,145,69991,1,4,0:0:0:0:
322,70,70127,1,6,0:0:0:0:
322,70,70263,2,0,P|283:64|236:53,1,72,8|8,0:0|0:0,0:0:0:0:
413,20,70536,5,4,0:0:0:0:
413,20,70673,1,4,0:0:0:0:
413,20,70809,1,10,0:0:0:0:
379,235,70945,5,8,0:0:0:0:
448,196,71082,1,4,0:0:0:0:
378,157,71218,1,6,0:0:0:0:
378,157,71354,2,0,P|367:190|357:238,1,72,8|8,0:0|0:0,0:0:0:0:
272,309,71627,1,4,0:0:0:0:
272,309,71764,1,4,0:0:0:0:
108,217,71900,5,10,0:0:0:0:
174,173,72036,1,4,0:0:0:0:
182,93,72173,1,6,0:0:0:0:
182,93,72309,2,0,P|177:50|170:14,1,72,8|4,0:0|0:0,0:0:0:0:
21,41,72582,5,4,0:0:0:0:
74,99,72718,1,4,0:0:0:0:
0,120,72854,1,4,0:0:0:0:
0,120,72991,2,0,P|12:155|22:194,1,72,2|8,0:0|0:0,0:0:0:0:
154,286,73263,2,0,P|169:253|195:216,1,72,4|0,0:0|0:0,0:0:0:0:
318,153,73536,1,6,0:0:0:0:
386,246,73673,6,0,P|394:210|406:171,1,72,6|8,0:0|0:0,0:0:0:0:
319,281,73945,1,4,0:0:0:0:
343,356,74082,1,4,0:0:0:0:
343,356,74218,2,0,P|384:343|424:338,1,72,10|8,0:0|0:0,0:0:0:0:
477,197,74491,5,4,0:0:0:0:
417,144,74627,1,6,0:0:0:0:
490,115,74763,1,8,0:0:0:0:
490,115,74900,1,8,0:0:0:0:
300,200,75036,6,0,P|266:190|211:178,1,72,4|4,0:0|0:0,0:0:0:0:
313,56,75309,1,10,0:0:0:0:
368,100,75445,1,8,0:0:0:0:
405,39,75582,1,4,0:0:0:0:
469,72,75718,1,6,0:0:0:0:
469,72,75854,2,0,P|475:32|483:-3,1,72,8|8,0:0|0:0,0:0:0:0:
283,161,76127,6,0,P|273:126|255:88,1,72,4|4,0:3|0:3,0:0:0:0:
298,166,76400,1,10,0:3:0:0:
261,236,76536,1,4,0:3:0:0:
186,235,76673,1,6,3:0:0:0:
186,235,76809,1,8,3:0:0:0:
186,235,76945,1,4,3:0:0:0:
358,363,77082,5,4,3:0:0:0:
308,310,77218,1,4,3:0:0:0:
239,330,77354,1,4,0:0:0:0:
239,330,77491,2,0,P|229:300|216:261,1,72,2|8,0:0|0:0,0:0:0:0:
116,91,77764,6,0,P|91:151|46:222,1,144,6|4,0:0|0:0,0:0:0:0:
178,179,78173,2,0,P|229:139|304:100,1,144,6|8,0:0|0:0,0:0:0:0:
482,172,78583,6,0,P|453:157|415:145,1,72,6|0,0:0|0:0,0:0:0:0:
494,163,78855,1,0,0:0:0:0:
388,268,78992,1,4,0:0:0:0:
397,279,79128,2,0,B|403:230|403:230|385:203|385:203|397:120,1,144,10|0,0:0|0:0,0:0:0:0:
500,30,79537,5,6,0:0:0:0:
500,30,79674,1,0,0:0:0:0:
500,30,79810,1,4,0:0:0:0:
342,60,79946,2,0,P|310:43|256:28,1,72,4|0,0:0|0:0,0:0:0:0:
355,49,80219,2,0,P|336:110|319:196,1,144,10|0,0:0|0:0,0:0:0:0:
215,225,80628,5,6,0:0:0:0:
196,233,80764,2,0,P|231:260|276:286,1,72,0|0,0:0|0:0,0:0:0:0:
148,361,81037,2,0,P|140:325|127:284,1,72,4|0,0:0|0:0,0:0:0:0:
51,233,81310,2,0,P|69:163|93:92,1,144,10|6,0:0|0:0,0:0:0:0:
3,13,81719,5,8,0:0:0:0:
3,13,81855,1,8,0:0:0:0:
3,13,81992,1,8,0:0:0:0:
66,63,82128,1,4,0:0:0:0:
169,11,82264,1,4,0:0:0:0:
180,24,82401,2,0,P|220:16|260:7,1,72,10|4,0:0|0:0,0:0:0:0:
162,239,82674,6,0,P|150:211|134:183,2,53.9999983520508,6|0|0,0:0|0:0|0:0,0:0:0:0:
293,175,83083,6,0,P|311:142|341:100,2,72,6|0|0,0:0|0:0|0:0,0:0:0:0:
253,331,83492,5,6,0:0:0:0:
230,302,83628,1,0,0:0:0:0:
197,286,83764,1,0,0:0:0:0:
353,241,83901,5,6,0:0:0:0:
396,175,84037,1,0,0:0:0:0:
473,159,84174,1,0,0:0:0:0:
134,177,84310,5,2,0:0:0:0:
155,247,84447,1,0,0:0:0:0:
272,91,84583,5,2,0:0:0:0:
216,46,84720,1,0,0:0:0:0:
332,232,84856,5,2,0:0:0:0:
355,166,84992,1,0,0:0:0:0:
476,299,85129,5,2,0:0:0:0:
414,343,85265,1,0,0:0:0:0:
267,171,85401,6,0,B|189:161|189:161|117:204|117:204|8:174,1,270,6|0,0:0|2:0,0:0:0:0:
59,303,87582,2,0,B|108:285|108:285|142:299|142:299|218:290,1,162,6|0,0:0|2:0,0:0:0:0:
285,326,88946,1,4,0:0:0:0:
201,273,89082,1,4,0:0:0:0:
112,317,89219,5,8,0:0:0:0:
118,332,89491,1,4,0:0:0:0:
126,349,89764,6,0,B|155:295|155:295|123:241|123:241|145:163,1,198,6|4,0:0|0:0,0:0:0:0:
113,105,91332,1,4,0:0:0:0:
111,91,91401,1,10,0:0:0:0:
201,134,91673,1,6,0:0:0:0:
281,80,91946,6,0,B|323:65|323:65|352:81|352:81|432:74,1,144,6|2,0:0|2:3,0:0:0:0:
294,206,92901,1,4,0:0:0:0:
304,200,92969,1,4,0:0:0:0:
317,197,93037,1,10,0:0:0:0:
250,264,93310,1,4,0:0:0:0:
171,222,93582,1,4,0:0:0:0:
101,305,93855,1,4,0:0:0:0:
29,195,94128,5,6,0:0:0:0:
43,173,94401,2,0,L|24:332,1,144,4|4,0:0|0:0,0:0:0:0:
178,150,95219,1,10,0:0:0:0:
199,161,95491,2,0,P|204:104|121:85,1,144,4|4,0:0|0:0,0:0:0:0:
336,61,96310,5,6,0:0:0:0:
352,78,96582,2,0,B|315:89|315:89|275:74|275:74|205:92,1,144,4|4,0:0|0:0,0:0:0:0:
155,47,97264,1,4,0:0:0:0:
229,112,97401,6,0,L|240:69,1,36,10|0,0:0|0:0,0:0:0:0:
334,175,97673,2,0,L|318:129,1,36,8|0,0:0|0:0,0:0:0:0:
156,203,97946,2,0,L|181:163,1,36,8|0,0:0|0:0,0:0:0:0:
230,283,98219,1,6,0:0:0:0:
385,87,98491,5,6,0:0:0:0:
370,72,98764,2,0,L|355:220,1,144,4|4,0:0|0:0,0:0:0:0:
466,378,99582,1,10,0:0:0:0:
364,307,99855,1,4,0:0:0:0:
279,325,99991,1,0,0:0:0:0:
209,272,100128,1,10,0:0:0:0:
123,299,100401,1,4,0:0:0:0:
275,183,100673,6,0,P|282:153|295:116,1,53.9999983520508,6|4,0:0|0:0,0:0:0:0:
150,215,100946,2,0,P|136:187|116:153,1,53.9999983520508,8|4,0:0|0:0,0:0:0:0:
270,291,101219,2,0,P|304:281|348:274,1,72,12|8,0:0|0:0,0:0:0:0:
177,71,101491,2,0,P|190:103|201:140,1,72,8|8,0:0|0:0,0:0:0:0:
109,320,101764,5,12,0:0:0:0:
137,199,101901,1,8,0:0:0:0:
123,203,101969,1,8,0:0:0:0:
111,211,102037,1,8,0:0:0:0:
63,141,102173,1,8,0:3:0:0:
246,278,102310,5,12,0:0:0:0:
215,210,102446,1,8,0:0:0:0:
420,85,102582,5,8,0:0:0:0:
380,151,102719,1,8,0:0:0:0:
198,42,102856,6,0,P|161:31|117:22,2,80.9999975280763,6|4|10,0:0|0:0|0:0,0:0:0:0:
309,249,103265,2,0,P|324:207|332:166,1,80.9999975280763,4|6,0:0|0:0,0:0:0:0:
473,301,103537,2,0,P|442:268|418:234,1,80.9999975280763,4|10,0:0|0:0,0:0:0:0:
351,333,103810,1,4,0:0:0:0:
201,168,103946,5,6,0:0:0:0:
143,123,104083,1,4,0:0:0:0:
70,126,104219,1,10,0:0:0:0:
202,182,104356,5,4,0:0:0:0:
148,109,104492,1,6,0:0:0:0:
60,138,104628,1,10,0:0:0:0:
24,306,104765,6,0,P|45:267|68:233,2,80.9999975280763,6|4|10,0:0|0:0|0:0,0:0:0:0:
2,114,105174,2,0,P|39:97|83:83,1,80.9999975280763,4|6,0:0|0:0,0:0:0:0:
215,199,105446,1,4,0:0:0:0:
233,191,105583,2,0,P|223:148|205:105,1,80.9999975280763,10|4,0:0|0:0,0:0:0:0:
240,43,105787,1,0,0:0:0:0:
246,56,105856,5,6,0:0:0:0:
315,97,105992,1,4,0:0:0:0:
392,75,106128,1,2,0:0:0:0:
246,41,106265,5,4,0:0:0:0:
313,110,106401,1,6,0:0:0:0:
400,64,106537,1,4,0:0:0:0:
414,221,106674,5,10,0:0:0:0:
439,152,106810,1,4,0:0:0:0:
272,282,106947,6,0,P|237:266|182:246,2,80.9999975280763,6|4|10,0:0|0:0|0:0,0:0:0:0:
121,364,107356,2,0,P|92:334|54:305,1,80.9999975280763,4|6,0:0|0:0,0:0:0:0:
129,225,107628,2,0,P|149:178|170:138,1,80.9999975280763,4|10,0:0|0:0,0:0:0:0:
85,73,107901,1,4,0:0:0:0:
255,175,108037,5,6,0:0:0:0:
307,123,108174,1,4,0:0:0:0:
379,128,108310,1,10,0:0:0:0:
259,187,108447,5,4,0:0:0:0:
305,112,108583,1,6,0:0:0:0:
391,135,108719,1,4,0:0:0:0:
483,279,108856,5,10,0:0:0:0:
418,237,108993,1,4,0:0:0:0:
280,348,109128,6,0,P|240:336|192:328,2,80.9999975280763,6|4|6,0:0|0:0|0:0,0:0:0:0:
209,231,109537,1,4,0:0:0:0:
63,362,109674,2,0,P|46:320|25:279,1,80.9999975280763,10|4,0:0|0:0,0:0:0:0:
216,207,109947,2,0,P|177:230|136:264,1,80.9999975280763,6|4,0:0|0:0,0:0:0:0:
67,50,110219,5,10,0:0:0:0:
93,191,110356,1,4,0:0:0:0:
230,46,110492,1,10,0:0:0:0:
184,132,110628,1,4,0:0:0:0:
175,118,110697,1,4,0:0:0:0:
167,108,110765,1,8,0:0:0:0:
382,270,110901,5,8,0:0:0:0:
305,143,111037,1,8,0:0:0:0:
235,323,111174,1,8,0:0:0:0:
405,146,111311,6,0,P|441:119|480:98,1,80.9999975280763,6|4,0:0|0:0,0:0:0:0:
461,32,111583,1,10,0:0:0:0:
288,161,111720,2,0,P|259:137|208:102,1,80.9999975280763,4|6,0:0|0:0,0:0:0:0:
304,284,111992,1,4,0:0:0:0:
322,283,112129,2,0,P|338:249|371:196,1,80.9999975280763,10|4,0:0|0:0,0:0:0:0:
437,217,112333,1,0,0:0:0:0:
450,228,112401,5,6,0:0:0:0:
398,291,112538,1,4,0:0:0:0:
409,370,112674,1,10,0:0:0:0:
464,229,112811,5,4,0:0:0:0:
385,287,112947,1,6,0:0:0:0:
422,378,113083,1,8,0:0:0:0:
262,238,113220,6,0,P|224:224|151:207,1,80.9999975280763,6|4,0:0|0:0,0:0:0:0:
169,133,113492,1,10,0:0:0:0:
32,367,113629,2,0,P|57:325|85:287,1,80.9999975280763,4|6,0:0|0:0,0:0:0:0:
258,292,113901,1,4,0:0:0:0:
269,277,114038,2,0,P|233:253|193:239,1,80.9999975280763,10|4,0:0|0:0,0:0:0:0:
138,294,114242,1,0,0:0:0:0:
123,297,114311,5,6,0:0:0:0:
57,249,114447,1,4,0:0:0:0:
69,169,114583,1,10,0:0:0:0:
138,294,114720,5,4,0:0:0:0:
42,256,114856,1,6,0:0:0:0:
80,158,114992,1,4,0:0:0:0:
262,62,115129,5,10,0:0:0:0:
237,136,115265,1,4,0:0:0:0:
424,179,115401,6,0,P|465:160|503:148,1,80.9999975280763,6|4,0:0|0:0,0:0:0:0:
499,226,115673,1,10,0:0:0:0:
327,94,115810,2,0,P|337:52|351:4,1,80.9999975280763,4|6,0:0|0:0,0:0:0:0:
197,172,116082,1,4,0:0:0:0:
181,167,116219,2,0,P|162:127|138:83,1,80.9999975280763,6|4,0:0|0:0,0:0:0:0:
201,44,116423,1,0,0:0:0:0:
210,55,116491,5,10,0:0:0:0:
224,134,116628,1,4,0:0:0:0:
184,211,116764,1,10,0:0:0:0:
195,49,116901,5,4,0:0:0:0:
237,139,117037,1,6,0:0:0:0:
172,215,117173,1,4,0:0:0:0:
294,359,117310,5,10,0:0:0:0:
261,291,117446,1,4,0:0:0:0:
462,231,117582,6,0,P|471:187|491:129,1,80.9999975280763,10|4,0:0|0:0,0:0:0:0:
277,195,117855,2,0,P|303:225|326:258,1,80.9999975280763,6|4,0:0|0:0,0:0:0:0:
435,37,118128,5,10,0:0:0:0:
400,211,118264,1,4,0:0:0:0:
306,40,118401,1,10,0:0:0:0:
332,151,118537,2,0,L|347:93,1,40.4999987640381,4|4,0:0|0:0,0:0:0:0:
207,219,118673,5,8,0:0:0:0:
198,188,118810,1,8,0:0:0:0:
354,137,118946,5,8,0:0:0:0:
322,201,119082,1,8,0:0:0:0:
143,92,119219,5,8,0:0:0:0:
58,47,119355,1,8,0:0:0:0:
363,32,119491,5,8,0:0:0:0:
263,135,119628,1,8,0:0:0:0:
397,280,119764,6,0,P|451:261|510:248,1,107.999996704102,6|4,0:0|0:0,0:0:0:0:
224,342,120036,1,10,0:0:0:0:
368,366,120173,1,4,0:0:0:0:
278,210,120309,2,0,P|252:155|217:102,1,107.999996704102,10|4,0:0|0:0,0:0:0:0:
411,17,120582,1,10,0:0:0:0:
406,155,120718,1,4,0:0:0:0:
420,164,120786,1,0,0:0:0:0:
435,172,120854,2,0,B|427:135|427:135|352:103,1,107.999996704102,10|0,0:0|0:0,0:0:0:0:
188,357,121127,6,0,B|181:291|181:291|198:236|198:236|189:153,1,188.999994232178,10|0,0:0|2:0,0:0:0:0:
198,159,121400,6,0,B|209:235|209:235|172:293|172:293|179:351,1,202.500007724762,10|0,0:0|2:0,0:0:0:0:
201,375,121673,6,0,L|173:119,1,229.500004377365,10|0,0:0|2:0,0:0:0:0:
71,312,121945,6,0,L|88:188,1,107.999996704102,10|4,0:0|0:0,0:0:0:0:
144,34,122218,1,10,0:0:0:0:
203,245,122354,1,4,0:0:0:0:
275,52,122491,1,10,0:0:0:0:
312,191,122627,1,4,0:0:0:0:
406,75,122764,1,10,0:0:0:0:
401,60,122900,1,4,0:0:0:0:
440,291,123036,6,0,B|375:267|375:267|333:278,1,107.999996704102,10|4,0:0|0:0,0:0:0:0:
282,315,123241,1,4,0:0:0:0:
294,329,123309,2,0,B|229:305|229:305|187:316,1,107.999996704102,10|4,0:0|0:0,0:0:0:0:
127,352,123514,1,4,0:0:0:0:
138,367,123582,2,0,B|160:298|160:298|118:309,1,107.999996704102,10|4,0:0|0:0,0:0:0:0:
55,291,123786,1,4,0:0:0:0:
41,276,123854,1,10,0:0:0:0:
182,125,123991,1,4,0:0:0:0:
189,109,124059,1,4,0:0:0:0:
197,93,124127,6,0,L|91:170,1,107.999996704102,10|4,0:0|0:0,0:0:0:0:
298,254,124400,1,10,0:0:0:0:
319,114,124536,1,4,0:0:0:0:
118,19,124673,2,0,L|138:135,1,107.999996704102,10|4,0:0|0:0,0:0:0:0:
382,223,124945,5,10,0:0:0:0:
310,43,125081,1,4,0:0:0:0:
188,288,125218,6,0,B|174:253|174:253|201:157,1,107.999996704102,10|4,0:0|0:0,0:0:0:0:
335,346,125491,1,10,0:3:0:0:
304,149,125627,1,4,0:0:0:0:
316,166,125695,1,4,0:0:0:0:
332,180,125764,1,10,0:0:0:0:
199,96,125900,1,4,0:0:0:0:
183,110,125968,1,4,0:0:0:0:
165,120,126037,1,10,0:0:0:0:
353,73,126173,2,0,L|414:59,1,53.9999983520508,4|4,0:0|0:0,0:0:0:0:
454,142,126309,6,0,L|337:107,1,107.999996704102,10|8,0:0|0:0,0:0:0:0:
272,345,126582,2,0,L|340:241,1,107.999996704102,10|8,0:0|0:0,0:0:0:0:
93,96,126854,1,10,0:0:0:0:
148,276,126991,1,8,0:0:0:0:
248,115,127127,1,10,0:0:0:0:
217,227,127264,1,8,0:0:0:0:
434,309,127400,5,8,0:0:0:0:
411,278,127468,1,8,0:0:0:0:
376,263,127536,1,8,0:0:0:0:
338,265,127604,1,8,0:0:0:0:
306,287,127673,5,4,0:0:0:0:
289,314,127741,1,4,0:0:0:0:
263,333,127809,1,8,0:0:0:0:
231,338,127877,1,4,0:0:0:0:
200,325,127945,5,8,0:0:0:0:
205,309,128014,1,4,0:0:0:0:
211,294,128082,1,4,0:0:0:0:
216,278,128150,1,4,0:0:0:0:
222,262,128218,1,10,0:0:0:0:
54,82,128354,1,4,0:0:0:0:
46,50,128423,1,4,0:0:0:0:
38,18,128491,6,0,L|-6:147,1,107.999996704102,10|4,0:0|0:0,0:0:0:0:
169,171,128764,1,10,0:0:0:0:
128,332,128900,1,4,0:0:0:0:
294,291,129036,2,0,B|352:287|352:287|425:309,1,107.999996704102,10|4,0:0|0:0,0:0:0:0:
316,79,129309,1,10,0:3:0:0:
394,166,129445,1,0,0:0:0:0:
408,171,129514,1,0,0:0:0:0:
423,177,129582,5,10,0:0:0:0:
233,91,129718,1,4,0:0:0:0:
219,96,129787,1,0,0:0:0:0:
204,102,129855,5,14,0:0:0:0:
218,85,129923,1,0,0:0:0:0:
237,75,129991,1,0,0:0:0:0:
258,71,130059,1,0,0:0:0:0:
279,69,130127,5,14,0:0:0:0:
243,56,130195,1,0,0:0:0:0:
204,52,130264,1,0,0:0:0:0:
167,61,130332,1,0,0:0:0:0:
135,82,130400,5,14,0:0:0:0:
151,36,130468,1,0,0:0:0:0:
193,13,130536,1,0,0:0:0:0:
241,9,130604,1,0,0:0:0:0:
287,24,130673,6,0,P|305:88|315:146,1,107.999996704102,10|4,0:0|0:0,0:0:0:0:
124,358,130945,1,10,0:0:0:0:
354,290,131082,1,4,0:0:0:0:
153,190,131218,1,10,0:0:0:0:
292,229,131354,1,4,0:0:0:0:
226,108,131491,1,10,0:0:0:0:
232,121,131627,1,4,0:0:0:0:
44,275,131764,6,0,B|65:207|65:207|61:163,1,107.999996704102,10|4,0:0|0:0,0:0:0:0:
139,142,131968,1,4,0:0:0:0:
126,134,132036,2,0,B|105:66|105:66|109:22,1,107.999996704102,10|4,0:0|0:0,0:0:0:0:
180,35,132241,1,4,0:0:0:0:
191,45,132309,2,0,B|268:57|268:57|240:16,1,107.999996704102,10|4,0:0|0:0,0:0:0:0:
327,16,132514,1,4,0:0:0:0:
343,11,132582,1,10,0:0:0:0:
273,227,132718,1,4,0:0:0:0:
267,247,132786,1,4,0:0:0:0:
262,268,132854,6,0,L|383:226,1,107.999996704102,10|4,0:0|0:0,0:0:0:0:
116,124,133127,1,10,0:0:0:0:
171,260,133264,1,4,0:0:0:0:
299,89,133400,2,0,L|178:47,1,107.999996704102,10|4,0:0|0:0,0:0:0:0:
429,56,133673,5,10,0:0:0:0:
380,267,133809,1,4,0:0:0:0:
271,125,133945,6,0,L|242:12,1,107.999996704102,10|12,0:0|0:0,0:0:0:0:
139,253,134218,2,0,L|173:116,1,107.999996704102,10|12,0:0|0:0,0:0:0:0:
316,328,134491,2,0,B|273:301|273:301|212:295,1,107.999996704102,10|4,0:0|0:0,0:0:0:0:
155,324,134695,1,4,0:0:0:0:
146,340,134764,1,10,0:0:0:0:
97,117,134900,1,4,0:0:0:0:
105,97,134968,1,4,0:0:0:0:
118,80,135036,5,10,0:0:0:0:
48,175,135173,1,4,0:0:0:0:
0,0,135309,1,8,0:0:0:0:
86,64,135445,1,4,0:0:0:0:
224,18,135582,1,8,0:0:0:0:
202,14,135650,1,8,0:0:0:0:
180,11,135718,1,12,0:0:0:0:
239,100,135854,1,8,0:0:0:0:
42,206,135991,6,0,B|104:179|104:179|170:208|170:208|257:195,1,215.999993408203,6|8,0:0|0:0,0:0:0:0:
261,216,136400,1,4,0:0:0:0:
181,173,136537,1,4,0:0:0:0:
391,48,136673,6,0,B|366:100|366:100|381:140|381:140|362:215,1,161.999995056153,6|8,0:0|0:0,0:0:0:0:
349,202,137082,1,4,0:0:0:0:
404,127,137218,1,4,0:0:0:0:
196,247,137355,6,0,B|207:278|207:278|193:313|193:313|199:375,1,107.999996704102,6|8,0:0|0:0,0:0:0:0:
219,362,137764,1,4,0:0:0:0:
179,248,137900,1,8,0:0:0:0:
235,166,138037,1,4,0:0:0:0:
203,97,138173,1,8,0:0:0:0:
245,38,138309,1,4,0:0:0:0:
217,8,138446,1,4,0:0:0:0:
228,0,138582,5,6,0:0:0:0:
117,175,146219,5,10,0:0:0:0:
198,170,146355,1,4,0:0:0:0:
261,222,146491,1,4,0:0:0:0:
108,188,146628,5,10,0:0:0:0:
200,155,146764,1,4,0:0:0:0:
259,236,146900,1,4,0:0:0:0:
100,202,147037,5,10,0:0:0:0:
202,141,147173,1,4,0:0:0:0:
259,250,147309,1,4,0:0:0:0:
89,215,147446,5,10,0:0:0:0:
204,130,147582,1,4,0:0:0:0:
258,263,147719,1,4,0:0:0:0:
107,70,147855,6,0,P|151:58|194:43,1,90,10|4,0:0|0:0,0:0:0:0:
285,159,148128,2,0,P|244:138|205:114,1,90,4|4,0:0|0:0,0:0:0:0:
352,72,148400,5,10,0:0:0:0:
363,152,148536,1,4,0:0:0:0:
427,203,148672,1,4,0:0:0:0:
362,60,148809,5,10,0:0:0:0:
349,157,148945,1,4,0:0:0:0:
441,198,149081,1,4,0:0:0:0:
374,49,149218,5,10,0:0:0:0:
336,162,149354,1,0,0:0:0:0:
454,195,149490,1,0,0:0:0:0:
385,36,149627,5,10,0:0:0:0:
326,166,149763,1,0,0:0:0:0:
467,191,149900,1,4,0:0:0:0:
301,63,150037,5,8,0:3:0:0:
232,42,150173,1,8,0:3:0:0:
68,154,150309,5,8,0:3:0:0:
137,133,150445,1,8,0:3:0:0:
220,317,150582,6,0,L|231:185,1,125.999996154785,6|6,0:0|0:0,0:0:0:0:
220,174,150991,1,4,0:0:0:0:
300,300,151128,1,10,0:0:0:0:
322,295,151537,6,0,L|333:223,1,62.9999980773926,4|6,0:0|0:0,0:0:0:0:
238,364,151809,2,0,L|215:235,1,125.999996154785,8|4,0:0|0:0,0:0:0:0:
61,168,152219,5,10,0:0:0:0:
132,134,152355,1,4,0:0:0:0:
146,300,152491,5,6,0:0:0:0:
111,236,152628,1,12,0:0:0:0:
266,101,152764,6,0,P|299:90|338:78,2,62.9999980773926,6|0|6,0:0|0:0|0:0,0:0:0:0:
185,49,153173,1,4,0:0:0:0:
166,45,153241,1,4,0:0:0:0:
147,41,153309,1,10,0:0:0:0:
140,171,153446,6,0,P|196:131|251:101,1,125.999996154785,0|4,0:0|0:0,0:0:0:0:
14,35,153991,2,0,P|25:63|39:100,1,62.9999980773926,8|6,0:0|0:0,0:0:0:0:
102,264,154264,6,0,P|135:245|174:229,1,62.9999980773926,4|8,0:0|0:0,0:0:0:0:
236,249,154491,1,4,0:0:0:0:
300,288,154582,1,8,0:0:0:0:
370,277,154673,1,4,0:0:0:0:
411,235,154764,1,8,0:0:0:0:
422,185,154855,1,4,0:0:0:0:
410,148,154946,5,6,0:0:0:0:
386,164,155014,1,0,2:0:0:0:
359,173,155082,1,0,2:0:0:0:
330,172,155150,1,0,2:0:0:0:
304,160,155219,2,0,P|311:111|321:58,1,99.0000030212403,10|4,0:0|0:0,0:0:0:0:
128,46,155491,5,2,2:3:0:0:
131,80,155559,1,0,2:0:0:0:
136,114,155628,1,4,0:0:0:0:
141,148,155696,1,0,2:0:0:0:
161,175,155764,5,10,0:0:0:0:
160,199,155832,1,0,2:0:0:0:
159,223,155900,1,4,0:0:0:0:
158,248,155969,1,0,2:0:0:0:
142,279,156037,5,2,2:3:0:0:
124,269,156105,1,0,2:0:0:0:
107,259,156173,1,4,0:0:0:0:
90,249,156241,1,0,2:0:0:0:
73,239,156309,1,10,0:0:0:0:
449,126,156446,6,0,B|397:111|359:70|359:70|336:116|292:137|292:137|225:114|153:126|100:174,1,396.000012084961,4|0,0:0|0:0,0:0:0:0:
230,323,157128,2,0,P|240:273|261:205,1,99.0000030212403,6|0,0:0|2:0,0:0:0:0:
41,117,157400,2,0,P|105:75|162:26,1,148.50000453186,2|0,0:0|0:0,0:0:0:0:
333,285,157809,6,0,P|355:190|125:107,1,396.000012084961,4|4,0:0|0:0,0:0:0:0:
52,278,158491,2,0,P|98:255|127:245,1,66.0000020141602,10|0,0:0|0:0,0:0:0:0:
198,173,158673,1,0,2:0:0:0:
208,152,158764,2,0,P|191:121|172:93,1,66.0000020141602,6|0,0:0|0:0,0:0:0:0:
302,241,158946,1,0,2:0:0:0:
281,244,159037,2,0,P|264:272|252:308,1,66.0000020141602,10|0,0:0|0:0,0:0:0:0:
437,105,159219,1,0,2:0:0:0:
449,86,159309,6,0,P|369:123|382:225,1,198.000006042481,6|10,0:0|0:0,0:0:0:0:
301,64,159719,1,4,0:0:0:0:
274,77,159787,1,0,2:0:0:0:
244,82,159855,1,2,2:3:0:0:
160,30,159991,1,4,0:0:0:0:
208,204,160128,5,10,0:0:0:0:
183,187,160196,1,0,2:0:0:0:
158,169,160264,1,4,0:0:0:0:
133,152,160332,1,0,2:0:0:0:
108,134,160400,2,0,P|102:108|93:79,3,49.5000015106202,2|0|4|0,2:3|2:0|0:0|2:0,0:0:0:0:
32,189,160673,2,0,P|20:213|5:239,3,49.5000015106202,10|0|0|0,0:0|2:0|2:0|2:0,0:0:0:0:
92,265,160946,5,6,0:0:0:0:
113,244,161014,1,0,2:0:0:0:
142,238,161082,1,4,0:0:0:0:
171,241,161150,1,0,2:0:0:0:
196,256,161219,1,10,0:0:0:0:
216,277,161287,1,0,2:0:0:0:
226,304,161355,2,0,P|235:275|248:235,1,49.5000015106202,0|0,2:0|2:0,0:0:0:0:
318,153,161491,5,6,0:0:0:0:
334,183,161559,1,0,2:0:0:0:
363,201,161628,1,0,2:0:0:0:
397,205,161696,1,0,2:0:0:0:
430,196,161764,5,10,0:0:0:0:
415,176,161832,1,0,2:0:0:0:
392,165,161900,1,4,0:0:0:0:
367,160,161969,1,0,2:0:0:0:
342,159,162037,5,2,2:3:0:0:
331,136,162105,1,0,2:0:0:0:
311,120,162173,1,4,0:0:0:0:
288,110,162242,1,0,2:0:0:0:
263,108,162309,5,10,0:0:0:0:
245,132,162378,1,0,2:0:0:0:
221,149,162446,1,4,0:0:0:0:
192,158,162514,1,0,2:0:0:0:
162,153,162582,6,0,P|133:134|75:101,1,99.0000030212403,2|0,0:0|0:0,0:0:0:0:
188,48,162855,1,10,0:0:0:0:
212,268,162991,1,4,0:0:0:0:
333,141,163128,1,10,0:0:0:0:
306,154,163196,1,0,2:0:0:0:
287,176,163264,1,4,0:0:0:0:
455,217,163400,1,10,0:0:0:0:
471,241,163468,1,0,0:0:0:0:
477,270,163536,1,0,0:0:0:0:
92,363,163673,6,0,B|159:291|313:292|225:365|387:348|447:297|447:297|389:256|352:209|352:209|298:237|239:245|239:245|177:221|109:214,1,755.999976928712,10|10,0:0|0:0,0:0:0:0:
104,216,165363,1,0,0:0:0:0:
98,223,165418,1,0,0:0:0:0:
93,231,165472,1,0,0:0:0:0:
87,239,165527,1,0,0:0:0:0:
82,247,165581,1,6,0:0:0:0:
77,255,165636,1,0,0:0:0:0:
72,263,165690,1,0,0:0:0:0:
68,271,165745,1,0,0:0:0:0:
63,279,165799,1,0,0:0:0:0:
59,288,165854,1,8,0:0:0:0:
55,296,165909,1,0,0:0:0:0:
51,307,165963,1,0,0:0:0:0:
45,318,166018,1,4,0:0:0:0:
41,329,166072,1,0,0:0:0:0:
36,342,166128,6,0,P|23:310|9:277,3,49.5000015106202,2|0|4|0,2:3|2:0|0:0|2:0,0:0:0:0:
67,207,166400,2,0,P|42:183|15:158,3,49.5000015106202,10|0|4|0,0:0|2:0|0:0|2:0,0:0:0:0:
80,88,166673,2,0,P|47:76|13:64,3,49.5000015106202,0|0|4|0,2:0|2:0|0:0|2:0,0:0:0:0:
147,33,166946,5,10,0:0:0:0:
158,60,167014,1,0,0:0:0:0:
180,79,167082,1,4,2:3:0:0:
208,86,167150,1,0,0:0:0:0:
237,83,167219,1,2,2:3:0:0:
266,79,167287,1,0,0:0:0:0:
295,84,167355,1,4,2:3:0:0:
320,98,167423,1,0,0:0:0:0:
340,119,167491,1,8,0:0:0:0:
349,146,167559,1,0,2:0:0:0:
342,174,167628,6,0,P|311:160|268:146,1,49.5000015106202,8|0,0:0|2:0,0:0:0:0:
303,242,167764,2,0,P|306:275|315:320,1,49.5000015106202,8|0,0:0|2:0,0:0:0:0:
381,246,167900,2,0,P|408:226|442:195,1,49.5000015106202,8|0,0:0|2:0,0:0:0:0:
387,82,168037,6,0,P|341:70|274:58,1,99.0000030212403,6|0,0:0|2:0,0:0:0:0:
223,85,168241,1,0,2:0:0:0:
215,99,168309,1,10,0:0:0:0:
152,186,168446,1,4,0:0:0:0:
296,269,168582,1,2,2:3:0:0:
324,262,168650,1,0,2:0:0:0:
353,269,168719,1,4,0:0:0:0:
375,288,168787,1,0,2:0:0:0:
389,314,168855,2,0,L|397:374,3,49.5000015106202,10|0|4|0,0:0|2:0|0:0|2:0,0:0:0:0:
464,269,169128,5,2,2:3:0:0:
440,250,169196,1,0,2:0:0:0:
420,227,169264,1,4,0:0:0:0:
407,200,169332,1,0,2:0:0:0:
406,170,169400,1,10,0:0:0:0:
414,141,169469,1,0,2:0:0:0:
429,115,169537,1,0,2:0:0:0:
336,199,169673,5,6,0:0:0:0:
315,178,169741,1,0,2:0:0:0:
293,184,169809,1,4,0:0:0:0:
273,172,169878,1,0,2:0:0:0:
254,179,169946,2,0,P|229:173|201:166,3,49.5000015106202,10|0|0|0,0:0|2:0|2:0|2:0,0:0:0:0:
206,296,170219,5,6,0:0:0:0:
200,290,170273,1,0,0:0:0:0:
193,285,170328,1,0,2:0:0:0:
186,281,170382,1,0,0:0:0:0:
178,278,170437,1,0,0:0:0:0:
170,276,170491,2,0,P|166:248|159:217,1,49.5000015106202
69,207,170628,2,0,P|77:183|87:161,1,49.5000015106202
67,66,170764,5,0,0:0:0:0:
90,34,170832,1,0,0:0:0:0:
127,20,170900,1,0,0:0:0:0:
166,25,170969,1,0,0:0:0:0:
192,54,171037,2,0,P|176:77|163:103,3,49.5000015106202,10|0|4|0,0:0|0:0|0:0|0:0,0:0:0:0:
280,107,171309,1,2,2:3:0:0:
292,139,171378,1,0,2:0:0:0:
284,172,171446,1,4,0:0:0:0:
257,194,171514,1,0,2:0:0:0:
224,206,171582,6,0,P|241:233|256:264,1,49.5000015106202,10|0,0:0|2:0,0:0:0:0:
318,198,171719,2,0,P|346:183|374:163,1,49.5000015106202,4|0,0:0|2:0,0:0:0:0:
399,271,171855,2,0,P|408:299|413:326,1,49.5000015106202,6|0,0:0|2:0,0:0:0:0:
485,375,171991,2,0,P|494:347|506:322,1,49.5000015106202,4|0,0:0|2:0,0:0:0:0:
452,136,172128,2,0,P|431:125|405:110,1,49.5000015106202,10|0,0:0|2:0,0:0:0:0:
298,271,172264,2,0,P|279:286|257:306,1,49.5000015106202,4|0,0:0|2:0,0:0:0:0:
219,130,172400,6,0,P|165:115|100:110,1,107.999996704102,6|0,0:0|0:0,0:0:0:0:
66,60,172809,2,0,P|88:40|108:18,1,53.9999983520508,0|10,0:0|0:0,0:0:0:0:
124,20,173219,5,0,0:0:0:0:
61,78,173355,2,0,P|52:127|43:198,1,107.999996704102,0|0,0:0|0:0,0:0:0:0:
99,240,173764,2,0,P|120:208|143:180,1,53.9999983520508,4|0,0:0|0:0,0:0:0:0:
204,303,174173,5,0,0:0:0:0:
263,262,174309,1,0,0:0:0:0:
322,308,174446,2,0,P|372:288|426:275,1,107.999996704102,4|0,0:0|0:0,0:0:0:0:
485,310,174855,2,0,P|488:340|495:380,1,53.9999983520508,4|0,0:0|0:0,0:0:0:0:
486,194,175400,5,4,0:0:0:0:
471,206,175469,1,4,0:0:0:0:
456,217,175537,1,4,0:0:0:0:
440,227,175605,1,4,0:0:0:0:
424,237,175673,2,0,P|414:261|407:290,1,53.9999983520508,6|0,0:0|0:0,0:0:0:0:
344,240,175946,2,0,P|325:258|306:281,1,53.9999983520508,0|4,0:0|0:0,0:0:0:0:
253,221,176219,5,10,0:0:0:0:
222,248,176355,1,4,0:0:0:0:
160,219,176491,1,0,0:0:0:0:
82,263,176628,1,4,0:0:0:0:
20,187,176764,6,0,P|32:131|49:78,1,107.999996704102,6|0,0:0|0:0,0:0:0:0:
120,87,177173,2,0,P|148:101|179:114,1,53.9999983520508,0|10,0:0|0:0,0:0:0:0:
178,127,177582,5,0,0:0:0:0:
118,72,177719,2,0,P|171:60|232:40,1,107.999996704102,0|0,0:0|0:0,0:0:0:0:
279,98,178128,2,0,P|309:104|345:114,1,53.9999983520508,4|0,0:0|0:0,0:0:0:0:
476,45,178537,5,4,0:0:0:0:
472,63,178605,1,4,0:0:0:0:
468,81,178673,1,4,0:0:0:0:
464,99,178741,1,4,0:0:0:0:
461,117,178809,2,0,P|469:151|474:191,1,53.9999983520508,4|6,0:0|0:0,0:0:0:0:
372,100,179082,1,0,0:0:0:0:
382,183,179219,2,0,P|386:151|394:118,1,53.9999983520508,4|0,0:0|0:0,0:0:0:0:
317,37,179764,5,0,0:0:0:0:
260,87,179900,1,4,0:0:0:0:
184,81,180037,2,0,P|174:54|159:21,1,53.9999983520508,6|0,0:0|0:0,0:0:0:0:
72,122,180309,2,0,P|87:97|108:68,1,53.9999983520508,0|4,0:0|0:0,0:0:0:0:
156,171,180582,5,10,0:0:0:0:
172,216,180673,1,4,0:0:0:0:
151,268,180764,1,4,0:0:0:0:
185,307,180855,1,6,0:0:0:0:
267,292,181128,6,0,P|318:281|377:276,1,107.999996704102,6|0,0:0|0:0,0:0:0:0:
386,208,181537,2,0,P|373:184|356:161,1,53.9999983520508,0|10,0:0|0:0,0:0:0:0:
337,167,181946,5,0,0:0:0:0:
405,214,182082,2,0,P|460:255|490:293,1,107.999996704102,0|0,0:0|0:0,0:0:0:0:
486,359,182491,2,0,P|493:318|515:249,1,107.999996704102,4|10,0:0|0:0,0:0:0:0:
476,178,182900,5,0,0:0:0:0:
416,225,183037,1,0,0:0:0:0:
343,203,183173,2,0,P|330:146|314:96,1,107.999996704102,4|0,0:0|0:0,0:0:0:0:
383,75,183582,2,0,P|395:45|413:12,1,53.9999983520508,4|0,0:0|0:0,0:0:0:0:
432,20,184128,5,4,0:0:0:0:
413,23,184196,1,4,0:0:0:0:
394,26,184264,1,4,0:0:0:0:
375,30,184332,1,4,0:0:0:0:
356,34,184400,2,0,P|345:62|336:103,1,53.9999983520508,6|0,0:0|0:0,0:0:0:0:
429,111,184673,2,0,P|445:136|462:174,1,53.9999983520508,0|4,0:0|0:0,0:0:0:0:
362,259,184946,1,10,0:0:0:0:
430,231,185082,1,4,0:0:0:0:
485,311,185219,2,0,P|492:280|501:250,1,53.9999983520508,0|4,0:0|0:0,0:0:0:0:
372,361,185491,6,0,P|328:338|265:319,1,107.999996704102,6|0,0:0|0:0,0:0:0:0:
207,349,185900,2,0,P|178:365|140:376,1,53.9999983520508,0|10,0:0|0:0,0:0:0:0:
138,361,186309,5,0,0:0:0:0:
225,359,186446,2,0,P|236:295|248:241,1,107.999996704102,0|0,0:0|0:0,0:0:0:0:
216,178,186855,2,0,L|186:114,1,53.9999983520508,4|0,0:0|0:0,0:0:0:0:
209,110,187264,5,4,0:0:0:0:
194,97,187332,1,4,0:0:0:0:
176,89,187400,1,4,0:0:0:0:
156,90,187469,1,4,0:0:0:0:
137,94,187537,2,0,P|127:124|116:163,1,53.9999983520508,4|6,0:0|0:0,0:0:0:0:
164,264,187809,1,0,0:0:0:0:
222,211,187946,6,0,P|177:214|107:228,1,107.999996704102,4|10,0:0|0:0,0:0:0:0:
54,188,188355,1,4,0:0:0:0:
8,246,188491,1,8,0:0:0:0:
13,264,188559,1,0,0:0:0:0:
18,282,188628,1,4,0:0:0:0:
24,299,188696,1,0,0:0:0:0:
29,317,188764,6,0,P|53:301|79:287,2,53.9999983520508,8|8|8,0:0|0:0|0:0,0:0:0:0:
0,242,189173,1,8,0:0:0:0:
181,339,189309,5,8,0:3:0:0:
226,279,189445,1,8,0:3:0:0:
301,283,189582,1,8,0:3:0:0:
159,236,189719,1,4,0:3:0:0:
376,128,189855,5,8,0:0:0:0:
327,269,189991,1,8,0:0:0:0:
207,73,190128,1,8,0:0:0:0:
227,181,190264,6,0,L|413:191,1,180,6|4,0:0|0:0,0:0:0:0:
345,101,190672,2,0,P|354:127|371:159,1,53.9999983520508,10|4,0:0|0:0,0:0:0:0:
315,104,190945,2,0,P|328:128|351:156,1,53.9999983520508,10|4,0:0|0:0,0:0:0:0:
288,112,191218,2,0,P|306:131|334:155,1,53.9999983520508,10|4,0:0|0:0,0:0:0:0:
262,128,191491,2,0,P|283:144|316:160,1,53.9999983520508,10|4,0:0|0:0,0:0:0:0:
240,148,191763,2,0,P|264:158|301:168,1,53.9999983520508,10|4,0:0|0:0,0:0:0:0:
222,173,192036,2,0,P|249:178|285:179,1,53.9999983520508,10|6,0:0|0:0,0:0:0:0:
319,258,192309,5,10,0:0:0:0:
223,84,192445,2,0,P|211:140|198:248,1,144,6|4,0:0|0:0,0:0:0:0:
228,299,192854,1,10,0:0:0:0:
171,210,192990,1,4,0:0:0:0:
285,153,193127,2,0,P|320:146|363:142,1,72,10|4,0:0|0:0,0:0:0:0:
159,60,193400,1,10,0:0:0:0:
198,142,193536,1,4,0:0:0:0:
253,55,193672,6,0,P|259:34|269:10,2,36,10|0|4,0:0|2:0|0:0,0:0:0:0:
252,227,193945,1,10,0:0:0:0:
133,183,194081,1,4,0:0:0:0:
148,162,194150,1,4,0:0:0:0:
157,139,194218,1,8,0:0:0:0:
130,343,194354,1,8,0:0:0:0:
236,167,194490,1,8,0:0:0:0:
229,335,194627,6,0,L|210:175,1,144,6|4,0:0|0:0,0:0:0:0:
135,31,195036,6,0,P|123:60|112:105,1,53.9999983520508,10|4,0:0|0:0,0:0:0:0:
161,31,195309,2,0,P|143:56|123:98,1,53.9999983520508,10|4,0:0|0:0,0:0:0:0:
184,34,195581,2,0,P|161:55|132:92,1,53.9999983520508,10|4,0:0|0:0,0:0:0:0:
207,44,195854,2,0,P|180:60|144:90,1,53.9999983520508,10|4,0:0|0:0,0:0:0:0:
228,60,196127,2,0,P|198:70|157:92,1,53.9999983520508,10|4,0:0|0:0,0:0:0:0:
245,79,196400,2,0,P|213:83|169:96,1,53.9999983520508,10|6,0:0|0:0,0:0:0:0:
93,32,196672,5,8,0:0:0:0:
233,176,196809,2,0,P|301:149|382:131,1,144,6|4,0:0|0:0,0:0:0:0:
368,104,197218,1,10,0:0:0:0:
320,173,197354,1,4,0:0:0:0:
188,75,197491,5,10,0:0:0:0:
117,87,197627,1,4,0:0:0:0:
78,148,197764,1,4,0:0:0:0:
326,302,197900,5,10,0:0:0:0:
263,232,198036,1,4,0:0:0:0:
287,141,198173,1,10,0:0:0:0:
429,296,198309,5,4,0:0:0:0:
467,165,198445,1,4,0:0:0:0:
329,221,198582,1,8,0:0:0:0:
343,231,198650,1,8,0:0:0:0:
355,244,198718,1,8,0:0:0:0:
317,142,198854,1,8,0:0:0:0:
148,340,198990,6,0,B|183:329|198:312|198:312|215:317|227:332|227:332|252:314|333:298,1,180,6|4,0:0|0:0,0:0:0:0:
383,334,199331,1,4,0:0:0:0:
390,349,199400,6,0,P|414:329|446:296,1,53.9999983520508,10|4,0:0|0:0,0:0:0:0:
367,336,199673,2,0,P|395:323|433:296,1,53.9999983520508,10|4,0:0|0:0,0:0:0:0:
349,321,199945,2,0,P|379:314|423:296,1,53.9999983520508,10|4,0:0|0:0,0:0:0:0:
334,301,200218,2,0,P|365:300|411:292,1,53.9999983520508,10|4,0:0|0:0,0:0:0:0:
323,277,200491,2,0,P|353:283|400:284,1,53.9999983520508,10|4,0:0|0:0,0:0:0:0:
318,252,200764,2,0,P|347:264|392:275,1,53.9999983520508,10|6,0:0|0:0,0:0:0:0:
267,332,201036,5,8,0:0:0:0:
419,190,201172,2,0,P|432:119|451:37,1,144,6|8,0:0|0:0,0:0:0:0:
420,38,201581,1,6,0:0:0:0:
467,131,201718,1,4,0:0:0:0:
304,227,201854,5,8,0:0:0:0:
278,159,201990,1,6,0:0:0:0:
218,118,202127,1,4,0:0:0:0:
488,150,202263,5,8,0:0:0:0:
427,212,202400,1,6,0:0:0:0:
342,196,202536,1,4,0:0:0:0:
155,48,202672,5,8,0:0:0:0:
116,37,202740,1,8,0:0:0:0:
77,46,202809,1,8,0:0:0:0:
55,78,202877,1,8,0:0:0:0:
58,117,202945,5,8,0:0:0:0:
76,133,203013,1,4,0:0:0:0:
89,154,203081,1,8,0:0:0:0:
99,177,203150,1,4,0:0:0:0:
106,201,203218,5,8,0:0:0:0:
92,197,203286,1,8,0:0:0:0:
77,195,203354,1,4,0:0:0:0:
62,196,203422,1,4,0:0:0:0:
49,202,203490,6,0,P|54:241|59:296,1,72,6|10,0:0|0:0,0:0:0:0:
186,354,203762,1,4,0:0:0:0:
194,337,203830,1,4,0:0:0:0:
205,323,203899,2,0,P|245:310|297:299,1,72,10|4,0:0|0:0,0:0:0:0:
176,177,204171,6,0,L|165:78,1,72,10|4,0:0|0:0,0:0:0:0:
211,51,204376,1,4,0:0:0:0:
226,57,204444,2,0,B|260:69|260:69|312:65,1,72,10|4,0:0|0:0,0:0:0:0:
72,60,204717,5,10,0:0:0:0:
37,143,204853,1,4,0:0:0:0:
47,157,204921,1,4,0:0:0:0:
55,173,204990,1,10,0:0:0:0:
106,263,205126,1,4,0:0:0:0:
118,251,205194,1,4,0:0:0:0:
129,237,205263,1,10,0:0:0:0:
224,328,205399,6,0,P|257:319|296:314,1,72,6|10,0:0|0:0,0:0:0:0:
435,368,205671,1,4,0:0:0:0:
418,359,205740,1,4,0:0:0:0:
404,347,205808,2,0,P|416:309|432:269,1,72,10|4,0:0|0:0,0:0:0:0:
326,240,206080,2,0,P|306:205|282:169,1,72,10|4,0:0|0:0,0:0:0:0:
306,111,206285,1,4,0:0:0:0:
323,105,206353,1,10,0:0:0:0:
220,220,206490,5,4,0:0:0:0:
182,158,206626,1,10,0:0:0:0:
110,137,206762,1,4,0:0:0:0:
100,152,206830,1,4,0:0:0:0:
94,169,206899,1,10,0:0:0:0:
172,79,207035,1,4,0:0:0:0:
159,66,207103,1,4,0:0:0:0:
149,51,207172,1,10,0:0:0:0:
238,143,207308,1,4,0:0:0:0:
220,149,207376,1,4,0:0:0:0:
205,159,207445,1,10,0:0:0:0:
272,27,207581,6,0,P|300:58|332:87,1,72,6|10,0:0|0:0,0:0:0:0:
452,112,207853,1,4,0:0:0:0:
435,119,207921,1,4,0:0:0:0:
423,133,207990,2,0,P|415:177|411:222,1,72,10|4,0:0|0:0,0:0:0:0:
269,206,208262,2,0,P|294:242|316:282,1,72,10|4,0:0|0:0,0:0:0:0:
310,339,208467,1,4,0:0:0:0:
305,353,208535,1,10,0:0:0:0:
454,273,208671,5,4,0:0:0:0:
388,239,208808,1,10,0:0:0:0:
315,260,208944,1,4,0:0:0:0:
299,269,209012,1,4,0:0:0:0:
281,274,209081,1,10,0:0:0:0:
176,182,209217,1,4,0:0:0:0:
189,194,209285,1,4,0:0:0:0:
206,202,209354,1,10,0:0:0:0:
318,95,209490,6,0,P|277:100|232:107,1,72,6|10,0:0|0:0,0:0:0:0:
180,32,209762,1,4,0:0:0:0:
166,44,209831,1,4,0:0:0:0:
149,54,209899,2,0,L|59:25,1,72,10|4,0:0|0:0,0:0:0:0:
25,111,210171,1,10,0:0:0:0:
116,229,210308,5,4,0:0:0:0:
108,210,210376,1,4,0:0:0:0:
97,195,210444,2,0,P|77:237|63:280,1,72,10|4,0:0|0:0,0:0:0:0:
43,141,210717,1,10,0:0:0:0:
139,118,210853,1,4,0:0:0:0:
151,130,210921,1,4,0:0:0:0:
166,140,210990,1,10,0:0:0:0:
334,204,211126,5,6,0:0:0:0:
285,269,211262,1,8,0:0:0:0:
238,46,211399,5,0,0:0:0:0:
301,83,211535,1,8,0:0:0:0:
174,224,211672,5,6,0:0:0:0:
176,241,211740,1,4,0:0:0:0:
177,258,211808,1,10,0:0:0:0:
178,275,211876,1,4,0:0:0:0:
179,292,211944,1,4,0:0:0:0:
181,309,212012,1,4,0:0:0:0:
182,327,212081,1,10,0:0:0:0:
295,247,212353,5,10,0:0:0:0:
294,264,212421,1,4,0:0:0:0:
293,281,212489,1,4,0:0:0:0:
291,298,212557,1,4,0:0:0:0:
290,316,212626,1,10,0:0:0:0:
392,251,212899,5,10,0:0:0:0:
395,268,212967,1,4,0:0:0:0:
399,285,213035,2,0,B|417:275|417:275|425:215,1,72,4|10,0:0|0:0,0:0:0:0:
293,281,213308,5,4,0:0:0:0:
294,264,213376,1,4,0:0:0:0:
295,247,213444,1,10,0:0:0:0:
174,224,213581,5,4,0:0:0:0:
176,241,213649,1,4,0:0:0:0:
177,258,213717,1,10,0:0:0:0:
41,187,213853,5,6,0:0:0:0:
58,180,213922,1,4,0:0:0:0:
73,171,213990,1,10,0:0:0:0:
86,159,214058,1,4,0:0:0:0:
96,144,214126,1,4,0:0:0:0:
104,127,214194,1,4,0:0:0:0:
107,109,214262,1,10,0:0:0:0:
189,37,214535,5,10,0:0:0:0:
186,54,214603,1,4,0:0:0:0:
188,71,214672,1,4,0:0:0:0:
195,87,214740,1,4,0:0:0:0:
208,99,214808,1,10,0:0:0:0:
313,66,215081,5,10,0:0:0:0:
327,56,215149,1,4,0:0:0:0:
344,53,215217,2,0,P|328:91|315:129,1,72,4|10,0:0|0:0,0:0:0:0:
188,71,215490,5,4,0:0:0:0:
186,54,215559,1,4,0:0:0:0:
189,37,215627,1,10,0:0:0:0:
107,109,215762,5,4,0:0:0:0:
104,127,215830,1,4,0:0:0:0:
96,144,215898,1,10,0:0:0:0:
195,219,216035,5,6,0:0:0:0:
211,215,216103,1,4,0:0:0:0:
228,212,216171,1,10,0:0:0:0:
245,209,216239,1,4,0:0:0:0:
262,206,216307,1,4,0:0:0:0:
278,203,216375,1,4,0:0:0:0:
296,200,216444,1,10,0:0:0:0:
387,285,216717,5,10,0:0:0:0:
370,284,216785,1,4,0:0:0:0:
353,283,216853,1,4,0:0:0:0:
336,281,216921,1,4,0:0:0:0:
318,280,216990,1,10,0:0:0:0:
449,197,217262,5,10,0:0:0:0:
466,202,217331,1,4,0:0:0:0:
483,206,217399,2,0,L|437:141,1,72,4|10,0:0|0:0,0:0:0:0:
353,283,217672,5,4,0:0:0:0:
370,284,217740,1,4,0:0:0:0:
387,285,217808,1,10,0:0:0:0:
296,200,217944,5,4,0:0:0:0:
278,203,218013,1,4,0:0:0:0:
262,206,218081,1,10,0:0:0:0:
165,318,218217,5,6,0:0:0:0:
154,303,218285,1,4,0:0:0:0:
141,290,218353,1,10,0:0:0:0:
124,281,218422,1,4,0:0:0:0:
106,275,218490,1,4,0:0:0:0:
88,275,218558,1,4,0:0:0:0:
70,279,218626,1,10,0:0:0:0:
197,222,218899,5,10,0:0:0:0:
211,211,218967,1,4,0:0:0:0:
227,204,219035,1,4,0:0:0:0:
244,201,219103,1,4,0:0:0:0:
262,202,219172,1,10,0:0:0:0:
328,285,219308,6,0,P|338:247|356:204,1,72,6|10,0:0|0:0,0:0:0:0:
185,69,219581,2,0,P|202:104|229:142,1,72,4|8,0:0|0:0,0:0:0:0:
344,61,219853,5,8,0:0:0:0:
324,137,219990,1,8,0:0:0:0:
116,193,220126,5,8,0:0:0:0:
238,245,220262,1,8,0:0:0:0:
66,358,220400,6,0,P|57:295|39:220,1,125.999996154785,6|4,0:0|0:0,0:0:0:0:
146,229,220809,1,10,0:0:0:0:
162,240,220945,2,0,P|180:209|202:177,1,62.9999980773926,4|0,0:0|0:0,0:0:0:0:
105,125,221218,6,0,P|166:108|238:72,1,125.999996154785,6|4,0:0|0:0,0:0:0:0:
136,29,221627,1,10,0:0:0:0:
147,42,221763,2,0,P|142:74|130:114,1,62.9999980773926,4|0,0:0|0:0,0:0:0:0:
280,192,222036,6,0,P|283:144|357:123,1,125.999996154785,6|4,0:0|0:0,0:0:0:0:
458,220,222445,1,10,0:0:0:0:
442,229,222581,2,0,P|431:195|412:150,1,62.9999980773926,4|0,0:0|0:0,0:0:0:0:
493,363,222854,6,0,P|454:339|365:309,1,125.999996154785,6|4,0:0|0:0,0:0:0:0:
268,358,223263,1,10,0:0:0:0:
287,355,223400,2,0,P|276:325|253:286,1,62.9999980773926,6|0,0:0|0:0,0:0:0:0:
361,130,223672,6,0,P|363:192|298:194,1,125.999996154785,6|4,0:0|0:0,0:0:0:0:
246,106,224081,1,10,0:0:0:0:
263,118,224218,2,0,P|280:89|290:56,1,62.9999980773926,4|0,0:0|0:0,0:0:0:0:
146,155,224490,6,0,P|92:130|24:108,1,125.999996154785,6|4,0:0|0:0,0:0:0:0:
19,231,224900,1,10,0:0:0:0:
40,239,225036,2,0,P|36:210|18:165,1,62.9999980773926,4|0,0:0|0:0,0:0:0:0:
103,347,225309,6,0,P|144:297|199:249,1,125.999996154785,6|4,0:0|0:0,0:0:0:0:
204,270,225718,1,10,0:0:0:0:
118,295,225854,1,4,0:0:0:0:
82,195,225990,1,8,0:0:0:0:
285,299,226127,6,0,P|297:265|315:225,1,62.9999980773926,6|0,0:0|0:0,0:0:0:0:
199,121,226400,2,0,P|214:153|236:191,1,62.9999980773926,6|0,0:0|0:0,0:0:0:0:
125,290,226672,2,0,P|148:269|173:250,1,62.9999980773926,10|0,0:0|0:0,0:0:0:0:
77,127,226945,5,6,0:0:0:0:
141,170,227081,2,0,P|176:159|229:134,1,80.9999975280763,4|4,0:0|0:0,0:0:0:0:
102,304,227354,2,0,P|87:261|69:218,2,80.9999975280763,10|4|4,0:0|0:0|0:0,0:0:0:0:
305,306,227763,5,6,0:0:0:0:
259,250,227900,2,0,P|271:202|284:160,1,80.9999975280763,4|4,0:0|0:0,0:0:0:0:
134,124,228172,1,10,0:0:0:0:
147,109,228309,2,0,P|179:132|216:167,1,80.9999975280763,4|4,0:0|0:0,0:0:0:0:
446,38,228581,5,6,0:0:0:0:
399,93,228718,2,0,P|351:89|288:77,1,80.9999975280763,4|4,0:0|0:0,0:0:0:0:
454,215,228990,2,0,P|465:170|482:113,2,80.9999975280763,10|4|4,0:0|0:0|0:0,0:0:0:0:
110,147,229400,5,6,0:0:0:0:
176,180,229536,2,0,L|264:144,1,80.9999975280763,4|4,0:0|0:0,0:0:0:0:
113,43,229809,1,10,0:0:0:0:
100,55,229945,2,0,P|69:41|21:24,1,80.9999975280763,4|4,0:0|0:0,0:0:0:0:
80,263,230218,5,6,0:0:0:0:
149,285,230355,2,0,P|191:267|236:254,1,80.9999975280763,4|4,0:0|0:0,0:0:0:0:
113,182,230627,2,0,P|92:154|52:111,2,80.9999975280763,10|4|4,0:0|0:0|0:0,0:0:0:0:
296,94,231036,5,6,0:0:0:0:
359,138,231173,2,0,P|400:123|451:109,1,80.9999975280763,4|4,0:0|0:0,0:0:0:0:
215,114,231445,1,10,0:0:0:0:
201,106,231581,2,0,P|207:59|216:17,1,80.9999975280763,4|4,0:0|0:0,0:0:0:0:
311,290,231854,5,6,0:0:0:0:
354,229,231990,2,0,P|320:213|260:200,1,80.9999975280763,4|4,0:0|0:0,0:0:0:0:
378,42,232263,1,10,0:0:0:0:
383,57,232400,2,0,P|345:85|292:117,1,80.9999975280763,4|4,0:0|0:0,0:0:0:0:
89,72,232672,5,8,0:0:0:0:
115,141,232809,1,8,0:0:0:0:
296,198,232945,5,8,0:0:0:0:
236,155,233081,1,8,0:0:0:0:
137,313,233218,5,8,0:0:0:0:
163,246,233354,1,8,0:0:0:0:
29,21,233490,6,0,B|68:79|68:79|51:145|51:145|75:207,1,198,6|0,0:0|0:0,0:0:0:0:
71,199,234308,2,0,B|79:128|79:128|34:77|34:77|26:10,1,198,6|0,0:0|0:0,0:0:0:0:
160,47,235126,6,0,B|199:55|223:77|223:77|259:58|295:55|295:55|315:75|347:93,1,198,6|0,0:0|0:0,0:0:0:0:
335,86,235944,2,0,B|311:87|284:97|284:97|253:79|228:46|228:46|197:56|159:47,1,198,6|0,0:0|0:0,0:0:0:0:
102,123,236762,6,0,P|126:164|144:206,1,90,6|0,0:0|0:0,0:0:0:0:
142,202,237171,2,0,P|142:157|137:112,1,90,6|0,0:0|0:0,0:0:0:0:
293,175,237580,6,0,P|256:222|217:290,1,134.999995880127,6|0,0:0|0:0,0:0:0:0:
218,286,237990,2,0,P|224:218|240:153,1,134.999995880127,6|0,0:0|0:0,0:0:0:0:
384,167,238399,5,8,0:0:0:0:
399,186,238467,1,8,0:0:0:0:
401,216,238535,1,8,0:0:0:0:
425,242,238603,1,8,0:0:0:0:
424,275,238671,5,4,0:0:0:0:
452,246,238739,1,4,0:0:0:0:
458,205,238808,1,8,0:0:0:0:
444,166,238876,1,4,0:0:0:0:
416,136,238944,1,8,0:0:0:0:
376,126,239012,1,4,0:0:0:0:
336,132,239080,1,4,0:0:0:0:
301,154,239149,1,4,0:0:0:0:
279,188,239217,5,8,0:0:0:0:
245,230,239285,1,4,0:0:0:0:
192,243,239353,1,4,0:0:0:0:
139,231,239421,1,4,0:0:0:0:
104,189,239489,6,0,P|99:135|91:72,1,107.999996704102,10|4,0:0|0:0,0:0:0:0:
321,312,239762,1,10,0:0:0:0:
375,175,239899,1,4,0:0:0:0:
204,358,240035,2,0,B|186:305|186:305|196:249,1,107.999996704102,10|4,0:0|0:0,0:0:0:0:
303,90,240308,1,10,0:0:0:0:
102,161,240444,1,4,0:0:0:0:
107,176,240512,1,0,0:0:0:0:
112,191,240580,2,0,B|141:173|141:173|158:82,1,107.999996704102,10|0,0:0|0:0,0:0:0:0:
222,293,240853,6,0,B|279:269|279:269|349:278|349:278|408:253,1,188.999994232178,10|0,0:0|2:0,0:0:0:0:
404,234,241126,6,0,B|350:247|350:247|299:289|299:289|219:310,1,202.500007724762,10|0,0:0|2:0,0:0:0:0:
199,302,241399,6,0,L|425:242,1,229.500004377365,10|0,0:0|2:0,0:0:0:0:
216,123,241671,6,0,P|266:154|326:177,1,107.999996704102,10|4,0:0|0:0,0:0:0:0:
110,357,241944,1,10,0:0:0:0:
68,107,242080,1,4,0:0:0:0:
225,279,242217,1,10,0:0:0:0:
194,125,242353,1,4,0:0:0:0:
324,166,242489,1,10,0:0:0:0:
329,153,242626,1,4,0:0:0:0:
180,25,242762,6,0,B|167:77|167:77|183:144,1,107.999996704102,10|4,0:0|0:0,0:0:0:0:
127,187,242967,1,4,0:0:0:0:
141,200,243035,2,0,B|154:252|154:252|138:319,1,107.999996704102,10|4,0:0|0:0,0:0:0:0:
67,338,243239,1,4,0:0:0:0:
51,332,243308,2,0,B|125:315|125:315|100:349,1,107.999996704102,10|4,0:0|0:0,0:0:0:0:
184,354,243512,1,4,0:0:0:0:
201,348,243580,1,10,0:0:0:0:
389,193,243717,1,4,0:0:0:0:
415,198,243785,1,4,0:0:0:0:
441,203,243853,6,0,L|346:290,1,107.999996704102,10|4,0:0|0:0,0:0:0:0:
219,63,244126,1,10,0:0:0:0:
373,95,244262,1,4,0:0:0:0:
213,243,244399,2,0,B|224:208|224:208|211:130,1,107.999996704102,10|4,0:0|0:0,0:0:0:0:
334,350,244671,5,10,0:0:0:0:
413,171,244808,1,4,0:0:0:0:
215,327,244944,6,0,L|113:264,1,107.999996704102,10|4,0:0|0:0,0:0:0:0:
332,137,245217,1,10,0:0:0:0:
242,254,245353,1,4,0:0:0:0:
229,230,245421,1,4,0:0:0:0:
209,211,245489,1,10,0:0:0:0:
405,191,245626,1,4,0:0:0:0:
387,211,245694,1,4,0:0:0:0:
363,226,245762,1,10,0:0:0:0:
291,103,245899,2,0,L|369:69,1,53.9999983520508,4|4,0:0|0:0,0:0:0:0:
258,37,246035,6,0,L|138:19,1,107.999996704102,10|12,0:0|0:0,0:0:0:0:
97,227,246308,2,0,L|172:129,1,107.999996704102,10|12,0:0|0:0,0:0:0:0:
16,37,246580,5,10,0:0:0:0:
58,247,246717,1,12,0:0:0:0:
192,73,246853,1,10,0:0:0:0:
175,213,246989,1,12,0:0:0:0:
322,91,247126,5,8,0:0:0:0:
349,58,247194,1,8,0:0:0:0:
388,40,247262,1,8,0:0:0:0:
431,40,247330,1,8,0:0:0:0:
470,58,247399,5,4,0:0:0:0:
446,80,247467,1,4,0:0:0:0:
431,108,247535,1,8,0:0:0:0:
424,139,247603,1,4,0:0:0:0:
428,170,247671,5,8,0:0:0:0:
444,183,247739,1,4,0:0:0:0:
458,199,247808,1,4,0:0:0:0:
470,216,247876,1,4,0:0:0:0:
480,234,247944,1,10,0:0:0:0:
311,331,248080,1,4,0:0:0:0:
279,321,248149,1,4,0:0:0:0:
248,310,248217,6,0,L|347:243,1,107.999996704102,10|4,0:0|0:0,0:0:0:0:
139,73,248489,1,10,0:0:0:0:
290,126,248626,1,4,0:0:0:0:
147,328,248762,2,0,B|149:295|149:295|116:198,1,107.999996704102,10|4,0:0|0:0,0:0:0:0:
291,353,249035,1,10,0:0:0:0:
204,156,249171,1,4,0:0:0:0:
208,140,249239,1,4,0:0:0:0:
211,124,249308,5,10,0:0:0:0:
191,133,249376,1,0,0:0:0:0:
178,150,249444,1,0,0:0:0:0:
171,170,249512,1,0,0:0:0:0:
168,191,249580,5,10,0:0:0:0:
151,162,249649,1,0,0:0:0:0:
146,130,249717,1,0,0:0:0:0:
151,98,249785,1,0,0:0:0:0:
167,70,249853,5,10,0:0:0:0:
125,82,249921,1,0,0:0:0:0:
94,112,249989,1,0,0:0:0:0:
79,153,250058,1,0,0:0:0:0:
74,195,250126,5,10,0:0:0:0:
49,146,250194,1,0,0:0:0:0:
49,92,250262,1,0,0:0:0:0:
73,43,250330,1,0,0:0:0:0:
119,13,250399,6,0,P|175:28|237:34,1,107.999996704102,10|4,0:0|0:0,0:0:0:0:
424,283,250671,1,10,0:0:0:0:
211,202,250808,1,4,0:0:0:0:
445,118,250944,1,10,0:0:0:0:
298,146,251080,1,4,0:0:0:0:
367,16,251217,1,10,0:0:0:0:
382,22,251353,1,4,0:0:0:0:
464,220,251489,6,0,B|439:197|439:197|351:204,1,107.999996704102,10|4,0:0|0:0,0:0:0:0:
292,266,251694,1,4,0:0:0:0:
303,282,251762,2,0,B|278:305|278:305|190:298,1,107.999996704102,10|4,0:0|0:0,0:0:0:0:
152,230,251967,1,4,0:0:0:0:
176,223,252035,2,0,B|191:149|191:149|147:177,1,107.999996704102,10|4,0:0|0:0,0:0:0:0:
156,81,252239,1,4,0:0:0:0:
164,66,252308,1,10,0:0:0:0:
66,288,252444,1,4,0:0:0:0:
47,314,252512,1,4,0:0:0:0:
31,342,252580,6,0,L|13:212,1,107.999996704102,10|4,0:0|0:0,0:0:0:0:
228,158,252853,1,10,0:0:0:0:
173,361,252989,1,4,0:0:0:0:
377,300,253126,2,0,B|391:264|391:264|367:163,1,107.999996704102,10|4,0:0|0:0,0:0:0:0:
136,100,253399,5,10,0:0:0:0:
348,35,253535,1,4,0:0:0:0:
261,268,253671,6,0,L|292:142,1,107.999996704102,10|12,0:0|0:0,0:0:0:0:
75,181,253944,2,0,L|18:64,1,107.999996704102,10|12,0:0|0:0,0:0:0:0:
162,309,254217,1,10,0:0:0:0:
167,124,254353,1,4,0:0:0:0:
183,110,254421,1,4,0:0:0:0:
202,101,254489,1,10,0:0:0:0:
339,258,254626,1,4,0:0:0:0:
317,251,254694,1,4,0:0:0:0:
301,235,254762,6,0,P|360:221|415:213,1,107.999996704102,10|4,0:0|0:0,0:0:0:0:
208,368,255035,2,0,P|189:319|155:251,1,107.999996704102,10|4,0:0|0:0,0:0:0:0:
378,103,255308,2,0,P|412:44|448:-3,1,107.999996704102,10|4,0:0|0:0,0:0:0:0:
236,59,255580,5,10,0:0:0:0:
286,274,255717,1,4,0:0:0:0:
97,92,255853,5,10,0:0:0:0:
144,298,255989,1,4,0:0:0:0:
307,114,256126,1,10,0:0:0:0:
149,207,256262,1,4,0:0:0:0:
270,343,256399,6,0,B|264:295|264:295|304:222|304:222|286:111,1,215.999993408203,10|8,0:0|0:0,0:0:0:0:
307,123,256807,1,8,0:0:0:0:
274,213,256943,1,8,0:0:0:0:
77,115,257080,6,0,B|110:86|110:86|189:96|189:96|249:69,1,161.999995056153,6|8,0:0|0:0,0:0:0:0:
222,57,257489,1,8,0:0:0:0:
151,121,257625,1,8,0:0:0:0:
347,215,257761,6,0,B|385:224|385:224|415:198|415:198|458:203,1,107.999996704102,6|8,0:0|0:0,0:0:0:0:
461,184,258171,1,4,0:0:0:0:
342,233,258307,1,8,0:0:0:0:
269,172,258443,1,4,0:0:0:0:
198,215,258580,1,8,0:0:0:0:
139,175,258716,1,4,0:0:0:0:
99,200,258852,1,4,0:0:0:0:
71,180,258989,1,4,0:0:0:0:
56,190,259126,6,0,L|201:199,1,144,4|0,0:0|0:0,0:0:0:0:
