osu file format v14

[General]
AudioFilename: audio.mp3
AudioLeadIn: 0
PreviewTime: 119697
Countdown: 0
SampleSet: Normal
StackLeniency: 0.7
Mode: 1
LetterboxInBreaks: 0
WidescreenStoryboard: 1

[Editor]
Bookmarks: 54035
DistanceSpacing: 1
BeatDivisor: 4
GridSize: 32
TimelineZoom: 2.3

[Metadata]
Title:Hartmann no Youkai Shoujo ~ Todestrieb und Lebenstrieb
TitleUnicode:ハルトマンの妖怪少女 ~ Todestrieb und Lebenstrieb
Artist:Demetori
ArtistUnicode:Demetori
Creator:Jaltzu
Version:Oni
Source:東方地霊殿 ~ Subterranean Animism.
Tags:instrumental 古明地 こいし komeiji koishi hartmann's phantom girl djent c91 comiket 91 zun touhou project 11 video game metal 徳南 tokunan 九宝時 kyuuhouji 寺前 直 甲 teramae tadashi masaru
BeatmapID:2311580
BeatmapSetID:1105327

[Difficulty]
HPDrainRate:5
CircleSize:2
OverallDifficulty:6
ApproachRate:0
SliderMultiplier:1.4
SliderTickRate:1

[Events]
//Background and Video events
0,0,"486420.jpg",0,0
//Break Periods
//Storyboard Layer 0 (Background)
//Storyboard Layer 1 (Fail)
//Storyboard Layer 2 (Pass)
//Storyboard Layer 3 (Foreground)
//Storyboard Layer 4 (Overlay)
//Storyboard Sound Samples

[TimingPoints]
4672,272.727272727273,7,1,0,40,1,0
4672,-125,7,1,0,40,0,0
11217,-123.456790123457,7,1,0,40,0,0
11353,-121.951219512195,7,1,0,40,0,0
11490,272.727272727273,4,1,0,80,1,0
11490,-119.047619047619,4,1,0,80,0,0
11626,-116.279069767442,4,1,0,80,0,0
11762,-113.636363636364,4,1,0,80,0,0
11899,-111.111111111111,4,1,0,80,0,0
12035,-108.695652173913,4,1,0,80,0,0
12171,-106.382978723404,4,1,0,80,0,0
12308,-104.166666666667,4,1,0,80,0,0
12444,-102.040816326531,4,1,0,80,0,0
12580,272.727272727273,7,1,0,80,1,8
12581,272.727272727273,7,1,0,80,1,0
12581,-100,7,1,0,80,0,0
12853,-100,7,1,0,80,0,0
14490,272.727272727273,4,1,0,80,1,0
16671,272.727272727273,7,1,0,70,1,8
16672,272.727272727273,7,1,0,70,1,0
18581,272.727272727273,4,1,0,70,1,0
20762,272.727272727273,7,1,0,80,1,8
20763,272.727272727273,7,1,0,80,1,0
22672,272.727272727273,4,1,0,80,1,0
24853,272.727272727273,7,1,0,70,1,8
24854,272.727272727273,7,1,0,70,1,0
26763,272.727272727273,4,1,0,70,1,0
28808,-100,4,1,0,80,0,0
28944,272.727272727273,4,1,0,70,1,8
28945,272.727272727273,4,1,0,70,1,0
31263,-100,4,1,0,75,0,0
31672,-100,4,1,0,80,0,0
32081,-100,4,1,0,85,0,0
33172,-100,4,1,0,90,0,0
33445,-100,4,1,0,80,0,0
37672,272.727272727273,7,1,0,80,1,8
37673,272.727272727273,7,1,0,80,1,0
39582,272.727272727273,4,1,0,80,1,0
41763,272.727272727273,7,1,0,70,1,0
43672,272.727272727273,4,1,0,70,1,0
45853,272.727272727273,7,1,0,80,1,8
45854,272.727272727273,7,1,0,80,1,0
47763,272.727272727273,4,1,0,80,1,0
49944,272.727272727273,7,1,0,70,1,0
51853,272.727272727273,4,1,0,70,1,0
53489,-100,4,1,0,75,0,0
54034,272.727272727273,4,1,0,80,1,8
54035,272.727272727273,4,1,0,80,1,0
58398,272.727272727273,4,1,0,80,1,8
58534,272.727272727273,4,1,0,80,1,8
58535,272.727272727273,4,1,0,80,1,0
62625,272.727272727273,3,1,0,80,1,8
62626,272.727272727273,3,1,0,80,1,0
63444,272.727272727273,4,1,0,80,1,8
63445,272.727272727273,4,1,0,80,1,0
67535,272.727272727273,3,1,0,70,1,0
69171,272.727272727273,4,1,0,80,1,8
69173,272.727272727273,4,1,0,80,1,0
73536,272.727272727273,4,1,0,80,1,8
73672,272.727272727273,4,1,0,80,1,8
73673,272.727272727273,4,1,0,80,1,0
77763,272.727272727273,3,1,0,70,1,8
77764,272.727272727273,3,1,0,70,1,0
78582,272.727272727273,4,1,0,80,1,8
78583,272.727272727273,4,1,0,80,1,0
82673,272.727272727273,6,1,0,80,1,8
82674,272.727272727273,6,1,0,80,1,0
84310,272.727272727273,4,1,0,80,1,8
84311,272.727272727273,4,1,0,80,1,0
85401,272.727272727273,4,1,0,80,1,0
85673,-100,4,1,0,60,0,0
87582,-100,4,1,0,80,0,0
87855,-100,4,1,0,60,0,0
88946,-100,4,1,0,80,0,0
90037,-100,4,1,0,60,0,0
91264,-100,4,1,0,80,0,0
92219,-100,4,1,0,60,0,0
92901,-100,4,1,0,80,0,0
93173,-100,4,1,0,60,0,0
93310,-100,4,1,0,80,0,0
93446,-100,4,1,0,60,0,0
93582,-100,4,1,0,80,0,0
93991,-100,4,1,0,60,0,0
94128,-100,4,1,0,80,0,0
94537,-100,4,1,0,60,0,0
94946,-100,4,1,0,80,0,0
95628,-100,4,1,0,60,0,0
96037,-100,4,1,0,80,0,0
96173,-100,4,1,0,60,0,0
96310,-100,4,1,0,80,0,0
96855,-100,4,1,0,60,0,0
97128,-100,4,1,0,80,0,0
97537,-100,4,1,0,60,0,0
98219,-100,4,1,0,80,0,0
98355,-100,4,1,0,60,0,0
98491,-100,4,1,0,80,0,0
99037,-100,4,1,0,60,0,0
99310,-100,4,1,0,80,0,0
99446,-100,4,1,0,60,0,0
99582,-100,4,1,0,80,0,0
99719,-100,4,1,0,60,0,0
99855,-100,4,1,0,80,0,0
100264,-100,4,1,0,60,0,0
100401,-100,4,1,0,80,0,0
100537,-100,4,1,0,60,0,0
100673,-100,4,1,0,50,0,0
101219,-100,4,1,0,55,0,0
101491,-100,4,1,0,60,0,0
101764,-100,4,1,0,65,0,0
102310,-100,4,1,0,70,0,0
102582,-100,4,1,0,75,0,0
102855,272.727272727273,4,1,0,80,1,8
102856,272.727272727273,7,1,0,80,1,0
104765,272.727272727273,4,1,0,80,1,0
111310,272.727272727273,7,1,0,80,1,8
111311,272.727272727273,7,1,0,80,1,0
113220,272.727272727273,4,1,0,80,1,0
115401,-100,4,1,0,70,0,0
118606,-99.009900990099,4,1,0,70,0,0
118674,-98.0392156862745,4,1,0,75,0,0
118810,-97.0873786407767,4,1,0,75,0,0
118947,-96.1538461538461,4,1,0,75,0,0
119083,-95.2380952380952,4,1,0,80,0,0
119220,-94.3396226415094,4,1,0,80,0,0
119356,-93.4579439252336,4,1,0,80,0,0
119492,-92.5925925925926,4,1,0,85,0,0
119629,-91.743119266055,4,1,0,85,0,0
119765,272.727272727273,4,1,0,90,1,1
119765,-90.9090909090909,4,1,0,90,0,1
135992,-90.9090909090909,4,1,0,90,0,0
136128,272.727272727273,3,1,0,80,1,8
136129,272.727272727273,3,1,0,80,1,0
136129,-90.9090909090909,3,1,0,80,0,0
136401,-92.5925925925926,3,1,0,80,0,0
136538,-94.3396226415094,3,1,0,80,0,0
136674,-96.1538461538461,3,1,0,80,0,0
136947,-96.1538461538461,3,1,0,75,0,0
137083,-98.0392156862745,3,1,0,75,0,0
137219,-100,3,1,0,75,0,0
137356,-102.040816326531,3,1,0,75,0,0
137629,-102.040816326531,3,1,0,70,0,0
137765,-104.166666666667,3,1,0,70,0,0
137901,-106.382978723404,3,1,0,70,0,0
138038,-108.695652173913,3,1,0,70,0,0
138174,-111.111111111111,3,1,0,70,0,0
138310,-113.636363636364,3,1,0,70,0,0
138447,-116.279069767442,3,1,0,70,0,0
138583,272.727272727273,7,1,0,60,1,0
138583,-119.047619047619,3,1,0,60,0,0
138855,-125,4,1,0,40,0,0
146219,272.727272727273,4,1,0,80,1,0
146219,-100,4,1,0,80,0,0
159719,-99.009900990099,4,1,0,80,0,0
159855,-98.0392156862745,4,1,0,80,0,0
160128,-97.0873786407767,4,1,0,80,0,0
160264,-96.1538461538461,4,1,0,80,0,0
160400,-95.2380952380952,4,1,0,80,0,0
163537,-93.4579439252336,4,1,0,80,0,0
163673,-90.9090909090909,4,1,0,80,0,1
172400,-90.9090909090909,4,1,0,80,0,0
172673,-95.2380952380952,4,1,0,80,0,0
172809,-100,4,1,0,80,0,0
172946,-105.263157894737,4,1,0,80,0,0
173219,-111.111111111111,4,1,0,80,0,0
188764,272.727272727273,6,1,0,80,1,0
188764,-109.89010989011,6,1,0,80,0,0
188900,-108.695652173913,6,1,0,80,0,0
189036,-107.52688172043,6,1,0,80,0,0
189309,-106.382978723404,6,1,0,80,0,0
189445,-105.263157894737,6,1,0,80,0,0
189582,-104.166666666667,6,1,0,80,0,0
189854,-103.092783505155,6,1,0,80,0,0
189991,-102.040816326531,6,1,0,80,0,0
190127,-101.010101010101,6,1,0,80,0,0
190264,-100,6,1,0,80,0,0
190400,272.727272727273,4,1,0,80,1,0
192718,-100,4,1,0,85,0,0
192990,-100,4,1,0,80,0,0
193400,-100,4,1,0,85,0,0
193672,-100,4,1,0,80,0,0
193945,-100,4,1,0,85,0,0
194218,-100,4,1,0,80,0,0
194627,-100,4,1,0,75,0,0
194900,-100,4,1,0,70,0,0
197490,-100,4,1,0,75,0,0
197900,-100,4,1,0,80,0,0
198309,-100,4,1,0,85,0,0
198990,-100,4,1,0,90,0,0
199263,-100,4,1,0,80,0,0
203490,272.727272727273,7,1,0,80,1,0
205399,272.727272727273,4,1,0,80,1,0
207580,272.727272727273,7,1,0,70,1,8
207581,272.727272727273,7,1,0,70,1,0
209490,272.727272727273,4,1,0,80,1,0
211671,272.727272727273,4,1,0,80,1,8
211672,272.727272727273,4,1,0,80,1,0
216035,-100,4,1,0,70,0,0
219308,-100,4,1,0,75,0,0
219853,-100,4,1,0,80,0,0
220399,272.727272727273,3,1,0,80,1,8
220400,272.727272727273,3,1,0,80,1,0
220672,-100,3,1,0,70,0,0
221218,-100,3,1,0,75,0,0
222036,-100,3,1,0,70,0,0
222854,-100,3,1,0,75,0,0
223672,-100,3,1,0,80,0,0
224490,-100,3,1,0,90,0,0
225309,-100,3,1,0,80,0,0
226127,-100,3,1,0,90,0,0
226945,-100,3,1,0,70,0,0
227763,-100,3,1,0,75,0,0
228581,-100,3,1,0,70,0,0
229400,-100,3,1,0,75,0,0
230218,-100,3,1,0,80,0,0
231036,-100,3,1,0,90,0,0
231854,-100,3,1,0,80,0,0
232263,-100,3,1,0,90,0,0
232672,-100,3,1,0,70,0,0
233081,-100,3,1,0,80,0,0
233490,-100,3,1,0,60,0,0
234309,-100,3,1,0,70,0,0
235127,-100,3,1,0,80,0,0
235945,-100,3,1,0,90,0,0
236763,-100,3,1,0,60,0,0
237172,-100,3,1,0,70,0,0
237581,-100,3,1,0,80,0,0
237990,-100,3,1,0,90,0,0
238400,272.727272727273,4,1,0,75,1,0
238400,-106.382978723404,4,1,0,75,0,0
238468,-105.263157894737,4,1,0,75,0,0
238536,-104.166666666667,4,1,0,75,0,0
238604,-103.092783505155,4,1,0,75,0,0
238672,-102.040816326531,4,1,0,75,0,0
238740,-101.010101010101,4,1,0,75,0,0
238809,-100,4,1,0,80,0,0
238877,-99.009900990099,4,1,0,80,0,0
238945,-98.0392156862745,4,1,0,80,0,0
239013,-97.0873786407767,4,1,0,80,0,0
239081,-96.1538461538461,4,1,0,80,0,0
239150,-95.2380952380952,4,1,0,80,0,0
239218,-94.3396226415094,4,1,0,85,0,0
239286,-93.4579439252336,4,1,0,85,0,0
239354,-92.5925925925926,4,1,0,85,0,0
239422,-91.743119266055,4,1,0,85,0,0
239490,272.727272727273,4,1,0,90,1,1
239490,-90.9090909090909,4,1,0,90,0,1
256671,272.727272727273,3,1,0,80,1,0
256671,-90.9090909090909,3,1,0,80,0,0
256807,-92.5925925925926,3,1,0,80,0,0
256943,-94.3396226415094,3,1,0,80,0,0
257080,-96.1538461538461,3,1,0,80,0,0
257352,-98.0392156862745,3,1,0,75,0,0
257489,-100,3,1,0,75,0,0
257625,-102.040816326531,3,1,0,75,0,0
257761,-104.166666666667,3,1,0,75,0,0
258034,-104.166666666667,3,1,0,70,0,0
258171,-106.382978723404,3,1,0,70,0,0
258307,-108.695652173913,3,1,0,70,0,0
258443,-111.111111111111,3,1,0,70,0,0
258580,-113.636363636364,3,1,0,70,0,0
258716,-116.279069767442,3,1,0,70,0,0
258852,-119.047619047619,3,1,0,70,0,0
258989,-121.951219512195,3,1,0,70,0,0
259125,-125,3,1,0,70,0,0
259398,-142.857142857143,3,1,0,15,0,0
259943,-142.857142857143,3,1,0,13,0,0
260489,-142.857142857143,3,1,0,11,0,0
261034,-142.857142857143,3,1,0,9,0,0
261580,-142.857142857143,3,1,0,7,0,0
262125,-142.857142857143,3,1,0,5,0,0

[HitObjects]
256,192,4672,5,8,0:0:0:0:
256,192,4944,1,0,0:0:0:0:
256,192,5081,1,8,0:0:0:0:
256,192,5353,1,0,0:0:0:0:
256,192,5490,1,0,0:0:0:0:
256,192,5626,1,8,0:0:0:0:
256,192,5899,1,0,0:0:0:0:
256,192,6035,1,8,0:0:0:0:
256,192,6308,1,8,0:0:0:0:
256,192,6581,1,8,0:0:0:0:
256,192,6853,1,0,0:0:0:0:
256,192,6990,1,8,0:0:0:0:
256,192,7262,1,0,0:0:0:0:
256,192,7399,1,0,0:0:0:0:
256,192,7535,1,8,0:0:0:0:
256,192,7808,1,0,0:0:0:0:
256,192,7944,1,8,0:0:0:0:
256,192,8217,1,8,0:0:0:0:
256,192,8490,1,8,0:0:0:0:
256,192,8762,1,0,0:0:0:0:
256,192,8899,1,8,0:0:0:0:
256,192,9172,1,0,0:0:0:0:
256,192,9308,1,0,0:0:0:0:
256,192,9444,1,8,0:0:0:0:
256,192,9717,1,0,0:0:0:0:
256,192,9853,1,8,0:0:0:0:
256,192,10126,1,8,0:0:0:0:
256,192,10399,1,8,0:0:0:0:
256,192,10672,1,0,0:0:0:0:
256,192,10808,1,8,0:0:0:0:
256,192,11081,1,0,0:0:0:0:
256,192,11217,1,0,0:0:0:0:
256,192,11353,1,0,0:0:0:0:
256,192,11490,1,8,0:0:0:0:
256,192,11626,1,0,0:0:0:0:
256,192,11762,1,8,0:0:0:0:
256,192,11899,1,0,0:0:0:0:
256,192,12035,1,8,0:0:0:0:
256,192,12171,1,0,0:0:0:0:
256,192,12308,1,8,0:0:0:0:
256,192,12444,1,0,0:0:0:0:
256,192,12581,5,4,0:0:0:0:
256,192,12853,1,0,0:0:0:0:
256,192,12990,1,8,0:0:0:0:
256,192,13262,1,8,0:0:0:0:
256,192,13535,1,8,0:0:0:0:
256,192,13671,1,0,0:0:0:0:
256,192,13808,1,0,0:0:0:0:
256,192,13944,1,8,0:0:0:0:
256,192,14081,1,0,0:0:0:0:
256,192,14217,1,8,0:0:0:0:
256,192,14353,1,0,0:0:0:0:
256,192,14490,1,4,0:0:0:0:
256,192,14762,1,0,0:0:0:0:
256,192,14899,1,8,0:0:0:0:
256,192,15171,1,0,0:0:0:0:
256,192,15444,1,8,0:0:0:0:
256,192,15580,1,0,0:0:0:0:
256,192,15717,1,0,0:0:0:0:
256,192,15853,1,8,0:0:0:0:
256,192,15990,1,0,0:0:0:0:
256,192,16126,1,8,0:0:0:0:
256,192,16262,1,0,0:0:0:0:
256,192,16399,1,8,0:0:0:0:
256,192,16672,1,4,0:0:0:0:
256,192,16944,1,8,0:0:0:0:
256,192,17081,1,0,0:0:0:0:
256,192,17353,1,8,0:0:0:0:
256,192,17626,1,0,0:0:0:0:
256,192,17762,1,8,0:0:0:0:
256,192,17899,1,0,0:0:0:0:
256,192,18035,1,0,0:0:0:0:
256,192,18172,1,8,0:0:0:0:
256,192,18308,1,8,0:0:0:0:
256,192,18444,1,0,0:0:0:0:
256,192,18581,1,4,0:0:0:0:
256,192,18853,1,8,0:0:0:0:
256,192,18990,1,0,0:0:0:0:
256,192,19262,1,8,0:0:0:0:
256,192,19535,1,8,0:0:0:0:
256,192,19671,1,0,0:0:0:0:
256,192,19808,1,0,0:0:0:0:
256,192,19944,1,8,0:0:0:0:
256,192,20081,1,0,0:0:0:0:
256,192,20217,1,0,0:0:0:0:
256,192,20353,1,0,0:0:0:0:
256,192,20490,1,8,0:0:0:0:
256,192,20763,1,4,0:0:0:0:
256,192,21035,1,0,0:0:0:0:
256,192,21172,1,8,0:0:0:0:
256,192,21444,1,8,0:0:0:0:
256,192,21717,1,8,0:0:0:0:
256,192,21853,1,0,0:0:0:0:
256,192,21990,1,0,0:0:0:0:
256,192,22126,1,8,0:0:0:0:
256,192,22263,1,0,0:0:0:0:
256,192,22399,1,8,0:0:0:0:
256,192,22535,1,0,0:0:0:0:
256,192,22672,1,4,0:0:0:0:
256,192,22944,1,0,0:0:0:0:
256,192,23081,1,8,0:0:0:0:
256,192,23353,1,8,0:0:0:0:
256,192,23626,1,8,0:0:0:0:
256,192,23762,1,0,0:0:0:0:
256,192,23899,1,0,0:0:0:0:
256,192,24035,1,8,0:0:0:0:
256,192,24172,1,0,0:0:0:0:
256,192,24308,1,8,0:0:0:0:
256,192,24444,1,0,0:0:0:0:
256,192,24581,1,8,0:0:0:0:
256,192,24854,1,4,0:0:0:0:
256,192,25126,1,8,0:0:0:0:
256,192,25263,1,0,0:0:0:0:
256,192,25535,1,0,0:0:0:0:
256,192,25808,1,0,0:0:0:0:
256,192,25944,1,8,0:0:0:0:
256,192,26081,1,0,0:0:0:0:
256,192,26217,1,0,0:0:0:0:
256,192,26354,1,8,0:0:0:0:
256,192,26490,1,8,0:0:0:0:
256,192,26626,1,0,0:0:0:0:
256,192,26763,1,4,0:0:0:0:
256,192,27035,1,8,0:0:0:0:
256,192,27172,1,0,0:0:0:0:
256,192,27444,1,0,0:0:0:0:
256,192,27717,1,8,0:0:0:0:
256,192,27853,1,0,0:0:0:0:
256,192,27990,1,0,0:0:0:0:
256,192,28126,1,8,0:0:0:0:
256,192,28263,1,0,0:0:0:0:
256,192,28399,1,8,0:0:0:0:
256,192,28535,1,8,0:0:0:0:
256,192,28672,1,8,0:0:0:0:
256,192,28808,1,4,0:0:0:0:
256,192,29081,5,0,0:0:0:0:
256,192,29217,1,8,0:0:0:0:
256,192,29354,1,0,0:0:0:0:
256,192,29490,1,8,0:0:0:0:
256,192,29626,1,0,0:0:0:0:
256,192,29763,1,8,0:0:0:0:
256,192,29899,1,0,0:0:0:0:
256,192,30035,1,8,0:0:0:0:
256,192,30172,1,0,0:0:0:0:
256,192,30308,1,8,0:0:0:0:
256,192,30581,1,8,0:0:0:0:
256,192,30854,1,8,0:0:0:0:
256,192,30990,1,4,0:0:0:0:
256,192,31263,1,0,0:0:0:0:
256,192,31399,1,8,0:0:0:0:
256,192,31535,1,0,0:0:0:0:
256,192,31672,1,8,0:0:0:0:
256,192,31808,1,0,0:0:0:0:
256,192,31945,1,0,0:0:0:0:
256,192,32081,1,8,0:0:0:0:
256,192,32217,1,0,0:0:0:0:
256,192,32354,1,0,0:0:0:0:
256,192,32490,1,8,0:0:0:0:
256,192,32626,1,0,0:0:0:0:
256,192,32763,1,8,0:0:0:0:
256,192,32899,1,0,0:0:0:0:
256,192,33035,1,8,0:0:0:0:
256,192,33172,1,12,0:0:0:0:
256,192,33445,1,0,0:0:0:0:
256,192,33581,1,8,0:0:0:0:
256,192,33717,1,0,0:0:0:0:
256,192,33854,1,8,0:0:0:0:
256,192,33990,1,0,0:0:0:0:
256,192,34126,1,8,0:0:0:0:
256,192,34263,1,0,0:0:0:0:
256,192,34399,1,8,0:0:0:0:
256,192,34535,1,0,0:0:0:0:
256,192,34672,1,8,0:0:0:0:
256,192,34945,1,8,0:0:0:0:
256,192,35217,1,8,0:0:0:0:
256,192,35354,1,4,0:0:0:0:
256,192,35626,1,0,0:0:0:0:
256,192,35763,1,8,0:0:0:0:
256,192,35899,1,0,0:0:0:0:
256,192,36035,1,8,0:0:0:0:
256,192,36172,1,0,0:0:0:0:
256,192,36308,1,8,0:0:0:0:
256,192,36445,1,8,0:0:0:0:
256,192,36581,1,8,0:0:0:0:
256,192,36649,1,8,0:0:0:0:
256,192,36717,1,8,0:0:0:0:
256,192,36785,1,8,0:0:0:0:
256,192,36854,1,0,0:0:0:0:
256,192,36990,1,0,0:0:0:0:
256,192,37058,1,0,0:0:0:0:
256,192,37126,1,8,0:0:0:0:
256,192,37195,1,8,0:0:0:0:
256,192,37263,1,0,0:0:0:0:
256,192,37399,1,0,0:0:0:0:
256,192,37467,1,0,0:0:0:0:
256,192,37535,1,8,0:0:0:0:
256,192,37673,5,4,0:0:0:0:
256,192,37945,1,0,0:0:0:0:
256,192,38082,1,8,0:0:0:0:
256,192,38218,1,8,0:0:0:0:
256,192,38491,1,0,0:0:0:0:
256,192,38627,1,8,0:0:0:0:
256,192,38763,1,0,0:0:0:0:
256,192,39036,1,0,0:0:0:0:
256,192,39173,1,8,0:0:0:0:
256,192,39309,1,8,0:0:0:0:
256,192,39445,1,0,0:0:0:0:
256,192,39582,1,12,0:0:0:0:
256,192,39854,1,0,0:0:0:0:
256,192,39991,1,8,0:0:0:0:
256,192,40127,1,8,0:0:0:0:
256,192,40400,1,0,0:0:0:0:
256,192,40536,1,8,0:0:0:0:
256,192,40672,1,0,0:0:0:0:
256,192,40945,1,0,0:0:0:0:
256,192,41082,1,8,0:0:0:0:
256,192,41218,1,0,0:0:0:0:
256,192,41354,1,8,0:0:0:0:
256,192,41491,1,8,0:0:0:0:
256,192,41627,1,8,0:0:0:0:
256,192,41763,1,4,0:0:0:0:
256,192,42035,1,0,0:0:0:0:
256,192,42172,1,0,0:0:0:0:
256,192,42308,1,8,0:0:0:0:
256,192,42581,1,0,0:0:0:0:
256,192,42717,1,8,0:0:0:0:
256,192,42853,1,0,0:0:0:0:
256,192,43126,1,0,0:0:0:0:
256,192,43263,1,8,0:0:0:0:
256,192,43399,1,0,0:0:0:0:
256,192,43535,1,0,0:0:0:0:
256,192,43672,1,12,0:0:0:0:
256,192,43944,1,0,0:0:0:0:
256,192,44081,1,0,0:0:0:0:
256,192,44217,1,8,0:0:0:0:
256,192,44490,1,0,0:0:0:0:
256,192,44626,1,8,0:0:0:0:
256,192,44762,1,0,0:0:0:0:
256,192,44899,1,0,0:0:0:0:
256,192,45035,1,8,0:0:0:0:
256,192,45172,1,0,0:0:0:0:
256,192,45308,1,8,0:0:0:0:
256,192,45376,1,8,0:0:0:0:
256,192,45444,1,8,0:0:0:0:
256,192,45581,1,8,0:0:0:0:
256,192,45717,1,0,0:0:0:0:
256,192,45854,1,4,0:0:0:0:
256,192,46126,1,0,0:0:0:0:
256,192,46263,1,8,0:0:0:0:
256,192,46399,1,8,0:0:0:0:
256,192,46672,1,0,0:0:0:0:
256,192,46808,1,8,0:0:0:0:
256,192,46944,1,0,0:0:0:0:
256,192,47217,1,0,0:0:0:0:
256,192,47354,1,8,0:0:0:0:
256,192,47490,1,8,0:0:0:0:
256,192,47626,1,0,0:0:0:0:
256,192,47763,1,12,0:0:0:0:
256,192,48035,1,0,0:0:0:0:
256,192,48172,1,8,0:0:0:0:
256,192,48308,1,8,0:0:0:0:
256,192,48581,1,0,0:0:0:0:
256,192,48717,1,8,0:0:0:0:
256,192,48853,1,0,0:0:0:0:
256,192,49126,1,0,0:0:0:0:
256,192,49263,1,8,0:0:0:0:
256,192,49399,1,0,0:0:0:0:
256,192,49535,1,8,0:0:0:0:
256,192,49672,1,8,0:0:0:0:
256,192,49808,1,8,0:0:0:0:
256,192,49944,1,4,0:0:0:0:
256,192,50353,1,0,0:0:0:0:
256,192,50421,1,0,0:0:0:0:
256,192,50489,1,8,0:0:0:0:
256,192,50762,1,0,0:0:0:0:
256,192,50898,1,8,0:0:0:0:
256,192,51307,1,0,0:0:0:0:
256,192,51444,1,8,0:0:0:0:
256,192,51580,1,8,0:0:0:0:
256,192,51716,1,0,0:0:0:0:
256,192,51853,1,0,0:0:0:0:
256,192,52125,1,0,0:0:0:0:
256,192,52262,1,8,0:0:0:0:
256,192,52398,1,8,0:0:0:0:
256,192,52534,1,0,0:0:0:0:
256,192,52671,1,0,0:0:0:0:
256,192,52807,1,8,0:0:0:0:
256,192,52943,1,0,0:0:0:0:
256,192,53080,1,0,0:0:0:0:
256,192,53216,1,8,0:0:0:0:
256,192,53353,1,0,0:0:0:0:
256,192,53489,1,0,0:0:0:0:
256,192,53625,1,8,0:0:0:0:
256,192,53762,1,8,0:0:0:0:
256,192,53898,1,0,0:0:0:0:
256,192,54035,5,12,0:0:0:0:
256,192,54307,1,0,0:0:0:0:
256,192,54444,1,0,0:0:0:0:
256,192,54580,1,8,0:0:0:0:
256,192,54853,1,0,0:0:0:0:
256,192,54989,1,8,0:0:0:0:
256,192,55398,1,0,0:0:0:0:
256,192,55671,1,8,0:0:0:0:
256,192,55807,1,0,0:0:0:0:
256,192,55944,1,0,0:0:0:0:
256,192,56080,1,8,0:0:0:0:
256,192,56489,1,0,0:0:0:0:
256,192,56762,1,8,0:0:0:0:
256,192,56898,1,0,0:0:0:0:
256,192,57035,1,8,0:0:0:0:
256,192,57444,1,0,0:0:0:0:
256,192,57580,1,0,0:0:0:0:
256,192,57716,1,0,0:0:0:0:
256,192,57853,1,8,0:0:0:0:
256,192,58125,1,0,0:0:0:0:
256,192,58398,1,4,0:0:0:0:
256,192,58535,1,12,0:0:0:0:
256,192,58807,1,0,0:0:0:0:
256,192,58944,1,0,0:0:0:0:
256,192,59080,1,8,0:0:0:0:
256,192,59353,1,0,0:0:0:0:
256,192,59489,1,8,0:0:0:0:
256,192,59898,1,0,0:0:0:0:
256,192,60171,1,8,0:0:0:0:
256,192,60307,1,0,0:0:0:0:
256,192,60444,1,0,0:0:0:0:
256,192,60580,1,8,0:0:0:0:
256,192,60989,1,0,0:0:0:0:
256,192,61262,1,8,0:0:0:0:
256,192,61398,1,0,0:0:0:0:
256,192,61535,1,0,0:0:0:0:
256,192,61944,1,0,0:0:0:0:
256,192,62080,1,0,0:0:0:0:
256,192,62216,1,0,0:0:0:0:
256,192,62353,1,8,0:0:0:0:
256,192,62625,1,0,0:0:0:0:
256,192,63035,1,0,0:0:0:0:
256,192,63171,1,8,0:0:0:0:
256,192,63307,1,8,0:0:0:0:
256,192,63445,1,4,0:0:0:0:
256,192,63717,1,0,0:0:0:0:
256,192,63854,1,8,0:0:0:0:
256,192,63990,1,8,0:0:0:0:
256,192,64263,1,8,0:0:0:0:
256,192,64399,1,0,0:0:0:0:
256,192,64808,1,0,0:0:0:0:
256,192,65081,1,8,0:0:0:0:
256,192,65217,1,0,0:0:0:0:
256,192,65354,1,0,0:0:0:0:
256,192,65490,1,8,0:0:0:0:
256,192,65899,1,0,0:0:0:0:
256,192,66172,1,8,0:0:0:0:
256,192,66308,1,8,0:0:0:0:
256,192,66445,1,0,0:0:0:0:
256,192,66854,1,8,0:0:0:0:
256,192,66990,1,8,0:0:0:0:
256,192,67126,1,0,0:0:0:0:
256,192,67263,1,8,0:0:0:0:
256,192,67399,1,8,0:0:0:0:
256,192,67535,1,4,0:0:0:0:
256,192,67944,1,12,0:0:0:0:
256,192,68353,1,4,0:0:0:0:
256,192,68762,1,12,0:0:0:0:
256,192,69173,1,12,0:0:0:0:
256,192,69445,1,0,0:0:0:0:
256,192,69582,1,0,0:0:0:0:
256,192,69718,1,8,0:0:0:0:
256,192,69854,1,0,0:0:0:0:
256,192,69991,1,0,0:0:0:0:
256,192,70127,1,4,0:0:0:0:
256,192,70536,1,0,0:0:0:0:
256,192,70809,1,8,0:0:0:0:
256,192,70945,1,0,0:0:0:0:
256,192,71082,1,0,0:0:0:0:
256,192,71218,1,12,0:0:0:0:
256,192,71627,1,0,0:0:0:0:
256,192,71900,1,8,0:0:0:0:
256,192,72036,1,0,0:0:0:0:
256,192,72173,1,12,0:0:0:0:
256,192,72445,1,0,0:0:0:0:
256,192,72582,1,8,0:0:0:0:
256,192,72718,1,8,0:0:0:0:
256,192,72854,1,0,0:0:0:0:
256,192,72991,1,8,0:0:0:0:
256,192,73127,1,0,0:0:0:0:
256,192,73263,1,8,0:0:0:0:
256,192,73536,1,4,0:0:0:0:
256,192,73673,1,12,0:0:0:0:
256,192,73945,1,8,0:0:0:0:
256,192,74082,1,0,0:0:0:0:
256,192,74218,1,8,0:0:0:0:
256,192,74491,1,0,0:0:0:0:
256,192,74627,1,12,0:0:0:0:
256,192,75036,1,0,0:0:0:0:
256,192,75309,1,8,0:0:0:0:
256,192,75445,1,8,0:0:0:0:
256,192,75582,1,8,0:0:0:0:
256,192,75718,1,4,0:0:0:0:
256,192,76127,1,0,0:0:0:0:
256,192,76400,1,8,0:0:0:0:
256,192,76536,1,0,0:0:0:0:
256,192,76673,1,12,0:0:0:0:
256,192,76945,1,0,0:0:0:0:
256,192,77082,1,8,0:0:0:0:
256,192,77218,1,8,0:0:0:0:
256,192,77354,1,0,0:0:0:0:
256,192,77491,1,8,0:0:0:0:
256,192,77627,1,0,0:0:0:0:
256,192,77764,1,4,0:0:0:0:
256,192,78173,1,12,0:0:0:0:
256,192,78583,1,12,0:0:0:0:
256,192,78992,1,0,0:0:0:0:
256,192,79128,1,8,0:0:0:0:
256,192,79401,1,0,0:0:0:0:
256,192,79537,1,12,0:0:0:0:
256,192,79673,1,0,0:0:0:0:
256,192,79810,1,0,0:0:0:0:
256,192,79946,1,0,0:0:0:0:
256,192,80219,1,8,0:0:0:0:
256,192,80355,1,0,0:0:0:0:
256,192,80492,1,0,0:0:0:0:
256,192,80628,1,12,0:0:0:0:
256,192,80764,1,0,0:0:0:0:
256,192,80901,1,8,0:0:0:0:
256,192,81037,1,0,0:0:0:0:
256,192,81310,1,8,0:0:0:0:
256,192,81583,1,12,0:0:0:0:
256,192,81719,1,0,0:0:0:0:
256,192,81855,1,8,0:0:0:0:
256,192,81992,1,0,0:0:0:0:
256,192,82128,1,0,0:0:0:0:
256,192,82264,1,0,0:0:0:0:
256,192,82401,1,8,0:0:0:0:
256,192,82674,1,12,0:0:0:0:
256,192,82810,1,0,0:0:0:0:
256,192,82946,1,0,0:0:0:0:
256,192,83083,1,12,0:0:0:0:
256,192,83219,1,0,0:0:0:0:
256,192,83355,1,0,0:0:0:0:
256,192,83492,1,12,0:0:0:0:
256,192,83628,1,0,0:0:0:0:
256,192,83764,1,0,0:0:0:0:
256,192,83901,1,12,0:0:0:0:
256,192,84037,1,0,0:0:0:0:
256,192,84174,1,0,0:0:0:0:
256,192,84311,1,8,0:0:0:0:
256,192,84447,1,0,0:0:0:0:
256,192,84583,1,8,0:0:0:0:
256,192,84720,1,0,0:0:0:0:
256,192,84856,1,8,0:0:0:0:
256,192,84992,1,0,0:0:0:0:
256,192,85129,1,8,0:0:0:0:
256,192,85265,1,0,0:0:0:0:
256,192,85401,5,12,0:0:0:0:
256,192,85673,1,0,0:0:0:0:
256,192,85810,1,8,0:0:0:0:
256,192,86491,1,8,0:0:0:0:
256,192,86628,1,8,0:0:0:0:
256,192,86764,1,0,0:0:0:0:
256,192,87037,1,8,0:0:0:0:
256,192,87173,1,0,0:0:0:0:
256,192,87310,1,8,0:0:0:0:
256,192,87582,1,4,0:0:0:0:
256,192,87855,1,0,0:0:0:0:
256,192,87991,1,8,0:0:0:0:
256,192,88673,1,8,0:0:0:0:
256,192,88810,1,0,0:0:0:0:
256,192,88946,1,0,0:0:0:0:
256,192,89082,1,0,0:0:0:0:
256,192,89219,1,8,0:0:0:0:
256,192,89491,1,0,0:0:0:0:
256,192,89764,1,12,0:0:0:0:
256,192,89901,1,0,0:0:0:0:
256,192,90037,1,0,0:0:0:0:
256,192,90173,1,8,0:0:0:0:
256,192,90855,1,8,0:0:0:0:
256,192,90991,1,8,0:0:0:0:
256,192,91128,1,0,0:0:0:0:
256,192,91264,1,0,0:0:0:0:
256,192,91332,1,0,0:0:0:0:
256,192,91401,1,8,0:0:0:0:
256,192,91673,1,0,0:0:0:0:
256,192,91810,1,0,0:0:0:0:
256,192,91946,1,12,0:0:0:0:
256,192,92219,1,0,0:0:0:0:
256,192,92355,1,8,0:0:0:0:
256,192,92901,1,0,0:0:0:0:
256,192,92969,1,0,0:0:0:0:
256,192,93037,1,8,0:0:0:0:
256,192,93173,1,8,0:0:0:0:
256,192,93310,1,0,0:0:0:0:
256,192,93446,1,0,0:0:0:0:
256,192,93582,1,8,0:0:0:0:
256,192,93719,1,0,0:0:0:0:
256,192,93855,1,0,0:0:0:0:
256,192,93991,1,8,0:0:0:0:
256,192,94128,1,4,0:0:0:0:
256,192,94401,1,0,0:0:0:0:
256,192,94673,1,8,0:0:0:0:
256,192,94946,1,0,0:0:0:0:
256,192,95219,1,8,0:0:0:0:
256,192,95355,1,8,0:0:0:0:
256,192,95491,1,0,0:0:0:0:
256,192,95628,1,0,0:0:0:0:
256,192,95764,1,8,0:0:0:0:
256,192,95901,1,0,0:0:0:0:
256,192,96037,1,0,0:0:0:0:
256,192,96173,1,8,0:0:0:0:
256,192,96310,1,4,0:0:0:0:
256,192,96582,1,0,0:0:0:0:
256,192,96855,1,8,0:0:0:0:
256,192,97128,1,0,0:0:0:0:
256,192,97264,1,0,0:0:0:0:
256,192,97401,1,8,0:0:0:0:
256,192,97537,1,0,0:0:0:0:
256,192,97673,1,0,0:0:0:0:
256,192,97810,1,8,0:0:0:0:
256,192,97946,1,8,0:0:0:0:
256,192,98082,1,0,0:0:0:0:
256,192,98219,1,8,0:0:0:0:
256,192,98355,1,0,0:0:0:0:
256,192,98491,1,12,0:0:0:0:
256,192,98764,1,0,0:0:0:0:
256,192,99037,1,8,0:0:0:0:
256,192,99310,1,0,0:0:0:0:
256,192,99582,1,8,0:0:0:0:
256,192,99719,1,0,0:0:0:0:
256,192,99855,1,0,0:0:0:0:
256,192,99991,1,0,0:0:0:0:
256,192,100128,1,8,0:0:0:0:
256,192,100264,1,0,0:0:0:0:
256,192,100401,1,0,0:0:0:0:
256,192,100537,1,8,0:0:0:0:
256,192,100673,1,4,0:0:0:0:
256,192,100810,1,0,0:0:0:0:
256,192,100946,1,0,0:0:0:0:
256,192,101082,1,0,0:0:0:0:
256,192,101219,1,8,0:0:0:0:
256,192,101355,1,8,0:0:0:0:
256,192,101491,1,8,0:0:0:0:
256,192,101628,1,8,0:0:0:0:
256,192,101764,1,8,0:0:0:0:
256,192,101901,1,0,0:0:0:0:
256,192,101969,1,0,0:0:0:0:
256,192,102037,1,0,0:0:0:0:
256,192,102173,1,0,0:0:0:0:
256,192,102310,1,8,0:0:0:0:
256,192,102446,1,8,0:0:0:0:
256,192,102582,1,0,0:0:0:0:
256,192,102719,1,0,0:0:0:0:
256,192,102856,1,12,0:0:0:0:
256,192,103128,1,0,0:0:0:0:
256,192,103265,1,8,0:0:0:0:
256,192,103537,1,0,0:0:0:0:
256,192,103674,1,8,0:0:0:0:
256,192,103810,1,8,0:0:0:0:
256,192,103946,1,8,0:0:0:0:
256,192,104083,1,0,0:0:0:0:
256,192,104219,1,8,0:0:0:0:
256,192,104356,1,0,0:0:0:0:
256,192,104492,1,0,0:0:0:0:
256,192,104628,1,0,0:0:0:0:
256,192,104765,1,8,0:0:0:0:
256,192,105037,1,0,0:0:0:0:
256,192,105174,1,8,0:0:0:0:
256,192,105446,1,0,0:0:0:0:
256,192,105583,1,8,0:0:0:0:
256,192,105719,1,8,0:0:0:0:
256,192,105855,1,0,0:0:0:0:
256,192,105992,1,0,0:0:0:0:
256,192,106128,1,8,0:0:0:0:
256,192,106265,1,0,0:0:0:0:
256,192,106401,1,0,0:0:0:0:
256,192,106537,1,0,0:0:0:0:
256,192,106674,1,8,0:0:0:0:
256,192,106810,1,8,0:0:0:0:
256,192,106946,1,4,0:0:0:0:
256,192,107219,1,0,0:0:0:0:
256,192,107355,1,8,0:0:0:0:
256,192,107628,1,0,0:0:0:0:
256,192,107765,1,8,0:0:0:0:
256,192,107901,1,8,0:0:0:0:
256,192,108037,1,0,0:0:0:0:
256,192,108174,1,0,0:0:0:0:
256,192,108310,1,8,0:0:0:0:
256,192,108446,1,0,0:0:0:0:
256,192,108583,1,0,0:0:0:0:
256,192,108719,1,0,0:0:0:0:
256,192,108855,1,8,0:0:0:0:
256,192,108992,1,0,0:0:0:0:
256,192,109128,1,8,0:0:0:0:
256,192,109265,1,8,0:0:0:0:
256,192,109401,1,0,0:0:0:0:
256,192,109537,1,0,0:0:0:0:
256,192,109674,1,8,0:0:0:0:
256,192,109810,1,8,0:0:0:0:
256,192,109946,1,0,0:0:0:0:
256,192,110083,1,0,0:0:0:0:
256,192,110219,1,8,0:0:0:0:
256,192,110355,1,0,0:0:0:0:
256,192,110492,1,8,0:0:0:0:
256,192,110628,1,0,0:0:0:0:
256,192,110696,1,0,0:0:0:0:
256,192,110765,1,8,0:0:0:0:
256,192,110901,1,8,0:0:0:0:
256,192,111037,1,8,0:0:0:0:
256,192,111174,1,0,0:0:0:0:
256,192,111311,1,12,0:0:0:0:
256,192,111583,1,0,0:0:0:0:
256,192,111720,1,8,0:0:0:0:
256,192,111992,1,0,0:0:0:0:
256,192,112129,1,8,0:0:0:0:
256,192,112265,1,8,0:0:0:0:
256,192,112401,1,0,0:0:0:0:
256,192,112538,1,0,0:0:0:0:
256,192,112674,1,8,0:0:0:0:
256,192,112811,1,8,0:0:0:0:
256,192,112947,1,0,0:0:0:0:
256,192,113083,1,8,0:0:0:0:
256,192,113220,1,0,0:0:0:0:
256,192,113492,1,0,0:0:0:0:
256,192,113629,1,8,0:0:0:0:
256,192,113901,1,0,0:0:0:0:
256,192,114038,1,8,0:0:0:0:
256,192,114174,1,0,0:0:0:0:
256,192,114310,1,8,0:0:0:0:
256,192,114447,1,0,0:0:0:0:
256,192,114583,1,0,0:0:0:0:
256,192,114720,1,8,0:0:0:0:
256,192,114856,1,8,0:0:0:0:
256,192,114992,1,0,0:0:0:0:
256,192,115129,1,8,0:0:0:0:
256,192,115265,1,8,0:0:0:0:
256,192,115401,1,4,0:0:0:0:
256,192,115674,1,8,0:0:0:0:
256,192,115810,1,0,0:0:0:0:
256,192,116083,1,0,0:0:0:0:
256,192,116220,1,8,0:0:0:0:
256,192,116356,1,0,0:0:0:0:
256,192,116492,1,8,0:0:0:0:
256,192,116629,1,0,0:0:0:0:
256,192,116765,1,0,0:0:0:0:
256,192,116901,1,8,0:0:0:0:
256,192,117038,1,0,0:0:0:0:
256,192,117174,1,0,0:0:0:0:
256,192,117310,1,8,0:0:0:0:
256,192,117447,1,0,0:0:0:0:
256,192,117583,1,8,0:0:0:0:
256,192,117720,1,0,0:0:0:0:
256,192,117856,1,8,0:0:0:0:
256,192,117992,1,0,0:0:0:0:
256,192,118129,1,8,0:0:0:0:
256,192,118265,1,8,0:0:0:0:
256,192,118401,1,0,0:0:0:0:
256,192,118538,1,0,0:0:0:0:
256,192,118606,1,0,0:0:0:0:
256,192,118674,1,8,0:0:0:0:
256,192,118810,1,0,0:0:0:0:
256,192,118947,1,8,0:0:0:0:
256,192,119083,1,8,0:0:0:0:
256,192,119220,1,0,0:0:0:0:
256,192,119356,1,8,0:0:0:0:
256,192,119492,1,8,0:0:0:0:
256,192,119629,1,0,0:0:0:0:
256,192,119765,5,0,0:0:0:0:
256,192,120037,1,8,0:0:0:0:
256,192,120174,1,0,0:0:0:0:
256,192,120310,1,8,0:0:0:0:
256,192,120446,1,0,0:0:0:0:
256,192,120583,1,8,0:0:0:0:
256,192,120719,1,0,0:0:0:0:
256,192,120787,1,0,0:0:0:0:
256,192,120855,1,8,0:0:0:0:
256,192,121128,1,8,0:0:0:0:
256,192,121265,1,0,0:0:0:0:
256,192,121401,1,8,0:0:0:0:
256,192,121537,1,8,0:0:0:0:
256,192,121674,1,0,0:0:0:0:
256,192,121946,1,8,0:0:0:0:
256,192,122083,1,0,0:0:0:0:
256,192,122219,1,8,0:0:0:0:
256,192,122355,1,8,0:0:0:0:
256,192,122492,1,0,0:0:0:0:
256,192,122628,1,0,0:0:0:0:
256,192,122765,1,8,0:0:0:0:
256,192,122901,1,0,0:0:0:0:
256,192,123037,1,8,0:0:0:0:
256,192,123174,1,0,0:0:0:0:
256,192,123242,1,0,0:0:0:0:
256,192,123310,1,8,0:0:0:0:
256,192,123446,1,0,0:0:0:0:
256,192,123515,1,0,0:0:0:0:
256,192,123583,1,8,0:0:0:0:
256,192,123719,1,0,0:0:0:0:
256,192,123787,1,0,0:0:0:0:
256,192,123855,1,8,0:0:0:0:
256,192,123992,1,0,0:0:0:0:
256,192,124060,1,0,0:0:0:0:
256,192,124128,1,0,0:0:0:0:
256,192,124401,1,8,0:0:0:0:
256,192,124537,1,0,0:0:0:0:
256,192,124674,1,8,0:0:0:0:
256,192,124810,1,8,0:0:0:0:
256,192,124946,1,0,0:0:0:0:
256,192,125083,1,8,0:0:0:0:
256,192,125219,1,0,0:0:0:0:
256,192,125355,1,0,0:0:0:0:
256,192,125492,1,8,0:0:0:0:
256,192,125628,1,0,0:0:0:0:
256,192,125696,1,0,0:0:0:0:
256,192,125765,1,8,0:0:0:0:
256,192,125901,1,0,0:0:0:0:
256,192,125969,1,0,0:0:0:0:
256,192,126037,1,8,0:0:0:0:
256,192,126310,1,8,0:0:0:0:
256,192,126446,1,0,0:0:0:0:
256,192,126583,1,8,0:0:0:0:
256,192,126719,1,0,0:0:0:0:
256,192,126855,1,0,0:0:0:0:
256,192,126992,1,0,0:0:0:0:
256,192,127128,1,8,0:0:0:0:
256,192,127265,1,0,0:0:0:0:
256,192,127401,1,8,0:0:0:0:
256,192,127469,1,8,0:0:0:0:
256,192,127537,1,8,0:0:0:0:
256,192,127605,1,8,0:0:0:0:
256,192,127674,1,0,0:0:0:0:
256,192,127810,1,8,0:0:0:0:
256,192,127878,1,8,0:0:0:0:
256,192,127946,1,8,0:0:0:0:
256,192,128015,1,8,0:0:0:0:
256,192,128083,1,0,0:0:0:0:
256,192,128219,1,8,0:0:0:0:
256,192,128492,1,8,0:0:0:0:
256,192,128628,1,0,0:0:0:0:
256,192,128765,1,8,0:0:0:0:
256,192,128901,1,8,0:0:0:0:
256,192,129037,1,0,0:0:0:0:
256,192,129174,1,0,0:0:0:0:
256,192,129310,1,8,0:0:0:0:
256,192,129446,1,0,0:0:0:0:
256,192,129515,1,0,0:0:0:0:
256,192,129583,1,8,0:0:0:0:
256,192,129719,1,0,0:0:0:0:
256,192,129787,1,8,0:0:0:0:
256,192,129855,1,8,0:0:0:0:
256,192,129924,1,8,0:0:0:0:
256,192,129992,1,0,0:0:0:0:
256,192,130128,1,8,0:0:0:0:
256,192,130196,1,0,0:0:0:0:
256,192,130265,1,0,0:0:0:0:
256,192,130333,1,0,0:0:0:0:
256,192,130401,1,8,0:0:0:0:
256,192,130674,1,8,0:0:0:0:
256,192,130810,1,0,0:0:0:0:
256,192,130946,1,8,0:0:0:0:
256,192,131083,1,8,0:0:0:0:
256,192,131219,1,0,0:0:0:0:
256,192,131355,1,0,0:0:0:0:
256,192,131492,1,8,0:0:0:0:
256,192,131628,1,0,0:0:0:0:
256,192,131765,1,8,0:0:0:0:
256,192,131901,1,0,0:0:0:0:
256,192,131969,1,0,0:0:0:0:
256,192,132037,1,8,0:0:0:0:
256,192,132174,1,0,0:0:0:0:
256,192,132242,1,0,0:0:0:0:
256,192,132310,1,8,0:0:0:0:
256,192,132446,1,0,0:0:0:0:
256,192,132515,1,0,0:0:0:0:
256,192,132583,1,8,0:0:0:0:
256,192,132719,1,8,0:0:0:0:
256,192,132787,1,8,0:0:0:0:
256,192,132855,1,0,0:0:0:0:
256,192,133128,1,8,0:0:0:0:
256,192,133265,1,0,0:0:0:0:
256,192,133401,1,0,0:0:0:0:
256,192,133537,1,0,0:0:0:0:
256,192,133674,1,8,0:0:0:0:
256,192,133810,1,0,0:0:0:0:
256,192,133946,1,0,0:0:0:0:
256,192,134083,1,8,0:0:0:0:
256,192,134219,1,8,0:0:0:0:
256,192,134355,1,0,0:0:0:0:
256,192,134492,1,8,0:0:0:0:
256,192,134628,1,0,0:0:0:0:
256,192,134696,1,0,0:0:0:0:
256,192,134765,1,8,0:0:0:0:
256,192,135037,1,0,0:0:0:0:
256,192,135174,1,0,0:0:0:0:
256,192,135310,1,8,0:0:0:0:
256,192,135446,1,0,0:0:0:0:
256,192,135583,1,8,0:0:0:0:
256,192,135651,1,8,0:0:0:0:
256,192,135719,1,0,0:0:0:0:
256,192,135855,1,8,0:0:0:0:
256,192,135992,1,4,0:0:0:0:
256,192,136265,1,8,0:0:0:0:
256,192,136401,1,0,0:0:0:0:
256,192,136538,1,8,0:0:0:0:
256,192,136674,1,4,0:0:0:0:
256,192,136947,1,0,0:0:0:0:
256,192,137083,1,8,0:0:0:0:
256,192,137219,1,8,0:0:0:0:
256,192,137356,1,4,0:0:0:0:
256,192,137629,1,8,0:0:0:0:
256,192,137765,1,0,0:0:0:0:
256,192,137901,1,0,0:0:0:0:
256,192,138038,1,8,0:0:0:0:
256,192,138174,1,0,0:0:0:0:
256,192,138310,1,0,0:0:0:0:
256,192,138447,1,0,0:0:0:0:
256,192,138583,5,4,0:0:0:0:
256,192,138855,1,0,0:0:0:0:
256,192,138992,1,8,0:0:0:0:
256,192,139264,1,0,0:0:0:0:
256,192,139401,1,0,0:0:0:0:
256,192,139537,1,8,0:0:0:0:
256,192,139810,1,0,0:0:0:0:
256,192,140083,1,0,0:0:0:0:
256,192,140355,1,0,0:0:0:0:
256,192,140492,1,8,0:0:0:0:
256,192,140764,1,0,0:0:0:0:
256,192,140901,1,8,0:0:0:0:
256,192,141173,1,0,0:0:0:0:
256,192,141310,1,0,0:0:0:0:
256,192,141446,1,8,0:0:0:0:
256,192,141719,1,0,0:0:0:0:
256,192,141992,1,0,0:0:0:0:
256,192,142264,1,0,0:0:0:0:
256,192,142401,1,8,0:0:0:0:
256,192,142673,1,0,0:0:0:0:
256,192,142810,1,8,0:0:0:0:
256,192,143083,1,0,0:0:0:0:
256,192,143219,1,0,0:0:0:0:
256,192,143355,1,8,0:0:0:0:
256,192,143628,1,0,0:0:0:0:
256,192,143901,1,0,0:0:0:0:
256,192,144173,1,0,0:0:0:0:
256,192,144310,1,8,0:0:0:0:
256,192,144583,1,0,0:0:0:0:
256,192,144719,1,8,0:0:0:0:
256,192,144992,1,0,0:0:0:0:
256,192,145128,1,0,0:0:0:0:
256,192,145264,1,8,0:0:0:0:
256,192,145537,1,8,0:0:0:0:
256,192,145810,1,8,0:0:0:0:
256,192,146083,1,8,0:0:0:0:
256,192,146219,5,12,0:0:0:0:
256,192,146355,1,0,0:0:0:0:
256,192,146491,1,0,0:0:0:0:
256,192,146628,1,8,0:0:0:0:
256,192,146764,1,0,0:0:0:0:
256,192,146900,1,0,0:0:0:0:
256,192,147037,1,8,0:0:0:0:
256,192,147173,1,0,0:0:0:0:
256,192,147309,1,0,0:0:0:0:
256,192,147446,1,8,0:0:0:0:
256,192,147582,1,0,0:0:0:0:
256,192,147719,1,0,0:0:0:0:
256,192,147855,1,8,0:0:0:0:
256,192,147991,1,0,0:0:0:0:
256,192,148059,1,0,0:0:0:0:
256,192,148128,1,0,0:0:0:0:
256,192,148400,1,8,0:0:0:0:
256,192,148537,1,0,0:0:0:0:
256,192,148673,1,0,0:0:0:0:
256,192,148809,1,8,0:0:0:0:
256,192,148946,1,0,0:0:0:0:
256,192,149082,1,0,0:0:0:0:
256,192,149219,1,8,0:0:0:0:
256,192,149355,1,0,0:0:0:0:
256,192,149491,1,0,0:0:0:0:
256,192,149628,1,8,0:0:0:0:
256,192,149764,1,0,0:0:0:0:
256,192,149900,1,0,0:0:0:0:
256,192,150037,1,8,0:0:0:0:
256,192,150173,1,8,0:0:0:0:
256,192,150309,1,8,0:0:0:0:
256,192,150446,1,8,0:0:0:0:
256,192,150582,1,4,0:0:0:0:
256,192,150855,1,0,0:0:0:0:
256,192,150991,1,0,0:0:0:0:
256,192,151128,1,8,0:0:0:0:
256,192,151400,1,0,0:0:0:0:
256,192,151537,1,8,0:0:0:0:
256,192,151809,1,8,0:0:0:0:
256,192,151946,1,0,0:0:0:0:
256,192,152082,1,0,0:0:0:0:
256,192,152219,1,8,0:0:0:0:
256,192,152355,1,0,0:0:0:0:
256,192,152491,1,0,0:0:0:0:
256,192,152628,1,8,0:0:0:0:
256,192,152764,1,0,0:0:0:0:
256,192,153037,1,0,0:0:0:0:
256,192,153173,1,0,0:0:0:0:
256,192,153241,1,0,0:0:0:0:
256,192,153309,1,8,0:0:0:0:
256,192,153582,1,0,0:0:0:0:
256,192,153719,1,8,0:0:0:0:
256,192,153991,1,8,0:0:0:0:
256,192,154264,1,0,0:0:0:0:
256,192,154400,1,8,0:0:0:0:
256,192,154491,1,0,0:0:0:0:
256,192,154582,1,8,0:0:0:0:
256,192,154673,1,8,0:0:0:0:
256,192,154764,1,0,0:0:0:0:
256,192,154855,1,8,0:0:0:0:
256,192,154946,5,0,0:0:0:0:
256,192,155219,1,8,0:0:0:0:
256,192,155355,1,0,0:0:0:0:
256,192,155423,1,0,0:0:0:0:
256,192,155491,1,0,0:0:0:0:
256,192,155628,1,0,0:0:0:0:
256,192,155696,1,0,0:0:0:0:
256,192,155764,1,8,0:0:0:0:
256,192,155900,1,0,0:0:0:0:
256,192,156037,1,0,0:0:0:0:
256,192,156173,1,0,0:0:0:0:
256,192,156309,1,8,0:0:0:0:
256,192,156582,1,0,0:0:0:0:
256,192,156719,1,0,0:0:0:0:
256,192,156855,1,8,0:0:0:0:
256,192,157128,1,8,0:0:0:0:
256,192,157264,1,0,0:0:0:0:
256,192,157400,1,8,0:0:0:0:
256,192,157537,1,0,0:0:0:0:
256,192,157605,1,0,0:0:0:0:
256,192,157809,1,0,0:0:0:0:
256,192,157946,1,8,0:0:0:0:
256,192,158082,1,0,0:0:0:0:
256,192,158355,1,0,0:0:0:0:
256,192,158491,1,8,0:0:0:0:
256,192,158628,1,8,0:0:0:0:
256,192,158764,1,0,0:0:0:0:
256,192,158900,1,0,0:0:0:0:
256,192,158969,1,0,0:0:0:0:
256,192,159037,1,8,0:0:0:0:
256,192,159173,1,0,0:0:0:0:
256,192,159309,1,0,0:0:0:0:
256,192,159582,1,8,0:0:0:0:
256,192,159719,1,0,0:0:0:0:
256,192,159855,1,0,0:0:0:0:
256,192,159923,1,0,0:0:0:0:
256,192,159991,1,0,0:0:0:0:
256,192,160128,1,8,0:0:0:0:
256,192,160264,1,0,0:0:0:0:
256,192,160400,1,0,0:0:0:0:
256,192,160537,1,0,0:0:0:0:
256,192,160673,1,8,0:0:0:0:
256,192,160809,1,0,0:0:0:0:
256,192,160878,1,0,0:0:0:0:
256,192,160946,1,8,0:0:0:0:
256,192,161082,1,8,0:0:0:0:
256,192,161150,1,0,0:0:0:0:
256,192,161219,1,8,0:0:0:0:
256,192,161355,1,8,0:0:0:0:
256,192,161491,1,0,0:0:0:0:
256,192,161628,1,0,0:0:0:0:
256,192,161764,1,8,0:0:0:0:
256,192,161832,1,8,0:0:0:0:
256,192,161900,1,0,0:0:0:0:
256,192,162173,1,0,0:0:0:0:
256,192,162241,1,0,0:0:0:0:
256,192,162309,1,8,0:0:0:0:
256,192,162446,1,0,0:0:0:0:
256,192,162582,1,0,0:0:0:0:
256,192,162650,1,8,0:0:0:0:
256,192,162719,1,8,0:0:0:0:
256,192,162855,1,8,0:0:0:0:
256,192,162923,1,8,0:0:0:0:
256,192,162991,1,0,0:0:0:0:
256,192,163128,1,8,0:0:0:0:
256,192,163264,1,8,0:0:0:0:
256,192,163332,1,0,0:0:0:0:
256,192,163400,1,8,0:0:0:0:
256,192,163537,1,0,0:0:0:0:
256,192,163673,1,8,0:0:0:0:
256,192,163809,1,0,0:0:0:0:
256,192,164082,1,0,0:0:0:0:
256,192,164219,1,8,0:0:0:0:
256,192,164355,1,0,0:0:0:0:
256,192,164628,1,0,0:0:0:0:
256,192,164696,1,0,0:0:0:0:
256,192,164764,1,8,0:0:0:0:
256,192,164900,1,0,0:0:0:0:
256,192,165173,1,0,0:0:0:0:
256,192,165309,1,8,0:0:0:0:
256,192,165378,1,8,0:0:0:0:
256,192,165446,1,8,0:0:0:0:
256,192,165582,1,0,0:0:0:0:
256,192,165650,1,0,0:0:0:0:
256,192,165719,1,0,0:0:0:0:
256,192,165855,1,8,0:0:0:0:
256,192,165923,1,0,0:0:0:0:
256,192,165991,1,8,0:0:0:0:
256,192,166128,1,0,0:0:0:0:
256,192,166264,1,0,0:0:0:0:
256,192,166332,1,0,0:0:0:0:
256,192,166400,1,8,0:0:0:0:
256,192,166469,1,8,0:0:0:0:
256,192,166537,1,0,0:0:0:0:
256,192,166673,1,8,0:0:0:0:
256,192,166741,1,8,0:0:0:0:
256,192,166809,1,0,0:0:0:0:
256,192,166946,1,8,0:0:0:0:
256,192,167014,1,0,0:0:0:0:
256,192,167082,1,8,0:0:0:0:
256,192,167150,1,8,0:0:0:0:
256,192,167219,1,0,0:0:0:0:
256,192,167355,1,0,0:0:0:0:
256,192,167423,1,8,0:0:0:0:
256,192,167491,1,8,0:0:0:0:
256,192,167559,1,0,0:0:0:0:
256,192,167628,1,8,0:0:0:0:
256,192,167764,1,0,0:0:0:0:
256,192,167900,1,8,0:0:0:0:
256,192,168037,1,0,0:0:0:0:
256,192,168309,1,8,0:0:0:0:
256,192,168446,1,8,0:0:0:0:
256,192,168514,1,0,0:0:0:0:
256,192,168582,1,8,0:0:0:0:
256,192,168719,1,0,0:0:0:0:
256,192,168855,1,8,0:0:0:0:
256,192,168923,1,0,0:0:0:0:
256,192,168991,1,8,0:0:0:0:
256,192,169128,1,0,0:0:0:0:
256,192,169196,1,8,0:0:0:0:
256,192,169264,1,0,0:0:0:0:
256,192,169400,1,8,0:0:0:0:
256,192,169469,1,0,0:0:0:0:
256,192,169537,1,0,0:0:0:0:
256,192,169673,1,8,0:0:0:0:
256,192,169741,1,8,0:0:0:0:
256,192,169809,1,0,0:0:0:0:
256,192,169946,1,8,0:0:0:0:
256,192,170014,1,8,0:0:0:0:
256,192,170082,1,0,0:0:0:0:
256,192,170219,1,8,0:0:0:0:
256,192,170287,1,0,0:0:0:0:
256,192,170355,1,8,0:0:0:0:
256,192,170423,1,0,0:0:0:0:
256,192,170491,1,8,0:0:0:0:
256,192,170628,1,0,0:0:0:0:
256,192,170696,1,0,0:0:0:0:
256,192,170764,1,8,0:0:0:0:
256,192,170832,1,0,0:0:0:0:
256,192,170900,1,8,0:0:0:0:
256,192,171037,1,8,0:0:0:0:
256,192,171105,1,0,0:0:0:0:
256,192,171173,1,8,0:0:0:0:
256,192,171241,1,8,0:0:0:0:
256,192,171309,1,0,0:0:0:0:
256,192,171446,1,8,0:0:0:0:
256,192,171514,1,0,0:0:0:0:
256,192,171582,1,8,0:0:0:0:
256,192,171719,1,0,0:0:0:0:
256,192,171855,1,8,0:0:0:0:
256,192,171991,1,8,0:0:0:0:
256,192,172059,1,0,0:0:0:0:
256,192,172128,1,8,0:0:0:0:
256,192,172264,1,0,0:0:0:0:
256,192,172400,1,8,0:0:0:0:
256,192,172673,1,0,0:0:0:0:
256,192,172809,1,0,0:0:0:0:
256,192,172946,1,8,0:0:0:0:
256,192,173219,1,0,0:0:0:0:
256,192,173355,1,0,0:0:0:0:
256,192,173628,1,0,0:0:0:0:
256,192,173764,1,0,0:0:0:0:
256,192,174037,1,8,0:0:0:0:
256,192,174173,1,0,0:0:0:0:
256,192,174309,1,0,0:0:0:0:
256,192,174446,1,0,0:0:0:0:
256,192,174719,1,0,0:0:0:0:
256,192,174855,1,0,0:0:0:0:
256,192,175128,1,8,0:0:0:0:
256,192,175400,1,0,0:0:0:0:
256,192,175469,1,0,0:0:0:0:
256,192,175537,1,0,0:0:0:0:
256,192,175605,1,0,0:0:0:0:
256,192,175673,1,8,0:0:0:0:
256,192,175946,1,0,0:0:0:0:
256,192,176082,1,0,0:0:0:0:
256,192,176219,1,8,0:0:0:0:
256,192,176355,1,8,0:0:0:0:
256,192,176491,1,0,0:0:0:0:
256,192,176764,1,4,0:0:0:0:
256,192,177037,1,0,0:0:0:0:
256,192,177173,1,0,0:0:0:0:
256,192,177309,1,8,0:0:0:0:
256,192,177582,1,0,0:0:0:0:
256,192,177719,1,0,0:0:0:0:
256,192,177991,1,0,0:0:0:0:
256,192,178128,1,0,0:0:0:0:
256,192,178400,1,8,0:0:0:0:
256,192,178537,1,0,0:0:0:0:
256,192,178605,1,0,0:0:0:0:
256,192,178673,1,0,0:0:0:0:
256,192,178741,1,0,0:0:0:0:
256,192,178809,1,0,0:0:0:0:
256,192,179082,1,0,0:0:0:0:
256,192,179219,1,0,0:0:0:0:
256,192,179491,1,8,0:0:0:0:
256,192,179628,1,0,0:0:0:0:
256,192,179764,1,8,0:0:0:0:
256,192,179900,1,8,0:0:0:0:
256,192,180037,1,0,0:0:0:0:
256,192,180309,1,0,0:0:0:0:
256,192,180446,1,0,0:0:0:0:
256,192,180582,1,8,0:0:0:0:
256,192,180719,1,8,0:0:0:0:
256,192,180855,1,0,0:0:0:0:
256,192,181128,1,4,0:0:0:0:
256,192,181400,1,0,0:0:0:0:
256,192,181537,1,0,0:0:0:0:
256,192,181673,1,8,0:0:0:0:
256,192,181946,1,0,0:0:0:0:
256,192,182082,1,0,0:0:0:0:
256,192,182355,1,0,0:0:0:0:
256,192,182491,1,0,0:0:0:0:
256,192,182764,1,8,0:0:0:0:
256,192,183173,1,0,0:0:0:0:
256,192,183446,1,0,0:0:0:0:
256,192,183582,1,0,0:0:0:0:
256,192,183855,1,8,0:0:0:0:
256,192,184128,1,0,0:0:0:0:
256,192,184196,1,0,0:0:0:0:
256,192,184264,1,0,0:0:0:0:
256,192,184332,1,0,0:0:0:0:
256,192,184400,1,0,0:0:0:0:
256,192,184673,1,0,0:0:0:0:
256,192,184809,1,0,0:0:0:0:
256,192,184946,1,8,0:0:0:0:
256,192,185082,1,8,0:0:0:0:
256,192,185150,1,8,0:0:0:0:
256,192,185219,1,0,0:0:0:0:
256,192,185491,1,4,0:0:0:0:
256,192,185764,1,0,0:0:0:0:
256,192,185900,1,0,0:0:0:0:
256,192,186037,1,8,0:0:0:0:
256,192,186309,1,0,0:0:0:0:
256,192,186446,1,0,0:0:0:0:
256,192,186719,1,0,0:0:0:0:
256,192,186855,1,0,0:0:0:0:
256,192,187128,1,8,0:0:0:0:
256,192,187264,1,0,0:0:0:0:
256,192,187332,1,0,0:0:0:0:
256,192,187400,1,0,0:0:0:0:
256,192,187469,1,0,0:0:0:0:
256,192,187537,1,0,0:0:0:0:
256,192,187809,1,0,0:0:0:0:
256,192,187946,1,0,0:0:0:0:
256,192,188219,1,8,0:0:0:0:
256,192,188355,1,0,0:0:0:0:
256,192,188491,1,8,0:0:0:0:
256,192,188559,1,8,0:0:0:0:
256,192,188628,1,8,0:0:0:0:
256,192,188764,1,0,0:0:0:0:
256,192,188900,1,8,0:0:0:0:
256,192,189036,1,0,0:0:0:0:
256,192,189309,1,0,0:0:0:0:
256,192,189445,1,8,0:0:0:0:
256,192,189582,1,0,0:0:0:0:
256,192,189854,1,8,0:0:0:0:
256,192,189991,1,8,0:0:0:0:
256,192,190127,1,8,0:0:0:0:
256,192,190264,5,4,0:0:0:0:
256,192,190536,1,0,0:0:0:0:
256,192,190672,1,8,0:0:0:0:
256,192,190809,1,0,0:0:0:0:
256,192,190945,1,8,0:0:0:0:
256,192,191081,1,0,0:0:0:0:
256,192,191218,1,8,0:0:0:0:
256,192,191354,1,0,0:0:0:0:
256,192,191490,1,8,0:0:0:0:
256,192,191627,1,0,0:0:0:0:
256,192,191763,1,8,0:0:0:0:
256,192,192036,1,0,0:0:0:0:
256,192,192172,1,0,0:0:0:0:
256,192,192309,1,0,0:0:0:0:
256,192,192445,1,12,0:0:0:0:
256,192,192718,1,0,0:0:0:0:
256,192,192854,1,8,0:0:0:0:
256,192,192990,1,0,0:0:0:0:
256,192,193127,1,0,0:0:0:0:
256,192,193263,1,0,0:0:0:0:
256,192,193400,1,8,0:0:0:0:
256,192,193536,1,0,0:0:0:0:
256,192,193672,1,8,0:0:0:0:
256,192,193740,1,8,0:0:0:0:
256,192,193809,1,8,0:0:0:0:
256,192,193945,1,8,0:0:0:0:
256,192,194081,1,0,0:0:0:0:
256,192,194150,1,0,0:0:0:0:
256,192,194218,1,8,0:0:0:0:
256,192,194354,1,8,0:0:0:0:
256,192,194490,1,8,0:0:0:0:
256,192,194627,1,4,0:0:0:0:
256,192,194900,1,0,0:0:0:0:
256,192,195036,1,8,0:0:0:0:
256,192,195172,1,0,0:0:0:0:
256,192,195309,1,8,0:0:0:0:
256,192,195445,1,0,0:0:0:0:
256,192,195581,1,8,0:0:0:0:
256,192,195718,1,0,0:0:0:0:
256,192,195854,1,8,0:0:0:0:
256,192,195990,1,0,0:0:0:0:
256,192,196127,1,8,0:0:0:0:
256,192,196400,1,8,0:0:0:0:
256,192,196536,1,0,0:0:0:0:
256,192,196672,1,8,0:0:0:0:
256,192,196809,1,4,0:0:0:0:
256,192,197081,1,8,0:0:0:0:
256,192,197218,1,0,0:0:0:0:
256,192,197354,1,0,0:0:0:0:
256,192,197490,1,8,0:0:0:0:
256,192,197627,1,0,0:0:0:0:
256,192,197763,1,0,0:0:0:0:
256,192,197900,1,8,0:0:0:0:
256,192,198036,1,0,0:0:0:0:
256,192,198172,1,8,0:0:0:0:
256,192,198309,1,8,0:0:0:0:
256,192,198445,1,0,0:0:0:0:
256,192,198581,1,8,0:0:0:0:
256,192,198718,1,8,0:0:0:0:
256,192,198854,1,0,0:0:0:0:
256,192,198990,1,12,0:0:0:0:
256,192,199263,1,0,0:0:0:0:
256,192,199331,1,0,0:0:0:0:
256,192,199400,1,8,0:0:0:0:
256,192,199536,1,0,0:0:0:0:
256,192,199672,1,8,0:0:0:0:
256,192,199809,1,0,0:0:0:0:
256,192,199945,1,8,0:0:0:0:
256,192,200081,1,0,0:0:0:0:
256,192,200218,1,8,0:0:0:0:
256,192,200354,1,0,0:0:0:0:
256,192,200490,1,8,0:0:0:0:
256,192,200763,1,8,0:0:0:0:
256,192,200900,1,0,0:0:0:0:
256,192,201036,1,8,0:0:0:0:
256,192,201172,1,8,0:0:0:0:
256,192,201445,1,8,0:0:0:0:
256,192,201581,1,0,0:0:0:0:
256,192,201718,1,0,0:0:0:0:
256,192,201854,1,8,0:0:0:0:
256,192,201990,1,0,0:0:0:0:
256,192,202127,1,0,0:0:0:0:
256,192,202263,1,8,0:0:0:0:
256,192,202400,1,0,0:0:0:0:
256,192,202536,1,0,0:0:0:0:
256,192,202672,1,8,0:0:0:0:
256,192,202740,1,8,0:0:0:0:
256,192,202809,1,8,0:0:0:0:
256,192,202877,1,8,0:0:0:0:
256,192,202945,1,0,0:0:0:0:
256,192,203081,1,0,0:0:0:0:
256,192,203218,1,0,0:0:0:0:
256,192,203490,5,4,0:0:0:0:
256,192,203626,1,8,0:0:0:0:
256,192,203762,1,0,0:0:0:0:
256,192,203830,1,0,0:0:0:0:
256,192,203899,1,8,0:0:0:0:
256,192,204035,1,0,0:0:0:0:
256,192,204171,1,8,0:0:0:0:
256,192,204308,1,0,0:0:0:0:
256,192,204376,1,0,0:0:0:0:
256,192,204444,1,8,0:0:0:0:
256,192,204580,1,8,0:0:0:0:
256,192,204717,1,8,0:0:0:0:
256,192,204853,1,8,0:0:0:0:
256,192,204921,1,0,0:0:0:0:
256,192,204990,1,8,0:0:0:0:
256,192,205126,1,0,0:0:0:0:
256,192,205194,1,0,0:0:0:0:
256,192,205262,1,8,0:0:0:0:
256,192,205399,1,0,0:0:0:0:
256,192,205535,1,8,0:0:0:0:
256,192,205671,1,0,0:0:0:0:
256,192,205739,1,0,0:0:0:0:
256,192,205808,1,8,0:0:0:0:
256,192,205944,1,0,0:0:0:0:
256,192,206080,1,8,0:0:0:0:
256,192,206217,1,0,0:0:0:0:
256,192,206285,1,0,0:0:0:0:
256,192,206353,1,8,0:0:0:0:
256,192,206489,1,8,0:0:0:0:
256,192,206626,1,8,0:0:0:0:
256,192,206762,1,8,0:0:0:0:
256,192,206830,1,0,0:0:0:0:
256,192,206899,1,8,0:0:0:0:
256,192,207035,1,0,0:0:0:0:
256,192,207103,1,0,0:0:0:0:
256,192,207171,1,8,0:0:0:0:
256,192,207308,1,0,0:0:0:0:
256,192,207376,1,0,0:0:0:0:
256,192,207444,1,8,0:0:0:0:
256,192,207581,1,4,0:0:0:0:
256,192,207853,1,0,0:0:0:0:
256,192,207921,1,0,0:0:0:0:
256,192,207990,1,8,0:0:0:0:
256,192,208126,1,8,0:0:0:0:
256,192,208262,1,8,0:0:0:0:
256,192,208399,1,0,0:0:0:0:
256,192,208467,1,0,0:0:0:0:
256,192,208535,1,8,0:0:0:0:
256,192,208671,1,0,0:0:0:0:
256,192,208808,1,8,0:0:0:0:
256,192,208944,1,0,0:0:0:0:
256,192,209012,1,0,0:0:0:0:
256,192,209081,1,8,0:0:0:0:
256,192,209217,1,0,0:0:0:0:
256,192,209285,1,0,0:0:0:0:
256,192,209353,1,8,0:0:0:0:
256,192,209490,1,0,0:0:0:0:
256,192,209626,1,8,0:0:0:0:
256,192,209762,1,0,0:0:0:0:
256,192,209830,1,0,0:0:0:0:
256,192,209899,1,8,0:0:0:0:
256,192,210035,1,8,0:0:0:0:
256,192,210171,1,8,0:0:0:0:
256,192,210308,1,0,0:0:0:0:
256,192,210376,1,0,0:0:0:0:
256,192,210444,1,8,0:0:0:0:
256,192,210580,1,0,0:0:0:0:
256,192,210717,1,8,0:0:0:0:
256,192,210853,1,0,0:0:0:0:
256,192,210921,1,0,0:0:0:0:
256,192,210990,1,8,0:0:0:0:
256,192,211126,1,0,0:0:0:0:
256,192,211262,1,8,0:0:0:0:
256,192,211399,1,8,0:0:0:0:
256,192,211535,1,8,0:0:0:0:
256,192,211672,5,0,0:0:0:0:
256,192,211808,1,8,0:0:0:0:
256,192,211876,1,8,0:0:0:0:
256,192,211944,1,0,0:0:0:0:
256,192,212012,1,0,0:0:0:0:
256,192,212081,1,8,0:0:0:0:
256,192,212353,1,8,0:0:0:0:
256,192,212422,1,0,0:0:0:0:
256,192,212490,1,0,0:0:0:0:
256,192,212558,1,0,0:0:0:0:
256,192,212626,1,8,0:0:0:0:
256,192,212899,1,8,0:0:0:0:
256,192,212967,1,0,0:0:0:0:
256,192,213035,1,0,0:0:0:0:
256,192,213172,1,8,0:0:0:0:
256,192,213308,1,0,0:0:0:0:
256,192,213376,1,0,0:0:0:0:
256,192,213444,1,8,0:0:0:0:
256,192,213581,1,0,0:0:0:0:
256,192,213649,1,0,0:0:0:0:
256,192,213717,1,8,0:0:0:0:
256,192,213853,1,0,0:0:0:0:
256,192,213990,1,8,0:0:0:0:
256,192,214058,1,8,0:0:0:0:
256,192,214126,1,0,0:0:0:0:
256,192,214194,1,0,0:0:0:0:
256,192,214262,1,8,0:0:0:0:
256,192,214535,1,8,0:0:0:0:
256,192,214603,1,0,0:0:0:0:
256,192,214672,1,0,0:0:0:0:
256,192,214740,1,0,0:0:0:0:
256,192,214808,1,8,0:0:0:0:
256,192,215081,1,8,0:0:0:0:
256,192,215149,1,0,0:0:0:0:
256,192,215217,1,0,0:0:0:0:
256,192,215353,1,8,0:0:0:0:
256,192,215490,1,0,0:0:0:0:
256,192,215558,1,0,0:0:0:0:
256,192,215626,1,8,0:0:0:0:
256,192,215762,1,0,0:0:0:0:
256,192,215831,1,0,0:0:0:0:
256,192,215899,1,8,0:0:0:0:
256,192,216035,1,0,0:0:0:0:
256,192,216172,1,8,0:0:0:0:
256,192,216240,1,8,0:0:0:0:
256,192,216308,1,0,0:0:0:0:
256,192,216376,1,0,0:0:0:0:
256,192,216444,1,8,0:0:0:0:
256,192,216717,1,8,0:0:0:0:
256,192,216785,1,0,0:0:0:0:
256,192,216853,1,0,0:0:0:0:
256,192,216922,1,0,0:0:0:0:
256,192,216990,1,8,0:0:0:0:
256,192,217262,1,8,0:0:0:0:
256,192,217331,1,0,0:0:0:0:
256,192,217399,1,0,0:0:0:0:
256,192,217535,1,8,0:0:0:0:
256,192,217672,1,0,0:0:0:0:
256,192,217740,1,0,0:0:0:0:
256,192,217808,1,8,0:0:0:0:
256,192,217944,1,0,0:0:0:0:
256,192,218012,1,0,0:0:0:0:
256,192,218081,1,8,0:0:0:0:
256,192,218217,1,0,0:0:0:0:
256,192,218353,1,8,0:0:0:0:
256,192,218422,1,0,0:0:0:0:
256,192,218490,1,0,0:0:0:0:
256,192,218558,1,0,0:0:0:0:
256,192,218626,1,8,0:0:0:0:
256,192,218899,1,8,0:0:0:0:
256,192,218967,1,0,0:0:0:0:
256,192,219035,1,0,0:0:0:0:
256,192,219103,1,0,0:0:0:0:
256,192,219172,1,8,0:0:0:0:
256,192,219308,1,0,0:0:0:0:
256,192,219444,1,8,0:0:0:0:
256,192,219581,1,0,0:0:0:0:
256,192,219717,1,8,0:0:0:0:
256,192,219853,1,0,0:0:0:0:
256,192,219990,1,8,0:0:0:0:
256,192,220126,1,8,0:0:0:0:
256,192,220262,1,8,0:0:0:0:
256,192,220400,5,4,0:0:0:0:
256,192,220672,1,0,0:0:0:0:
256,192,220809,1,8,0:0:0:0:
256,192,220945,1,0,0:0:0:0:
256,192,221218,1,0,0:0:0:0:
256,192,221490,1,0,0:0:0:0:
256,192,221627,1,8,0:0:0:0:
256,192,221763,1,0,0:0:0:0:
256,192,222036,1,0,0:0:0:0:
256,192,222309,1,0,0:0:0:0:
256,192,222445,1,8,0:0:0:0:
256,192,222581,1,0,0:0:0:0:
256,192,222854,1,0,0:0:0:0:
256,192,223127,1,0,0:0:0:0:
256,192,223263,1,8,0:0:0:0:
256,192,223400,1,0,0:0:0:0:
256,192,223672,1,8,0:0:0:0:
256,192,223945,1,0,0:0:0:0:
256,192,224081,1,8,0:0:0:0:
256,192,224218,1,8,0:0:0:0:
256,192,224490,1,8,0:0:0:0:
256,192,224763,1,0,0:0:0:0:
256,192,224900,1,8,0:0:0:0:
256,192,225036,1,0,0:0:0:0:
256,192,225309,1,0,0:0:0:0:
256,192,225581,1,0,0:0:0:0:
256,192,225718,1,8,0:0:0:0:
256,192,225854,1,0,0:0:0:0:
256,192,225990,1,8,0:0:0:0:
256,192,226127,1,12,0:0:0:0:
256,192,226400,1,4,0:0:0:0:
256,192,226672,1,4,0:0:0:0:
256,192,226945,1,8,0:0:0:0:
256,192,227081,1,0,0:0:0:0:
256,192,227218,1,0,0:0:0:0:
256,192,227354,1,8,0:0:0:0:
256,192,227490,1,0,0:0:0:0:
256,192,227763,1,0,0:0:0:0:
256,192,228036,1,0,0:0:0:0:
256,192,228172,1,8,0:0:0:0:
256,192,228309,1,0,0:0:0:0:
256,192,228581,1,0,0:0:0:0:
256,192,228718,1,0,0:0:0:0:
256,192,228854,1,0,0:0:0:0:
256,192,228990,1,8,0:0:0:0:
256,192,229127,1,0,0:0:0:0:
256,192,229263,1,8,0:0:0:0:
256,192,229400,1,0,0:0:0:0:
256,192,229672,1,0,0:0:0:0:
256,192,229809,1,8,0:0:0:0:
256,192,229945,1,0,0:0:0:0:
256,192,230218,1,0,0:0:0:0:
256,192,230354,1,0,0:0:0:0:
256,192,230490,1,0,0:0:0:0:
256,192,230627,1,8,0:0:0:0:
256,192,230763,1,0,0:0:0:0:
256,192,231036,1,0,0:0:0:0:
256,192,231309,1,0,0:0:0:0:
256,192,231445,1,8,0:0:0:0:
256,192,231581,1,0,0:0:0:0:
256,192,231854,1,0,0:0:0:0:
256,192,231990,1,0,0:0:0:0:
256,192,232127,1,0,0:0:0:0:
256,192,232263,1,8,0:0:0:0:
256,192,232400,1,8,0:0:0:0:
256,192,232536,1,0,0:0:0:0:
256,192,232672,1,8,0:0:0:0:
256,192,232809,1,0,0:0:0:0:
256,192,232945,1,8,0:0:0:0:
256,192,233081,1,0,0:0:0:0:
256,192,233218,1,8,0:0:0:0:
256,192,233354,1,8,0:0:0:0:
256,192,233490,5,4,0:0:0:0:
256,192,234309,1,4,0:0:0:0:
256,192,235127,1,12,0:0:0:0:
256,192,235945,1,12,0:0:0:0:
256,192,236763,1,4,0:0:0:0:
256,192,237172,1,4,0:0:0:0:
256,192,237581,1,12,0:0:0:0:
256,192,237990,1,12,0:0:0:0:
256,192,238400,1,8,0:0:0:0:
256,192,238468,1,8,0:0:0:0:
256,192,238536,1,8,0:0:0:0:
256,192,238604,1,8,0:0:0:0:
256,192,238672,1,0,0:0:0:0:
256,192,238809,1,0,0:0:0:0:
256,192,238877,1,0,0:0:0:0:
256,192,238945,1,8,0:0:0:0:
256,192,239013,1,8,0:0:0:0:
256,192,239081,1,0,0:0:0:0:
256,192,239218,1,8,0:0:0:0:
256,192,239286,1,8,0:0:0:0:
256,192,239354,1,0,0:0:0:0:
256,192,239490,5,12,0:0:0:0:
256,192,239762,1,8,0:0:0:0:
256,192,239899,1,0,0:0:0:0:
256,192,240035,1,8,0:0:0:0:
256,192,240171,1,0,0:0:0:0:
256,192,240308,1,8,0:0:0:0:
256,192,240444,1,0,0:0:0:0:
256,192,240512,1,0,0:0:0:0:
256,192,240580,1,8,0:0:0:0:
256,192,240853,1,8,0:0:0:0:
256,192,240990,1,0,0:0:0:0:
256,192,241126,1,8,0:0:0:0:
256,192,241262,1,8,0:0:0:0:
256,192,241399,1,0,0:0:0:0:
256,192,241671,1,8,0:0:0:0:
256,192,241808,1,0,0:0:0:0:
256,192,241944,1,8,0:0:0:0:
256,192,242080,1,8,0:0:0:0:
256,192,242217,1,0,0:0:0:0:
256,192,242353,1,0,0:0:0:0:
256,192,242490,1,8,0:0:0:0:
256,192,242626,1,0,0:0:0:0:
256,192,242762,1,8,0:0:0:0:
256,192,242899,1,0,0:0:0:0:
256,192,242967,1,0,0:0:0:0:
256,192,243035,1,8,0:0:0:0:
256,192,243171,1,0,0:0:0:0:
256,192,243240,1,0,0:0:0:0:
256,192,243308,1,8,0:0:0:0:
256,192,243444,1,0,0:0:0:0:
256,192,243512,1,0,0:0:0:0:
256,192,243580,1,8,0:0:0:0:
256,192,243717,1,0,0:0:0:0:
256,192,243785,1,0,0:0:0:0:
256,192,243853,1,0,0:0:0:0:
256,192,244126,1,8,0:0:0:0:
256,192,244262,1,0,0:0:0:0:
256,192,244399,1,8,0:0:0:0:
256,192,244535,1,8,0:0:0:0:
256,192,244671,1,0,0:0:0:0:
256,192,244808,1,8,0:0:0:0:
256,192,244944,1,0,0:0:0:0:
256,192,245080,1,0,0:0:0:0:
256,192,245217,1,8,0:0:0:0:
256,192,245353,1,0,0:0:0:0:
256,192,245421,1,0,0:0:0:0:
256,192,245490,1,8,0:0:0:0:
256,192,245626,1,0,0:0:0:0:
256,192,245694,1,0,0:0:0:0:
256,192,245762,1,8,0:0:0:0:
256,192,246035,1,8,0:0:0:0:
256,192,246171,1,0,0:0:0:0:
256,192,246308,1,0,0:0:0:0:
256,192,246444,1,8,0:0:0:0:
256,192,246580,1,0,0:0:0:0:
256,192,246717,1,8,0:0:0:0:
256,192,246853,1,8,0:0:0:0:
256,192,246990,1,0,0:0:0:0:
256,192,247126,1,8,0:0:0:0:
256,192,247194,1,8,0:0:0:0:
256,192,247262,1,8,0:0:0:0:
256,192,247330,1,8,0:0:0:0:
256,192,247399,1,0,0:0:0:0:
256,192,247535,1,8,0:0:0:0:
256,192,247603,1,8,0:0:0:0:
256,192,247671,1,8,0:0:0:0:
256,192,247740,1,8,0:0:0:0:
256,192,247808,1,0,0:0:0:0:
256,192,247944,1,8,0:0:0:0:
256,192,248217,1,8,0:0:0:0:
256,192,248353,1,0,0:0:0:0:
256,192,248490,1,8,0:0:0:0:
256,192,248626,1,8,0:0:0:0:
256,192,248762,1,0,0:0:0:0:
256,192,249035,1,8,0:0:0:0:
256,192,249171,1,0,0:0:0:0:
256,192,249240,1,0,0:0:0:0:
256,192,249308,1,8,0:0:0:0:
256,192,249376,1,8,0:0:0:0:
256,192,249444,1,0,0:0:0:0:
256,192,249512,1,0,0:0:0:0:
256,192,249580,1,8,0:0:0:0:
256,192,249717,1,0,0:0:0:0:
256,192,249785,1,0,0:0:0:0:
256,192,249853,1,8,0:0:0:0:
256,192,249921,1,8,0:0:0:0:
256,192,249990,1,8,0:0:0:0:
256,192,250058,1,8,0:0:0:0:
256,192,250126,1,0,0:0:0:0:
256,192,250399,1,8,0:0:0:0:
256,192,250535,1,0,0:0:0:0:
256,192,250671,1,8,0:0:0:0:
256,192,250808,1,8,0:0:0:0:
256,192,250944,1,0,0:0:0:0:
256,192,251080,1,0,0:0:0:0:
256,192,251217,1,8,0:0:0:0:
256,192,251353,1,0,0:0:0:0:
256,192,251490,1,8,0:0:0:0:
256,192,251626,1,0,0:0:0:0:
256,192,251694,1,0,0:0:0:0:
256,192,251762,1,8,0:0:0:0:
256,192,251899,1,0,0:0:0:0:
256,192,251967,1,0,0:0:0:0:
256,192,252035,1,8,0:0:0:0:
256,192,252171,1,0,0:0:0:0:
256,192,252240,1,0,0:0:0:0:
256,192,252308,1,8,0:0:0:0:
256,192,252444,1,8,0:0:0:0:
256,192,252512,1,8,0:0:0:0:
256,192,252580,1,0,0:0:0:0:
256,192,252853,1,8,0:0:0:0:
256,192,252990,1,0,0:0:0:0:
256,192,253126,1,0,0:0:0:0:
256,192,253262,1,0,0:0:0:0:
256,192,253399,1,8,0:0:0:0:
256,192,253535,1,0,0:0:0:0:
256,192,253671,1,0,0:0:0:0:
256,192,253808,1,8,0:0:0:0:
256,192,253944,1,8,0:0:0:0:
256,192,254080,1,0,0:0:0:0:
256,192,254217,1,8,0:0:0:0:
256,192,254353,1,0,0:0:0:0:
256,192,254421,1,0,0:0:0:0:
256,192,254490,1,8,0:0:0:0:
256,192,254762,1,0,0:0:0:0:
256,192,254899,1,0,0:0:0:0:
256,192,255035,1,8,0:0:0:0:
256,192,255171,1,0,0:0:0:0:
256,192,255308,1,8,0:0:0:0:
256,192,255444,1,8,0:0:0:0:
256,192,255580,1,0,0:0:0:0:
256,192,255717,1,8,0:0:0:0:
256,192,255853,1,8,0:0:0:0:
256,192,255990,1,0,0:0:0:0:
256,192,256126,1,0,0:0:0:0:
256,192,256262,1,8,0:0:0:0:
256,192,256399,1,8,0:0:0:0:
256,192,256671,1,0,0:0:0:0:
256,192,256807,1,8,0:0:0:0:
256,192,256943,1,8,0:0:0:0:
256,192,257080,1,4,0:0:0:0:
256,192,257352,1,8,0:0:0:0:
256,192,257489,1,0,0:0:0:0:
256,192,257625,1,8,0:0:0:0:
256,192,257761,1,4,0:0:0:0:
256,192,258034,1,8,0:0:0:0:
256,192,258171,1,0,0:0:0:0:
256,192,258307,1,0,0:0:0:0:
256,192,258443,1,8,0:0:0:0:
256,192,258580,1,8,0:0:0:0:
256,192,258716,1,8,0:0:0:0:
256,192,258852,1,0,0:0:0:0:
256,192,258989,1,0,0:0:0:0:
256,192,259125,1,12,0:0:0:0:
256,192,259398,12,0,263216,0:0:0:0:
