osu file format v14

[General]
AudioFilename: audio.ogg
AudioLeadIn: 0
PreviewTime: 98437
Countdown: 0
SampleSet: Normal
StackLeniency: 0.7
Mode: 1
LetterboxInBreaks: 0
WidescreenStoryboard: 0

[Editor]
Bookmarks: 1023,88295,162271,194998,238634,271361,302725
DistanceSpacing: 1
BeatDivisor: 8
GridSize: 32
TimelineZoom: 1.8

[Metadata]
Title:Genshi no Yoru ~ Ghostly Eyes
TitleUnicode:幻視の夜 ~ Ghostly Eyes
Artist:Demetori
ArtistUnicode:Demetori
Creator:Reed_405
Version:Collab Ura Oni
Source:東方永夜抄 ~ Imperishable Night.
Tags:Video Game Metal Instrumental Comic Market 66 Comiket C66 C71 Eiyashou Illusionary Night Sinen ni Nozomu ga Gotoshi 如臨深遠 ~雨縒煙柳~ 如臨深遠 雨縒煙柳 DECD-0003 DECD0003 zun team shanghai alice 上海アリス幻樂団 wriggle nightbug リグル・ナイトバグ Touhou Project 東方Project uone
BeatmapID:2088073
BeatmapSetID:998315

[Difficulty]
HPDrainRate:5
CircleSize:5
OverallDifficulty:6
ApproachRate:5
SliderMultiplier:1.4
SliderTickRate:1

[Events]
//Background and Video events
0,0,"679358.jpg",0,60
//Break Periods
//Storyboard Layer 0 (Background)
//Storyboard Layer 1 (Fail)
//Storyboard Layer 2 (Pass)
//Storyboard Layer 3 (Foreground)
//Storyboard Layer 4 (Overlay)
//Storyboard Sound Samples

[TimingPoints]
1102,340.909090909091,4,1,0,65,1,0
22877,-100,4,1,0,70,0,0
99241,-100,4,1,0,75,0,0
99283,-100,4,1,0,75,0,1
121102,-100,4,1,0,75,0,0
121144,-100,4,1,0,50,0,0
131670,340.909090909091,4,1,0,50,1,0
145135,340.909090909091,4,1,0,50,1,0
147521,340.909090909091,4,1,0,50,1,0
150077,340.909090909091,6,1,0,50,1,0
151952,340.909090909091,4,1,0,50,1,0
154508,340.909090909091,4,1,0,50,1,0
156894,340.909090909091,4,1,0,50,1,0
162305,-100,4,1,0,75,0,0
162348,-100,4,1,0,75,0,1
195075,-100,4,1,0,75,0,0
195118,-100,4,1,0,65,0,0
238669,-100,4,1,0,25,0,0
238712,-100,4,1,0,25,0,0
239010,-100,4,1,0,75,0,0
239053,-100,4,1,0,75,0,1
260530,-100,4,1,0,75,0,0
260572,-100,4,1,0,75,0,0

[HitObjects]
256,192,1102,5,4,0:0:0:0:
256,192,1272,1,0,0:0:0:0:
256,192,1442,1,8,0:0:0:0:
256,192,1783,1,0,0:0:0:0:
256,192,1954,1,8,0:0:0:0:
256,192,2124,1,0,0:0:0:0:
256,192,2295,1,8,0:0:0:0:
256,192,2465,1,0,0:0:0:0:
256,192,2636,1,0,0:0:0:0:
256,192,2806,1,8,0:0:0:0:
256,192,3147,1,0,0:0:0:0:
256,192,3317,1,8,0:0:0:0:
256,192,3488,1,0,0:0:0:0:
256,192,3573,1,0,0:0:0:0:
256,192,3658,1,0,0:0:0:0:
256,192,3744,1,0,0:0:0:0:
256,192,3829,1,0,0:0:0:0:
256,192,3999,1,0,0:0:0:0:
256,192,4170,1,8,0:0:0:0:
256,192,4511,1,0,0:0:0:0:
256,192,4681,1,8,0:0:0:0:
256,192,4852,1,0,0:0:0:0:
256,192,5022,1,8,0:0:0:0:
256,192,5192,1,0,0:0:0:0:
256,192,5363,1,0,0:0:0:0:
256,192,5533,1,8,0:0:0:0:
256,192,5874,1,0,0:0:0:0:
256,192,6045,1,8,0:0:0:0:
256,192,6215,1,0,0:0:0:0:
256,192,6300,1,0,0:0:0:0:
256,192,6386,1,0,0:0:0:0:
256,192,6556,1,0,0:0:0:0:
256,192,6727,1,0,0:0:0:0:
256,192,6897,1,8,0:0:0:0:
288,192,7238,1,0,0:0:0:0:
256,192,7408,1,8,0:0:0:0:
256,192,7579,1,0,0:0:0:0:
256,192,7749,1,8,0:0:0:0:
256,192,7920,1,0,0:0:0:0:
256,192,8090,1,0,0:0:0:0:
256,192,8261,1,8,0:0:0:0:
256,192,8602,1,0,0:0:0:0:
256,192,8772,1,8,0:0:0:0:
256,192,8942,1,0,0:0:0:0:
256,192,9113,1,8,0:0:0:0:
256,192,9198,1,0,0:0:0:0:
256,192,9283,1,0,0:0:0:0:
256,192,9454,1,0,0:0:0:0:
256,192,9624,1,8,0:0:0:0:
256,192,9965,1,0,0:0:0:0:
256,192,10136,1,8,0:0:0:0:
256,192,10306,1,0,0:0:0:0:
256,192,10477,1,8,0:0:0:0:
256,192,10647,1,0,0:0:0:0:
256,192,10732,1,8,0:0:0:0:
288,192,10903,1,8,0:0:0:0:
256,192,10988,1,0,0:0:0:0:
256,192,11158,1,0,0:0:0:0:
256,192,11329,1,8,0:0:0:0:
256,192,11414,1,8,0:0:0:0:
256,192,11499,1,8,0:0:0:0:
256,192,11584,1,8,0:0:0:0:
256,192,11670,1,0,0:0:0:0:
256,192,11840,1,8,0:0:0:0:
256,192,12011,1,4,0:0:0:0:
256,192,12181,1,0,0:0:0:0:
256,192,12352,1,8,0:0:0:0:
256,192,12692,1,0,0:0:0:0:
256,192,12863,1,8,0:0:0:0:
256,192,13033,1,0,0:0:0:0:
256,192,13204,1,8,0:0:0:0:
256,192,13374,1,0,0:0:0:0:
256,192,13545,1,0,0:0:0:0:
256,192,13715,1,8,0:0:0:0:
256,192,14056,1,0,0:0:0:0:
256,192,14227,1,8,0:0:0:0:
256,192,14397,1,0,0:0:0:0:
256,192,14482,1,0,0:0:0:0:
256,192,14567,1,0,0:0:0:0:
256,192,14653,1,0,0:0:0:0:
256,192,14738,1,0,0:0:0:0:
256,192,14908,1,0,0:0:0:0:
256,192,15079,1,8,0:0:0:0:
256,192,15420,1,0,0:0:0:0:
256,192,15590,1,8,0:0:0:0:
256,192,15761,1,0,0:0:0:0:
256,192,15931,1,8,0:0:0:0:
256,192,16102,1,0,0:0:0:0:
256,192,16272,1,0,0:0:0:0:
256,192,16442,1,8,0:0:0:0:
256,192,16783,1,0,0:0:0:0:
256,192,16954,1,8,0:0:0:0:
256,192,17124,1,8,0:0:0:0:
256,192,17295,1,8,0:0:0:0:
256,192,17380,1,8,0:0:0:0:
256,192,17465,1,0,0:0:0:0:
256,192,17636,1,0,0:0:0:0:
256,192,17806,1,8,0:0:0:0:
288,192,18147,1,0,0:0:0:0:
256,192,18317,1,8,0:0:0:0:
256,192,18488,1,0,0:0:0:0:
256,192,18658,1,8,0:0:0:0:
256,192,18829,1,0,0:0:0:0:
256,192,18999,1,0,0:0:0:0:
256,192,19170,1,8,0:0:0:0:
256,192,19511,1,0,0:0:0:0:
256,192,19681,1,8,0:0:0:0:
256,192,19852,1,0,0:0:0:0:
256,192,19937,1,0,0:0:0:0:
256,192,20022,1,8,0:0:0:0:
256,192,20107,1,0,0:0:0:0:
256,192,20192,1,0,0:0:0:0:
256,192,20363,1,0,0:0:0:0:
256,192,20533,1,8,0:0:0:0:
256,192,20874,1,0,0:0:0:0:
256,192,21045,1,8,0:0:0:0:
256,192,21386,1,0,0:0:0:0:
256,192,21556,1,8,0:0:0:0:
256,192,21727,1,8,0:0:0:0:
288,192,21812,1,8,0:0:0:0:
256,192,21897,1,0,0:0:0:0:
256,192,22067,1,0,0:0:0:0:
256,192,22238,1,8,0:0:0:0:
256,192,22579,1,4,0:0:0:0:
256,192,22920,1,12,0:0:0:0:
256,192,23261,1,8,0:0:0:0:
256,192,23516,1,8,0:0:0:0:
256,192,23602,1,0,0:0:0:0:
256,192,23772,1,0,0:0:0:0:
256,192,23942,1,8,0:0:0:0:
256,192,24113,1,0,0:0:0:0:
256,192,24198,1,0,0:0:0:0:
256,192,24283,1,0,0:0:0:0:
256,192,24454,1,0,0:0:0:0:
256,192,24624,1,8,0:0:0:0:
256,192,24795,1,0,0:0:0:0:
256,192,24880,1,8,0:0:0:0:
256,192,24965,1,0,0:0:0:0:
256,192,25136,1,0,0:0:0:0:
256,192,25306,1,8,0:0:0:0:
256,192,25477,1,8,0:0:0:0:
256,192,25647,1,0,0:0:0:0:
256,192,25988,1,8,0:0:0:0:
256,192,26244,1,8,0:0:0:0:
256,192,26329,1,0,0:0:0:0:
256,192,26499,1,0,0:0:0:0:
256,192,26670,1,8,0:0:0:0:
256,192,26840,1,8,0:0:0:0:
256,192,26925,1,0,0:0:0:0:
256,192,27011,1,0,0:0:0:0:
256,192,27181,1,0,0:0:0:0:
256,192,27352,1,8,0:0:0:0:
256,192,27522,1,8,0:0:0:0:
256,192,27607,1,8,0:0:0:0:
256,192,27692,1,0,0:0:0:0:
256,192,27863,1,0,0:0:0:0:
256,192,28033,1,8,0:0:0:0:
256,192,28204,1,8,0:0:0:0:
256,192,28374,1,4,0:0:0:0:
256,192,28715,1,8,0:0:0:0:
260,194,28971,1,8,0:0:0:0:
256,192,29056,1,0,0:0:0:0:
256,192,29227,1,0,0:0:0:0:
256,192,29397,1,8,0:0:0:0:
256,192,29567,1,0,0:0:0:0:
256,192,29653,1,8,0:0:0:0:
256,192,29738,1,0,0:0:0:0:
256,192,29908,1,0,0:0:0:0:
256,192,30079,1,8,0:0:0:0:
256,192,30249,1,8,0:0:0:0:
256,192,30334,1,8,0:0:0:0:
256,192,30420,1,0,0:0:0:0:
256,192,30590,1,0,0:0:0:0:
256,192,30761,1,8,0:0:0:0:
256,192,30931,1,8,0:0:0:0:
256,192,31102,1,0,0:0:0:0:
256,192,31272,1,0,0:0:0:0:
256,192,31442,1,8,0:0:0:0:
256,192,31783,1,0,0:0:0:0:
256,192,31954,1,0,0:0:0:0:
256,192,32124,1,8,0:0:0:0:
256,192,32295,1,0,0:0:0:0:
256,192,32380,1,0,0:0:0:0:
256,192,32465,1,8,0:0:0:0:
256,192,32636,1,0,0:0:0:0:
256,192,32721,1,0,0:0:0:0:
256,192,32806,1,0,0:0:0:0:
256,192,32977,1,8,0:0:0:0:
256,192,33147,1,0,0:0:0:0:
256,192,33317,1,0,0:0:0:0:
256,192,33488,1,12,0:0:0:0:
256,192,33829,1,4,0:0:0:0:
256,192,33999,1,0,0:0:0:0:
256,192,34170,1,8,0:0:0:0:
256,192,34511,1,8,0:0:0:0:
256,192,34681,1,0,0:0:0:0:
256,192,34852,1,8,0:0:0:0:
256,192,35022,1,0,0:0:0:0:
256,192,35107,1,0,0:0:0:0:
256,192,35192,1,0,0:0:0:0:
256,192,35363,1,0,0:0:0:0:
256,192,35533,1,8,0:0:0:0:
256,192,35704,1,0,0:0:0:0:
265,185,35789,1,8,0:0:0:0:
256,192,35874,1,0,0:0:0:0:
256,192,36045,1,0,0:0:0:0:
256,192,36215,1,8,0:0:0:0:
256,192,36386,1,8,0:0:0:0:
256,192,36471,1,8,0:0:0:0:
256,192,36556,1,0,0:0:0:0:
256,192,36897,1,8,0:0:0:0:
256,192,37153,1,8,0:0:0:0:
256,192,37238,1,0,0:0:0:0:
256,192,37408,1,0,0:0:0:0:
256,192,37579,1,8,0:0:0:0:
256,192,37749,1,8,0:0:0:0:
256,192,37834,1,0,0:0:0:0:
256,192,37920,1,0,0:0:0:0:
256,192,38090,1,0,0:0:0:0:
256,192,38261,1,8,0:0:0:0:
256,192,38431,1,8,0:0:0:0:
256,192,38516,1,8,0:0:0:0:
256,192,38602,1,0,0:0:0:0:
256,192,38772,1,0,0:0:0:0:
256,192,38942,1,8,0:0:0:0:
256,192,39113,1,8,0:0:0:0:
256,192,39283,1,4,0:0:0:0:
256,192,39624,1,8,0:0:0:0:
266,192,39880,1,8,0:0:0:0:
256,192,39965,1,0,0:0:0:0:
256,192,40136,1,0,0:0:0:0:
256,192,40306,1,8,0:0:0:0:
256,192,40477,1,0,0:0:0:0:
266,192,40562,1,8,0:0:0:0:
266,192,40647,1,0,0:0:0:0:
256,192,40817,1,0,0:0:0:0:
256,192,40988,1,8,0:0:0:0:
256,192,41158,1,8,0:0:0:0:
256,192,41244,1,8,0:0:0:0:
256,192,41329,1,0,0:0:0:0:
256,192,41499,1,0,0:0:0:0:
256,192,41670,1,8,0:0:0:0:
256,192,41840,1,0,0:0:0:0:
256,192,42011,1,12,0:0:0:0:
256,192,42181,1,0,0:0:0:0:
256,192,42352,1,0,0:0:0:0:
256,192,42522,1,12,0:0:0:0:
256,192,42692,1,0,0:0:0:0:
256,192,42863,1,0,0:0:0:0:
256,192,43033,1,12,0:0:0:0:
256,192,43204,1,0,0:0:0:0:
256,192,43374,1,8,0:0:0:0:
256,192,43545,1,0,0:0:0:0:
256,192,43630,1,8,0:0:0:0:
256,192,43715,1,8,0:0:0:0:
256,192,43800,1,0,0:0:0:0:
256,192,43886,1,8,0:0:0:0:
256,192,44056,1,0,0:0:0:0:
256,192,44141,1,8,0:0:0:0:
256,192,44227,1,0,0:0:0:0:
256,192,44312,1,0,0:0:0:0:
256,192,44397,1,8,0:0:0:0:
256,192,44567,1,8,0:0:0:0:
256,192,44738,1,4,0:0:0:0:
256,192,44908,1,0,0:0:0:0:
256,192,45079,1,12,0:0:0:0:
256,192,45420,1,12,0:0:0:0:
256,192,45761,1,0,0:0:0:0:
256,192,45931,1,12,0:0:0:0:
256,192,46272,1,0,0:0:0:0:
256,192,46442,1,0,0:0:0:0:
256,192,46613,1,12,0:0:0:0:
256,192,46954,1,0,0:0:0:0:
256,192,47124,1,12,0:0:0:0:
256,192,47465,1,4,0:0:0:0:
256,192,47636,1,0,0:0:0:0:
256,192,47806,1,12,0:0:0:0:
256,192,48147,1,12,0:0:0:0:
256,192,48488,1,0,0:0:0:0:
256,192,48658,1,12,0:0:0:0:
256,192,48999,1,0,0:0:0:0:
256,192,49170,1,0,0:0:0:0:
256,192,49340,1,12,0:0:0:0:
256,192,49511,1,0,0:0:0:0:
256,192,49596,1,0,0:0:0:0:
256,192,49681,1,0,0:0:0:0:
256,192,49852,1,12,0:0:0:0:
256,192,50192,1,4,0:0:0:0:
256,192,50363,1,0,0:0:0:0:
256,192,50533,1,12,0:0:0:0:
256,192,50874,1,12,0:0:0:0:
256,192,51045,1,0,0:0:0:0:
256,192,51215,1,0,0:0:0:0:
256,192,51386,1,12,0:0:0:0:
256,192,51727,1,0,0:0:0:0:
256,192,51897,1,0,0:0:0:0:
256,192,52067,1,12,0:0:0:0:
256,192,52408,1,0,0:0:0:0:
256,192,52579,1,12,0:0:0:0:
256,192,52920,1,4,0:0:0:0:
256,192,53090,1,0,0:0:0:0:
256,192,53261,1,12,0:0:0:0:
256,192,53602,1,12,0:0:0:0:
256,192,53942,1,0,0:0:0:0:
256,192,54113,1,12,0:0:0:0:
256,192,54454,1,0,0:0:0:0:
256,192,54624,1,0,0:0:0:0:
256,192,54795,1,8,0:0:0:0:
256,192,54965,1,0,0:0:0:0:
256,192,55136,1,0,0:0:0:0:
256,192,55306,1,8,0:0:0:0:
256,192,55477,1,8,0:0:0:0:
256,192,55647,1,4,0:0:0:0:
256,192,55988,1,8,0:0:0:0:
256,192,56329,1,0,0:0:0:0:
256,192,56499,1,0,0:0:0:0:
256,192,56670,1,8,0:0:0:0:
256,192,56840,1,0,0:0:0:0:
256,192,56925,1,8,0:0:0:0:
288,192,57096,1,8,0:0:0:0:
256,192,57181,1,0,0:0:0:0:
256,192,57352,1,8,0:0:0:0:
256,192,57522,1,0,0:0:0:0:
256,192,57692,1,0,0:0:0:0:
288,192,57778,1,0,0:0:0:0:
256,192,57863,1,8,0:0:0:0:
256,192,58033,1,8,0:0:0:0:
256,192,58204,1,0,0:0:0:0:
256,192,58545,1,0,0:0:0:0:
256,192,58715,1,8,0:0:0:0:
256,192,59056,1,0,0:0:0:0:
256,192,59227,1,0,0:0:0:0:
256,192,59397,1,8,0:0:0:0:
256,192,59567,1,0,0:0:0:0:
256,192,59653,1,8,0:0:0:0:
256,192,59738,1,0,0:0:0:0:
256,192,59908,1,0,0:0:0:0:
256,192,60079,1,8,0:0:0:0:
256,192,60249,1,8,0:0:0:0:
256,192,60334,1,8,0:0:0:0:
256,192,60420,1,0,0:0:0:0:
256,192,60590,1,8,0:0:0:0:
256,192,60761,1,8,0:0:0:0:
256,192,60931,1,0,0:0:0:0:
256,192,61272,1,0,0:0:0:0:
256,192,61442,1,8,0:0:0:0:
256,192,61783,1,8,0:0:0:0:
256,192,61954,1,0,0:0:0:0:
256,192,62124,1,8,0:0:0:0:
256,192,62295,1,8,0:0:0:0:
256,192,62380,1,0,0:0:0:0:
256,192,62465,1,0,0:0:0:0:
256,192,62636,1,0,0:0:0:0:
256,192,62806,1,8,0:0:0:0:
256,192,62977,1,0,0:0:0:0:
256,192,63062,1,0,0:0:0:0:
256,192,63147,1,8,0:0:0:0:
256,192,63232,1,8,0:0:0:0:
256,192,63317,1,0,0:0:0:0:
256,192,63488,1,8,0:0:0:0:
256,192,63658,1,0,0:0:0:0:
256,192,63999,1,0,0:0:0:0:
256,192,64170,1,8,0:0:0:0:
256,192,64340,1,8,0:0:0:0:
256,192,64425,1,8,0:0:0:0:
256,192,64511,1,0,0:0:0:0:
256,192,64681,1,0,0:0:0:0:
256,192,64852,1,0,0:0:0:0:
256,192,65022,1,12,0:0:0:0:
256,192,65363,1,0,0:0:0:0:
256,192,65533,1,8,0:0:0:0:
256,192,65704,1,8,0:0:0:0:
256,192,65789,1,8,0:0:0:0:
256,192,65874,1,0,0:0:0:0:
256,192,65959,1,8,0:0:0:0:
256,192,66045,1,0,0:0:0:0:
256,192,66215,1,8,0:0:0:0:
256,192,66386,1,4,0:0:0:0:
256,192,66727,1,0,0:0:0:0:
256,192,66897,1,8,0:0:0:0:
256,192,67067,1,0,0:0:0:0:
256,192,67238,1,0,0:0:0:0:
256,192,67323,1,8,0:0:0:0:
256,192,67408,1,0,0:0:0:0:
256,192,67579,1,8,0:0:0:0:
256,192,67749,1,0,0:0:0:0:
256,192,67834,1,0,0:0:0:0:
256,192,67920,1,8,0:0:0:0:
256,192,68090,1,0,0:0:0:0:
256,192,68261,1,8,0:0:0:0:
256,192,68431,1,0,0:0:0:0:
256,192,68602,1,8,0:0:0:0:
256,192,68687,1,8,0:0:0:0:
256,192,68772,1,0,0:0:0:0:
256,192,68942,1,8,0:0:0:0:
256,192,69113,1,0,0:0:0:0:
256,192,69454,1,0,0:0:0:0:
256,192,69624,1,8,0:0:0:0:
256,192,69795,1,0,0:0:0:0:
256,192,69965,1,8,0:0:0:0:
256,192,70050,1,8,0:0:0:0:
256,192,70136,1,0,0:0:0:0:
256,192,70306,1,0,0:0:0:0:
256,192,70477,1,8,0:0:0:0:
256,192,70562,1,8,0:0:0:0:
256,192,70647,1,8,0:0:0:0:
256,192,70817,1,0,0:0:0:0:
256,192,70988,1,8,0:0:0:0:
256,192,71158,1,0,0:0:0:0:
256,192,71244,1,0,0:0:0:0:
256,192,71329,1,0,0:0:0:0:
256,192,71499,1,0,0:0:0:0:
256,192,71670,1,8,0:0:0:0:
256,192,71840,1,0,0:0:0:0:
256,192,72181,1,0,0:0:0:0:
256,192,72352,1,8,0:0:0:0:
256,192,72522,1,8,0:0:0:0:
256,192,72607,1,8,0:0:0:0:
256,192,72692,1,0,0:0:0:0:
256,192,72863,1,0,0:0:0:0:
256,192,73033,1,8,0:0:0:0:
256,192,73204,1,0,0:0:0:0:
256,192,73289,1,0,0:0:0:0:
256,192,73374,1,0,0:0:0:0:
256,192,73545,1,0,0:0:0:0:
256,192,73715,1,8,0:0:0:0:
256,192,73886,1,0,0:0:0:0:
256,192,74056,1,8,0:0:0:0:
256,192,74141,1,8,0:0:0:0:
256,192,74227,1,0,0:0:0:0:
256,192,74312,1,0,0:0:0:0:
256,192,74397,1,0,0:0:0:0:
256,192,74567,1,8,0:0:0:0:
256,192,74908,1,0,0:0:0:0:
256,192,75079,1,8,0:0:0:0:
256,192,75249,1,8,0:0:0:0:
256,192,75334,1,8,0:0:0:0:
256,192,75420,1,0,0:0:0:0:
256,192,75590,1,0,0:0:0:0:
256,192,75761,1,8,0:0:0:0:
256,192,75931,1,0,0:0:0:0:
256,192,76272,1,0,0:0:0:0:
256,192,76442,1,0,0:0:0:0:
256,192,76613,1,8,0:0:0:0:
256,192,76783,1,0,0:0:0:0:
256,192,76869,1,0,0:0:0:0:
256,192,76954,1,8,0:0:0:0:
256,192,77124,1,8,0:0:0:0:
256,192,77295,1,4,0:0:0:0:
256,192,77636,1,0,0:0:0:0:
256,192,77806,1,8,0:0:0:0:
256,192,77977,1,0,0:0:0:0:
256,192,78147,1,0,0:0:0:0:
256,192,78232,1,8,0:0:0:0:
256,192,78317,1,0,0:0:0:0:
256,192,78488,1,8,0:0:0:0:
256,192,78658,1,0,0:0:0:0:
256,192,78744,1,0,0:0:0:0:
256,192,78829,1,8,0:0:0:0:
256,192,78999,1,0,0:0:0:0:
256,192,79170,1,8,0:0:0:0:
256,192,79340,1,0,0:0:0:0:
256,192,79511,1,8,0:0:0:0:
256,192,79596,1,8,0:0:0:0:
256,192,79681,1,0,0:0:0:0:
256,192,79852,1,8,0:0:0:0:
256,192,80022,1,0,0:0:0:0:
256,192,80363,1,0,0:0:0:0:
256,192,80533,1,8,0:0:0:0:
256,192,80704,1,0,0:0:0:0:
256,192,80874,1,8,0:0:0:0:
256,192,80959,1,8,0:0:0:0:
256,192,81045,1,0,0:0:0:0:
256,192,81215,1,8,0:0:0:0:
256,192,81386,1,8,0:0:0:0:
256,192,81471,1,8,0:0:0:0:
256,192,81556,1,8,0:0:0:0:
256,192,81727,1,0,0:0:0:0:
256,192,81897,1,8,0:0:0:0:
256,192,82067,1,0,0:0:0:0:
256,192,82153,1,0,0:0:0:0:
256,192,82238,1,0,0:0:0:0:
256,192,82408,1,0,0:0:0:0:
256,192,82579,1,8,0:0:0:0:
256,192,82749,1,0,0:0:0:0:
256,192,83090,1,0,0:0:0:0:
256,192,83261,1,8,0:0:0:0:
256,192,83431,1,8,0:0:0:0:
256,192,83516,1,8,0:0:0:0:
256,192,83602,1,0,0:0:0:0:
256,192,83772,1,0,0:0:0:0:
256,192,83942,1,8,0:0:0:0:
256,192,84113,1,0,0:0:0:0:
256,192,84198,1,0,0:0:0:0:
256,192,84283,1,0,0:0:0:0:
256,192,84454,1,0,0:0:0:0:
256,192,84624,1,8,0:0:0:0:
256,192,84795,1,0,0:0:0:0:
256,192,84965,1,8,0:0:0:0:
256,192,85050,1,8,0:0:0:0:
256,192,85136,1,0,0:0:0:0:
256,192,85221,1,0,0:0:0:0:
256,192,85306,1,8,0:0:0:0:
256,192,85477,1,0,0:0:0:0:
256,192,85647,1,12,0:0:0:0:
256,192,85817,1,0,0:0:0:0:
256,192,85988,1,0,0:0:0:0:
256,192,86158,1,8,0:0:0:0:
256,192,86329,1,0,0:0:0:0:
256,192,86499,1,0,0:0:0:0:
256,192,86584,1,0,0:0:0:0:
256,192,86670,1,8,0:0:0:0:
256,192,86840,1,0,0:0:0:0:
256,192,87011,1,8,0:0:0:0:
256,192,87096,1,8,0:0:0:0:
256,192,87181,1,0,0:0:0:0:
256,192,87266,1,0,0:0:0:0:
256,192,87352,1,8,0:0:0:0:
256,192,87522,1,8,0:0:0:0:
256,192,87607,1,8,0:0:0:0:
256,192,87692,1,0,0:0:0:0:
256,192,87778,1,0,0:0:0:0:
256,192,87863,1,0,0:0:0:0:
256,192,87948,1,0,0:0:0:0:
256,192,88033,1,8,0:0:0:0:
256,192,88204,1,8,0:0:0:0:
288,192,88374,1,4,0:0:0:0:
256,192,88545,1,2,0:0:0:0:
256,192,88715,1,0,0:0:0:0:
256,192,88800,1,0,0:0:0:0:
256,192,88886,1,0,0:0:0:0:
256,192,88971,1,0,0:0:0:0:
256,192,89056,1,2,0:0:0:0:
256,192,89227,1,0,0:0:0:0:
256,192,89312,1,2,0:0:0:0:
256,192,89397,1,0,0:0:0:0:
256,192,89567,1,2,0:0:0:0:
256,192,89738,1,0,0:0:0:0:
256,192,89908,1,0,0:0:0:0:
256,192,89994,1,0,0:0:0:0:
256,192,90079,1,2,0:0:0:0:
256,192,90249,1,2,0:0:0:0:
256,192,90334,1,2,0:0:0:0:
256,192,90420,1,0,0:0:0:0:
256,192,90590,1,2,0:0:0:0:
256,192,90761,1,0,0:0:0:0:
256,192,90846,1,0,0:0:0:0:
256,192,90931,1,2,0:0:0:0:
256,192,91016,1,2,0:0:0:0:
256,192,91102,1,0,0:0:0:0:
256,192,91272,1,2,0:0:0:0:
256,192,91442,1,0,0:0:0:0:
256,192,91528,1,2,0:0:0:0:
256,192,91613,1,0,0:0:0:0:
256,192,91698,1,0,0:0:0:0:
256,192,91783,1,2,0:0:0:0:
256,192,91954,1,0,0:0:0:0:
256,192,92039,1,2,0:0:0:0:
256,192,92124,1,0,0:0:0:0:
256,192,92295,1,2,0:0:0:0:
256,192,92465,1,0,0:0:0:0:
256,192,92550,1,0,0:0:0:0:
256,192,92636,1,0,0:0:0:0:
256,192,92721,1,0,0:0:0:0:
256,192,92806,1,2,0:0:0:0:
256,192,92977,1,2,0:0:0:0:
256,192,93062,1,2,0:0:0:0:
256,192,93147,1,0,0:0:0:0:
256,192,93317,1,2,0:0:0:0:
256,192,93488,1,0,0:0:0:0:
256,192,93573,1,0,0:0:0:0:
256,192,93658,1,2,0:0:0:0:
256,192,93744,1,2,0:0:0:0:
256,192,93829,1,0,0:0:0:0:
256,192,93999,1,2,0:0:0:0:
256,192,94170,1,0,0:0:0:0:
256,192,94255,1,0,0:0:0:0:
256,192,94340,1,0,0:0:0:0:
256,192,94425,1,0,0:0:0:0:
256,192,94511,1,2,0:0:0:0:
256,192,94596,1,2,0:0:0:0:
256,192,94681,1,0,0:0:0:0:
256,192,94852,1,0,0:0:0:0:
256,192,95022,1,2,0:0:0:0:
256,192,95107,1,2,0:0:0:0:
256,192,95192,1,0,0:0:0:0:
256,192,95363,1,2,0:0:0:0:
256,192,95533,1,0,0:0:0:0:
256,192,95619,1,2,0:0:0:0:
256,192,95704,1,0,0:0:0:0:
256,192,95789,1,0,0:0:0:0:
256,192,95874,1,2,0:0:0:0:
256,192,95959,1,2,0:0:0:0:
256,192,96045,1,0,0:0:0:0:
256,192,96215,1,0,0:0:0:0:
256,192,96386,1,2,0:0:0:0:
256,192,96471,1,2,0:0:0:0:
256,192,96556,1,0,0:0:0:0:
256,192,96727,1,2,0:0:0:0:
256,192,96897,1,0,0:0:0:0:
256,192,96982,1,2,0:0:0:0:
256,192,97067,1,0,0:0:0:0:
256,192,97153,1,0,0:0:0:0:
256,192,97238,1,2,0:0:0:0:
256,192,97323,1,2,0:0:0:0:
256,192,97408,1,0,0:0:0:0:
256,192,97494,1,2,0:0:0:0:
256,192,97579,1,0,0:0:0:0:
256,192,97749,1,2,0:0:0:0:
256,192,97834,1,2,0:0:0:0:
256,192,97920,1,0,0:0:0:0:
256,192,98090,1,2,0:0:0:0:
256,192,98261,1,2,0:0:0:0:
256,192,98431,1,0,0:0:0:0:
256,192,98516,1,0,0:0:0:0:
256,192,98602,1,0,0:0:0:0:
256,192,98772,1,0,0:0:0:0:
256,192,98942,1,0,0:0:0:0:
256,192,99113,1,2,0:0:0:0:
256,192,99283,1,4,0:0:0:0:
256,192,99624,1,2,0:0:0:0:
256,192,99880,1,2,0:0:0:0:
256,192,99965,1,0,0:0:0:0:
256,192,100136,1,0,0:0:0:0:
256,192,100306,1,2,0:0:0:0:
256,192,100477,1,0,0:0:0:0:
256,192,100817,1,0,0:0:0:0:
256,192,100988,1,2,0:0:0:0:
256,192,101158,1,2,0:0:0:0:
256,192,101244,1,2,0:0:0:0:
256,192,101329,1,0,0:0:0:0:
256,192,101499,1,0,0:0:0:0:
256,192,101670,1,2,0:0:0:0:
256,192,101840,1,0,0:0:0:0:
256,192,101925,1,2,0:0:0:0:
256,192,102011,1,0,0:0:0:0:
256,192,102181,1,0,0:0:0:0:
256,192,102352,1,2,0:0:0:0:
256,192,102607,1,2,0:0:0:0:
256,192,102692,1,0,0:0:0:0:
256,192,102863,1,0,0:0:0:0:
256,192,102948,1,0,0:0:0:0:
256,192,103033,1,2,0:0:0:0:
256,192,103204,1,0,0:0:0:0:
256,192,103545,1,0,0:0:0:0:
256,192,103715,1,2,0:0:0:0:
256,192,103886,1,2,0:0:0:0:
256,192,103971,1,0,0:0:0:0:
256,192,104056,1,0,0:0:0:0:
256,192,104227,1,0,0:0:0:0:
256,192,104397,1,2,0:0:0:0:
256,192,104567,1,2,0:0:0:0:
256,192,104653,1,2,0:0:0:0:
256,192,104738,1,0,0:0:0:0:
256,192,105079,1,2,0:0:0:0:
256,192,105334,1,2,0:0:0:0:
256,192,105420,1,0,0:0:0:0:
256,192,105590,1,0,0:0:0:0:
256,192,105761,1,2,0:0:0:0:
256,192,105931,1,0,0:0:0:0:
256,192,106272,1,0,0:0:0:0:
256,192,106442,1,2,0:0:0:0:
256,192,106613,1,2,0:0:0:0:
256,192,106698,1,2,0:0:0:0:
256,192,106783,1,0,0:0:0:0:
256,192,106954,1,0,0:0:0:0:
256,192,107124,1,2,0:0:0:0:
256,192,107295,1,0,0:0:0:0:
256,192,107636,1,0,0:0:0:0:
256,192,107806,1,2,0:0:0:0:
256,192,107977,1,2,0:0:0:0:
256,192,108062,1,0,0:0:0:0:
256,192,108147,1,0,0:0:0:0:
256,192,108317,1,0,0:0:0:0:
256,192,108488,1,2,0:0:0:0:
256,192,108658,1,0,0:0:0:0:
256,192,108829,1,6,0:0:0:0:
256,192,108999,1,0,0:0:0:0:
256,192,109084,1,2,0:0:0:0:
256,192,109170,1,0,0:0:0:0:
256,192,109255,1,0,0:0:0:0:
256,192,109340,1,2,0:0:0:0:
256,192,109425,1,2,0:0:0:0:
256,192,109511,1,0,0:0:0:0:
256,192,109681,1,0,0:0:0:0:
256,192,109852,1,6,0:0:0:0:
256,192,110192,1,4,0:0:0:0:
256,192,110533,1,2,0:0:0:0:
256,192,110704,1,2,0:0:0:0:
256,192,110789,1,2,0:0:0:0:
256,192,110874,1,0,0:0:0:0:
256,192,111045,1,0,0:0:0:0:
256,192,111215,1,2,0:0:0:0:
256,192,111386,1,0,0:0:0:0:
256,192,111727,1,0,0:0:0:0:
256,192,111897,1,2,0:0:0:0:
256,192,111982,1,0,0:0:0:0:
256,192,112067,1,2,0:0:0:0:
256,192,112153,1,2,0:0:0:0:
256,192,112238,1,0,0:0:0:0:
256,192,112408,1,0,0:0:0:0:
256,192,112579,1,2,0:0:0:0:
256,192,112749,1,0,0:0:0:0:
256,192,112834,1,2,0:0:0:0:
256,192,112920,1,0,0:0:0:0:
256,192,113090,1,0,0:0:0:0:
256,192,113261,1,2,0:0:0:0:
256,192,113431,1,2,0:0:0:0:
256,192,113516,1,2,0:0:0:0:
256,192,113602,1,0,0:0:0:0:
256,192,113772,1,0,0:0:0:0:
256,192,113942,1,2,0:0:0:0:
256,192,114113,1,0,0:0:0:0:
256,192,114454,1,0,0:0:0:0:
256,192,114624,1,2,0:0:0:0:
256,192,114795,1,2,0:0:0:0:
256,192,114880,1,0,0:0:0:0:
256,192,114965,1,0,0:0:0:0:
256,192,115136,1,0,0:0:0:0:
256,192,115306,1,2,0:0:0:0:
256,192,115391,1,2,0:0:0:0:
256,192,115477,1,0,0:0:0:0:
256,192,115562,1,2,0:0:0:0:
256,192,115647,1,0,0:0:0:0:
256,192,115988,1,2,0:0:0:0:
256,192,116158,1,2,0:0:0:0:
256,192,116244,1,2,0:0:0:0:
256,192,116329,1,0,0:0:0:0:
256,192,116499,1,0,0:0:0:0:
256,192,116670,1,2,0:0:0:0:
256,192,116840,1,0,0:0:0:0:
256,192,117181,1,0,0:0:0:0:
256,192,117352,1,2,0:0:0:0:
256,192,117522,1,0,0:0:0:0:
256,192,117692,1,2,0:0:0:0:
256,192,117863,1,0,0:0:0:0:
256,192,117920,1,0,0:0:0:0:
256,192,117977,1,0,0:0:0:0:
256,192,118033,1,2,0:0:0:0:
256,192,118204,1,4,0:0:0:0:
256,192,118545,1,2,0:0:0:0:
256,192,118715,1,2,0:0:0:0:
256,192,118886,1,0,0:0:0:0:
256,192,118971,1,0,0:0:0:0:
256,192,119056,1,2,0:0:0:0:
256,192,119227,1,0,0:0:0:0:
256,192,119397,1,0,0:0:0:0:
256,192,119567,1,0,0:0:0:0:
256,192,119738,1,2,0:0:0:0:
256,192,119852,1,2,0:0:0:0:
256,192,119965,1,2,0:0:0:0:
256,192,120079,1,0,0:0:0:0:
256,192,120192,1,0,0:0:0:0:
256,192,120306,1,0,0:0:0:0:
256,192,120420,1,2,0:0:0:0:
256,192,120533,1,0,0:0:0:0:
256,192,120647,1,0,0:0:0:0:
256,192,120761,1,2,0:0:0:0:
256,192,120874,1,2,0:0:0:0:
256,192,120988,1,2,0:0:0:0:
256,192,121102,1,4,0:0:0:0:
256,192,123829,1,4,0:0:0:0:
256,192,124852,1,4,0:0:0:0:
256,192,126045,1,2,0:0:0:0:
256,192,126386,1,2,0:0:0:0:
256,192,126556,1,4,0:0:0:0:
256,192,127067,1,4,0:0:0:0:
256,192,127579,1,4,0:0:0:0:
256,192,127920,1,2,0:0:0:0:
256,192,128261,1,2,0:0:0:0:
256,192,128602,1,0,0:0:0:0:
256,192,128772,1,2,0:0:0:0:
256,192,129113,1,2,0:0:0:0:
256,192,129155,1,2,0:0:0:0:
256,192,129454,1,0,0:0:0:0:
256,192,129496,1,0,0:0:0:0:
256,192,129795,1,4,0:0:0:0:
256,192,129965,1,2,0:0:0:0:
256,192,130221,1,4,0:0:0:0:
256,192,130477,1,2,0:0:0:0:
256,192,130732,1,2,0:0:0:0:
256,192,130988,1,4,0:0:0:0:
256,192,131244,1,0,0:0:0:0:
256,192,131329,1,2,0:0:0:0:
256,192,131499,1,2,0:0:0:0:
256,192,131670,1,4,0:0:0:0:
256,192,132010,1,2,0:0:0:0:
256,192,132181,1,0,0:0:0:0:
256,192,132351,1,2,0:0:0:0:
256,192,132692,1,0,0:0:0:0:
256,192,132863,1,0,0:0:0:0:
256,192,133204,1,2,0:0:0:0:
256,192,133374,1,0,0:0:0:0:
256,192,133545,1,0,0:0:0:0:
256,192,133715,1,2,0:0:0:0:
256,192,133885,1,2,0:0:0:0:
256,192,133971,1,2,0:0:0:0:
256,192,134056,1,0,0:0:0:0:
256,192,134226,1,2,0:0:0:0:
256,192,134397,1,0,0:0:0:0:
256,192,134567,1,0,0:0:0:0:
256,192,134908,1,0,0:0:0:0:
256,192,135079,1,2,0:0:0:0:
256,192,135249,1,2,0:0:0:0:
256,192,135420,1,0,0:0:0:0:
256,192,135675,1,2,0:0:0:0:
256,192,135760,1,0,0:0:0:0:
256,192,135931,1,2,0:0:0:0:
256,192,136016,1,2,0:0:0:0:
256,192,136101,1,0,0:0:0:0:
256,192,136272,1,0,0:0:0:0:
256,192,136442,1,2,0:0:0:0:
256,192,136613,1,0,0:0:0:0:
256,192,136783,1,0,0:0:0:0:
256,192,136954,1,2,0:0:0:0:
256,192,137124,1,0,0:0:0:0:
256,192,137380,1,0,0:0:0:0:
256,192,137635,1,0,0:0:0:0:
256,192,137806,1,2,0:0:0:0:
256,192,137976,1,2,0:0:0:0:
256,192,138147,1,0,0:0:0:0:
256,192,138317,1,2,0:0:0:0:
256,192,138488,1,0,0:0:0:0:
256,192,138658,1,0,0:0:0:0:
256,192,138743,1,0,0:0:0:0:
256,192,138829,1,2,0:0:0:0:
256,192,138999,1,0,0:0:0:0:
256,192,139170,1,2,0:0:0:0:
256,192,139340,1,0,0:0:0:0:
256,192,139510,1,0,0:0:0:0:
256,192,139681,1,2,0:0:0:0:
256,192,139851,1,0,0:0:0:0:
256,192,140107,1,0,0:0:0:0:
256,192,140192,1,2,0:0:0:0:
256,192,140363,1,2,0:0:0:0:
256,192,140533,1,0,0:0:0:0:
256,192,140704,1,2,0:0:0:0:
256,192,140789,1,2,0:0:0:0:
256,192,140874,1,0,0:0:0:0:
256,192,141045,1,2,0:0:0:0:
256,192,141215,1,0,0:0:0:0:
256,192,141300,1,2,0:0:0:0:
256,192,141385,1,0,0:0:0:0:
256,192,141471,1,0,0:0:0:0:
256,192,141556,1,2,0:0:0:0:
256,192,141726,1,0,0:0:0:0:
256,192,142579,1,4,0:0:0:0:
256,192,142920,1,2,0:0:0:0:
256,192,143175,1,2,0:0:0:0:
256,192,143260,1,0,0:0:0:0:
256,192,143431,1,0,0:0:0:0:
256,192,143601,1,2,0:0:0:0:
256,192,143772,1,0,0:0:0:0:
256,192,144113,1,0,0:0:0:0:
256,192,144283,1,2,0:0:0:0:
256,192,144454,1,0,0:0:0:0:
256,192,144539,1,2,0:0:0:0:
256,192,144624,1,0,0:0:0:0:
256,192,144795,1,2,0:0:0:0:
256,192,144965,1,2,0:0:0:0:
256,192,145050,1,2,0:0:0:0:
256,192,145135,1,0,0:0:0:0:
256,192,145305,1,0,0:0:0:0:
256,192,145475,1,2,0:0:0:0:
256,192,145646,1,0,0:0:0:0:
256,192,145902,1,2,0:0:0:0:
256,192,145987,1,0,0:0:0:0:
256,192,146157,1,2,0:0:0:0:
256,192,146328,1,2,0:0:0:0:
256,192,146413,1,2,0:0:0:0:
256,192,146498,1,0,0:0:0:0:
256,192,146583,1,2,0:0:0:0:
256,192,146754,1,2,0:0:0:0:
256,192,146839,1,0,0:0:0:0:
256,192,147010,1,0,0:0:0:0:
256,192,147180,1,2,0:0:0:0:
256,192,147350,1,2,0:0:0:0:
256,192,147436,1,2,0:0:0:0:
256,192,147521,1,0,0:0:0:0:
256,192,147691,1,0,0:0:0:0:
256,192,147861,1,2,0:0:0:0:
256,192,148117,1,2,0:0:0:0:
256,192,148202,1,0,0:0:0:0:
256,192,148373,1,0,0:0:0:0:
256,192,148543,1,2,0:0:0:0:
256,192,148714,1,0,0:0:0:0:
256,192,148799,1,2,0:0:0:0:
256,192,148969,1,2,0:0:0:0:
256,192,149055,1,0,0:0:0:0:
256,192,149140,1,0,0:0:0:0:
256,192,149225,1,2,0:0:0:0:
256,192,149396,1,0,0:0:0:0:
256,192,149481,1,2,0:0:0:0:
256,192,149566,1,0,0:0:0:0:
256,192,149736,1,2,0:0:0:0:
256,192,149907,1,2,0:0:0:0:
256,192,149992,1,2,0:0:0:0:
256,192,150077,1,0,0:0:0:0:
256,192,150247,1,0,0:0:0:0:
256,192,150417,1,2,0:0:0:0:
256,192,150588,1,0,0:0:0:0:
256,192,150673,1,2,0:0:0:0:
256,192,150844,1,2,0:0:0:0:
256,192,150929,1,0,0:0:0:0:
256,192,151099,1,2,0:0:0:0:
256,192,151270,1,0,0:0:0:0:
256,192,151440,1,0,0:0:0:0:
256,192,151611,1,2,0:0:0:0:
256,192,151696,1,2,0:0:0:0:
256,192,151781,1,2,0:0:0:0:
256,192,151952,1,4,0:0:0:0:
256,192,152292,1,2,0:0:0:0:
256,192,152548,1,2,0:0:0:0:
256,192,152633,1,0,0:0:0:0:
256,192,152804,1,0,0:0:0:0:
256,192,152974,1,2,0:0:0:0:
256,192,153145,1,0,0:0:0:0:
256,192,153230,1,2,0:0:0:0:
256,192,153400,1,2,0:0:0:0:
256,192,153486,1,0,0:0:0:0:
256,192,153656,1,2,0:0:0:0:
256,192,153827,1,0,0:0:0:0:
256,192,153912,1,2,0:0:0:0:
256,192,153997,1,0,0:0:0:0:
256,192,154167,1,2,0:0:0:0:
256,192,154338,1,2,0:0:0:0:
256,192,154423,1,2,0:0:0:0:
256,192,154508,1,0,0:0:0:0:
256,192,154678,1,0,0:0:0:0:
256,192,154848,1,2,0:0:0:0:
256,192,155019,1,0,0:0:0:0:
256,192,155104,1,2,0:0:0:0:
256,192,155275,1,2,0:0:0:0:
256,192,155360,1,0,0:0:0:0:
256,192,155445,1,0,0:0:0:0:
256,192,155530,1,2,0:0:0:0:
256,192,155701,1,2,0:0:0:0:
256,192,155786,1,2,0:0:0:0:
256,192,155871,1,0,0:0:0:0:
256,192,155956,1,2,0:0:0:0:
256,192,156127,1,2,0:0:0:0:
256,192,156212,1,0,0:0:0:0:
256,192,156383,1,0,0:0:0:0:
256,192,156553,1,2,0:0:0:0:
256,192,156723,1,2,0:0:0:0:
256,192,156809,1,2,0:0:0:0:
256,192,156894,1,0,0:0:0:0:
256,192,157064,1,0,0:0:0:0:
256,192,157234,1,2,0:0:0:0:
256,192,157490,1,2,0:0:0:0:
256,192,157575,1,0,0:0:0:0:
256,192,157661,1,2,0:0:0:0:
256,192,157746,1,0,0:0:0:0:
256,192,157916,1,2,0:0:0:0:
256,192,158087,1,0,0:0:0:0:
256,192,158172,1,2,0:0:0:0:
256,192,158342,1,2,0:0:0:0:
256,192,158428,1,0,0:0:0:0:
256,192,158598,1,2,0:0:0:0:
256,192,158769,1,0,0:0:0:0:
256,192,158854,1,2,0:0:0:0:
256,192,158939,1,0,0:0:0:0:
256,192,159109,1,2,0:0:0:0:
256,192,159280,1,0,0:0:0:0:
256,192,159450,1,0,0:0:0:0:
256,192,159621,1,2,0:0:0:0:
256,192,159663,1,2,0:0:0:0:
256,192,159962,1,0,0:0:0:0:
256,192,160132,1,2,0:0:0:0:
256,192,160303,1,0,0:0:0:0:
256,192,160388,1,2,0:0:0:0:
256,192,160473,1,0,0:0:0:0:
256,192,160558,1,0,0:0:0:0:
256,192,160644,1,2,0:0:0:0:
256,192,160814,1,0,0:0:0:0:
256,192,160899,1,2,0:0:0:0:
256,192,160984,1,0,0:0:0:0:
256,192,161155,1,2,0:0:0:0:
256,192,161240,1,0,0:0:0:0:
256,192,161496,1,2,0:0:0:0:
256,192,161538,1,2,0:0:0:0:
256,192,161666,1,0,0:0:0:0:
256,192,161837,1,0,0:0:0:0:
256,192,161922,1,0,0:0:0:0:
256,192,162178,1,0,0:0:0:0:
256,192,162348,5,12,0:0:0:0:
256,192,162519,1,0,0:0:0:0:
256,192,162689,1,0,0:0:0:0:
256,192,162859,1,8,0:0:0:0:
256,192,163030,1,0,0:0:0:0:
256,192,163200,1,0,0:0:0:0:
256,192,163371,1,8,0:0:0:0:
256,192,163541,1,0,0:0:0:0:
256,192,163626,1,0,0:0:0:0:
256,192,163712,1,0,0:0:0:0:
256,192,163882,1,8,0:0:0:0:
256,192,164053,1,0,0:0:0:0:
256,192,164138,1,8,0:0:0:0:
256,192,164223,1,0,0:0:0:0:
256,192,164394,1,8,0:0:0:0:
256,192,164564,1,0,0:0:0:0:
256,192,164734,1,8,0:0:0:0:
256,192,164820,1,8,0:0:0:0:
256,192,164905,1,0,0:0:0:0:
256,192,164990,1,0,0:0:0:0:
256,192,165075,1,8,0:0:0:0:
256,192,165246,1,0,0:0:0:0:
256,192,165416,1,0,0:0:0:0:
256,192,165587,1,8,0:0:0:0:
256,192,165757,1,0,0:0:0:0:
256,192,165928,1,0,0:0:0:0:
256,192,166098,1,8,0:0:0:0:
256,192,166269,1,0,0:0:0:0:
256,192,166354,1,0,0:0:0:0:
256,192,166439,1,0,0:0:0:0:
256,192,166609,1,8,0:0:0:0:
256,192,166780,1,8,0:0:0:0:
256,192,166865,1,0,0:0:0:0:
256,192,166950,1,0,0:0:0:0:
256,192,167121,1,8,0:0:0:0:
256,192,167291,1,0,0:0:0:0:
256,192,167376,1,0,0:0:0:0:
256,192,167462,1,8,0:0:0:0:
256,192,167547,1,8,0:0:0:0:
256,192,167632,1,0,0:0:0:0:
256,192,167717,1,0,0:0:0:0:
288,192,167803,1,8,0:0:0:0:
256,192,167973,1,0,0:0:0:0:
256,192,168144,1,0,0:0:0:0:
256,192,168314,1,8,0:0:0:0:
256,192,168484,1,0,0:0:0:0:
256,192,168655,1,0,0:0:0:0:
256,192,168825,1,8,0:0:0:0:
256,192,168996,1,0,0:0:0:0:
256,192,169081,1,0,0:0:0:0:
256,192,169166,1,0,0:0:0:0:
256,192,169337,1,8,0:0:0:0:
256,192,169507,1,8,0:0:0:0:
256,192,169678,1,0,0:0:0:0:
256,192,169848,1,8,0:0:0:0:
256,192,169933,1,8,0:0:0:0:
256,192,170019,1,0,0:0:0:0:
256,192,170189,1,8,0:0:0:0:
256,192,170274,1,8,0:0:0:0:
256,192,170359,1,0,0:0:0:0:
256,192,170445,1,0,0:0:0:0:
288,192,170530,1,8,0:0:0:0:
256,192,170700,1,0,0:0:0:0:
256,192,170871,1,0,0:0:0:0:
256,192,171041,1,8,0:0:0:0:
256,192,171212,1,0,0:0:0:0:
256,192,171382,1,0,0:0:0:0:
256,192,171553,1,8,0:0:0:0:
256,192,171723,1,0,0:0:0:0:
256,192,171808,1,0,0:0:0:0:
256,192,171894,1,0,0:0:0:0:
256,192,172064,1,8,0:0:0:0:
256,192,172234,1,0,0:0:0:0:
256,192,172320,1,8,0:0:0:0:
256,192,172405,1,0,0:0:0:0:
256,192,172575,1,8,0:0:0:0:
256,192,172746,1,0,0:0:0:0:
256,192,172916,1,8,0:0:0:0:
256,192,173001,1,8,0:0:0:0:
256,192,173087,1,0,0:0:0:0:
256,192,173172,1,0,0:0:0:0:
288,192,173257,1,8,0:0:0:0:
256,192,173428,1,0,0:0:0:0:
256,192,173598,1,0,0:0:0:0:
256,192,173769,1,8,0:0:0:0:
256,192,173854,1,8,0:0:0:0:
256,192,173939,1,0,0:0:0:0:
256,192,174109,1,0,0:0:0:0:
256,192,174280,1,8,0:0:0:0:
256,192,174365,1,0,0:0:0:0:
256,192,174450,1,0,0:0:0:0:
256,192,174621,1,0,0:0:0:0:
256,192,174791,1,8,0:0:0:0:
256,192,174962,1,8,0:0:0:0:
256,192,175047,1,0,0:0:0:0:
256,192,175132,1,0,0:0:0:0:
256,192,175303,1,8,0:0:0:0:
256,192,175473,1,0,0:0:0:0:
256,192,175644,1,8,0:0:0:0:
256,192,175729,1,8,0:0:0:0:
256,192,175814,1,0,0:0:0:0:
256,192,175899,1,0,0:0:0:0:
288,192,175984,1,8,0:0:0:0:
256,192,176155,1,0,0:0:0:0:
256,192,176325,1,0,0:0:0:0:
256,192,176496,1,8,0:0:0:0:
256,192,176666,1,0,0:0:0:0:
256,192,176837,1,0,0:0:0:0:
256,192,177007,1,8,0:0:0:0:
256,192,177178,1,0,0:0:0:0:
256,192,177263,1,0,0:0:0:0:
256,192,177348,1,8,0:0:0:0:
256,192,177519,1,8,0:0:0:0:
256,192,177689,1,0,0:0:0:0:
256,192,177774,1,8,0:0:0:0:
256,192,177859,1,0,0:0:0:0:
256,192,178030,1,8,0:0:0:0:
256,192,178200,1,0,0:0:0:0:
256,192,178286,1,0,0:0:0:0:
256,192,178371,1,8,0:0:0:0:
256,192,178456,1,8,0:0:0:0:
256,192,178541,1,0,0:0:0:0:
256,192,178626,1,0,0:0:0:0:
288,192,178712,1,8,0:0:0:0:
256,192,178882,1,0,0:0:0:0:
256,192,179053,1,0,0:0:0:0:
256,192,179223,1,8,0:0:0:0:
256,192,179394,1,0,0:0:0:0:
256,192,179564,1,0,0:0:0:0:
256,192,179734,1,8,0:0:0:0:
256,192,179905,1,0,0:0:0:0:
256,192,179990,1,0,0:0:0:0:
256,192,180075,1,0,0:0:0:0:
256,192,180246,1,8,0:0:0:0:
256,192,180416,1,8,0:0:0:0:
256,192,180501,1,8,0:0:0:0:
256,192,180587,1,0,0:0:0:0:
256,192,180757,1,8,0:0:0:0:
256,192,180928,1,0,0:0:0:0:
256,192,181013,1,0,0:0:0:0:
256,192,181098,1,8,0:0:0:0:
256,192,181183,1,0,0:0:0:0:
256,192,181269,1,0,0:0:0:0:
256,192,181354,1,0,0:0:0:0:
288,192,181439,1,8,0:0:0:0:
256,192,181609,1,0,0:0:0:0:
256,192,181695,1,0,0:0:0:0:
256,192,181780,1,8,0:0:0:0:
256,192,181950,1,8,0:0:0:0:
256,192,182121,1,0,0:0:0:0:
256,192,182291,1,0,0:0:0:0:
256,192,182462,1,0,0:0:0:0:
256,192,182632,1,8,0:0:0:0:
256,192,182803,1,0,0:0:0:0:
256,192,182888,1,0,0:0:0:0:
256,192,182973,1,8,0:0:0:0:
256,192,183058,1,0,0:0:0:0:
256,192,183144,1,8,0:0:0:0:
256,192,183229,1,8,0:0:0:0:
256,192,183314,1,0,0:0:0:0:
256,192,183399,1,8,0:0:0:0:
256,192,183484,1,0,0:0:0:0:
256,192,183570,1,0,0:0:0:0:
256,192,183655,1,8,0:0:0:0:
256,192,183740,1,0,0:0:0:0:
256,192,183825,1,8,0:0:0:0:
256,192,183911,1,8,0:0:0:0:
256,192,183996,1,0,0:0:0:0:
256,192,184081,1,8,0:0:0:0:
288,192,184166,1,0,0:0:0:0:
256,192,184337,1,0,0:0:0:0:
256,192,184507,1,8,0:0:0:0:
256,192,184678,1,0,0:0:0:0:
256,192,184763,1,0,0:0:0:0:
256,192,184848,1,0,0:0:0:0:
256,192,185019,1,8,0:0:0:0:
256,192,185189,1,0,0:0:0:0:
256,192,185359,1,8,0:0:0:0:
256,192,185445,1,8,0:0:0:0:
256,192,185530,1,0,0:0:0:0:
256,192,185700,1,8,0:0:0:0:
256,192,185871,1,0,0:0:0:0:
256,192,185956,1,8,0:0:0:0:
256,192,186041,1,0,0:0:0:0:
256,192,186212,1,8,0:0:0:0:
256,192,186382,1,0,0:0:0:0:
256,192,186553,1,8,0:0:0:0:
256,192,186638,1,0,0:0:0:0:
256,192,186723,1,8,0:0:0:0:
256,192,186808,1,0,0:0:0:0:
288,192,186894,1,8,0:0:0:0:
256,192,187064,1,0,0:0:0:0:
256,192,187234,1,8,0:0:0:0:
256,192,187405,1,0,0:0:0:0:
256,192,187575,1,0,0:0:0:0:
256,192,187661,1,0,0:0:0:0:
256,192,187746,1,8,0:0:0:0:
256,192,187916,1,0,0:0:0:0:
256,192,188087,1,8,0:0:0:0:
256,192,188172,1,8,0:0:0:0:
256,192,188257,1,0,0:0:0:0:
256,192,188428,1,8,0:0:0:0:
256,192,188598,1,0,0:0:0:0:
256,192,188769,1,8,0:0:0:0:
256,192,188854,1,8,0:0:0:0:
256,192,188939,1,8,0:0:0:0:
256,192,189024,1,8,0:0:0:0:
256,192,189109,1,0,0:0:0:0:
256,192,189280,1,8,0:0:0:0:
256,192,189365,1,8,0:0:0:0:
256,192,189450,1,0,0:0:0:0:
256,192,189536,1,0,0:0:0:0:
288,192,189621,1,8,0:0:0:0:
256,192,189791,1,0,0:0:0:0:
256,192,189962,1,8,0:0:0:0:
256,192,190132,1,0,0:0:0:0:
256,192,190217,1,8,0:0:0:0:
256,192,190303,1,0,0:0:0:0:
256,192,190473,1,8,0:0:0:0:
256,192,190644,1,0,0:0:0:0:
256,192,190814,1,8,0:0:0:0:
256,192,190899,1,0,0:0:0:0:
256,192,190984,1,8,0:0:0:0:
256,192,191155,1,8,0:0:0:0:
256,192,191325,1,0,0:0:0:0:
256,192,191496,1,8,0:0:0:0:
256,192,191581,1,0,0:0:0:0:
256,192,191666,1,0,0:0:0:0:
256,192,191837,1,8,0:0:0:0:
256,192,192007,1,8,0:0:0:0:
256,192,192092,1,8,0:0:0:0:
256,192,192178,1,0,0:0:0:0:
256,192,192263,1,0,0:0:0:0:
288,192,192348,1,8,0:0:0:0:
256,192,192519,1,8,0:0:0:0:
256,192,192689,1,8,0:0:0:0:
256,192,192859,1,8,0:0:0:0:
256,192,193030,1,8,0:0:0:0:
256,192,193200,1,8,0:0:0:0:
256,192,193371,1,8,0:0:0:0:
256,192,193541,1,8,0:0:0:0:
256,192,193712,1,0,0:0:0:0:
256,192,193797,1,0,0:0:0:0:
256,192,193882,1,8,0:0:0:0:
256,192,193967,1,8,0:0:0:0:
256,192,194053,1,8,0:0:0:0:
256,192,194223,1,0,0:0:0:0:
256,192,194308,1,8,0:0:0:0:
256,192,194394,1,8,0:0:0:0:
256,192,194479,1,0,0:0:0:0:
256,192,194564,1,8,0:0:0:0:
256,192,194649,1,0,0:0:0:0:
256,192,194734,1,8,0:0:0:0:
256,192,194905,1,8,0:0:0:0:
256,192,195075,5,4,0:0:0:0:
256,192,195416,1,2,0:0:0:0:
256,192,195757,1,0,0:0:0:0:
256,192,195928,1,0,0:0:0:0:
256,192,196098,1,2,0:0:0:0:
256,192,196269,1,0,0:0:0:0:
256,192,196354,1,2,0:0:0:0:
256,192,196439,1,0,0:0:0:0:
256,192,196609,1,0,0:0:0:0:
256,192,196780,1,2,0:0:0:0:
256,192,196950,1,2,0:0:0:0:
256,192,197036,1,2,0:0:0:0:
256,192,197121,1,0,0:0:0:0:
256,192,197291,1,0,0:0:0:0:
256,192,197462,1,2,0:0:0:0:
256,192,197632,1,0,0:0:0:0:
256,192,197973,1,0,0:0:0:0:
256,192,198144,1,2,0:0:0:0:
256,192,198314,1,0,0:0:0:0:
256,192,198399,1,0,0:0:0:0:
256,192,198484,1,0,0:0:0:0:
256,192,198655,1,0,0:0:0:0:
256,192,198825,1,2,0:0:0:0:
256,192,198996,1,0,0:0:0:0:
256,192,199081,1,2,0:0:0:0:
256,192,199166,1,0,0:0:0:0:
256,192,199337,1,0,0:0:0:0:
256,192,199507,1,2,0:0:0:0:
256,192,199592,1,0,0:0:0:0:
256,192,199678,1,2,0:0:0:0:
256,192,199763,1,2,0:0:0:0:
256,192,199848,1,0,0:0:0:0:
256,192,200019,1,2,0:0:0:0:
256,192,200189,1,2,0:0:0:0:
256,192,200359,1,0,0:0:0:0:
256,192,200700,1,0,0:0:0:0:
256,192,200871,1,2,0:0:0:0:
256,192,201041,1,2,0:0:0:0:
256,192,201126,1,0,0:0:0:0:
256,192,201212,1,0,0:0:0:0:
256,192,201382,1,0,0:0:0:0:
256,192,201553,1,2,0:0:0:0:
256,192,201723,1,0,0:0:0:0:
256,192,202064,1,0,0:0:0:0:
256,192,202234,1,2,0:0:0:0:
256,192,202320,1,0,0:0:0:0:
256,192,202405,1,2,0:0:0:0:
256,192,202490,1,2,0:0:0:0:
256,192,202575,1,0,0:0:0:0:
256,192,202746,1,0,0:0:0:0:
256,192,202916,1,2,0:0:0:0:
256,192,203087,1,0,0:0:0:0:
256,192,203428,1,0,0:0:0:0:
256,192,203598,1,2,0:0:0:0:
256,192,203769,1,0,0:0:0:0:
256,192,203854,1,0,0:0:0:0:
256,192,203939,1,2,0:0:0:0:
256,192,204109,1,2,0:0:0:0:
256,192,204280,1,0,0:0:0:0:
256,192,204450,1,6,0:0:0:0:
256,192,204791,1,0,0:0:0:0:
256,192,204962,1,2,0:0:0:0:
256,192,205047,1,2,0:0:0:0:
256,192,205132,1,0,0:0:0:0:
256,192,205217,1,0,0:0:0:0:
256,192,205303,1,2,0:0:0:0:
256,192,205473,1,2,0:0:0:0:
256,192,205644,1,2,0:0:0:0:
256,192,205814,1,4,0:0:0:0:
256,192,206155,1,0,0:0:0:0:
256,192,206325,1,2,0:0:0:0:
256,192,206496,1,2,0:0:0:0:
256,192,206581,1,2,0:0:0:0:
256,192,206666,1,0,0:0:0:0:
256,192,206837,1,2,0:0:0:0:
256,192,207007,1,0,0:0:0:0:
256,192,207178,1,6,0:0:0:0:
256,192,207519,1,0,0:0:0:0:
256,192,207689,1,2,0:0:0:0:
256,192,207859,1,0,0:0:0:0:
256,192,207945,1,2,0:0:0:0:
256,192,208030,1,0,0:0:0:0:
256,192,208115,1,0,0:0:0:0:
256,192,208200,1,2,0:0:0:0:
256,192,208371,1,2,0:0:0:0:
256,192,208541,1,4,0:0:0:0:
256,192,208882,1,0,0:0:0:0:
256,192,209053,1,2,0:0:0:0:
256,192,209223,1,2,0:0:0:0:
256,192,209308,1,2,0:0:0:0:
256,192,209394,1,0,0:0:0:0:
256,192,209564,1,2,0:0:0:0:
256,192,209734,1,0,0:0:0:0:
256,192,209905,1,6,0:0:0:0:
256,192,210246,1,0,0:0:0:0:
256,192,210416,1,2,0:0:0:0:
256,192,210501,1,0,0:0:0:0:
256,192,210587,1,2,0:0:0:0:
256,192,210672,1,2,0:0:0:0:
256,192,210757,1,0,0:0:0:0:
256,192,210928,1,2,0:0:0:0:
256,192,211098,1,0,0:0:0:0:
256,192,211269,1,4,0:0:0:0:
256,192,211609,1,0,0:0:0:0:
256,192,211780,1,2,0:0:0:0:
256,192,211950,1,2,0:0:0:0:
256,192,212036,1,0,0:0:0:0:
256,192,212121,1,0,0:0:0:0:
256,192,212291,1,2,0:0:0:0:
256,192,212462,1,0,0:0:0:0:
256,192,212547,1,0,0:0:0:0:
256,192,212632,1,2,0:0:0:0:
256,192,212717,1,2,0:0:0:0:
256,192,212803,1,0,0:0:0:0:
256,192,212973,1,0,0:0:0:0:
256,192,213144,1,2,0:0:0:0:
256,192,213314,1,0,0:0:0:0:
256,192,213399,1,2,0:0:0:0:
256,192,213484,1,0,0:0:0:0:
256,192,213655,1,2,0:0:0:0:
256,192,213825,1,2,0:0:0:0:
256,192,213996,1,4,0:0:0:0:
256,192,214337,1,0,0:0:0:0:
256,192,214507,1,2,0:0:0:0:
256,192,214763,1,2,0:0:0:0:
256,192,214848,1,0,0:0:0:0:
256,192,215019,1,2,0:0:0:0:
256,192,215104,1,2,0:0:0:0:
256,192,215189,1,0,0:0:0:0:
256,192,215274,1,0,0:0:0:0:
256,192,215359,1,2,0:0:0:0:
256,192,215530,1,0,0:0:0:0:
256,192,215700,1,0,0:0:0:0:
256,192,215871,1,6,0:0:0:0:
256,192,216041,1,0,0:0:0:0:
256,192,216212,1,2,0:0:0:0:
256,192,216297,1,2,0:0:0:0:
256,192,216382,1,2,0:0:0:0:
256,192,216467,1,2,0:0:0:0:
256,192,216553,1,2,0:0:0:0:
256,192,216723,1,4,0:0:0:0:
256,192,217064,1,0,0:0:0:0:
256,192,217234,1,2,0:0:0:0:
256,192,217405,1,2,0:0:0:0:
256,192,217490,1,2,0:0:0:0:
256,192,217575,1,0,0:0:0:0:
256,192,217746,1,0,0:0:0:0:
256,192,217916,1,2,0:0:0:0:
256,192,218087,1,0,0:0:0:0:
256,192,218172,1,2,0:0:0:0:
256,192,218342,1,2,0:0:0:0:
256,192,218428,1,0,0:0:0:0:
256,192,218598,1,2,0:0:0:0:
256,192,218769,1,0,0:0:0:0:
256,192,218854,1,2,0:0:0:0:
256,192,218939,1,0,0:0:0:0:
256,192,219024,1,0,0:0:0:0:
256,192,219109,1,2,0:0:0:0:
256,192,219195,1,2,0:0:0:0:
256,192,219280,1,2,0:0:0:0:
256,192,219450,1,4,0:0:0:0:
256,192,219791,1,0,0:0:0:0:
256,192,219962,1,2,0:0:0:0:
256,192,220132,1,2,0:0:0:0:
256,192,220217,1,2,0:0:0:0:
256,192,220303,1,0,0:0:0:0:
256,192,220473,1,0,0:0:0:0:
256,192,220644,1,2,0:0:0:0:
256,192,220814,1,0,0:0:0:0:
256,192,220899,1,2,0:0:0:0:
256,192,221070,1,2,0:0:0:0:
256,192,221155,1,0,0:0:0:0:
256,192,221240,1,0,0:0:0:0:
256,192,221325,1,2,0:0:0:0:
256,192,221496,1,0,0:0:0:0:
256,192,221581,1,0,0:0:0:0:
256,192,221666,1,2,0:0:0:0:
256,192,221751,1,2,0:0:0:0:
256,192,221837,1,0,0:0:0:0:
256,192,221922,1,0,0:0:0:0:
256,192,222007,1,2,0:0:0:0:
256,192,222178,1,4,0:0:0:0:
256,192,222519,1,0,0:0:0:0:
256,192,222689,1,2,0:0:0:0:
256,192,222859,1,2,0:0:0:0:
256,192,222945,1,0,0:0:0:0:
256,192,223030,1,0,0:0:0:0:
256,192,223200,1,2,0:0:0:0:
256,192,223371,1,0,0:0:0:0:
256,192,223456,1,0,0:0:0:0:
256,192,223541,1,2,0:0:0:0:
256,192,223626,1,2,0:0:0:0:
256,192,223712,1,0,0:0:0:0:
256,192,223882,1,2,0:0:0:0:
256,192,223967,1,0,0:0:0:0:
256,192,224053,1,2,0:0:0:0:
256,192,224138,1,2,0:0:0:0:
256,192,224223,1,0,0:0:0:0:
256,192,224308,1,2,0:0:0:0:
256,192,224394,1,0,0:0:0:0:
256,192,224564,1,0,0:0:0:0:
256,192,224734,1,2,0:0:0:0:
256,192,224905,1,4,0:0:0:0:
256,192,225075,1,2,0:0:0:0:
256,192,225246,1,0,0:0:0:0:
256,192,225416,1,2,0:0:0:0:
256,192,225587,1,0,0:0:0:0:
256,192,225672,1,2,0:0:0:0:
256,192,225757,1,2,0:0:0:0:
256,192,225928,1,2,0:0:0:0:
256,192,226098,1,0,0:0:0:0:
256,192,226183,1,0,0:0:0:0:
256,192,226269,1,2,0:0:0:0:
256,192,226354,1,2,0:0:0:0:
256,192,226439,1,2,0:0:0:0:
256,192,226524,1,0,0:0:0:0:
256,192,226609,1,2,0:0:0:0:
256,192,226695,1,0,0:0:0:0:
256,192,226780,1,0,0:0:0:0:
256,192,226865,1,0,0:0:0:0:
256,192,226950,1,2,0:0:0:0:
256,192,227036,1,2,0:0:0:0:
256,192,227121,1,0,0:0:0:0:
256,192,227206,1,0,0:0:0:0:
256,192,227291,1,2,0:0:0:0:
256,192,227376,1,2,0:0:0:0:
256,192,227462,1,0,0:0:0:0:
256,192,227632,1,2,0:0:0:0:
256,192,227803,1,4,0:0:0:0:
256,192,228144,1,0,0:0:0:0:
256,192,228484,1,0,0:0:0:0:
256,192,228825,1,0,0:0:0:0:
256,192,228996,1,2,0:0:0:0:
256,192,229166,1,0,0:0:0:0:
256,192,229507,1,0,0:0:0:0:
256,192,229848,1,0,0:0:0:0:
256,192,230189,1,0,0:0:0:0:
256,192,230359,1,2,0:0:0:0:
256,192,230445,1,2,0:0:0:0:
256,192,230530,1,0,0:0:0:0:
256,192,230871,1,0,0:0:0:0:
256,192,231212,1,0,0:0:0:0:
256,192,231382,1,0,0:0:0:0:
256,192,231553,1,0,0:0:0:0:
256,192,231723,1,2,0:0:0:0:
256,192,231894,1,0,0:0:0:0:
256,192,232234,1,0,0:0:0:0:
256,192,232575,1,0,0:0:0:0:
256,192,232746,1,0,0:0:0:0:
256,192,232916,1,0,0:0:0:0:
256,192,233087,1,2,0:0:0:0:
256,192,233172,1,2,0:0:0:0:
256,192,233257,1,0,0:0:0:0:
256,192,233598,1,0,0:0:0:0:
256,192,233769,1,2,0:0:0:0:
256,192,233939,1,0,0:0:0:0:
256,192,234280,1,0,0:0:0:0:
256,192,234450,1,2,0:0:0:0:
256,192,234536,1,2,0:0:0:0:
256,192,234621,1,0,0:0:0:0:
256,192,234962,1,0,0:0:0:0:
256,192,235132,1,2,0:0:0:0:
256,192,235303,1,0,0:0:0:0:
256,192,235473,1,0,0:0:0:0:
256,192,235644,1,0,0:0:0:0:
256,192,235814,1,2,0:0:0:0:
256,192,235899,1,2,0:0:0:0:
256,192,235984,1,0,0:0:0:0:
256,192,236325,1,0,0:0:0:0:
256,192,236496,1,2,0:0:0:0:
256,192,236666,1,0,0:0:0:0:
256,192,236837,1,2,0:0:0:0:
256,192,237007,1,2,0:0:0:0:
256,192,237178,1,0,0:0:0:0:
256,192,237348,1,6,0:0:0:0:
256,192,237519,1,0,0:0:0:0:
256,192,237604,1,2,0:0:0:0:
256,192,237689,1,0,0:0:0:0:
256,192,237859,1,2,0:0:0:0:
256,192,238030,1,0,0:0:0:0:
256,192,238115,1,2,0:0:0:0:
256,192,238200,1,0,0:0:0:0:
256,192,238286,1,0,0:0:0:0:
256,192,238371,1,2,0:0:0:0:
256,192,238712,2,0,L|309:193,2,35
256,192,239053,1,6,0:0:0:0:
256,192,239394,1,0,0:0:0:0:
256,192,239564,1,0,0:0:0:0:
256,192,239734,1,8,0:0:0:0:
256,192,239905,1,4,0:0:0:0:
256,192,240246,1,0,0:0:0:0:
256,192,240416,1,8,0:0:0:0:
256,192,240587,1,0,0:0:0:0:
256,192,240672,1,0,0:0:0:0:
256,192,240757,1,0,0:0:0:0:
256,192,240928,1,0,0:0:0:0:
256,192,241098,1,8,0:0:0:0:
256,192,241269,1,8,0:0:0:0:
256,192,241354,1,8,0:0:0:0:
256,192,241439,1,0,0:0:0:0:
256,192,241609,1,0,0:0:0:0:
256,192,241780,1,8,0:0:0:0:
256,192,242036,1,8,0:0:0:0:
256,192,242121,1,0,0:0:0:0:
256,192,242291,1,0,0:0:0:0:
256,192,242462,1,8,0:0:0:0:
256,192,242632,1,0,0:0:0:0:
256,192,242973,1,0,0:0:0:0:
256,192,243144,1,8,0:0:0:0:
256,192,243314,1,0,0:0:0:0:
256,192,243399,1,8,0:0:0:0:
256,192,243484,1,0,0:0:0:0:
256,192,243655,1,0,0:0:0:0:
256,192,243825,1,8,0:0:0:0:
256,192,243996,1,8,0:0:0:0:
256,192,244081,1,8,0:0:0:0:
256,192,244166,1,0,0:0:0:0:
256,192,244337,1,0,0:0:0:0:
256,192,244507,1,8,0:0:0:0:
256,192,244848,1,0,0:0:0:0:
256,192,245019,1,0,0:0:0:0:
256,192,245189,1,8,0:0:0:0:
256,192,245359,1,0,0:0:0:0:
256,192,245445,1,0,0:0:0:0:
256,192,245530,1,0,0:0:0:0:
256,192,245700,1,0,0:0:0:0:
256,192,245871,1,8,0:0:0:0:
256,192,246041,1,8,0:0:0:0:
256,192,246126,1,8,0:0:0:0:
256,192,246212,1,0,0:0:0:0:
256,192,246382,1,0,0:0:0:0:
256,192,246553,1,8,0:0:0:0:
256,192,246723,1,0,0:0:0:0:
256,192,246808,1,0,0:0:0:0:
256,192,246894,1,8,0:0:0:0:
256,192,246979,1,8,0:0:0:0:
256,192,247064,1,0,0:0:0:0:
256,192,247234,1,8,0:0:0:0:
256,192,247405,1,0,0:0:0:0:
256,192,247490,1,0,0:0:0:0:
256,192,247575,1,8,0:0:0:0:
256,192,247746,1,0,0:0:0:0:
256,192,247916,1,0,0:0:0:0:
256,192,248087,1,8,0:0:0:0:
256,192,248428,1,0,0:0:0:0:
256,192,248598,1,8,0:0:0:0:
256,192,248769,1,0,0:0:0:0:
256,192,248854,1,0,0:0:0:0:
256,192,248939,1,8,0:0:0:0:
256,192,249024,1,0,0:0:0:0:
256,192,249109,1,8,0:0:0:0:
256,192,249195,1,8,0:0:0:0:
256,192,249280,1,0,0:0:0:0:
256,192,249365,1,0,0:0:0:0:
256,192,249450,1,8,0:0:0:0:
256,192,249621,1,4,0:0:0:0:
256,192,249962,1,8,0:0:0:0:
256,192,250217,1,8,0:0:0:0:
256,192,250303,1,0,0:0:0:0:
256,192,250473,1,0,0:0:0:0:
256,192,250644,1,8,0:0:0:0:
256,192,250814,1,0,0:0:0:0:
256,192,251155,1,0,0:0:0:0:
256,192,251325,1,8,0:0:0:0:
256,192,251496,1,0,0:0:0:0:
256,192,251581,1,0,0:0:0:0:
256,192,251666,1,0,0:0:0:0:
256,192,251837,1,0,0:0:0:0:
256,192,252007,1,8,0:0:0:0:
256,192,252178,1,8,0:0:0:0:
256,192,252263,1,8,0:0:0:0:
256,192,252348,1,0,0:0:0:0:
256,192,252519,1,0,0:0:0:0:
256,192,252689,1,8,0:0:0:0:
256,192,252945,1,8,0:0:0:0:
256,192,253030,1,0,0:0:0:0:
256,192,253200,1,0,0:0:0:0:
256,192,253371,1,8,0:0:0:0:
256,192,253541,1,0,0:0:0:0:
256,192,253882,1,0,0:0:0:0:
256,192,254053,1,8,0:0:0:0:
261,177,254223,1,8,0:0:0:0:
256,192,254308,1,0,0:0:0:0:
256,192,254394,1,8,0:0:0:0:
256,192,254564,1,0,0:0:0:0:
256,192,254734,1,8,0:0:0:0:
256,192,254905,1,8,0:0:0:0:
256,192,254990,1,8,0:0:0:0:
256,192,255075,1,0,0:0:0:0:
256,192,255416,1,8,0:0:0:0:
256,192,255587,1,0,0:0:0:0:
256,192,255672,1,0,0:0:0:0:
256,192,255757,1,8,0:0:0:0:
256,192,255928,1,0,0:0:0:0:
256,192,256098,1,8,0:0:0:0:
256,192,256269,1,0,0:0:0:0:
256,192,256354,1,0,0:0:0:0:
256,192,256439,1,0,0:0:0:0:
256,192,256609,1,0,0:0:0:0:
256,192,256780,1,8,0:0:0:0:
256,192,256950,1,8,0:0:0:0:
256,192,257036,1,8,0:0:0:0:
256,192,257121,1,8,0:0:0:0:
256,192,257291,1,0,0:0:0:0:
256,192,257462,1,8,0:0:0:0:
256,192,257632,1,0,0:0:0:0:
256,192,257717,1,0,0:0:0:0:
256,192,257803,1,8,0:0:0:0:
256,192,257888,1,8,0:0:0:0:
256,192,257973,1,0,0:0:0:0:
256,192,258144,1,8,0:0:0:0:
256,192,258314,1,0,0:0:0:0:
256,192,258399,1,0,0:0:0:0:
256,192,258484,1,8,0:0:0:0:
256,192,258655,1,0,0:0:0:0:
256,192,258825,1,0,0:0:0:0:
256,192,258996,1,8,0:0:0:0:
256,192,259166,1,0,0:0:0:0:
256,192,259507,1,0,0:0:0:0:
256,192,259678,1,8,0:0:0:0:
256,192,259848,1,0,0:0:0:0:
256,192,260019,1,0,0:0:0:0:
256,192,260189,1,8,0:0:0:0:
256,192,260359,1,8,0:0:0:0:
256,192,260530,1,4,0:0:0:0:
256,192,260871,1,8,0:0:0:0:
256,192,261212,1,0,0:0:0:0:
256,192,261382,1,0,0:0:0:0:
256,192,261553,1,8,0:0:0:0:
256,192,261723,1,0,0:0:0:0:
256,192,261808,1,8,0:0:0:0:
288,192,261979,1,8,0:0:0:0:
256,192,262064,1,0,0:0:0:0:
256,192,262234,1,8,0:0:0:0:
256,192,262405,1,0,0:0:0:0:
256,192,262575,1,0,0:0:0:0:
288,192,262661,1,0,0:0:0:0:
256,192,262746,1,8,0:0:0:0:
256,192,262916,1,8,0:0:0:0:
256,192,263087,1,0,0:0:0:0:
256,192,263428,1,0,0:0:0:0:
256,192,263598,1,8,0:0:0:0:
256,192,263939,1,0,0:0:0:0:
256,192,264109,1,0,0:0:0:0:
256,192,264280,1,8,0:0:0:0:
256,192,264450,1,0,0:0:0:0:
256,192,264536,1,8,0:0:0:0:
256,192,264706,1,8,0:0:0:0:
256,192,264791,1,0,0:0:0:0:
256,192,264962,1,8,0:0:0:0:
256,192,265132,1,8,0:0:0:0:
256,192,265217,1,8,0:0:0:0:
256,192,265303,1,0,0:0:0:0:
256,192,265473,1,0,0:0:0:0:
256,192,265644,1,8,0:0:0:0:
256,192,265814,1,12,0:0:0:0:
256,192,266155,1,0,0:0:0:0:
256,192,266325,1,8,0:0:0:0:
256,192,266666,1,8,0:0:0:0:
256,192,266837,1,0,0:0:0:0:
256,192,267007,1,8,0:0:0:0:
256,192,267178,1,8,0:0:0:0:
256,192,267263,1,0,0:0:0:0:
256,192,267348,1,0,0:0:0:0:
256,192,267519,1,0,0:0:0:0:
256,192,267689,1,8,0:0:0:0:
256,192,267859,1,0,0:0:0:0:
256,192,267945,1,0,0:0:0:0:
256,192,268030,1,8,0:0:0:0:
256,192,268115,1,8,0:0:0:0:
256,192,268200,1,0,0:0:0:0:
256,192,268371,1,8,0:0:0:0:
256,192,268541,1,0,0:0:0:0:
256,192,268712,1,12,0:0:0:0:
256,192,268882,1,0,0:0:0:0:
256,192,269053,1,0,0:0:0:0:
256,192,269223,1,8,0:0:0:0:
256,192,269394,1,0,0:0:0:0:
256,192,269564,1,0,0:0:0:0:
256,192,269649,1,0,0:0:0:0:
256,192,269734,1,8,0:0:0:0:
256,192,269905,1,0,0:0:0:0:
256,192,269990,1,8,0:0:0:0:
256,192,270075,1,8,0:0:0:0:
256,192,270161,1,0,0:0:0:0:
256,192,270246,1,8,0:0:0:0:
256,192,270416,1,0,0:0:0:0:
256,192,270501,1,8,0:0:0:0:
256,192,270587,1,8,0:0:0:0:
256,192,270672,1,8,0:0:0:0:
256,192,270757,1,0,0:0:0:0:
256,192,270842,1,0,0:0:0:0:
256,192,270928,1,0,0:0:0:0:
256,192,271013,1,0,0:0:0:0:
256,192,271098,1,8,0:0:0:0:
256,192,271439,5,4,0:0:0:0:
256,192,271609,1,0,0:0:0:0:
256,192,271780,1,2,0:0:0:0:
261,190,272036,1,2,0:0:0:0:
256,192,272121,1,0,0:0:0:0:
256,192,272291,1,2,0:0:0:0:
256,192,272462,1,0,0:0:0:0:
256,192,272632,1,2,0:0:0:0:
256,192,272717,1,2,0:0:0:0:
256,192,272803,1,0,0:0:0:0:
256,192,272973,1,0,0:0:0:0:
256,192,273144,1,2,0:0:0:0:
256,192,273314,1,0,0:0:0:0:
256,192,273399,1,2,0:0:0:0:
256,192,273484,1,0,0:0:0:0:
256,192,273655,1,2,0:0:0:0:
256,192,273825,1,0,0:0:0:0:
256,192,273911,1,2,0:0:0:0:
256,192,274081,1,2,0:0:0:0:
256,192,274166,1,0,0:0:0:0:
256,192,274337,1,0,0:0:0:0:
256,192,274507,1,2,0:0:0:0:
256,192,274678,1,0,0:0:0:0:
256,192,274763,1,0,0:0:0:0:
256,192,274848,1,0,0:0:0:0:
256,192,275019,1,2,0:0:0:0:
256,192,275189,1,0,0:0:0:0:
256,192,275274,1,0,0:0:0:0:
256,192,275359,1,2,0:0:0:0:
256,192,275445,1,2,0:0:0:0:
256,192,275530,1,0,0:0:0:0:
256,192,275700,1,0,0:0:0:0:
256,192,275871,1,2,0:0:0:0:
256,192,275956,1,0,0:0:0:0:
256,192,276041,1,2,0:0:0:0:
256,192,276126,1,2,0:0:0:0:
256,192,276212,1,0,0:0:0:0:
256,192,276382,1,0,0:0:0:0:
256,192,276553,1,2,0:0:0:0:
256,192,276894,1,4,0:0:0:0:
256,192,277064,1,0,0:0:0:0:
256,192,277234,1,2,0:0:0:0:
256,192,277490,1,2,0:0:0:0:
256,192,277575,1,0,0:0:0:0:
256,192,277746,1,2,0:0:0:0:
256,192,277916,1,0,0:0:0:0:
256,192,278087,1,2,0:0:0:0:
256,192,278172,1,0,0:0:0:0:
256,192,278257,1,0,0:0:0:0:
256,192,278428,1,0,0:0:0:0:
256,192,278598,1,2,0:0:0:0:
256,192,278769,1,0,0:0:0:0:
256,192,278854,1,2,0:0:0:0:
256,192,278939,1,0,0:0:0:0:
256,192,279024,1,0,0:0:0:0:
256,192,279109,1,2,0:0:0:0:
256,192,279280,1,2,0:0:0:0:
256,192,279450,1,2,0:0:0:0:
256,192,279536,1,2,0:0:0:0:
256,192,279621,1,0,0:0:0:0:
256,192,279791,1,0,0:0:0:0:
256,192,279962,1,2,0:0:0:0:
256,192,280132,1,0,0:0:0:0:
256,192,280217,1,2,0:0:0:0:
256,192,280303,1,0,0:0:0:0:
256,192,280473,1,2,0:0:0:0:
256,192,280644,1,0,0:0:0:0:
256,192,280729,1,0,0:0:0:0:
256,192,280814,1,2,0:0:0:0:
256,192,280984,1,0,0:0:0:0:
256,192,281155,1,2,0:0:0:0:
256,192,281240,1,2,0:0:0:0:
256,192,281325,1,2,0:0:0:0:
256,192,281411,1,2,0:0:0:0:
256,192,281496,1,0,0:0:0:0:
256,192,281581,1,0,0:0:0:0:
256,192,281666,1,2,0:0:0:0:
256,192,281751,1,2,0:0:0:0:
256,192,281837,1,2,0:0:0:0:
256,192,281922,1,2,0:0:0:0:
256,192,282007,1,0,0:0:0:0:
256,192,282178,1,2,0:0:0:0:
256,192,282348,1,4,0:0:0:0:
256,192,282519,1,0,0:0:0:0:
256,192,282689,1,2,0:0:0:0:
261,190,282945,1,2,0:0:0:0:
256,192,283030,1,0,0:0:0:0:
256,192,283200,1,2,0:0:0:0:
256,192,283371,1,0,0:0:0:0:
256,192,283541,1,2,0:0:0:0:
256,192,283626,1,2,0:0:0:0:
256,192,283712,1,0,0:0:0:0:
256,192,283882,1,0,0:0:0:0:
256,192,284053,1,2,0:0:0:0:
256,192,284223,1,0,0:0:0:0:
256,192,284308,1,2,0:0:0:0:
256,192,284394,1,0,0:0:0:0:
256,192,284564,1,2,0:0:0:0:
256,192,284734,1,0,0:0:0:0:
256,192,284820,1,2,0:0:0:0:
256,192,284990,1,2,0:0:0:0:
256,192,285075,1,0,0:0:0:0:
256,192,285246,1,0,0:0:0:0:
256,192,285416,1,2,0:0:0:0:
256,192,285587,1,0,0:0:0:0:
256,192,285672,1,0,0:0:0:0:
256,192,285757,1,0,0:0:0:0:
256,192,285928,1,2,0:0:0:0:
256,192,286098,1,0,0:0:0:0:
256,192,286183,1,0,0:0:0:0:
256,192,286269,1,2,0:0:0:0:
256,192,286354,1,2,0:0:0:0:
256,192,286439,1,0,0:0:0:0:
256,192,286609,1,0,0:0:0:0:
256,192,286780,1,2,0:0:0:0:
256,192,286865,1,0,0:0:0:0:
256,192,286950,1,2,0:0:0:0:
256,192,287036,1,2,0:0:0:0:
256,192,287121,1,0,0:0:0:0:
256,192,287206,1,0,0:0:0:0:
256,192,287291,1,2,0:0:0:0:
256,192,287462,1,0,0:0:0:0:
256,192,287632,1,2,0:0:0:0:
256,192,287717,1,2,0:0:0:0:
256,192,287803,1,0,0:0:0:0:
256,192,288144,1,2,0:0:0:0:
256,192,288314,1,0,0:0:0:0:
256,192,288399,1,2,0:0:0:0:
256,192,288484,1,0,0:0:0:0:
256,192,288655,1,2,0:0:0:0:
256,192,288825,1,0,0:0:0:0:
256,192,288911,1,0,0:0:0:0:
256,192,288996,1,2,0:0:0:0:
256,192,289081,1,0,0:0:0:0:
256,192,289166,1,0,0:0:0:0:
256,192,289337,1,0,0:0:0:0:
256,192,289507,1,2,0:0:0:0:
256,192,289678,1,0,0:0:0:0:
256,192,289763,1,2,0:0:0:0:
256,192,289848,1,0,0:0:0:0:
256,192,289933,1,0,0:0:0:0:
256,192,290019,1,2,0:0:0:0:
256,192,290104,1,2,0:0:0:0:
256,192,290189,1,2,0:0:0:0:
256,192,290274,1,0,0:0:0:0:
256,192,290359,1,2,0:0:0:0:
256,192,290445,1,2,0:0:0:0:
256,192,290530,1,0,0:0:0:0:
256,192,290700,1,0,0:0:0:0:
256,192,290871,1,2,0:0:0:0:
256,192,291041,1,0,0:0:0:0:
256,192,291126,1,0,0:0:0:0:
256,192,291212,1,0,0:0:0:0:
256,192,291382,1,2,0:0:0:0:
256,192,291553,1,0,0:0:0:0:
256,192,291638,1,0,0:0:0:0:
256,192,291723,1,2,0:0:0:0:
256,192,291808,1,2,0:0:0:0:
256,192,291894,1,0,0:0:0:0:
256,192,292064,1,0,0:0:0:0:
256,192,292234,1,2,0:0:0:0:
256,192,292405,1,2,0:0:0:0:
256,192,292575,1,0,0:0:0:0:
256,192,292746,1,2,0:0:0:0:
256,192,292831,1,2,0:0:0:0:
256,192,292916,1,2,0:0:0:0:
256,192,293001,1,2,0:0:0:0:
256,192,293087,1,2,0:0:0:0:
256,192,293257,1,4,0:0:0:0:
256,192,293598,1,2,0:0:0:0:
256,192,293769,1,0,0:0:0:0:
256,192,293854,1,0,0:0:0:0:
256,192,293939,1,2,0:0:0:0:
256,192,294109,1,0,0:0:0:0:
256,192,294280,1,0,0:0:0:0:
256,192,294365,1,0,0:0:0:0:
256,192,294450,1,2,0:0:0:0:
256,192,294536,1,2,0:0:0:0:
256,192,294621,1,0,0:0:0:0:
256,192,294791,1,0,0:0:0:0:
256,192,294962,1,2,0:0:0:0:
256,192,295047,1,0,0:0:0:0:
256,192,295132,1,2,0:0:0:0:
256,192,295217,1,2,0:0:0:0:
256,192,295303,1,0,0:0:0:0:
256,192,295473,1,0,0:0:0:0:
256,192,295558,1,2,0:0:0:0:
256,192,295644,1,0,0:0:0:0:
256,192,295729,1,0,0:0:0:0:
256,192,295814,1,2,0:0:0:0:
256,192,295984,1,4,0:0:0:0:
256,192,296325,1,2,0:0:0:0:
256,192,296496,1,0,0:0:0:0:
256,192,296581,1,0,0:0:0:0:
256,192,296666,1,2,0:0:0:0:
256,192,296837,1,0,0:0:0:0:
256,192,296922,1,2,0:0:0:0:
256,192,297007,1,0,0:0:0:0:
256,192,297178,1,0,0:0:0:0:
256,192,297348,1,2,0:0:0:0:
256,192,297433,1,2,0:0:0:0:
256,192,297519,1,0,0:0:0:0:
256,192,297604,1,0,0:0:0:0:
256,192,297689,1,2,0:0:0:0:
256,192,297859,1,0,0:0:0:0:
256,192,297945,1,2,0:0:0:0:
256,192,298030,1,0,0:0:0:0:
256,192,298200,1,2,0:0:0:0:
256,192,298371,1,0,0:0:0:0:
256,192,298456,1,2,0:0:0:0:
256,192,298541,1,2,0:0:0:0:
256,192,298712,1,4,0:0:0:0:
256,192,299053,1,2,0:0:0:0:
256,192,299223,1,0,0:0:0:0:
256,192,299308,1,2,0:0:0:0:
256,192,299394,1,0,0:0:0:0:
256,192,299564,1,2,0:0:0:0:
256,192,299734,1,0,0:0:0:0:
256,192,299820,1,0,0:0:0:0:
256,192,299905,1,2,0:0:0:0:
256,192,299990,1,2,0:0:0:0:
256,192,300075,1,0,0:0:0:0:
256,192,300246,1,0,0:0:0:0:
256,192,300416,1,2,0:0:0:0:
256,192,300587,1,0,0:0:0:0:
256,192,300672,1,2,0:0:0:0:
256,192,300757,1,0,0:0:0:0:
256,192,300842,1,0,0:0:0:0:
256,192,300928,1,0,0:0:0:0:
256,192,301013,1,0,0:0:0:0:
256,192,301098,1,2,0:0:0:0:
256,192,301269,1,0,0:0:0:0:
256,192,301439,1,2,0:0:0:0:
256,192,301524,1,2,0:0:0:0:
256,192,301609,1,2,0:0:0:0:
256,192,301695,1,2,0:0:0:0:
256,192,301780,1,0,0:0:0:0:
256,192,301865,1,0,0:0:0:0:
256,192,301950,1,2,0:0:0:0:
256,192,302036,1,2,0:0:0:0:
256,192,302121,1,2,0:0:0:0:
256,192,302206,1,2,0:0:0:0:
256,192,302291,1,0,0:0:0:0:
256,192,302376,1,0,0:0:0:0:
256,192,302462,1,0,0:0:0:0:
256,192,302547,1,0,0:0:0:0:
256,192,302632,1,2,0:0:0:0:
