osu file format v14

[General]
AudioFilename: audio.mp3
AudioLeadIn: 0
PreviewTime: 98581
Countdown: 0
SampleSet: Soft
StackLeniency: 0.2
Mode: 0
LetterboxInBreaks: 0
WidescreenStoryboard: 1

[Editor]
Bookmarks: 55624,99260,142567,195069,238701,271428,271430,302621
DistanceSpacing: 1.6
BeatDivisor: 4
GridSize: 4
TimelineZoom: 3.999998

[Metadata]
Title:Genshi no Yoru ~ Ghostly Eyes
TitleUnicode:幻視の夜 〜 Ghostly Eyes
Artist:Demetori
ArtistUnicode:Demetori
Creator:Ambient
Version:Extra Stage
Source:東方永夜抄 ~ Imperishable Night.
Tags:moph collab zun team alice Sinen ni Nozomu ga Gotoshi - 如臨深遠 ~雨縒煙柳~ touhou eiyashou 如臨深遠 雨縒煙柳 sinen ni nozomu ga 東方Project moph
BeatmapID:1070620
BeatmapSetID:503130

[Difficulty]
HPDrainRate:6
CircleSize:4.2
OverallDifficulty:8.7
ApproachRate:9.2
SliderMultiplier:1.6
SliderTickRate:1

[Events]
//Background and Video events
0,0,"wallpaper.jpg",0,0
//Break Periods
//Storyboard Layer 0 (Background)
//Storyboard Layer 1 (Fail)
//Storyboard Layer 2 (Pass)
//Storyboard Layer 3 (Foreground)
//Storyboard Sound Samples

[TimingPoints]
1079,340.909090909091,4,2,0,65,1,0
1419,-100,4,2,1,65,0,0
1846,-100,4,2,1,5,0,0
1931,-100,4,2,1,65,0,0
2442,-100,4,2,0,65,0,0
2783,-100,4,2,1,65,0,0
3806,-100,4,2,0,65,0,0
4147,-100,4,2,1,65,0,0
4573,-100,4,2,1,5,0,0
4658,-100,4,2,1,65,0,0
5169,-100,4,2,0,65,0,0
5510,-100,4,2,1,65,0,0
6533,-100,4,2,0,65,0,0
6874,-100,4,2,1,65,0,0
7300,-100,4,2,1,5,0,0
7385,-100,4,2,1,65,0,0
7897,-100,4,2,0,65,0,0
8238,-100,4,2,1,65,0,0
9260,-100,4,2,0,65,0,0
9601,-100,4,2,1,65,0,0
10027,-100,4,2,1,5,0,0
10113,-100,4,2,1,65,0,0
11988,-100,4,2,0,65,0,0
12329,-100,4,2,1,65,0,0
12755,-100,4,2,1,5,0,0
12840,-100,4,2,1,65,0,0
13351,-100,4,2,0,65,0,0
13692,-100,4,2,1,65,0,0
14715,-100,4,2,0,65,0,0
15056,-100,4,2,1,65,0,0
15482,-100,4,2,1,5,0,0
15567,-100,4,2,1,65,0,0
16079,-100,4,2,0,65,0,0
16419,-100,4,2,1,65,0,0
17442,-100,4,2,0,65,0,0
17783,-100,4,2,1,65,0,0
18209,-100,4,2,1,5,0,0
18294,-100,4,2,1,65,0,0
18806,-100,4,2,0,65,0,0
19147,-100,4,2,1,65,0,0
20169,-100,4,2,0,65,0,0
20510,-100,4,2,1,65,0,0
22897,-100,4,2,1,65,0,0
47357,-100,4,2,1,15,0,0
47442,-100,4,2,1,65,0,0
74118,-100,4,2,1,15,0,0
74204,-100,4,2,1,65,0,0
74289,-100,4,2,1,15,0,0
74374,-100,4,2,1,65,0,0
74459,-100,4,2,1,15,0,0
74544,-100,4,2,1,65,0,0
88351,-100,4,2,1,65,0,0
99260,-90.9090909090909,4,2,1,80,0,1
99516,-90.9090909090909,4,2,1,15,0,1
99601,-90.9090909090909,4,2,1,80,0,1
104971,-90.9090909090909,4,2,1,15,0,1
105056,-90.9090909090909,4,2,1,80,0,1
106675,-90.9090909090909,4,2,1,15,0,1
106760,-90.9090909090909,4,2,1,80,0,1
110425,-90.9090909090909,4,2,1,15,0,1
110510,-90.9090909090909,4,2,1,80,0,1
115880,-90.9090909090909,4,2,1,15,0,1
115965,-90.9090909090909,4,2,1,80,0,1
118436,-90.9090909090909,4,2,1,15,0,1
118522,-90.9090909090909,4,2,1,80,0,1
119715,-90.9090909090909,4,3,1,65,0,1
121079,-100,4,2,1,65,0,0
123806,-100,4,2,1,35,0,0
126022,-166.666666666667,4,2,1,45,0,0
126448,-166.666666666667,4,2,1,5,0,0
126533,-166.666666666667,4,2,1,45,0,0
128579,-125,4,2,1,50,0,0
131647,-100,4,2,1,50,0,0
142567,340.909090909091,4,2,1,65,1,0
142609,-100,4,2,1,15,0,0
142737,-100,4,2,1,65,0,0
142780,-100,4,2,1,15,0,0
142907,-100,4,2,1,65,0,0
142950,-100,4,2,1,15,0,0
143078,-100,4,2,1,65,0,0
143120,-100,4,2,1,15,0,0
143248,-100,4,2,1,65,0,0
145124,340.909090909091,4,2,1,65,1,0
147510,340.909090909091,4,2,1,65,1,0
150067,340.909090909091,4,2,1,65,1,0
151941,340.909090909091,4,2,1,65,1,0
154497,340.909090909091,4,2,1,65,1,0
156883,340.909090909091,4,2,1,65,1,0
159951,-100,4,2,1,40,0,0
160121,-100,4,2,1,65,0,0
173246,-62.5,4,2,1,65,0,0
173672,-62.5,4,2,1,15,0,0
173757,-83.3333333333333,4,2,1,65,0,0
175973,-62.5,4,2,1,65,0,0
176399,-62.5,4,2,1,15,0,0
176484,-83.3333333333333,4,2,1,65,0,0
178018,-62.5,4,2,1,65,0,0
178274,-62.5,4,2,1,15,0,0
178359,-83.3333333333333,4,2,1,65,0,0
183814,-100,4,2,1,65,0,0
184069,-100,4,2,1,15,0,0
184155,-83.3333333333333,4,2,1,65,0,0
195064,-83.3333333333333,4,2,1,60,0,0
201115,-83.3333333333333,4,2,1,5,0,0
201200,-83.3333333333333,4,2,1,60,0,0
227791,-100,4,2,1,55,0,0
238701,-200,4,2,1,30,0,0
238957,-200,4,2,1,15,0,0
239042,-83.3333333333333,4,2,1,80,0,1
239298,-83.3333333333333,4,2,1,15,0,1
239383,-83.3333333333333,4,2,1,80,0,1
240150,-83.3333333333333,4,2,1,15,0,1
240235,-83.3333333333333,4,2,1,80,0,1
241684,-83.3333333333333,4,2,1,15,0,1
241769,-83.3333333333333,4,2,1,80,0,1
242025,-83.3333333333333,4,2,1,15,0,1
242110,-83.3333333333333,4,2,1,80,0,1
242877,-83.3333333333333,4,2,1,15,0,1
242963,-83.3333333333333,4,2,1,80,0,1
246116,-83.3333333333333,4,2,1,15,0,1
246201,-83.3333333333333,4,2,1,80,0,1
247480,-83.3333333333333,4,2,1,15,0,1
247565,-83.3333333333333,4,2,1,80,0,1
248332,-83.3333333333333,4,2,1,15,0,1
248417,-83.3333333333333,4,2,1,80,0,1
249866,-83.3333333333333,4,2,1,15,0,1
249951,-83.3333333333333,4,2,1,80,0,1
250207,-83.3333333333333,4,2,1,15,0,1
250292,-83.3333333333333,4,2,1,80,0,1
252593,-83.3333333333333,4,2,1,15,0,1
252678,-83.3333333333333,4,2,1,80,0,1
252934,-83.3333333333333,4,2,1,15,0,1
253019,-83.3333333333333,4,2,1,80,0,1
253786,-83.3333333333333,4,2,1,15,0,1
253872,-83.3333333333333,4,2,1,80,0,1
257025,-83.3333333333333,4,2,1,15,0,1
257110,-83.3333333333333,4,2,1,80,0,1
260519,-83.3333333333333,4,2,1,65,0,0
263843,-83.3333333333333,4,2,1,15,0,0
263928,-83.3333333333333,4,2,1,65,0,0
264695,-83.3333333333333,4,2,1,15,0,0
264781,-83.3333333333333,4,2,1,65,0,0
266059,-83.3333333333333,4,2,1,15,0,0
266144,-83.3333333333333,4,2,1,65,0,0
271769,-83.3333333333333,4,2,1,65,0,0
274156,-83.3333333333333,4,2,0,65,0,0
274497,-83.3333333333333,4,2,1,65,0,0
275519,-83.3333333333333,4,2,0,65,0,0
275860,-83.3333333333333,4,2,1,65,0,0
276883,-83.3333333333333,4,2,0,65,0,0
277224,-83.3333333333333,4,2,1,65,0,0
278247,-83.3333333333333,4,2,0,65,0,0
278588,-83.3333333333333,4,2,1,65,0,0
279610,-83.3333333333333,4,2,0,65,0,0
279951,-83.3333333333333,4,2,1,65,0,0
280974,-83.3333333333333,4,2,0,65,0,0
282678,-83.3333333333333,4,2,1,65,0,0
283105,-83.3333333333333,4,2,1,5,0,0
283190,-83.3333333333333,4,2,1,65,0,0
283701,-83.3333333333333,4,2,0,65,0,0
284042,-83.3333333333333,4,2,1,65,0,0
285065,-83.3333333333333,4,2,0,65,0,0
285406,-83.3333333333333,4,2,1,65,0,0
286428,-83.3333333333333,4,2,0,65,0,0
286769,-83.3333333333333,4,2,1,65,0,0
287792,-83.3333333333333,4,2,0,65,0,0
288133,-83.3333333333333,4,2,1,65,0,0
289156,-83.3333333333333,4,2,0,65,0,0
289497,-83.3333333333333,4,2,1,65,0,0
289838,-83.3333333333333,4,2,1,50,0,0
290519,-83.3333333333333,4,2,0,65,0,0
290860,-83.3333333333333,4,2,1,65,0,0
291883,-83.3333333333333,4,2,0,65,0,0
292224,-83.3333333333333,4,2,1,65,0,0
293247,-100,4,2,1,65,0,0

[Colours]
Combo1 : 255,192,0
Combo2 : 196,6,35
Combo3 : 146,41,231
Combo4 : 133,81,78

[HitObjects]
55,44,1079,6,0,P|47:82|54:122,1,80,6|0,0:0|0:0,0:0:0:0:
160,80,1419,1,8,0:0:0:0:
48,208,1590,2,0,B|112:176|112:248|188:200,1,120
186,206,1931,1,8,0:0:0:0:
356,108,2101,1,0,0:0:0:0:
308,260,2272,1,8,0:0:0:0:
268,88,2442,6,0,L|272:184,1,80,2|0,0:0|0:0,0:0:0:0:
376,204,2783,1,8,0:0:0:0:
244,320,2954,1,0,0:0:0:0:
244,320,3039,1,0,0:0:0:0:
244,320,3124,1,0,0:0:0:0:
352,348,3294,1,8,0:0:0:0:
240,236,3465,1,2,0:0:0:0:
216,228,3550,1,2,0:0:0:0:
192,224,3635,1,2,0:0:0:0:
167,223,3721,1,2,0:0:0:0:
144,228,3806,6,0,B|108:248|108:248|124:192|104:112,1,160,6|8,0:0|0:0,0:0:0:0:
8,80,4317,2,0,P|68:92|152:76,1,120
149,78,4658,1,8,0:0:0:0:
304,40,4829,1,0,0:0:0:0:
216,132,4999,1,8,0:0:0:0:
312,260,5169,6,0,L|304:152,1,80,2|0,0:0|0:0,0:0:0:0:
392,84,5510,1,8,0:0:0:0:
216,132,5681,2,0,B|228:184|228:184|208:304,1,160,0|8,0:0|0:0,0:0:0:0:
85,357,6192,1,0,0:0:0:0:
140,223,6363,1,8,0:0:0:0:
280,353,6533,6,0,P|325:356|362:346,1,80,6|0,0:0|0:0,0:0:0:0:
312,260,6874,1,8,0:0:0:0:
448,304,7044,2,0,B|440:264|440:264|452:220|452:220|440:156,1,120
442,163,7385,1,8,0:0:0:0:
372,36,7556,1,0,0:0:0:0:
363,195,7726,1,8,0:0:0:0:
224,124,7897,6,0,L|308:120,1,80,2|0,0:0|0:0,0:0:0:0:
416,132,8238,1,8,0:0:0:0:
288,208,8408,2,0,L|120:216,1,160,0|8,0:0|0:0,0:0:0:0:
48,84,8919,1,2,0:0:0:0:
40,108,9005,1,2,0:0:0:0:
36,132,9090,1,2,0:0:0:0:
36,156,9175,1,2,0:0:0:0:
40,180,9260,6,0,B|64:256|28:340,1,160,6|8,0:0|0:0,0:0:0:0:
144,276,9772,2,0,P|128:188|148:128,1,120
142,137,10113,1,8,0:0:0:0:
260,64,10283,1,0,0:0:0:0:
372,136,10454,1,8,0:0:0:0:
232,156,10624,6,0,L|228:248,1,80,6|0,0:0|0:0,0:0:0:0:
228,235,10880,1,0,0:0:0:0:
228,235,10965,1,8,0:0:0:0:
316,336,11135,2,0,P|360:344|404:340,1,80,6|0,0:0|0:0,0:0:0:0:
395,341,11391,1,0,0:0:0:0:
395,341,11476,1,0,0:0:0:0:
364,204,11647,1,6,0:0:0:0:
456,92,11817,1,8,0:0:0:0:
432,100,11902,1,8,0:0:0:0:
408,108,11988,6,0,L|312:104,1,80,6|0,0:0|0:0,0:0:0:0:
236,40,12329,1,8,0:0:0:0:
288,172,12499,2,0,B|296:216|276:244|276:244|296:276|288:320,1,120
291,309,12840,1,8,0:0:0:0:
372,236,13010,1,0,0:0:0:0:
204,312,13181,1,8,0:0:0:0:
148,156,13351,6,0,L|144:236,1,80,2|0,0:0|0:0,0:0:0:0:
133,376,13692,1,8,0:0:0:0:
216,308,13863,1,0,0:0:0:0:
216,308,13948,1,0,0:0:0:0:
216,308,14033,1,0,0:0:0:0:
56,224,14204,1,8,0:0:0:0:
128,88,14374,1,2,0:0:0:0:
156,76,14459,1,2,0:0:0:0:
188,72,14544,1,2,0:0:0:0:
220,80,14630,1,2,0:0:0:0:
248,96,14715,6,0,P|280:168|216:236,1,160,6|8,0:0|0:0,0:0:0:0:
140,284,15226,2,0,B|192:268|192:268|292:280,1,120
281,279,15567,1,8,0:0:0:0:
441,300,15738,1,0,0:0:0:0:
300,360,15908,1,8,0:0:0:0:
336,220,16079,6,0,L|437:217,1,80,2|0,0:0|0:0,0:0:0:0:
496,292,16419,1,8,0:0:0:0:
472,116,16590,2,0,B|424:128|424:128|296:132,1,160,0|8,0:0|0:0,0:0:0:0:
183,52,17101,1,0,0:0:0:0:
236,240,17272,1,8,0:0:0:0:
236,240,17357,1,0,0:0:0:0:
236,240,17442,6,0,L|240:156,1,80,6|0,0:0|0:0,0:0:0:0:
183,52,17783,1,8,0:0:0:0:
99,147,17954,2,0,P|179:167|247:156,1,120
239,160,18294,1,8,0:0:0:0:
328,88,18465,1,0,0:0:0:0:
300,228,18635,1,8,0:0:0:0:
424,124,18806,6,0,B|420:164|420:164|428:208,1,80,2|0,0:0|0:0,0:0:0:0:
476,304,19147,1,8,0:0:0:0:
372,348,19317,2,0,P|328:352|284:348,1,80,0|6,0:0|0:0,0:0:0:0:
260,344,19573,1,2,0:0:0:0:
228,336,19658,1,2,0:0:0:0:
200,320,19743,1,2,0:0:0:0:
184,292,19829,2,2,L|172:248,1,40,6|2,0:0|0:0,0:0:0:0:
184,124,19999,2,2,L|196:168,1,40
282,178,20169,6,0,B|330:187|330:187|388:174|388:174|467:192,1,160,6|8,0:0|0:0,0:0:0:0:
492,92,20681,2,0,P|448:100|392:88,1,80
300,40,21022,1,8,0:0:0:0:
300,40,21192,2,0,L|304:128,1,80
204,200,21533,6,0,L|200:104,1,80,10|0,0:0|0:0,0:0:0:0:
200,95,21789,1,2,0:0:0:0:
200,71,21874,1,2,0:0:0:0:
100,152,22044,1,0,0:0:0:0:
192,320,22215,5,10,0:0:0:0:
368,80,22556,1,8,0:0:0:0:
408,196,22897,6,0,P|368:204|320:192,1,80,6|0,0:0|0:0,0:0:0:0:
244,100,23238,2,0,P|252:180|220:280,1,160,8|2,0:0|0:0,0:0:0:0:
112,324,23749,1,0,0:0:0:0:
164,208,23919,1,8,0:0:0:0:
256,336,24090,1,0,0:0:0:0:
256,336,24175,1,0,0:0:0:0:
256,336,24260,6,0,B|352:332,1,80,2|0,0:0|0:0,0:0:0:0:
476,252,24601,2,0,B|384:248,1,80,8|0,0:0|0:0,0:0:0:0:
236,240,24942,1,2,0:0:0:0:
432,168,25113,2,0,B|340:164,1,80,0|8,0:0|0:0,0:0:0:0:
189,175,25454,1,0,0:0:0:0:
100,52,25624,6,0,L|104:132,1,80,6|0,0:0|0:0,0:0:0:0:
80,239,25965,2,0,P|160:223|252:247,1,160,8|2,0:0|0:0,0:0:0:0:
344,336,26476,1,0,0:0:0:0:
216,320,26647,1,8,0:0:0:0:
316,216,26817,1,0,0:0:0:0:
316,216,26902,1,0,0:0:0:0:
316,216,26988,6,0,L|312:132,1,80,2|0,0:0|0:0,0:0:0:0:
416,212,27329,1,8,0:0:0:0:
488,72,27499,2,0,B|452:56|452:56|324:64,1,160,2|2,0:0|0:0,0:0:0:0:
208,28,28010,2,0,P|216:68|212:116,1,80,10|0,0:0|0:0,0:0:0:0:
140,228,28351,6,0,P|132:188|136:140,1,80,6|0,0:0|0:0,0:0:0:0:
224,260,28692,2,0,P|160:316|72:288,1,160,8|2,0:0|0:0,0:0:0:0:
36,204,29204,1,0,0:0:0:0:
72,100,29374,1,8,0:0:0:0:
212,180,29544,1,0,0:0:0:0:
212,180,29630,1,0,0:0:0:0:
212,180,29715,6,0,B|256:184|256:184|300:176,1,80,2|0,0:0|0:0,0:0:0:0:
404,268,30056,2,0,B|360:264|360:264|316:272,1,80,8|0,0:0|0:0,0:0:0:0:
216,296,30397,1,2,0:0:0:0:
380,344,30567,2,0,P|460:332|480:312,1,80,0|8,0:0|0:0,0:0:0:0:
492,210,30908,1,0,0:0:0:0:
400,98,31079,6,0,L|408:186,1,80,6|0,0:0|0:0,0:0:0:0:
296,320,31419,2,0,L|284:184,1,120,8|0,0:0|0:0,0:0:0:0:
284,176,31760,1,2,0:0:0:0:
344,88,31931,1,0,0:0:0:0:
452,84,32101,5,8,0:0:0:0:
336,76,32272,2,0,B|296:64|296:64|272:84|272:84|240:68|176:88,1,160,2|2,0:0|0:0,0:0:0:0:
148,168,32783,1,0,0:0:0:0:
64,48,32954,2,0,P|72:112|56:148,1,80,10|0,0:0|0:0,0:0:0:0:
28,244,33294,1,0,0:0:0:0:
148,168,33465,2,0,P|140:232|156:268,1,80,10|0,0:0|0:0,0:0:0:0:
343,204,33806,6,0,L|263:208,1,80,6|0,0:0|0:0,0:0:0:0:
155,324,34147,2,0,B|168:244|168:244|144:156,1,160,8|2,0:0|0:0,0:0:0:0:
112,44,34658,1,0,0:0:0:0:
52,164,34829,1,8,0:0:0:0:
244,136,34999,1,0,0:0:0:0:
244,136,35084,1,0,0:0:0:0:
244,136,35169,6,0,L|352:132,1,80,2|0,0:0|0:0,0:0:0:0:
436,224,35510,2,0,L|328:228,1,80,8|0,0:0|0:0,0:0:0:0:
408,108,35851,1,2,0:0:0:0:
280,204,36022,2,0,P|300:284|316:296,1,80,0|8,0:0|0:0,0:0:0:0:
429,333,36363,1,0,0:0:0:0:
248,352,36533,6,0,P|204:356|160:352,1,80,6|0,0:0|0:0,0:0:0:0:
36,268,36874,2,0,B|92:276|92:276|140:264|140:264|220:280,1,160,8|2,0:0|0:0,0:0:0:0:
280,208,37385,1,0,0:0:0:0:
248,352,37556,1,8,0:0:0:0:
190,195,37726,1,0,0:0:0:0:
190,195,37811,1,0,0:0:0:0:
190,195,37897,6,0,P|186:236|198:291,1,80,2|0,0:0|0:0,0:0:0:0:
96,332,38238,1,8,0:0:0:0:
35,192,38408,2,0,B|87:212|87:212|207:192,1,160,2|2,0:0|0:0,0:0:0:0:
272,100,38919,2,0,L|192:96,1,80,8|0,0:0|0:0,0:0:0:0:
284,204,39260,6,0,L|364:200,1,80,6|0,0:0|0:0,0:0:0:0:
448,64,39601,2,0,B|440:108|440:108|456:232,1,160,8|2,0:0|0:0,0:0:0:0:
488,348,40113,1,0,0:0:0:0:
376,272,40283,1,8,0:0:0:0:
248,340,40454,1,0,0:0:0:0:
248,340,40539,1,0,0:0:0:0:
248,340,40624,6,0,P|296:348|336:340,1,80,2|0,0:0|0:0,0:0:0:0:
212,256,40965,2,0,P|164:248|124:256,1,80,8|0,0:0|0:0,0:0:0:0:
168,360,41306,1,2,0:0:0:0:
296,268,41476,2,0,B|288:224|296:152,1,80,0|8,0:0|0:0,0:0:0:0:
324,49,41817,1,0,0:0:0:0:
448,164,41988,6,0,P|404:172|360:164,1,80,14|0,0:0|0:0,0:0:0:0:
216,80,42329,1,0,0:0:0:0:
350,241,42499,2,0,P|313:215|287:178,1,80,14|0,0:0|0:0,0:0:0:0:
364,44,42840,1,0,0:0:0:0:
484,148,43010,1,12,0:0:0:0:
356,248,43181,1,0,0:0:0:0:
356,248,43266,1,0,0:0:0:0:
356,248,43351,6,0,L|440:252,1,80,14|0,0:0|0:0,0:0:0:0:
448,260,43607,1,0,0:0:0:0:
460,268,43692,1,8,0:0:0:0:
228,240,43863,5,14,0:0:0:0:
211,202,43948,1,0,0:0:0:0:
206,162,44033,1,0,0:0:0:0:
209,125,44118,1,0,0:0:0:0:
225,88,44204,1,8,0:0:0:0:
264,312,44374,2,8,P|212:320|160:288,1,80,12|2,0:0|0:0,0:0:0:0:
116,336,44630,1,0,0:0:0:0:
116,336,44715,6,0,L|16:332,1,80,12|0,0:0|0:0,0:0:0:0:
140,232,45056,2,0,L|228:228,1,80,12|0,0:0|0:0,0:0:0:0:
112,132,45397,2,0,L|32:128,2,80,12|0|0,0:0|0:0|0:0,0:0:0:0:
228,48,45908,6,4,B|212:92|212:92|224:224,1,160,12|0,0:0|0:0,0:0:0:0:
312,296,46419,1,0,0:0:0:0:
312,296,46590,2,0,P|272:299|232:295,1,80,14|0,0:0|0:0,0:0:0:0:
140,208,46931,1,0,0:0:0:0:
324,216,47101,2,0,P|384:256|388:316,1,120,6|0,0:0|0:0,0:0:0:0:
420,316,47442,6,0,L|424:228,1,80,12|0,0:0|0:0,0:0:0:0:
320,136,47783,2,0,L|324:236,1,80,12|0,0:0|0:0,0:0:0:0:
228,324,48124,2,0,L|231:244,2,80,12|0|0,0:0|0:0|0:0,0:0:0:0:
78,252,48635,6,0,P|126:256|166:252,1,80,12|2,0:0|0:0,0:0:0:0:
182,248,48891,1,2,0:0:0:0:
206,244,48976,1,2,0:0:0:0:
230,244,49061,1,2,0:0:0:0:
254,248,49147,1,2,0:0:0:0:
278,256,49232,1,2,0:0:0:0:
299,264,49317,6,0,L|311:304,5,40,14|0|0|0|0|0,0:0|0:0|0:0|0:0|0:0|0:0,0:0:0:0:
407,244,49829,2,0,L|446:246,1,40,12|0,0:0|0:0,0:0:0:0:
367,160,49999,2,0,L|327:162,1,40
260,68,50169,6,0,P|320:72|356:64,1,80,12|0,0:0|0:0,0:0:0:0:
224,152,50510,2,4,P|164:148|128:156,1,80,12|0,0:0|0:0,0:0:0:0:
26,230,50851,1,4,0:0:0:0:
200,243,51022,1,10,0:0:0:0:
114,338,51192,1,0,0:0:0:0:
114,338,51363,6,0,L|110:234,1,80,6|10,0:0|0:0,0:0:0:0:
20,108,51704,1,2,0:0:0:0:
20,108,51874,1,2,0:0:0:0:
148,152,52044,2,0,B|192:161|192:161|256:154|256:154|316:169,1,160,14|0,0:0|0:0,0:0:0:0:
400,60,52556,2,0,P|392:108|408:156,1,80,14|0,0:0|0:0,0:0:0:0:
480,280,52897,5,12,0:0:0:0:
316,144,53067,1,0,0:0:0:0:
368,348,53238,2,0,L|276:352,1,80,12|0,0:0|0:0,0:0:0:0:
84,300,53579,5,12,0:0:0:0:
157,251,53749,1,0,0:0:0:0:
75,217,53919,1,0,0:0:0:0:
296,329,54090,1,12,0:0:0:0:
404,44,54431,5,2,0:0:0:0:
326,90,54601,1,2,0:0:0:0:
252,20,54772,2,0,P|228:100|264:172,1,160,8|0,0:0|0:0,0:0:0:0:
336,232,55283,1,0,0:0:0:0:
304,324,55454,1,0,0:0:0:0:
428,216,55624,6,0,P|484:208|528:232,1,80,4|0,0:0|0:0,0:0:0:0:
381,323,55965,2,0,P|325:331|281:307,1,80,8|0,0:0|0:0,0:0:0:0:
178,371,56306,2,0,P|170:323|178:287,1,80,2|0,0:0|0:0,0:0:0:0:
304,324,56647,1,8,0:0:0:0:
313,162,56817,1,2,0:0:0:0:
321,158,56903,1,0,0:0:0:0:
329,154,56988,6,0,P|341:206|321:254,1,80
175,292,57329,2,0,L|55:284,1,120,8|0,0:0|0:0,0:0:0:0:
38,307,57669,2,0,B|54:215,1,80,2|0,0:0|0:0,0:0:0:0:
160,194,58010,1,8,0:0:0:0:
26,323,58181,6,0,L|58:151,1,160,2|0,0:0|0:0,0:0:0:0:
164,24,58692,2,0,L|152:104,1,80,8|0,0:0|0:0,0:0:0:0:
68,80,59033,1,0,0:0:0:0:
68,80,59204,1,0,0:0:0:0:
252,80,59374,2,0,P|308:76|340:60,1,80,8|2,0:0|0:0,0:0:0:0:
344,60,59630,1,0,0:0:0:0:
359,48,59715,6,0,L|351:152,1,80
408,340,60056,2,0,P|417:281|401:223,1,120,8|0,0:0|0:0,0:0:0:0:
383,216,60397,2,0,L|303:241,1,80,2|0,0:0|0:0,0:0:0:0:
162,212,60738,1,8,0:0:0:0:
166,366,60908,6,0,B|186:286|186:286|156:192,1,160,2|0,0:0|0:0,0:0:0:0:
3,309,61419,2,0,L|87:309,1,80,8|0,0:0|0:0,0:0:0:0:
92,301,61675,1,0,0:0:0:0:
101,293,61760,1,0,0:0:0:0:
162,212,61931,1,0,0:0:0:0:
59,195,62101,1,8,0:0:0:0:
158,58,62272,6,0,B|138:138|138:138|168:232,1,160,2|0,0:0|0:0,0:0:0:0:
272,336,62783,2,0,P|280:283|268:251,1,80,8|0,0:0|0:0,0:0:0:0:
265,249,63039,1,0,0:0:0:0:
256,240,63124,2,0,L|343:234,1,80
420,305,63465,1,8,0:0:0:0:
480,165,63635,6,0,B|423:169|423:169|372:149|372:149|315:153,1,160,2|0,0:0|0:0,0:0:0:0:
230,22,64147,2,0,P|240:63|226:112,1,80,8|0,0:0|0:0,0:0:0:0:
228,110,64402,1,0,0:0:0:0:
224,120,64488,2,0,L|183:110,1,40
100,84,64658,1,0,0:0:0:0:
39,254,64829,1,8,0:0:0:0:
126,315,64999,6,0,P|144:255|119:188,1,120,6|0,0:0|0:0,0:0:0:0:
110,178,65340,1,0,0:0:0:0:
51,344,65510,2,0,L|147:306,1,80,10|0,0:0|0:0,0:0:0:0:
330,340,65851,2,0,L|262:319,1,40,2|0,0:0|0:0,0:0:0:0:
209,304,66022,1,2,0:0:0:0:
341,249,66192,1,8,0:0:0:0:
240,87,66363,6,0,B|270:167|270:167|249:249,1,160,6|0,0:0|0:0,0:0:0:0:
363,160,66874,2,0,L|442:160,1,80,8|0,0:0|0:0,0:0:0:0:
451,168,67130,1,0,0:0:0:0:
460,176,67215,1,0,0:0:0:0:
380,64,67385,1,0,0:0:0:0:
341,249,67556,1,8,0:0:0:0:
428,367,67725,1,2,0:0:0:0:
428,367,67811,1,0,0:0:0:0:
432,371,67897,6,0,P|437:331|421:283,1,80
251,206,68238,2,0,P|240:244|245:283,1,80,8|0,0:0|0:0,0:0:0:0:
252,293,68493,1,0,0:0:0:0:
259,302,68579,1,0,0:0:0:0:
341,249,68749,1,0,0:0:0:0:
157,247,68919,1,8,0:0:0:0:
239,55,69090,6,0,P|268:127|247:211,1,160,2|0,0:0|0:0,0:0:0:0:
144,139,69601,1,8,0:0:0:0:
66,316,69772,1,0,0:0:0:0:
66,316,69857,1,0,0:0:0:0:
66,316,69942,1,0,0:0:0:0:
157,247,70113,1,0,0:0:0:0:
174,365,70283,1,8,0:0:0:0:
44,204,70454,6,0,P|22:132|71:41,1,160,2|0,0:0|0:0,0:0:0:0:
238,90,70965,2,0,P|285:104|332:94,1,80,8|0,0:0|0:0,0:0:0:0:
326,95,71221,1,0,0:0:0:0:
336,89,71306,2,0,L|390:100,1,40
493,126,71476,1,0,0:0:0:0:
379,11,71647,1,8,0:0:0:0:
350,176,71817,6,0,B|320:253|320:253|354:333,1,160,2|0,0:0|0:0,0:0:0:0:
470,211,72329,2,0,B|485:255|485:255|472:304,1,80,8|0,0:0|0:0,0:0:0:0:
473,299,72584,1,0,0:0:0:0:
469,310,72669,1,0,0:0:0:0:
323,257,72840,1,0,0:0:0:0:
221,369,73010,2,0,L|178:344,1,40,8|0,0:0|0:0,0:0:0:0:
90,226,73181,6,0,B|118:308|118:308|80:397,1,160,2|0,0:0|0:0,0:0:0:0:
20,156,73692,2,0,P|10:115|23:70,1,80,8|0,0:0|0:0,0:0:0:0:
26,69,73948,1,0,0:0:0:0:
34,60,74033,2,0,L|74:60,1,40,2|0,0:0|2:0,0:0:0:0:
122,135,74204,2,0,L|162:135,1,40,2|0,0:0|2:0,0:0:0:0:
206,57,74374,2,0,L|246:57,1,40,10|0,0:0|2:0,0:0:0:0:
323,126,74544,6,0,P|359:136|409:120,2,80,2|0|0,0:0|0:0|0:0,0:0:0:0:
357,45,75056,1,8,0:0:0:0:
442,214,75226,1,0,0:0:0:0:
442,214,75311,1,0,0:0:0:0:
442,214,75397,2,0,L|443:304,1,80
366,352,75738,1,8,0:0:0:0:
185,273,75908,2,0,L|126:273,1,40
49,322,76079,2,0,P|38:272|61:214,1,80,2|0,0:0|0:0,0:0:0:0:
49,233,76334,1,0,0:0:0:0:
56,223,76419,1,2,0:0:0:0:
132,59,76590,6,0,P|143:109|120:167,1,80,10|0,0:0|0:0,0:0:0:0:
133,147,76846,1,0,0:0:0:0:
128,157,76931,2,0,L|139:220,1,40,2|0,0:0|0:0,0:0:0:0:
185,273,77101,1,8,0:0:0:0:
292,192,77272,6,0,B|341:176|341:176|397:191|397:191|451:179,1,160,6|0,0:0|0:0,0:0:0:0:
395,23,77783,2,0,P|385:66|403:114,1,80,8|0,0:0|0:0,0:0:0:0:
446,180,78124,1,0,0:0:0:0:
344,280,78294,1,2,0:0:0:0:
456,360,78465,1,8,0:0:0:0:
498,269,78635,6,0,B|448:249|394:261|426:281|370:297|316:269,1,160,2|0,0:0|0:0,0:0:0:0:
208,352,79147,2,0,B|220:308|220:308|208:264,1,80,8|0,0:0|0:0,0:0:0:0:
28,240,79488,2,0,L|20:308,1,40
12,368,79658,1,2,0:0:0:0:
132,308,79829,1,8,0:0:0:0:
88,180,79999,6,0,B|168:204|168:204|252:176,1,160,2|0,0:0|0:0,0:0:0:0:
184,16,80510,2,0,L|184:112,1,80,8|0,0:0|0:0,0:0:0:0:
180,108,80766,1,0,0:0:0:0:
176,120,80851,2,0,L|88:96,1,80,0|2,0:0|0:0,0:0:0:0:
288,88,81192,1,8,0:0:0:0:
258,249,81363,1,2,0:0:0:0:
250,253,81448,1,0,0:0:0:0:
242,257,81533,6,0,P|234:201|254:153,1,80
376,44,81874,2,0,P|384:100|364:148,1,80,8|0,0:0|0:0,0:0:0:0:
336,224,82215,2,0,L|396:252,1,40
444,276,82385,1,2,0:0:0:0:
378,121,82556,1,8,0:0:0:0:
284,332,82726,6,0,B|240:352|192:340|216:324|164:312|124:332,1,160,2|0,0:0|0:0,0:0:0:0:
0,264,83238,2,0,P|40:276|80:264,1,80,8|0,0:0|0:0,0:0:0:0:
88,260,83493,1,0,0:0:0:0:
100,256,83579,2,0,L|88:168,1,80,0|2,0:0|0:0,0:0:0:0:
12,108,83919,1,8,0:0:0:0:
136,60,84090,1,2,0:0:0:0:
140,52,84175,1,0,0:0:0:0:
144,44,84260,6,0,P|188:44|240:72,1,80
364,120,84601,2,0,P|320:120|268:148,1,80,8|0,0:0|0:0,0:0:0:0:
232,228,84942,1,0,0:0:0:0:
232,228,85027,1,0,0:0:0:0:
232,228,85113,1,2,0:0:0:0:
340,204,85283,1,8,0:0:0:0:
172,128,85454,1,2,0:0:0:0:
192,312,85624,5,14,0:0:0:0:
292,292,85794,1,0,0:0:0:0:
360,372,85965,1,0,0:0:0:0:
340,204,86135,5,14,0:0:0:0:
292,292,86306,1,0,0:0:0:0:
473,347,86476,1,0,0:0:0:0:
473,347,86561,1,0,0:0:0:0:
473,347,86647,6,0,L|512:341,1,40,14|0,0:0|0:0,0:0:0:0:
472,254,86817,2,0,L|502:229,1,40
395,197,86988,2,0,L|409:160,1,40,14|0,0:0|0:0,0:0:0:0:
304,208,87158,1,0,0:0:0:0:
304,208,87243,1,0,0:0:0:0:
304,208,87329,6,0,L|301:160,1,40,2|0,0:0|0:0,0:0:0:0:
300,84,87499,2,0,L|297:36,1,40,14|0,0:0|0:0,0:0:0:0:
81,38,87669,6,0,L|84:86,1,40,2|0,0:0|0:0,0:0:0:0:
96,240,87839,2,0,L|99:288,1,40
40,164,88010,5,14,0:0:0:0:
88,160,88096,1,0,0:0:0:0:
136,156,88181,1,0,0:0:0:0:
184,152,88266,1,0,0:0:0:0:
232,148,88351,6,0,L|168:216,1,80,6|0,0:0|0:0,0:0:0:0:
288,356,88692,2,0,P|308:292|276:224,1,120
280,224,89033,1,10,0:0:0:0:
216,296,89204,1,0,0:0:0:0:
408,344,89374,1,0,0:0:0:0:
472,272,89544,1,0,0:0:0:0:
476,284,89630,1,0,0:0:0:0:
480,295,89715,6,0,P|488:256|479:217,1,80,6|0,0:0|0:0,0:0:0:0:
375,133,90056,2,0,P|367:93|379:49,1,80
388,60,90311,1,0,0:0:0:0:
400,64,90397,1,10,0:0:0:0:
496,96,90567,1,8,0:0:0:0:
396,256,90738,1,2,0:0:0:0:
280,116,90908,1,8,0:0:0:0:
272,124,90993,1,0,0:0:0:0:
264,132,91079,6,0,L|172:120,1,80,6|0,0:0|0:0,0:0:0:0:
24,60,91419,2,0,L|116:48,1,80,2|0,0:0|0:0,0:0:0:0:
96,264,91760,2,0,P|72:188|100:136,1,120,8|0,0:0|0:0,0:0:0:0:
100,136,92101,1,0,0:0:0:0:
176,200,92272,1,8,0:0:0:0:
8,304,92442,5,6,0:0:0:0:
8,304,92527,1,0,0:0:0:0:
8,304,92613,1,0,0:0:0:0:
76,360,92783,1,8,0:0:0:0:
96,264,92954,1,0,0:0:0:0:
224,332,93124,6,0,L|263:329,1,40,2|0,0:0|0:0,0:0:0:0:
352,328,93294,1,8,0:0:0:0:
351,175,93465,2,0,L|407:171,1,40,2|0,0:0|0:0,0:0:0:0:
479,171,93635,1,8,0:0:0:0:
480,324,93806,6,0,B|456:252|456:252|484:156,1,160,6|0,0:0|0:0,0:0:0:0:
390,19,94317,1,0,0:0:0:0:
390,19,94488,2,0,B|414:91|414:91|386:187,1,160,10|0,0:0|0:0,0:0:0:0:
248,96,94999,1,0,0:0:0:0:
248,96,95084,1,0,0:0:0:0:
248,96,95169,6,0,P|288:88|344:112,1,80,6|0,0:0|0:0,0:0:0:0:
344,260,95510,2,0,L|216:260,1,120
204,260,95851,1,8,0:0:0:0:
288,176,96022,1,0,0:0:0:0:
288,176,96107,1,0,0:0:0:0:
288,176,96192,1,0,0:0:0:0:
280,352,96363,1,0,0:0:0:0:
96,177,96533,6,0,L|8:161,1,80,6|0,0:0|0:0,0:0:0:0:
9,338,96874,2,0,L|88:353,1,80
96,177,97215,1,8,0:0:0:0:
181,341,97385,1,0,0:0:0:0:
9,338,97556,1,0,0:0:0:0:
224,260,97726,1,8,0:0:0:0:
224,260,97811,1,8,0:0:0:0:
224,260,97897,5,14,0:0:0:0:
68,110,98067,1,8,0:0:0:0:
276,51,98238,1,8,0:0:0:0:
196,148,98408,1,2,0:0:0:0:
196,148,98493,1,2,0:0:0:0:
196,148,98579,5,8,0:0:0:0:
332,284,98749,1,8,0:0:0:0:
132,192,98919,1,2,0:0:0:0:
396,240,99089,1,8,0:0:0:0:
256,320,99260,6,0,B|236:262|272:249|253:187,1,132.00000402832,6|0,0:0|0:0,0:0:0:0:
240,152,99601,1,8,0:0:0:0:
168,272,99772,1,0,0:0:0:0:
60,132,99942,2,0,P|104:148|168:132,1,88.000002685547,2|0,0:0|0:0,0:0:0:0:
144,143,100198,1,0,0:0:0:0:
144,143,100283,1,8,0:0:0:0:
320,56,100454,6,0,B|312:104|312:104|340:236,1,176.000005371094,2|0,0:0|0:0,0:0:0:0:
468,172,100965,1,8,0:0:0:0:
408,356,101135,2,0,P|412:300|408:252,1,88.000002685547,2|0,0:0|0:0,0:0:0:0:
400,116,101476,1,0,0:0:0:0:
260,188,101647,1,8,0:0:0:0:
336,36,101817,1,0,0:0:0:0:
244,96,101988,6,0,L|136:104,1,88.000002685547,2|0,0:0|0:0,0:0:0:0:
20,184,102329,2,0,L|128:192,1,88.000002685547,8|0,0:0|0:0,0:0:0:0:
184,168,102584,1,0,0:0:0:0:
196,180,102669,2,0,B|208:224|208:224|192:272,1,88.000002685547
20,336,103010,1,8,0:0:0:0:
216,340,103181,6,0,B|272:352|272:352|336:336|336:336|400:348,1,176.000005371094,2|0,0:0|0:0,0:0:0:0:
484,260,103692,1,8,0:0:0:0:
404,124,103863,2,0,P|412:176|400:216,1,88.000002685547,2|0,0:0|0:0,0:0:0:0:
308,316,104204,1,0,0:0:0:0:
507,177,104374,2,0,P|501:229|479:264,1,88.000002685547,10|0,0:0|0:0,0:0:0:0:
464,64,104715,6,0,B|440:52|440:52|412:68|412:68|368:44|308:76,1,132.00000402832,6|0,0:0|0:0,0:0:0:0:
304,40,105056,2,0,L|300:136,1,88.000002685547,8|0,0:0|0:0,0:0:0:0:
204,252,105397,2,0,L|212:148,1,88.000002685547
324,212,105738,1,8,0:0:0:0:
224,80,105908,6,0,B|128:44|160:120|40:68,1,176.000005371094,2|0,0:0|0:0,0:0:0:0:
8,184,106419,2,0,B|52:196|52:196|168:188,1,132.00000402832,8|0,0:0|0:0,0:0:0:0:
176,164,106760,2,0,P|168:208|176:256,1,88.000002685547
276,320,107101,1,8,0:0:0:0:
428,228,107272,6,0,B|388:240|388:240|356:228|356:228|308:240|248:232,1,176.000005371094,2|0,0:0|0:0,0:0:0:0:
160,312,107783,2,0,P|172:256|160:208,1,88.000002685547,8|0,0:0|0:0,0:0:0:0:
160,204,108039,1,0,0:0:0:0:
152,184,108124,1,0,0:0:0:0:
88,60,108294,1,0,0:0:0:0:
60,216,108465,1,8,0:0:0:0:
232,136,108635,1,0,0:0:0:0:
232,136,108721,1,0,0:0:0:0:
232,136,108806,6,0,L|336:132,1,88.000002685547,14|0,0:0|0:0,0:0:0:0:
428,196,109147,1,0,0:0:0:0:
324,253,109317,1,8,0:0:0:0:
352,60,109488,5,8,0:0:0:0:
312,248,109658,1,8,0:0:0:0:
452,76,109829,1,12,0:0:0:0:
244,32,109999,1,8,0:0:0:0:
84,148,110169,6,0,B|76:192|76:192|96:288,1,132.00000402832,6|0,0:0|0:0,0:0:0:0:
100,300,110510,1,8,0:0:0:0:
228,340,110681,1,0,0:0:0:0:
388,268,110851,2,0,P|344:272|300:267,1,88.000002685547
300,267,111107,1,0,0:0:0:0:
300,267,111192,1,8,0:0:0:0:
448,352,111363,6,0,P|476:276|444:172,1,176.000005371094,2|0,0:0|0:0,0:0:0:0:
332,132,111874,1,8,0:0:0:0:
352,324,112044,2,0,L|360:212,1,88.000002685547,2|0,0:0|0:0,0:0:0:0:
252,96,112385,1,0,0:0:0:0:
412,112,112556,1,8,0:0:0:0:
248,84,112726,1,0,0:0:0:0:
276,256,112897,6,0,L|176:252,1,88.000002685547,2|0,0:0|0:0,0:0:0:0:
72,144,113238,2,0,L|172:140,1,88.000002685547,8|0,0:0|0:0,0:0:0:0:
236,168,113493,1,0,0:0:0:0:
252,152,113579,2,0,B|260:108|260:108|248:60,1,88.000002685547
280,240,113919,1,8,0:0:0:0:
364,116,114090,6,0,B|354:185|354:185|380:236|356:288,1,176.000005371094,2|0,0:0|0:0,0:0:0:0:
208,324,114601,1,8,0:0:0:0:
275,199,114772,2,0,P|232:200|188:206,1,88.000002685547,2|2,0:0|0:0,0:0:0:0:
60,268,115113,1,0,0:0:0:0:
290,295,115283,2,0,P|251:305|203:326,1,88.000002685547,10|0,0:0|0:0,0:0:0:0:
32,136,115624,6,0,B|56:148|56:148|84:132|84:132|128:156|188:124,1,132.00000402832,6|0,0:0|0:0,0:0:0:0:
184,128,115965,1,8,0:0:0:0:
332,40,116135,1,0,0:0:0:0:
332,40,116221,1,0,0:0:0:0:
332,40,116306,2,0,P|324:88|348:152,1,88.000002685547
396,232,116647,1,8,0:0:0:0:
296,332,116817,6,0,B|248:344|248:344|116:336,1,176.000005371094,2|0,0:0|0:0,0:0:0:0:
276,260,117329,2,0,B|240:268|240:268|152:264,1,88.000002685547,10|0,0:0|0:0,0:0:0:0:
36,232,117669,1,2,0:0:0:0:
128,108,117840,1,0,0:0:0:0:
128,108,117925,1,0,0:0:0:0:
128,108,118010,2,0,L|60:128,1,44.0000013427735,10|0,0:0|0:0,0:0:0:0:
200,44,118181,6,0,B|212:80|212:80|200:112|200:112|216:136|204:184,1,132.00000402832,6|0,0:0|0:0,0:0:0:0:
192,192,118522,1,0,0:0:0:0:
88,320,118692,2,0,L|188:316,1,88.000002685547,8|0,0:0|0:0,0:0:0:0:
279,195,119033,2,0,L|179:191,1,88.000002685547,8|0,0:0|0:0,0:0:0:0:
104,80,119374,1,2,0:0:0:0:
112,236,119544,1,2,0:0:0:0:
335,122,119715,6,0,L|327:58,2,58.6666684570313,12|0|0,0:0|0:0|0:0,0:0:0:0:
240,96,120056,2,0,L|215:36,2,58.6666684570313,12|0|0,0:0|0:0|0:0,0:0:0:0:
144,120,120397,2,0,L|105:68,2,58.6666684570313,12|0|0,0:0|0:0|0:0,0:0:0:0:
80,196,120738,2,0,L|29:156,2,58.6666684570313,12|0|0,0:0|0:0|0:0,0:0:0:0:
212,228,121079,5,6,0:0:0:0:
391,315,123806,5,4,0:0:0:0:
400,324,124829,1,6,0:0:0:0:
136,80,126022,2,0,P|140:144|200:168,1,119.999996337891,10|0,0:0|0:0,0:0:0:0:
212,168,126533,5,2,0:0:0:0:
420,64,127044,1,2,0:0:0:0:
364,328,127556,1,2,0:0:0:0:
160,64,128579,5,0,0:0:0:0:
160,64,128749,2,0,L|163:127,1,64,10|0,0:0|0:0,0:0:0:0:
247,147,129090,2,0,L|244:84,1,64,10|0,0:0|0:0,0:0:0:0:
328,104,129431,2,0,L|332:184,1,64,10|0,0:0|0:0,0:0:0:0:
204,224,129772,1,0,0:0:0:0:
372,284,129942,2,0,P|340:289|292:288,1,64,8|0,0:0|0:0,0:0:0:0:
280,312,130198,2,0,L|276:204,1,96,6|8,0:0|0:0,0:0:0:0:
132,160,130624,5,0,0:0:0:0:
132,160,130709,2,0,L|160:192,1,32,8|2,0:0|0:0,0:0:0:0:
261,122,130965,2,0,P|301:118|349:126,1,64
333,126,131221,1,0,0:0:0:0:
340,131,131306,1,8,0:0:0:0:
296,215,131476,1,8,0:0:0:0:
416,56,131647,5,6,0:0:0:0:
416,56,131817,2,8,P|420:104|408:168,1,80,2|8,0:0|0:0,0:0:0:0:
296,215,132158,1,2,0:0:0:0:
296,215,132328,2,0,P|292:167|304:103,1,80,10|0,0:0|0:0,0:0:0:0:
344,304,132669,1,2,0:0:0:0:
344,304,132840,6,0,B|256:336|272:280|180:308,1,160,2|0,0:0|0:0,0:0:0:0:
60,276,133351,1,2,0:0:0:0:
168,180,133522,1,0,0:0:0:0:
187,305,133692,1,10,0:0:0:0:
80,184,133863,1,0,0:0:0:0:
224,116,134033,1,2,0:0:0:0:
52,64,134204,1,8,0:0:0:0:
180,220,134374,5,2,0:0:0:0:
180,220,134544,2,0,L|268:216,1,80,2|0,0:0|0:0,0:0:0:0:
400,300,134885,1,2,0:0:0:0:
400,300,135055,2,0,L|312:304,1,80,10|0,0:0|0:0,0:0:0:0:
348,144,135397,5,2,0:0:0:0:
356,136,135738,2,0,P|352:184|360:220,1,80,2|0,0:0|0:0,0:0:0:0:
321,322,136079,2,0,P|288:299|264:268,1,80,2|0,0:0|0:0,0:0:0:0:
216,132,136419,5,10,0:0:0:0:
358,214,136590,1,0,0:0:0:0:
176,208,136760,1,2,0:0:0:0:
300,84,136931,1,8,0:0:0:0:
263,267,137101,5,0,0:0:0:0:
176,208,137272,2,0,L|189:170,2,40,0|2|0,0:0|0:0|0:0,0:0:0:0:
80,100,137613,1,2,0:0:0:0:
97,207,137783,1,8,0:0:0:0:
97,207,137954,6,0,P|141:215|193:199,1,80
292,152,138294,1,8,0:0:0:0:
252,308,138465,2,0,P|260:264|244:212,1,80,2|0,0:0|0:0,0:0:0:0:
380,100,138806,6,0,L|376:179,1,80,10|0,0:0|0:0,0:0:0:0:
252,229,139147,1,10,0:0:0:0:
308,112,139317,1,0,0:0:0:0:
192,164,139488,1,2,0:0:0:0:
312,122,139658,1,8,0:0:0:0:
224,76,139829,6,0,P|172:80|140:72,1,80,6|0,0:0|0:0,0:0:0:0:
32,156,140169,1,8,0:0:0:0:
32,156,140340,2,0,P|84:160|116:152,1,80,0|2,0:0|0:0,0:0:0:0:
232,194,140681,1,8,0:0:0:0:
139,256,140851,1,2,0:0:0:0:
231,187,141022,1,8,0:0:0:0:
319,266,141192,2,0,L|267:268,1,40,2|0,0:0|0:0,0:0:0:0:
220,331,141363,1,2,0:0:0:0:
148,144,141533,1,8,0:0:0:0:
375,215,141704,5,6,0:0:0:0:
359,327,141874,1,0,0:0:0:0:
279,267,142044,1,0,0:0:0:0:
437,150,142214,1,0,0:0:0:0:
434,284,142385,1,0,0:0:0:0:
321,151,142567,6,0,L|308:136,1,20,6|0,0:0|2:0,0:0:0:0:
238,91,142737,2,0,L|220:84,1,20,2|0,0:0|2:0,0:0:0:0:
134,80,142907,2,0,L|116:88,1,20,10|0,0:0|0:0,0:0:0:0:
53,136,143078,2,0,L|40:152,1,20,2|0,0:0|2:0,0:0:0:0:
153,193,143248,6,0,L|222:193,2,53.3333333333333
60,248,143589,2,0,L|72:340,1,80,8|2,0:0|0:0,0:0:0:0:
96,348,143845,1,0,0:0:0:0:
120,344,143930,1,0,0:0:0:0:
144,340,144015,1,0,0:0:0:0:
168,336,144101,1,2,0:0:0:0:
352,296,144271,6,0,L|352:348,1,40,8|0,0:0|0:0,0:0:0:0:
312,208,144442,1,2,0:0:0:0:
312,208,144527,1,0,0:0:0:0:
312,208,144612,2,0,B|349:199|349:199|396:206,1,80,0|8,0:0|0:0,0:0:0:0:
488,356,144953,1,0,0:0:0:0:
488,356,145038,1,0,0:0:0:0:
488,356,145123,6,0,B|472:288|472:288|488:196,1,160,2|8,0:0|0:0,0:0:0:0:
316,88,145635,1,2,0:0:0:0:
340,76,145720,1,0,0:0:0:0:
364,64,145805,1,0,0:0:0:0:
388,52,145890,1,0,0:0:0:0:
412,40,145976,2,0,B|424:88|424:88|412:136,1,80,0|8,0:0|0:0,0:0:0:0:
348,200,146317,1,2,0:0:0:0:
181,32,146487,5,2,0:0:0:0:
181,32,146572,1,2,0:0:0:0:
181,32,146657,2,0,L|192:86,1,40
223,179,146828,1,2,0:0:0:0:
88,144,146998,1,0,0:0:0:0:
316,88,147169,1,10,0:0:0:0:
248,308,147339,1,0,0:0:0:0:
248,308,147424,1,0,0:0:0:0:
248,308,147510,6,0,L|160:308,1,80,2|0,0:0|0:0,0:0:0:0:
88,352,147851,1,8,0:0:0:0:
118,170,148021,1,0,0:0:0:0:
118,170,148106,1,0,0:0:0:0:
118,170,148192,2,0,L|82:210,1,40
32,264,148362,1,0,0:0:0:0:
168,100,148532,1,8,0:0:0:0:
304,232,148703,6,0,L|392:232,1,80,2|0,0:0|0:0,0:0:0:0:
460,268,148959,1,0,0:0:0:0:
460,268,149044,2,0,P|468:232|456:184,1,80,2|8,0:0|0:0,0:0:0:0:
392,48,149385,1,0,0:0:0:0:
392,48,149470,1,0,0:0:0:0:
392,48,149555,1,0,0:0:0:0:
388,144,149726,1,10,0:0:0:0:
236,96,149896,1,0,0:0:0:0:
236,96,149981,1,0,0:0:0:0:
236,96,150067,6,0,L|336:96,1,80,2|0,0:0|0:0,0:0:0:0:
388,144,150407,1,8,0:0:0:0:
264,328,150578,2,0,L|164:328,1,80,2|0,0:0|0:0,0:0:0:0:
176,320,150834,1,0,0:0:0:0:
168,312,150919,2,0,L|160:372,1,40
16,220,151089,6,0,L|116:220,1,80,10|0,0:0|0:0,0:0:0:0:
104,212,151345,1,0,0:0:0:0:
112,204,151430,2,0,L|120:264,1,40
48,344,151601,1,2,0:0:0:0:
48,344,151686,1,0,0:0:0:0:
48,344,151771,1,8,0:0:0:0:
8,100,151941,6,0,B|60:92|60:92|116:108|116:108|192:96,1,160,6|8,0:0|0:0,0:0:0:0:
304,12,152452,1,0,0:0:0:0:
294,38,152537,1,0,0:0:0:0:
292,65,152622,1,2,0:0:0:0:
295,92,152708,1,0,0:0:0:0:
306,117,152793,1,0,0:0:0:0:
418,65,152963,5,10,0:0:0:0:
270,203,153134,2,0,L|310:203,1,40,2|0,0:0|0:0,0:0:0:0:
418,259,153304,1,0,0:0:0:0:
418,259,153389,1,0,0:0:0:0:
418,259,153475,2,0,L|355:259,1,40
314,318,153645,1,8,0:0:0:0:
113,295,153816,1,0,0:0:0:0:
113,295,153901,1,0,0:0:0:0:
113,295,153986,6,0,P|148:306|184:347,1,80,2|8,0:0|0:0,0:0:0:0:
294,223,154327,1,0,0:0:0:0:
294,223,154412,1,0,0:0:0:0:
294,223,154497,2,0,P|259:234|223:275,1,80,2|0,0:0|0:0,0:0:0:0:
87,209,154838,2,0,L|2:211,1,80,8|2,0:0|0:0,0:0:0:0:
21,122,155094,1,0,0:0:0:0:
21,122,155179,2,0,L|64:123,1,40
122,55,155350,1,0,0:0:0:0:
260,139,155520,6,0,P|251:99|259:61,1,80,8|2,0:0|0:0,0:0:0:0:
336,100,155776,1,0,0:0:0:0:
336,100,155861,2,0,L|377:99,1,40
468,24,156031,2,0,L|446:59,1,40,2|0,0:0|0:0,0:0:0:0:
464,176,156202,2,0,L|505:244,1,80
420,340,156543,2,0,L|378:271,1,80,8|0,0:0|0:0,0:0:0:0:
312,328,156798,1,0,0:0:0:0:
312,328,156883,6,0,P|222:369|140:340,1,160,6|8,0:0|0:0,0:0:0:0:
96,226,157394,1,0,0:0:0:0:
87,234,157479,1,0,0:0:0:0:
78,242,157565,2,0,L|73:286,1,40
29,357,157735,1,0,0:0:0:0:
49,144,157905,6,0,P|87:131|129:135,1,80,10|0,0:0|0:0,0:0:0:0:
137,137,158161,1,0,0:0:0:0:
148,141,158246,2,0,P|167:155|182:173,1,40
236,256,158417,1,0,0:0:0:0:
0,252,158587,1,10,0:0:0:0:
165,356,158758,2,0,L|173:312,1,40
236,256,158928,1,2,0:0:0:0:
100,136,159099,1,8,0:0:0:0:
176,0,159269,2,0,L|160:108,1,80
412,160,159610,6,0,B|352:140|352:140|292:156,1,120,10|0,0:0|0:0,0:0:0:0:
280,164,159951,1,6,0:0:0:0:
352,56,160121,2,0,L|352:8,1,40
352,236,160292,1,2,0:0:0:0:
352,236,160377,2,0,L|352:276,1,40,8|0,0:0|0:0,0:0:0:0:
432,376,160547,1,0,0:0:0:0:
432,376,160632,2,0,L|397:356,1,40,10|0,0:0|0:0,0:0:0:0:
272,372,160803,1,0,0:0:0:0:
272,372,160888,1,8,0:0:0:0:
272,372,160974,6,0,L|306:352,1,40,6|0,0:0|0:0,0:0:0:0:
232,244,161144,1,0,0:0:0:0:
232,244,161229,2,0,L|143:272,1,80,2|0,0:0|0:0,0:0:0:0:
111,375,161485,2,0,L|111:352,1,13.3333333333333,8|0,0:0|0:0,0:0:0:0:
38,244,161655,2,0,L|72:264,1,40,2|0,0:0|0:0,0:0:0:0:
199,164,161826,1,0,0:0:0:0:
199,164,161911,2,0,L|114:190,1,80,2|0,0:0|0:0,0:0:0:0:
155,268,162167,2,0,L|199:256,1,40,8|0,0:0|0:0,0:0:0:0:
312,316,162337,5,6,0:0:0:0:
348,330,162422,1,0,0:0:0:0:
389,325,162507,1,0,0:0:0:0:
420,299,162592,1,0,0:0:0:0:
439,265,162677,1,0,0:0:0:0:
434,223,162763,1,0,0:0:0:0:
415,189,162848,5,12,0:0:0:0:
376,195,162933,1,0,0:0:0:0:
337,203,163018,1,0,0:0:0:0:
297,210,163103,1,0,0:0:0:0:
258,219,163188,1,0,0:0:0:0:
219,226,163274,1,0,0:0:0:0:
180,235,163359,5,12,0:0:0:0:
162,201,163444,1,0,0:0:0:0:
167,159,163529,1,0,0:0:0:0:
186,126,163614,1,0,0:0:0:0:
219,103,163700,1,0,0:0:0:0:
260,104,163786,1,0,0:0:0:0:
298,110,163872,5,12,0:0:0:0:
295,149,163957,1,0,0:0:0:0:
291,189,164042,1,0,0:0:0:0:
288,229,164127,1,0,0:0:0:0:
284,268,164212,1,0,0:0:0:0:
281,310,164298,1,0,0:0:0:0:
276,348,164383,6,0,L|206:351,1,40,14|0,0:0|0:0,0:0:0:0:
72,352,164553,2,0,L|94:312,1,40
164,177,164724,2,0,L|193:227,3,40,14|0|0|0,0:0|0:0|0:0|0:0,0:0:0:0:
95,72,165065,5,14,0:0:0:0:
131,88,165150,1,0,0:0:0:0:
171,89,165235,1,0,0:0:0:0:
208,76,165320,1,0,0:0:0:0:
244,58,165405,1,0,0:0:0:0:
283,51,165491,1,0,0:0:0:0:
322,57,165576,5,14,0:0:0:0:
286,73,165661,1,0,0:0:0:0:
271,110,165746,1,0,0:0:0:0:
284,147,165831,1,0,0:0:0:0:
319,165,165916,1,0,0:0:0:0:
357,157,166002,1,0,0:0:0:0:
379,124,166088,6,0,L|434:126,1,40,14|0,0:0|0:0,0:0:0:0:
502,233,166258,2,0,L|447:231,1,40
400,324,166428,1,0,0:0:0:0:
400,324,166514,1,0,0:0:0:0:
400,324,166599,6,0,L|345:322,1,40,14|0,0:0|0:0,0:0:0:0:
251,305,166769,1,0,0:0:0:0:
235,310,166855,1,0,0:0:0:0:
219,314,166940,1,0,0:0:0:0:
203,318,167025,1,0,0:0:0:0:
187,323,167110,5,14,0:0:0:0:
223,282,167195,1,0,0:0:0:0:
227,227,167280,1,0,0:0:0:0:
196,182,167365,1,0,0:0:0:0:
144,165,167450,1,14,0:0:0:0:
93,185,167536,1,0,0:0:0:0:
65,232,167621,1,0,0:0:0:0:
72,287,167706,1,0,0:0:0:0:
113,322,167792,5,14,0:0:0:0:
120,282,167877,1,0,0:0:0:0:
128,243,167962,1,0,0:0:0:0:
136,204,168047,1,0,0:0:0:0:
144,165,168132,1,0,0:0:0:0:
152,125,168218,1,0,0:0:0:0:
160,81,168303,5,14,0:0:0:0:
125,62,168388,1,0,0:0:0:0:
87,72,168473,1,0,0:0:0:0:
66,105,168558,1,0,0:0:0:0:
73,143,168643,1,0,0:0:0:0:
104,167,168729,1,0,0:0:0:0:
144,165,168815,6,0,L|134:217,3,40,14|0|0|0,0:0|0:0|0:0|0:0,0:0:0:0:
160,81,169156,2,0,L|170:29,1,40
302,145,169326,6,0,L|340:99,1,40,14|0,0:0|0:0,0:0:0:0:
435,95,169497,2,0,L|376:85,1,40
321,6,169667,2,0,L|341:61,1,40
385,162,169838,5,14,0:0:0:0:
391,176,169923,1,0,0:0:0:0:
398,190,170008,1,0,0:0:0:0:
405,204,170093,1,0,0:0:0:0:
412,218,170178,2,0,L|404:257,1,40,14|0,0:0|0:0,0:0:0:0:
381,351,170349,1,0,0:0:0:0:
381,351,170434,1,0,0:0:0:0:
381,351,170519,5,14,0:0:0:0:
346,331,170604,1,0,0:0:0:0:
307,326,170689,1,0,0:0:0:0:
269,339,170774,1,0,0:0:0:0:
233,356,170859,1,0,0:0:0:0:
193,357,170945,1,0,0:0:0:0:
155,345,171031,5,14,0:0:0:0:
165,307,171116,1,0,0:0:0:0:
145,274,171201,1,0,0:0:0:0:
108,263,171286,1,0,0:0:0:0:
73,281,171371,1,0,0:0:0:0:
61,318,171457,1,0,0:0:0:0:
79,353,171542,6,0,L|36:357,1,40,14|0,0:0|0:0,0:0:0:0:
2,206,171713,2,0,L|45:202,1,40
210,179,171883,5,14,0:0:0:0:
73,281,172053,1,8,0:0:0:0:
144,112,172224,1,10,0:0:0:0:
155,345,172394,1,0,0:0:0:0:
360,218,172565,1,10,0:0:0:0:
215,268,172735,1,0,0:0:0:0:
215,268,172820,1,0,0:0:0:0:
215,268,172906,2,0,L|284:268,1,40,14|0,0:0|0:0,0:0:0:0:
353,333,173076,2,0,L|393:333,1,40
451,223,173247,6,0,B|518:245|518:245|413:84|413:84|405:156,1,320,14|0,0:0|0:0,0:0:0:0:
360,218,173758,5,14,0:0:0:0:
463,20,173928,1,0,0:0:0:0:
463,20,174099,1,0,0:0:0:0:
451,223,174269,1,14,0:0:0:0:
360,23,174440,1,0,0:0:0:0:
360,23,174610,1,0,0:0:0:0:
406,139,174781,5,14,0:0:0:0:
292,154,174951,1,0,0:0:0:0:
177,167,175122,1,0,0:0:0:0:
360,218,175292,1,14,0:0:0:0:
225,98,175463,1,0,0:0:0:0:
315,294,175633,1,14,0:0:0:0:
278,29,175803,1,0,0:0:0:0:
278,29,175889,1,0,0:0:0:0:
278,29,175974,6,0,B|234:49|225:99|225:99|191:27|191:27|190:93|114:128|58:86,1,320,12|0,0:0|0:0,0:0:0:0:
111,25,176485,5,14,0:0:0:0:
306,106,176656,1,0,0:0:0:0:
137,242,176826,2,0,P|133:276|143:308,1,47.9999985351563
332,316,176997,2,0,P|346:246|317:192,1,95.9999970703126,14|0,0:0|0:0,0:0:0:0:
194,172,177338,5,0,0:0:0:0:
470,198,177508,1,14,0:0:0:0:
332,316,177678,1,0,0:0:0:0:
332,55,177848,1,0,0:0:0:0:
238,258,178020,6,0,B|197:251|169:275|169:275|137:247|137:247|105:275|64:263,1,192,14|0,0:0|0:0,0:0:0:0:
88,172,178360,2,0,L|88:124,1,47.9999985351563,14|0,0:0|0:0,0:0:0:0:
192,124,178531,2,0,L|192:172,1,47.9999985351563
139,247,178701,5,14,0:0:0:0:
144,40,178872,1,0,0:0:0:0:
144,40,179042,1,0,0:0:0:0:
8,200,179213,1,14,0:0:0:0:
268,92,179383,1,0,0:0:0:0:
268,92,179553,1,0,0:0:0:0:
204,368,179724,6,0,P|180:292|220:208,1,143.999995605469,14|0,0:0|0:0,0:0:0:0:
212,212,180065,6,0,P|240:228|284:236,1,47.9999985351563
339,235,180235,2,0,P|361:226|381:214,1,47.9999985351563,14|0,0:0|0:0,0:0:0:0:
343,65,180406,6,0,P|327:93|319:137,1,47.9999985351563
316,191,180576,2,0,P|324:213|336:233,1,47.9999985351563
489,196,180747,6,0,P|461:180|417:172,1,47.9999985351563,14|0,0:0|0:0,0:0:0:0:
360,170,180917,2,0,P|337:178|317:190,1,47.9999985351563
357,342,181088,6,0,P|373:314|381:270,1,47.9999985351563,6|0,0:0|0:0,0:0:0:0:
380,212,181258,2,0,P|371:189|359:169,1,47.9999985351563
232,108,181428,6,0,L|108:112,1,95.9999970703126,6|0,0:0|0:0,0:0:0:0:
48,144,181769,1,8,0:0:0:0:
132,19,181940,2,0,B|148:71|148:71|132:123,1,95.9999970703126,2|0,0:0|0:0,0:0:0:0:
116,204,182195,1,0,0:0:0:0:
116,204,182281,2,0,B|100:256|100:256|116:308,1,95.9999970703126
248,256,182622,2,0,L|180:256,1,47.9999985351563,8|0,0:0|0:0,0:0:0:0:
316,316,182792,5,14,0:0:0:0:
332,279,182877,1,0,0:0:0:0:
334,240,182962,1,0,0:0:0:0:
317,203,183047,1,0,0:0:0:0:
301,167,183132,1,0,0:0:0:0:
300,127,183218,1,0,0:0:0:0:
320,84,183303,2,0,L|388:84,1,47.9999985351563,14|0,0:0|0:0,0:0:0:0:
248,264,183473,6,0,L|180:264,1,47.9999985351563
320,76,183644,2,0,L|388:76,1,47.9999985351563
440,248,183814,6,0,B|416:192|416:192|448:128,1,120,14|0,0:0|0:0,0:0:0:0:
456,116,184155,1,6,0:0:0:0:
452,272,184325,1,0,0:0:0:0:
292,192,184496,2,0,B|227:179|227:179|171:209|171:209|88:192,1,191.999994140625,8|0,0:0|0:0,0:0:0:0:
28,248,185007,1,8,0:0:0:0:
240,276,185177,1,2,0:0:0:0:
152,104,185348,1,8,0:0:0:0:
104,287,185518,6,0,P|119:243|109:197,1,95.9999970703126,2|0,0:0|0:0,0:0:0:0:
32,352,185859,1,8,0:0:0:0:
32,352,185944,1,0,0:0:0:0:
32,352,186030,1,0,0:0:0:0:
28,152,186200,2,0,P|12:107|22:61,1,95.9999970703126,14|8,0:0|0:0,0:0:0:0:
28,48,186456,1,0,0:0:0:0:
36,36,186541,2,0,L|88:64,1,47.9999985351563,14|0,0:0|0:0,0:0:0:0:
152,104,186712,1,0,0:0:0:0:
104,287,186882,6,0,P|96:228|112:188,1,95.9999970703126,14|0,0:0|0:0,0:0:0:0:
324,240,187223,2,0,L|260:240,1,47.9999985351563,8|0,0:0|0:0,0:0:0:0:
220,168,187394,2,0,B|192:240|192:240|224:316,1,143.999995605469,14|0,0:0|0:0,0:0:0:0:
228,324,187734,1,8,0:0:0:0:
352,352,187905,1,14,0:0:0:0:
352,152,188075,1,8,0:0:0:0:
500,304,188246,5,14,0:0:0:0:
493,307,188331,1,0,0:0:0:0:
486,311,188416,1,0,0:0:0:0:
479,316,188501,1,0,0:0:0:0:
473,320,188586,1,0,0:0:0:0:
466,325,188672,1,0,0:0:0:0:
459,331,188757,5,14,0:0:0:0:
461,292,188842,1,0,0:0:0:0:
463,252,188927,1,0,0:0:0:0:
465,212,189012,1,0,0:0:0:0:
467,172,189097,1,0,0:0:0:0:
469,132,189183,1,0,0:0:0:0:
471,92,189268,2,0,L|423:131,1,47.9999985351563,12|0,0:0|0:0,0:0:0:0:
324,240,189439,1,8,0:0:0:0:
324,240,189524,1,8,0:0:0:0:
324,240,189609,6,0,L|204:240,1,95.9999970703126,6|0,0:0|0:0,0:0:0:0:
160,312,189950,1,8,0:0:0:0:
32,188,190121,1,14,0:0:0:0:
32,188,190206,1,0,0:0:0:0:
32,188,190291,2,0,L|152:188,1,95.9999970703126,2|8,0:0|0:0,0:0:0:0:
196,116,190632,1,6,0:0:0:0:
72,280,190802,1,8,0:0:0:0:
0,92,190973,6,8,L|104:92,1,95.9999970703126,4|2,0:0|0:0,0:0:0:0:
296,136,191314,1,8,0:0:0:0:
264,44,191484,1,12,0:0:0:0:
264,44,191569,1,8,0:0:0:0:
264,44,191655,1,2,0:0:0:0:
232,212,191825,1,8,0:0:0:0:
392,152,191996,1,12,0:0:0:0:
372,312,192166,1,8,0:0:0:0:
372,312,192251,1,8,0:0:0:0:
372,312,192337,5,6,0:0:0:0:
328,228,192507,1,8,0:0:0:0:
232,212,192677,1,8,0:0:0:0:
160,276,192848,1,8,0:0:0:0:
180,368,193018,5,8,0:0:0:0:
256,308,193189,1,8,0:0:0:0:
160,276,193359,1,8,0:0:0:0:
68,244,193530,1,8,0:0:0:0:
140,184,193700,5,10,0:0:0:0:
136,164,193785,1,2,0:0:0:0:
132,144,193871,1,2,0:0:0:0:
128,124,193956,1,2,0:0:0:0:
124,104,194041,1,2,0:0:0:0:
52,12,194212,6,0,P|70:117|138:86,1,191.999994140625,14|0,0:0|0:0,0:0:0:0:
200,48,194638,1,0,0:0:0:0:
200,48,194723,2,0,L|256:44,1,47.9999985351563,10|0,0:0|0:0,0:0:0:0:
288,128,194893,2,0,L|344:124,1,47.9999985351563,8|8,0:0|0:0,0:0:0:0:
480,48,195064,6,0,B|476:172,1,95.9999970703126,6|0,0:0|0:0,0:0:0:0:
396,320,195405,2,0,B|399:224,1,95.9999970703126,8|0,0:0|0:0,0:0:0:0:
288,128,195746,2,0,P|344:136|396:120,1,95.9999970703126
331,22,196087,1,8,0:0:0:0:
204,52,196257,6,0,B|192:120|192:120|207:178|207:178|196:252,1,191.999994140625,2|0,0:0|0:0,0:0:0:0:
72,288,196768,1,8,0:0:0:0:
252,328,196939,1,0,0:0:0:0:
252,328,197024,1,0,0:0:0:0:
252,328,197109,2,0,P|200:340|136:320,1,95.9999970703126
12,208,197450,1,8,0:0:0:0:
197,240,197621,6,0,B|303:204|279:280|382:240,1,191.999994140625,2|0,0:0|0:0,0:0:0:0:
472,92,198132,2,0,L|468:216,1,95.9999970703126,8|0,0:0|0:0,0:0:0:0:
352,328,198473,1,0,0:0:0:0:
352,328,198643,1,0,0:0:0:0:
492,268,198814,1,8,0:0:0:0:
384,136,198984,6,0,L|260:132,1,95.9999970703126,2|0,0:0|0:0,0:0:0:0:
124,80,199325,1,0,0:0:0:0:
256,208,199496,2,0,L|351:211,1,95.9999970703126,10|0,0:0|0:0,0:0:0:0:
184,256,199837,2,0,P|172:200|188:152,1,95.9999970703126,2|0,0:0|0:0,0:0:0:0:
216,24,200177,1,10,0:0:0:0:
72,120,200348,6,0,B|120:136|120:136|164:120|164:120|216:144|256:116,1,191.999994140625,2|0,0:0|0:0,0:0:0:0:
356,44,200859,2,0,P|368:96|348:200,1,143.999995605469,8|0,0:0|0:0,0:0:0:0:
344,208,201200,1,0,0:0:0:0:
148,228,201371,1,0,0:0:0:0:
320,292,201541,1,8,0:0:0:0:
228,80,201712,6,0,L|228:184,1,95.9999970703126,2|0,0:0|0:0,0:0:0:0:
228,312,202052,1,0,0:0:0:0:
24,256,202223,2,0,P|72:264|128:260,1,95.9999970703126,8|0,0:0|0:0,0:0:0:0:
228,176,202564,1,0,0:0:0:0:
40,148,202734,1,0,0:0:0:0:
200,256,202905,1,8,0:0:0:0:
304,96,203076,6,0,B|320:136|320:136|308:172|308:172|336:228|316:280,1,191.999994140625,2|0,0:0|0:0,0:0:0:0:
416,136,203588,2,0,P|404:196|420:244,1,95.9999970703126,8|0,0:0|0:0,0:0:0:0:
480,320,203928,1,0,0:0:0:0:
240,228,204099,1,0,0:0:0:0:
428,64,204269,1,8,0:0:0:0:
276,300,204440,6,0,P|324:220|248:148,1,191.999994140625,6|0,0:0|0:0,0:0:0:0:
108,88,204951,2,0,L|208:84,1,95.9999970703126,8|0,0:0|0:0,0:0:0:0:
244,228,205292,1,8,0:0:0:0:
280,64,205463,1,8,0:0:0:0:
332,268,205633,1,8,0:0:0:0:
128,160,205803,6,0,P|140:216|128:276,1,95.9999970703126,6|0,0:0|0:0,0:0:0:0:
100,344,206144,1,0,0:0:0:0:
332,268,206315,2,0,L|236:264,1,95.9999970703126,8|0,0:0|0:0,0:0:0:0:
60,216,206656,1,0,0:0:0:0:
60,216,206826,1,10,0:0:0:0:
192,328,206997,1,0,0:0:0:0:
116,132,207167,6,0,B|236:128,1,95.9999970703126,6|0,0:0|0:0,0:0:0:0:
392,60,207508,1,0,0:0:0:0:
392,60,207593,1,0,0:0:0:0:
392,60,207678,1,8,0:0:0:0:
280,192,207849,1,0,0:0:0:0:
468,156,208019,2,0,L|360:152,1,95.9999970703126,0|10,0:0|0:0,0:0:0:0:
228,52,208360,1,0,0:0:0:0:
344,268,208531,5,6,0:0:0:0:
344,268,208616,1,0,0:0:0:0:
344,268,208701,2,0,B|288:280|288:280|220:272,1,95.9999970703126
88,216,209042,1,8,0:0:0:0:
276,200,209213,1,0,0:0:0:0:
164,356,209383,2,0,L|168:260,1,95.9999970703126,0|10,0:0|0:0,0:0:0:0:
172,68,209724,1,0,0:0:0:0:
256,272,209894,6,0,P|220:188|120:188,1,191.999994140625,6|0,0:0|0:0,0:0:0:0:
112,192,210320,1,0,0:0:0:0:
100,208,210406,1,8,0:0:0:0:
280,196,210576,1,0,0:0:0:0:
52,312,210747,2,0,L|144:308,1,47.9999985351563
256,272,210917,1,10,0:0:0:0:
140,164,211088,1,0,0:0:0:0:
200,356,211258,6,0,B|248:364|248:364|392:352,1,191.999994140625,6|0,0:0|0:0,0:0:0:0:
496,216,211769,1,8,0:0:0:0:
336,276,211940,1,0,0:0:0:0:
336,276,212025,1,0,0:0:0:0:
336,276,212110,2,0,L|344:176,1,95.9999970703126,0|10,0:0|0:0,0:0:0:0:
448,296,212451,1,0,0:0:0:0:
396,112,212622,6,0,P|344:96|272:128,1,95.9999970703126,14|0,0:0|0:0,0:0:0:0:
292,112,212877,1,0,0:0:0:0:
284,124,212963,1,0,0:0:0:0:
184,36,213133,2,0,L|192:148,1,95.9999970703126,8|0,0:0|0:0,0:0:0:0:
320,324,213474,5,0,0:0:0:0:
351,144,213644,1,10,0:0:0:0:
236,284,213815,1,0,0:0:0:0:
48,208,213985,6,0,P|108:216|168:204,1,95.9999970703126,6|0,0:0|0:0,0:0:0:0:
280,76,214326,1,0,0:0:0:0:
100,144,214497,2,0,P|168:136|208:256,1,191.999994140625,8|0,0:0|0:0,0:0:0:0:
76,328,215008,1,8,0:0:0:0:
142,211,215178,1,0,0:0:0:0:
288,340,215349,6,0,P|304:300|280:224,1,95.9999970703126,14|2,0:0|0:0,0:0:0:0:
256,80,215690,1,2,0:0:0:0:
368,212,215860,1,12,0:0:0:0:
208,148,216031,1,2,0:0:0:0:
192,320,216201,5,8,0:0:0:0:
148,336,216286,1,8,0:0:0:0:
104,316,216372,1,8,0:0:0:0:
88,272,216457,1,8,0:0:0:0:
116,232,216542,1,8,0:0:0:0:
192,320,216713,6,0,B|212:272|212:272|196:200|196:200|212:135,1,191.999994140625,6|0,0:0|0:0,0:0:0:0:
392,72,217224,2,0,L|268:68,1,95.9999970703126,8|0,0:0|0:0,0:0:0:0:
136,32,217565,1,0,0:0:0:0:
304,160,217735,1,2,0:0:0:0:
64,144,217906,2,0,L|116:120,1,47.9999985351563,8|0,0:0|0:0,0:0:0:0:
212,68,218076,6,0,L|200:280,1,191.999994140625,6|0,0:0|0:0,0:0:0:0:
292,120,218588,2,0,L|286:219,1,95.9999970703126,8|0,0:0|0:0,0:0:0:0:
136,324,218928,1,0,0:0:0:0:
328,344,219099,1,10,0:0:0:0:
356,348,219184,1,0,0:0:0:0:
384,348,219269,1,0,0:0:0:0:
412,344,219355,1,0,0:0:0:0:
440,336,219440,6,0,B|452:280|452:280|440:120,1,191.999994140625,6|0,0:0|0:0,0:0:0:0:
276,92,219951,2,0,P|328:104|380:92,1,95.9999970703126,8|0,0:0|0:0,0:0:0:0:
180,60,220292,1,0,0:0:0:0:
336,176,220463,1,2,0:0:0:0:
128,140,220633,2,0,L|132:192,1,47.9999985351563,8|0,0:0|0:0,0:0:0:0:
56,260,220803,6,0,P|152:288|236:208,1,191.999994140625,6|0,0:0|0:0,0:0:0:0:
276,72,221315,2,0,L|280:184,1,95.9999970703126,8|0,0:0|0:0,0:0:0:0:
224,332,221656,1,8,0:0:0:0:
132,164,221826,1,2,0:0:0:0:
220,340,221997,1,8,0:0:0:0:
360,196,222167,6,0,P|280:248|196:196,1,191.999994140625,6|0,0:0|0:0,0:0:0:0:
132,72,222678,1,8,0:0:0:0:
279,167,222849,1,0,0:0:0:0:
132,164,223019,2,0,L|128:224,1,47.9999985351563,2|0,0:0|0:0,0:0:0:0:
44,236,223190,2,0,L|83:281,1,47.9999985351563,2|0,0:0|0:0,0:0:0:0:
36,348,223360,2,0,L|95:352,1,47.9999985351563,10|0,0:0|0:0,0:0:0:0:
248,312,223531,1,6,0:0:0:0:
236,296,223616,1,0,0:0:0:0:
232,280,223701,6,0,P|228:256|232:224,1,47.9999985351563,2|0,0:0|0:0,0:0:0:0:
260,152,223872,2,0,P|274:132|299:112,1,47.9999985351563,2|0,0:0|0:0,0:0:0:0:
372,84,224042,2,0,P|396:79|427:84,1,47.9999985351563,10|0,0:0|0:0,0:0:0:0:
400,240,224213,1,2,0:0:0:0:
400,240,224298,1,0,0:0:0:0:
400,240,224383,2,0,L|296:244,1,95.9999970703126,2|8,0:0|0:0,0:0:0:0:
68,220,224724,1,0,0:0:0:0:
236,312,224894,6,0,P|228:252|236:204,1,95.9999970703126,6|10,0:0|0:0,0:0:0:0:
340,56,225235,1,0,0:0:0:0:
176,156,225406,1,8,0:0:0:0:
316,260,225576,1,0,0:0:0:0:
316,260,225661,1,0,0:0:0:0:
316,260,225747,2,0,L|416:256,1,95.9999970703126,8|0,0:0|0:0,0:0:0:0:
460,68,226088,1,2,0:0:0:0:
460,68,226173,1,0,0:0:0:0:
460,68,226258,5,6,0:0:0:0:
468,112,226343,1,0,0:0:0:0:
452,152,226428,1,0,0:0:0:0:
416,176,226514,1,0,0:0:0:0:
372,168,226599,1,6,0:0:0:0:
344,136,226684,1,0,0:0:0:0:
344,92,226769,1,0,0:0:0:0:
376,60,226855,1,0,0:0:0:0:
416,56,226940,5,2,0:0:0:0:
414,88,227025,1,0,0:0:0:0:
413,120,227110,1,0,0:0:0:0:
412,152,227195,1,0,0:0:0:0:
411,184,227281,1,2,0:0:0:0:
410,217,227366,1,0,0:0:0:0:
408,252,227451,2,0,L|360:244,1,47.9999985351563
112,288,227622,2,0,L|160:280,1,47.9999985351563
268,328,227792,6,0,L|264:232,1,80,6|0,0:0|0:0,0:0:0:0:
332,72,228133,2,0,L|328:151,1,80,2|0,0:0|0:0,0:0:0:0:
264,328,228474,1,2,0:0:0:0:
264,328,228644,1,0,0:0:0:0:
251,135,228815,1,2,0:0:0:0:
251,135,228985,1,0,0:0:0:0:
148,276,229156,6,0,P|104:280|48:272,1,80,2|0,0:0|0:0,0:0:0:0:
172,136,229497,2,0,P|216:132|272:140,1,80,2|0,0:0|0:0,0:0:0:0:
108,204,229838,1,2,0:0:0:0:
188,208,230008,1,0,0:0:0:0:
268,212,230178,1,2,0:0:0:0:
400,300,230349,1,8,0:0:0:0:
400,300,230434,1,8,0:0:0:0:
400,300,230519,6,0,B|408:248|408:248|392:204|392:204|400:120,1,160,14|2,0:0|0:0,0:0:0:0:
240,64,231031,1,0,0:0:0:0:
240,64,231201,2,0,L|348:60,1,80,2|0,0:0|0:0,0:0:0:0:
477,146,231542,2,0,L|369:142,1,80,2|0,0:0|0:0,0:0:0:0:
300,200,231883,5,2,0:0:0:0:
316,228,232053,1,0,0:0:0:0:
220,312,232224,5,2,0:0:0:0:
211,343,232394,1,0,0:0:0:0:
104,260,232565,5,2,0:0:0:0:
75,275,232735,1,0,0:0:0:0:
100,112,232906,5,2,0:0:0:0:
216,220,233076,1,8,0:0:0:0:
216,220,233161,1,8,0:0:0:0:
216,220,233247,6,0,B|268:232|268:232|400:224,1,160,14|2,0:0|0:0,0:0:0:0:
456,88,233758,1,0,0:0:0:0:
344,152,233928,1,2,0:0:0:0:
452,260,234099,1,0,0:0:0:0:
324,312,234269,1,2,0:0:0:0:
216,220,234440,1,8,0:0:0:0:
216,220,234525,1,8,0:0:0:0:
216,220,234610,6,0,B|200:172|200:172|220:136|220:136|196:104|224:52,1,160,14|2,0:0|0:0,0:0:0:0:
284,180,235122,1,0,0:0:0:0:
132,132,235292,1,2,0:0:0:0:
288,100,235463,1,0,0:0:0:0:
280,260,235633,1,2,0:0:0:0:
60,196,235803,1,8,0:0:0:0:
60,196,235889,1,8,0:0:0:0:
60,196,235974,6,0,P|132:220|208:188,1,160,14|2,0:0|0:0,0:0:0:0:
256,108,236485,1,0,0:0:0:0:
352,20,236656,1,8,0:0:0:0:
484,76,236826,1,0,0:0:0:0:
500,236,236997,1,8,0:0:0:0:
356,336,237167,1,0,0:0:0:0:
156,272,237338,6,0,L|256:268,1,80,14|0,0:0|0:0,0:0:0:0:
255,268,237593,1,0,0:0:0:0:
274,267,237678,1,0,0:0:0:0:
415,111,237849,1,10,0:0:0:0:
443,315,238019,5,2,0:0:0:0:
251,191,238190,1,2,0:0:0:0:
492,156,238360,1,8,0:0:0:0:
378,220,238531,1,0,0:0:0:0:
415,111,238702,6,0,B|427:88|427:88|410:106|395:110,1,60
385,115,239043,6,0,P|314:119|225:75,1,143.999995605469,6|0,0:0|0:0,0:0:0:0:
164,132,239383,2,0,P|173:83|140:13,1,95.9999970703126,2|0,0:0|0:0,0:0:0:0:
84,168,239724,1,8,0:0:0:0:
140,363,239894,6,0,P|120:287|160:199,1,143.999995605469,6|0,0:0|0:0,0:0:0:0:
155,218,240235,2,0,L|203:234,1,47.9999985351563
290,322,240406,1,8,0:0:0:0:
404,268,240576,1,6,0:0:0:0:
404,268,240661,1,0,0:0:0:0:
404,268,240747,2,0,L|304:232,1,95.9999970703126
462,202,241088,1,10,0:0:0:0:
334,339,241258,2,0,L|264:311,1,47.9999985351563
280,111,241428,6,0,P|316:146|297:253,1,143.999995605469,6|0,0:0|0:0,0:0:0:0:
233,259,241769,2,0,B|189:242|152:257|168:265|126:283|82:270,1,143.999995605469,8|0,0:0|0:0,0:0:0:0:
75,270,242110,1,2,0:0:0:0:
198,353,242281,1,0,0:0:0:0:
98,187,242451,2,0,P|72:184|36:194,1,47.9999985351563,8|0,0:0|0:0,0:0:0:0:
13,318,242622,6,0,P|69:349|142:311,1,143.999995605469,6|0,0:0|0:0,0:0:0:0:
149,293,242963,2,0,P|152:265|146:236,1,47.9999985351563
1,250,243133,2,0,P|-2:273|0:297,1,47.9999985351563,8|0,0:0|0:0,0:0:0:0:
77,348,243303,1,2,0:0:0:0:
151,126,243474,1,0,0:0:0:0:
75,270,243644,1,0,0:0:0:0:
3,122,243815,1,10,0:0:0:0:
172,200,243985,2,0,P|148:202|111:193,1,47.9999985351563
112,56,244156,6,0,B|88:44|88:44|152:0|216:44|216:44|184:56,2,191.999994140625,6|8|2,0:0|0:0|0:0,0:0:0:0:
248,124,245008,1,2,0:0:0:0:
316,16,245178,2,0,P|312:44|320:76,1,47.9999985351563,8|0,0:0|0:0,0:0:0:0:
384,168,245349,6,0,B|424:20|424:20|376:48,1,191.999994140625,6|0,0:0|0:0,0:0:0:0:
304,188,245860,2,0,P|356:244|448:220,1,143.999995605469,10|0,0:0|0:0,0:0:0:0:
441,236,246201,2,0,L|408:341,1,95.9999970703126,2|0,0:0|0:0,0:0:0:0:
501,306,246542,1,8,0:0:0:0:
383,175,246713,6,0,L|321:364,1,191.999994140625,6|0,0:0|0:0,0:0:0:0:
146,226,247224,2,0,P|209:216|268:282,1,143.999995605469,8|0,0:0|0:0,0:0:0:0:
266,290,247565,2,0,L|242:361,1,47.9999985351563,2|0,0:0|0:0,0:0:0:0:
165,384,247735,1,0,0:0:0:0:
168,139,247906,1,10,0:0:0:0:
187,294,248076,6,0,P|124:304|65:238,1,143.999995605469,6|0,0:0|0:0,0:0:0:0:
63,233,248417,1,0,0:0:0:0:
291,205,248588,1,8,0:0:0:0:
146,226,248758,1,0,0:0:0:0:
247,126,248928,1,14,0:0:0:0:
267,287,249099,1,8,0:0:0:0:
168,139,249269,1,8,0:0:0:0:
345,273,249440,1,8,0:0:0:0:
436,88,249610,6,0,B|328:116|328:116|360:132,1,143.999995605469,6|0,0:0|0:0,0:0:0:0:
420,172,249951,2,0,B|416:220|416:220|432:260|432:260|420:324,1,143.999995605469,8|0,0:0|0:0,0:0:0:0:
416,336,250292,1,2,0:0:0:0:
267,287,250463,1,0,0:0:0:0:
420,172,250633,1,8,0:0:0:0:
267,127,250803,1,6,0:0:0:0:
257,123,250889,1,0,0:0:0:0:
248,118,250974,6,0,L|148:148,1,95.9999970703126
74,95,251315,1,8,0:0:0:0:
74,255,251485,1,6,0:0:0:0:
84,259,251571,1,0,0:0:0:0:
93,264,251656,2,0,L|193:234,1,95.9999970703126
356,288,251997,1,8,0:0:0:0:
152,380,252167,2,0,L|200:364,1,47.9999985351563
304,220,252338,6,0,B|268:288|268:288|308:360,1,143.999995605469,6|0,0:0|0:0,0:0:0:0:
356,288,252678,2,0,B|476:288|476:288|444:312,1,143.999995605469,8|0,0:0|0:0,0:0:0:0:
448,320,253019,1,2,0:0:0:0:
304,220,253190,1,0,0:0:0:0:
452,132,253360,1,8,0:0:0:0:
356,288,253531,6,0,P|382:221|356:153,1,143.999995605469,6|0,0:0|0:0,0:0:0:0:
344,144,253872,2,0,L|280:144,1,47.9999985351563
224,184,254042,1,8,0:0:0:0:
316,52,254213,1,6,0:0:0:0:
316,52,254298,1,0,0:0:0:0:
316,52,254383,1,0,0:0:0:0:
304,220,254553,1,0,0:0:0:0:
144,152,254724,1,8,0:0:0:0:
392,72,254894,1,0,0:0:0:0:
336,308,255065,6,0,B|260:296|260:296|212:316|212:316|128:300,2,191.999994140625,6|8|0,0:0|0:0|0:0,0:0:0:0:
408,264,255917,1,0,0:0:0:0:
280,384,256088,1,8,0:0:0:0:
200,232,256258,1,6,0:0:0:0:
196,224,256343,1,0,0:0:0:0:
192,216,256428,6,0,L|94:207,1,95.9999970703126
80,40,256769,2,0,P|145:40|190:109,1,143.999995605469,8|0,0:0|0:0,0:0:0:0:
186,121,257110,1,0,0:0:0:0:
96,207,257281,1,0,0:0:0:0:
169,349,257451,2,0,P|173:326|169:302,1,47.9999985351563,8|0,0:0|0:0,0:0:0:0:
31,250,257622,6,0,P|17:205|31:160,2,95.9999970703126,6|0|0,0:0|0:0|0:0,0:0:0:0:
192,216,258133,2,0,L|66:205,1,95.9999970703126,8|0,0:0|0:0,0:0:0:0:
95,332,258474,1,0,0:0:0:0:
282,235,258644,1,2,0:0:0:0:
100,125,258815,1,8,0:0:0:0:
243,367,258985,2,0,L|296:345,1,47.9999985351563,6|0,0:0|0:0,0:0:0:0:
356,252,259156,5,8,0:0:0:0:
173,142,259327,1,0,0:0:0:0:
173,142,259497,1,0,0:0:0:0:
169,349,259667,5,10,0:0:0:0:
430,270,259838,1,0,0:0:0:0:
430,270,260008,1,0,0:0:0:0:
247,160,260178,6,0,L|247:222,1,47.9999985351563,10|0,0:0|0:0,0:0:0:0:
243,367,260349,2,0,L|296:345,1,47.9999985351563,10|0,0:0|0:0,0:0:0:0:
430,270,260519,6,0,B|441:205|441:205|418:150|418:150|436:60,2,191.999994140625,6|8|0,0:0|0:0|0:0,0:0:0:0:
351,213,261372,1,0,0:0:0:0:
507,141,261542,1,8,0:0:0:0:
360,41,261713,1,2,0:0:0:0:
352,46,261798,1,0,0:0:0:0:
343,50,261883,6,0,L|246:24,1,95.9999970703126
274,207,262224,2,0,P|286:149|263:97,1,95.9999970703126,8|0,0:0|0:0,0:0:0:0:
202,161,262480,1,0,0:0:0:0:
195,167,262565,2,0,L|98:141,1,95.9999970703126
154,15,262906,2,0,P|161:53|154:84,1,47.9999985351563,8|0,0:0|0:0,0:0:0:0:
45,82,263076,1,0,0:0:0:0:
38,88,263161,1,0,0:0:0:0:
32,93,263247,6,0,P|21:153|44:207,1,95.9999970703126,2|0,0:0|0:0,0:0:0:0:
187,284,263588,2,0,B|120:256|120:256|38:286,1,143.999995605469,8|0,0:0|0:0,0:0:0:0:
33,290,263928,1,0,0:0:0:0:
211,363,264099,1,0,0:0:0:0:
190,172,264269,1,8,0:0:0:0:
124,258,264440,6,0,B|191:286|191:286|273:256,1,143.999995605469,2|0,0:0|0:0,0:0:0:0:
278,252,264780,1,0,0:0:0:0:
367,356,264951,2,0,B|354:307|354:307|365:260,1,95.9999970703126,8|0,0:0|0:0,0:0:0:0:
329,90,265292,2,0,B|342:139|342:139|331:186,1,95.9999970703126
436,300,265633,2,0,L|490:301,1,47.9999985351563,8|0,0:0|0:0,0:0:0:0:
234,142,265803,6,0,B|185:134|149:148|172:157|122:176|63:151,1,143.999995605469,6|0,0:0|0:0,0:0:0:0:
73,155,266144,1,0,0:0:0:0:
239,320,266315,2,0,P|257:241|166:248,1,191.999994140625,8|0,0:0|0:0,0:0:0:0:
100,340,266826,1,0,0:0:0:0:
102,348,266911,1,0,0:0:0:0:
105,355,266997,2,0,L|166:356,1,47.9999985351563,8|0,0:0|0:0,0:0:0:0:
328,356,267167,6,0,P|352:296|308:168,1,191.999994140625,2|0,0:0|0:0,0:0:0:0:
317,178,267678,1,8,0:0:0:0:
472,272,267849,1,0,0:0:0:0:
472,272,267934,1,0,0:0:0:0:
472,272,268019,1,0,0:0:0:0:
239,320,268190,1,2,0:0:0:0:
312,92,268360,1,8,0:0:0:0:
360,248,268531,2,0,P|336:256|292:252,1,47.9999985351563
208,185,268701,5,14,0:0:0:0:
444,136,268871,1,0,0:0:0:0:
444,136,269042,1,0,0:0:0:0:
369,362,269213,5,14,0:0:0:0:
312,92,269383,1,0,0:0:0:0:
312,92,269553,1,0,0:0:0:0:
104,280,269724,5,14,0:0:0:0:
276,240,269894,1,0,0:0:0:0:
276,240,269980,1,0,0:0:0:0:
276,240,270065,1,8,0:0:0:0:
168,64,270235,2,0,P|144:124|160:172,1,95.9999970703126,6|0,0:0|0:0,0:0:0:0:
156,168,270491,1,0,0:0:0:0:
164,180,270576,1,8,0:0:0:0:
192,376,270747,5,12,0:0:0:0:
196,364,270832,1,0,0:0:0:0:
200,352,270917,1,0,0:0:0:0:
204,340,271002,1,0,0:0:0:0:
208,328,271088,1,8,0:0:0:0:
448,168,271428,6,8,P|392:180|328:160,1,95.9999970703126,14|0,0:0|0:0,0:0:0:0:
236,44,271769,2,0,P|268:132|200:240,1,191.999994140625,8|0,0:0|0:0,0:0:0:0:
68,280,272281,1,8,0:0:0:0:
112,112,272451,1,0,0:0:0:0:
164,328,272622,6,0,B|216:344|216:344|376:336,1,191.999994140625,8|0,0:0|0:0,0:0:0:0:
508,256,273133,1,8,0:0:0:0:
340,224,273303,1,0,0:0:0:0:
501,224,273474,1,0,0:0:0:0:
335,254,273644,1,8,0:0:0:0:
292,85,273815,1,2,0:0:0:0:
311,63,273900,1,2,0:0:0:0:
338,54,273985,1,2,0:0:0:0:
366,57,274070,1,2,0:0:0:0:
391,70,274156,6,0,P|399:118|391:178,1,95.9999970703126,6|0,0:0|0:0,0:0:0:0:
304,272,274497,1,8,0:0:0:0:
488,216,274667,2,0,P|459:255|411:292,1,95.9999970703126
240,344,275008,1,8,0:0:0:0:
320,144,275178,1,0,0:0:0:0:
200,268,275349,1,8,0:0:0:0:
288,60,275519,5,2,0:0:0:0:
284,264,275690,1,0,0:0:0:0:
296,64,275860,1,8,0:0:0:0:
139,212,276031,1,0,0:0:0:0:
139,212,276116,1,0,0:0:0:0:
139,212,276201,1,10,0:0:0:0:
356,136,276372,1,0,0:0:0:0:
208,296,276542,1,10,0:0:0:0:
180,72,276713,1,0,0:0:0:0:
408,200,276883,6,0,P|360:216|288:188,1,95.9999970703126,6|0,0:0|0:0,0:0:0:0:
480,148,277224,2,0,P|496:200|472:264,1,95.9999970703126,8|0,0:0|0:0,0:0:0:0:
372,344,277565,1,0,0:0:0:0:
256,152,277735,1,8,0:0:0:0:
360,340,277906,1,0,0:0:0:0:
368,206,278076,1,8,0:0:0:0:
188,280,278247,6,0,L|296:272,1,95.9999970703126,2|0,0:0|0:0,0:0:0:0:
120,216,278588,2,0,L|12:208,1,95.9999970703126,8|0,0:0|0:0,0:0:0:0:
100,356,278928,1,0,0:0:0:0:
208,200,279099,1,8,0:0:0:0:
76,88,279269,1,2,0:0:0:0:
104,90,279355,1,2,0:0:0:0:
132,92,279440,1,2,0:0:0:0:
160,94,279525,1,2,0:0:0:0:
188,97,279610,6,0,B|204:148|204:148|188:224,1,95.9999970703126,6|0,0:0|0:0,0:0:0:0:
296,36,279951,2,0,B|280:87|280:87|296:163,1,95.9999970703126,8|0,0:0|0:0,0:0:0:0:
364,240,280292,1,0,0:0:0:0:
372,88,280463,1,8,0:0:0:0:
452,240,280633,1,0,0:0:0:0:
312,140,280803,1,8,0:0:0:0:
248,320,280974,6,0,L|316:316,1,47.9999985351563,6|0,0:0|0:0,0:0:0:0:
212,240,281144,2,0,L|280:236,3,47.9999985351563
356,172,281485,6,0,L|288:168,1,47.9999985351563,6|0,0:0|0:0,0:0:0:0:
392,92,281655,2,0,L|324:88,3,47.9999985351563
232,28,281997,5,6,0:0:0:0:
256,64,282082,1,0,0:0:0:0:
252,108,282167,1,0,0:0:0:0:
220,136,282252,1,0,0:0:0:0:
180,136,282338,6,0,P|132:124|72:144,1,95.9999970703126,6|0,0:0|0:0,0:0:0:0:
24,296,282678,1,8,0:0:0:0:
176,216,282849,2,0,P|148:256|232:308,1,143.999995605469
228,312,283190,1,8,0:0:0:0:
396,280,283360,1,0,0:0:0:0:
256,180,283531,1,8,0:0:0:0:
316,360,283701,6,0,L|312:248,1,95.9999970703126,2|0,0:0|0:0,0:0:0:0:
359,100,284042,2,8,L|355:195,1,95.9999970703126,8|0,0:0|0:0,0:0:0:0:
420,292,284383,1,0,0:0:0:0:
468,188,284553,1,8,0:0:0:0:
300,262,284724,5,2,0:0:0:0:
260,264,284809,1,2,0:0:0:0:
221,265,284894,1,2,0:0:0:0:
182,267,284980,1,2,0:0:0:0:
152,300,285065,6,0,L|272:292,1,95.9999970703126,6|0,0:0|0:0,0:0:0:0:
100,364,285406,2,0,P|76:272|152:220,1,191.999994140625,8|0,0:0|0:0,0:0:0:0:
324,264,285917,1,8,0:0:0:0:
152,296,286088,1,0,0:0:0:0:
264,164,286258,1,8,0:0:0:0:
320,344,286428,5,2,0:0:0:0:
216,292,286599,1,0,0:0:0:0:
112,340,286769,1,8,0:0:0:0:
40,204,286940,2,0,B|148:200,1,95.9999970703126
308,176,287281,1,8,0:0:0:0:
104,128,287451,1,0,0:0:0:0:
212,80,287622,2,0,L|216:132,1,47.9999985351563,8|0,0:0|0:0,0:0:0:0:
328,268,287792,6,0,B|240:252|240:252|132:292,2,191.999994140625,6|8|0,0:0|0:0|0:0,0:0:0:0:
452,148,288644,1,8,0:0:0:0:
408,316,288815,1,0,0:0:0:0:
464,152,288985,1,8,0:0:0:0:
300,204,289156,2,0,P|352:196|404:208,1,95.9999970703126,2|0,0:0|0:0,0:0:0:0:
228,252,289497,2,0,P|220:200|232:148,1,95.9999970703126,8|0,0:0|0:0,0:0:0:0:
336,40,289838,5,6,0:0:0:0:
337,59,289923,1,2,0:0:0:0:
338,78,290008,1,2,0:0:0:0:
340,96,290093,1,2,0:0:0:0:
353,121,290178,5,6,0:0:0:0:
316,108,290264,1,2,0:0:0:0:
280,116,290349,1,2,0:0:0:0:
252,144,290434,1,2,0:0:0:0:
240,180,290519,6,0,P|192:188|140:180,1,95.9999970703126,6|0,0:0|0:0,0:0:0:0:
48,40,290860,2,0,P|36:124|56:240,1,191.999994140625,8|0,0:0|0:0,0:0:0:0:
168,296,291372,1,8,0:0:0:0:
240,180,291542,1,0,0:0:0:0:
132,220,291713,1,8,0:0:0:0:
308,324,291883,6,0,L|304:256,3,47.9999985351563,6|0|0|0,0:0|0:0|0:0|0:0,0:0:0:0:
388,288,292224,2,0,L|384:220,1,47.9999985351563,8|0,0:0|0:0,0:0:0:0:
240,180,292394,6,0,L|236:248,1,47.9999985351563,4|0,0:0|0:0,0:0:0:0:
160,144,292565,2,0,L|156:212,1,47.9999985351563
233,51,292735,5,8,0:0:0:0:
253,83,292820,1,8,0:0:0:0:
265,119,292906,1,14,0:0:0:0:
269,159,292991,1,8,0:0:0:0:
261,195,293076,1,8,0:0:0:0:
237,227,293161,1,8,0:0:0:0:
209,247,293247,6,0,P|261:239|313:255,1,80,6|0,0:0|0:0,0:0:0:0:
415,310,293588,1,8,0:0:0:0:
421,286,293758,1,2,0:0:0:0:
278,358,293928,1,8,0:0:0:0:
272,334,294098,1,0,0:0:0:0:
286,163,294269,2,0,L|287:250,1,80,2|0,0:0|0:0,0:0:0:0:
191,311,294610,2,0,L|191:231,1,80,2|0,0:0|0:0,0:0:0:0:
269,148,294951,5,10,0:0:0:0:
207,35,295122,1,0,0:0:0:0:
88,108,295292,2,0,P|144:116|180:108,1,80,2|0,0:0|0:0,0:0:0:0:
269,148,295633,2,0,P|308:144|347:152,1,80,2|8,0:0|0:0,0:0:0:0:
480,60,295974,6,0,B|488:112|488:112|476:232,1,160,6|8,0:0|0:0,0:0:0:0:
436,340,296485,1,0,0:0:0:0:
316,300,296655,2,0,P|310:260|314:220,1,80,8|0,0:0|0:0,0:0:0:0:
400,104,296996,2,0,P|404:143|398:183,1,80,8|0,0:0|0:0,0:0:0:0:
280,136,297338,6,0,P|232:132|176:140,1,80,14|0,0:0|0:0,0:0:0:0:
41,173,297678,2,0,P|89:177|145:169,1,80,8|2,0:0|0:0,0:0:0:0:
120,174,297934,1,0,0:0:0:0:
120,174,298019,1,0,0:0:0:0:
221,253,298190,1,10,0:0:0:0:
77,353,298360,5,0,0:0:0:0:
100,355,298445,1,0,0:0:0:0:
124,357,298531,1,8,0:0:0:0:
147,359,298616,1,0,0:0:0:0:
170,362,298701,6,0,L|275:357,1,80,4|0,0:0|0:0,0:0:0:0:
375,250,299043,2,0,B|335:262|335:262|295:250|295:250|267:266|195:246,1,160,8|2,0:0|0:0,0:0:0:0:
220,252,299553,1,8,0:0:0:0:
105,165,299724,1,0,0:0:0:0:
137,273,299894,1,8,0:0:0:0:
201,109,300065,6,0,L|297:105,1,80,2|0,0:0|0:0,0:0:0:0:
437,189,300406,2,0,L|341:185,1,80,8|0,0:0|0:0,0:0:0:0:
272,260,300747,1,0,0:0:0:0:
348,340,300917,2,0,B|356:300|348:244,1,80,0|8,0:0|0:0,0:0:0:0:
308,124,301258,1,0,0:0:0:0:
188,44,301428,5,14,0:0:0:0:
188,44,301514,1,0,0:0:0:0:
188,44,301599,2,0,L|180:96,3,40
120,136,301940,6,0,L|132:188,1,40,14|0,0:0|0:0,0:0:0:0:
200,308,302110,1,8,0:0:0:0:
200,308,302195,1,8,0:0:0:0:
200,308,302281,2,8,L|208:248,1,40
288,152,302451,2,0,L|280:212,1,40,8|8,0:0|0:0,0:0:0:0:
404,312,302622,5,14,0:0:0:0:
