osu file format v14

[General]
AudioFilename: ghostly eyes.mp3
AudioLeadIn: 0
PreviewTime: 98437
Countdown: 0
SampleSet: None
StackLeniency: 0.5
Mode: 0
LetterboxInBreaks: 0
WidescreenStoryboard: 0

[Editor]
Bookmarks: 22841,44659,55568,66307,88295,99204,121022,142499,162271,184089,194998,205736,227725,238634,260452,271361,293180,302555
DistanceSpacing: 1.2
BeatDivisor: 4
GridSize: 4
TimelineZoom: 1

[Metadata]
Title:Genshi no Yoru ~ Ghostly Eyes
TitleUnicode:幻視の夜 ~ Ghostly Eyes
Artist:Demetori
ArtistUnicode:Demetori
Creator:Alheak
Version:Bamboo Forest of the Lost
Source:東方Project
Tags:zun team shanghai alice 上海アリス幻楽団長 illusionary night touhou Eiyashou 永夜抄 Imperishable Night wriggle nightbug 如臨深遠 雨縒煙柳 sinen ni nozomu ga gotoshi metal instrumental guitar marathon
BeatmapID:824931
BeatmapSetID:376837

[Difficulty]
HPDrainRate:6
CircleSize:4
OverallDifficulty:8
ApproachRate:9
SliderMultiplier:1.5
SliderTickRate:2

[Events]
//Background and Video events
0,0,"bg.jpg",0,0
//Break Periods
//Storyboard Layer 0 (Background)
//Storyboard Layer 1 (Fail)
//Storyboard Layer 2 (Pass)
//Storyboard Layer 3 (Foreground)
//Storyboard Sound Samples

[TimingPoints]
1023,340.909090909091,4,3,1,55,1,0
22841,-100,4,3,2,55,0,0
54204,-100,4,3,1,55,0,0
55568,-100,4,3,2,55,0,0
88295,-133.333333333333,4,3,2,55,0,0
98523,-133.333333333333,4,3,1,55,0,0
99204,-100,4,3,2,60,0,1
121023,-133.333333333333,4,3,2,30,0,0
129033,-133.333333333333,4,3,0,30,0,0
129544,-133.333333333333,4,3,2,30,0,0
142499,340.909090909091,4,3,2,55,1,0
160055,-100,4,3,0,55,0,0
160226,-100,4,3,2,55,0,0
160908,-100,4,3,1,55,0,0
162271,340.909090909091,4,3,1,55,1,0
194998,-100,4,3,2,55,0,0
205736,-100,4,3,1,55,0,0
227725,-133.333333333333,4,3,2,55,0,0
238634,-100,4,3,2,60,0,1
260452,-100,4,3,2,55,0,0
271361,-100,4,3,1,55,0,0

[Colours]
Combo1 : 68,115,149
Combo2 : 38,138,61
Combo3 : 66,136,117
Combo4 : 65,77,156

[HitObjects]
274,121,1023,6,0,L|198:114,1,75,6|0,0:0|0:0,0:0:0:0:
306,211,1363,2,0,L|230:218,1,75,12|0,0:0|0:0,0:0:0:0:
309,309,1704,1,2,0:0:0:0:
139,261,1875,2,0,P|112:223|108:185,1,75,8|2,0:0|0:0,0:0:0:0:
225,29,2216,6,0,P|247:80|224:171,1,150,12|2,0:0|0:0,0:0:0:0:
294,99,2727,2,0,L|369:93,1,75,12|0,0:0|0:0,0:0:0:0:
391,98,2983,1,0,0:0:0:0:
413,103,3068,1,6,0:0:0:0:
449,217,3238,2,0,L|374:211,1,75,8|4,0:0|0:0,0:0:0:0:
344,215,3494,1,0,0:0:0:0:
315,224,3579,1,0,0:0:0:0:
288,238,3665,1,0,0:0:0:0:
265,259,3750,6,0,L|273:336,1,75,6|2,0:0|0:0,0:0:0:0:
169,225,4091,2,0,L|177:148,1,75,12|2,0:0|0:0,0:0:0:0:
236,82,4432,1,2,0:0:0:0:
259,229,4602,2,0,P|251:265|228:294,1,75,8|2,0:0|0:0,0:0:0:0:
342,267,4943,6,0,B|350:226|350:226|334:162|334:162|342:121,1,150,12|2,0:0|0:0,0:0:0:0:
430,268,5454,2,0,B|420:310|420:310|396:342,1,75,12|2,0:0|0:0,0:0:0:0:
312,352,5795,1,2,0:0:0:0:
195,249,5966,1,12,0:0:0:0:
283,267,6136,1,2,0:0:0:0:
136,317,6307,1,12,0:0:0:0:
255,182,6477,6,0,L|248:102,1,75,2|2,0:0|0:0,0:0:0:0:
360,37,6818,2,0,L|353:117,1,75,8|0,0:0|0:0,0:0:0:0:
344,201,7159,1,2,0:0:0:0:
197,277,7329,2,0,P|173:247|165:211,1,75,12|2,0:0|0:0,0:0:0:0:
255,208,7670,6,0,L|239:360,1,150,12|2,0:0|0:0,0:0:0:0:
396,356,8182,2,0,B|414:331|414:331|424:288,1,75,8|0,0:0|0:0,0:0:0:0:
429,266,8437,1,0,0:0:0:0:
434,244,8523,1,6,0:0:0:0:
277,168,8693,1,8,0:0:0:0:
265,256,8863,1,6,0:0:0:0:
349,223,9034,1,0,0:0:0:0:
165,248,9204,6,0,P|144:282|137:324,1,75,6|2,0:0|0:0,0:0:0:0:
256,223,9545,2,0,P|248:186|228:155,1,75,12|2,0:0|0:0,0:0:0:0:
65,89,9886,1,2,0:0:0:0:
65,89,10057,2,0,L|142:85,1,75,12|2,0:0|0:0,0:0:0:0:
228,155,10398,6,0,L|305:151,1,75,8|6,0:0|0:0,0:0:0:0:
274,175,10653,1,0,0:0:0:0:
253,206,10738,1,0,0:0:0:0:
245,242,10823,1,0,0:0:0:0:
250,279,10908,1,8,0:0:0:0:
375,338,11079,1,6,0:0:0:0:
436,226,11250,2,0,L|476:217,3,37.5
353,138,11591,2,0,L|313:129,3,37.5,6|0|0|0,0:0|0:0|0:0|0:0,0:0:0:0:
261,58,11932,6,0,L|173:79,1,75,6|2,0:0|0:0,0:0:0:0:
188,75,12273,1,12,0:0:0:0:
136,183,12443,2,0,L|224:204,1,75,0|2,0:0|0:0,0:0:0:0:
208,200,12784,1,8,0:0:0:0:
64,237,12954,1,2,0:0:0:0:
169,345,13125,6,0,P|236:353|301:281,1,150,12|2,0:0|0:0,0:0:0:0:
230,108,13636,1,12,0:0:0:0:
197,192,13807,2,0,P|200:229|213:265,1,75,0|2,0:0|0:0,0:0:0:0:
140,123,14148,1,8,0:0:0:0:
286,178,14318,2,0,L|321:159,1,37.5,6|0,0:0|0:0,0:0:0:0:
346,255,14488,2,0,L|382:245,1,37.5
384,344,14659,6,0,L|467:346,1,75,6|2,0:0|0:0,0:0:0:0:
295,329,15000,2,0,L|211:331,1,75,12|2,0:0|0:0,0:0:0:0:
135,361,15341,1,2,0:0:0:0:
32,253,15511,2,0,P|29:214|39:171,1,75,12|2,0:0|0:0,0:0:0:0:
167,86,15852,6,0,B|186:115|179:160|179:160|153:200|168:248,1,150,12|2,0:0|0:0,0:0:0:0:
254,212,16363,1,8,0:0:0:0:
263,122,16534,2,0,P|255:77|231:37,1,75,2|2,0:0|0:0,0:0:0:0:
369,119,16875,2,0,B|336:148|336:148|354:34,1,150,12|8,0:0|0:0,0:0:0:0:
357,39,17301,1,8,0:0:0:0:
362,35,17386,1,6,0:0:0:0:
480,90,17557,5,2,0:0:0:0:
336,148,17727,1,12,0:0:0:0:
454,193,17898,2,0,P|464:229|458:267,1,75,2|2,0:0|0:0,0:0:0:0:
341,195,18238,2,0,L|356:116,1,75,12|2,0:0|0:0,0:0:0:0:
417,186,18579,6,0,L|275:235,1,150,12|2,0:0|0:0,0:0:0:0:
163,190,19091,1,8,0:0:0:0:
257,115,19261,1,2,0:0:0:0:
275,235,19432,1,6,0:0:0:0:
257,267,19517,1,0,0:0:0:0:
230,293,19602,1,0,0:0:0:0:
196,308,19687,1,0,0:0:0:0:
158,312,19773,2,0,P|135:310|119:306,1,37.5,6|0,0:0|0:0,0:0:0:0:
163,190,19943,2,0,P|171:206|176:224,1,37.5
66,175,20113,6,0,P|53:140|50:99,1,75,6|2,0:0|0:0,0:0:0:0:
130,34,20454,2,0,L|215:25,1,75,12|0,0:0|0:0,0:0:0:0:
94,128,20795,1,2,0:0:0:0:
183,120,20966,2,0,L|257:131,1,75,12|0,0:0|0:0,0:0:0:0:
123,201,21307,1,2,0:0:0:0:
292,216,21477,6,0,P|324:193|348:120,1,112.5,12|8,0:0|0:0,0:0:0:0:
338,90,21818,2,0,L|253:80,1,75,2|2,0:0|0:0,0:0:0:0:
388,166,22159,1,8,0:0:0:0:
245,366,22500,1,2,0:0:0:0:
206,99,22841,6,0,L|272:62,1,75,6|0,0:0|0:0,0:0:0:0:
313,152,23182,2,0,L|389:154,1,75,10|0,0:0|0:0,0:0:0:0:
254,220,23523,1,2,0:0:0:0:
225,133,23693,1,0,0:0:0:0:
342,239,23863,2,0,B|350:284|350:284|348:319,1,75,10|0,0:0|0:0,0:0:0:0:
259,298,24204,5,2,0:0:0:0:
332,136,24375,1,0,0:0:0:0:
409,181,24545,2,0,B|454:189|454:189|489:187,1,75,10|0,0:0|0:0,0:0:0:0:
407,60,24886,1,2,0:0:0:0:
250,178,25057,1,0,0:0:0:0:
383,184,25227,1,10,0:0:0:0:
213,90,25398,1,0,0:0:0:0:
386,103,25568,6,0,P|423:92|454:67,1,75,2|0,0:0|0:0,0:0:0:0:
301,35,25909,2,0,L|296:109,1,75,10|0,0:0|0:0,0:0:0:0:
238,197,26250,1,2,0:0:0:0:
319,137,26420,1,0,0:0:0:0:
267,310,26591,1,10,0:0:0:0:
229,166,26761,6,0,P|175:130|91:155,1,150
42,76,27273,1,10,0:0:0:0:
156,218,27443,1,0,0:0:0:0:
59,85,27613,1,2,0:0:0:0:
86,264,27783,1,2,0:0:0:0:
69,101,27954,1,10,0:0:0:0:
3,269,28124,1,0,0:0:0:0:
164,133,28295,6,0,L|238:129,1,75,6|0,0:0|0:0,0:0:0:0:
356,252,28636,2,0,L|282:248,1,75,10|0,0:0|0:0,0:0:0:0:
182,284,28977,1,2,0:0:0:0:
136,206,29148,1,0,0:0:0:0:
77,327,29318,1,10,0:0:0:0:
106,164,29488,6,0,L|263:172,1,150
332,98,30000,2,0,P|372:82|408:81,1,75,10|0,0:0|0:0,0:0:0:0:
345,188,30341,1,2,0:0:0:0:
255,171,30511,1,0,0:0:0:0:
130,224,30682,2,0,L|125:308,1,75,10|0,0:0|0:0,0:0:0:0:
217,365,31023,5,2,0:0:0:0:
302,337,31193,1,0,0:0:0:0:
230,206,31363,2,0,P|225:162|232:126,1,75,10|0,0:0|0:0,0:0:0:0:
334,45,31704,1,2,0:0:0:0:
423,34,31875,1,0,0:0:0:0:
470,160,32045,1,10,0:0:0:0:
381,149,32216,6,0,B|373:190|373:190|389:254|389:254|381:295,1,150
299,255,32727,1,2,0:0:0:0:
462,189,32898,1,8,0:0:0:0:
407,66,33068,1,2,0:0:0:0:
376,202,33238,1,0,0:0:0:0:
250,251,33409,2,0,B|203:255|203:255|175:248,1,75,14|0,0:0|0:0,0:0:0:0:
284,166,33750,6,0,P|312:184|336:222,1,75,6|0,0:0|0:0,0:0:0:0:
304,335,34091,2,0,P|274:350|229:352,1,75,10|0,0:0|0:0,0:0:0:0:
100,255,34432,1,2,0:0:0:0:
122,341,34602,1,0,0:0:0:0:
164,191,34773,1,10,0:0:0:0:
78,167,34943,6,0,P|82:231|152:281,1,150
163,191,35454,2,0,P|195:160|230:149,1,75,10|0,0:0|0:0,0:0:0:0:
315,145,35794,1,2,0:0:0:0:
240,240,35965,1,0,0:0:0:0:
329,235,36136,2,0,P|364:220|390:193,1,75,10|0,0:0|0:0,0:0:0:0:
410,83,36477,6,0,L|398:7,1,75,2|0,0:0|0:0,0:0:0:0:
482,134,36818,2,0,L|493:208,1,75,10|0,0:0|0:0,0:0:0:0:
375,300,37159,1,2,0:0:0:0:
460,328,37329,1,0,0:0:0:0:
231,261,37500,1,10,0:0:0:0:
316,233,37670,6,0,B|342:209|386:214|386:214|427:236|462:223,1,150
435,139,38182,1,10,0:0:0:0:
350,168,38352,1,0,0:0:0:0:
276,19,38523,1,2,0:0:0:0:
343,78,38693,1,0,0:0:0:0:
252,217,38863,1,10,0:0:0:0:
269,128,39033,1,2,0:0:0:0:
337,247,39204,6,0,P|311:287|278:304,1,75,6|0,0:0|0:0,0:0:0:0:
168,270,39545,2,0,P|125:248|88:250,1,75,10|0,0:0|0:0,0:0:0:0:
24,342,39886,1,2,0:0:0:0:
157,317,40057,1,0,0:0:0:0:
37,324,40227,1,10,0:0:0:0:
139,235,40398,6,0,B|132:120|132:120|140:70,1,150
275,24,40909,2,0,B|280:62|280:62|274:105,1,75,10|2,0:0|0:0,0:0:0:0:
271,121,41165,1,2,0:0:0:0:
267,143,41250,1,2,0:0:0:0:
229,236,41420,1,0,0:0:0:0:
181,109,41591,1,10,0:0:0:0:
308,61,41761,1,2,0:0:0:0:
356,188,41932,6,0,L|445:195,1,75,6|0,0:0|0:0,0:0:0:0:
305,114,42273,1,2,0:0:0:0:
319,270,42443,1,12,0:0:0:0:
267,196,42613,1,2,0:0:0:0:
305,114,42784,1,0,0:0:0:0:
319,270,42954,2,0,L|403:299,1,75,14|0,0:0|0:0,0:0:0:0:
389,295,43210,1,0,0:0:0:0:
389,295,43295,1,10,0:0:0:0:
205,197,43466,5,8,0:0:0:0:
223,230,43551,1,8,0:0:0:0:
227,267,43636,1,10,0:0:0:0:
217,303,43721,1,0,0:0:0:0:
194,333,43807,1,0,0:0:0:0:
159,346,43892,1,0,0:0:0:0:
121,348,43977,2,0,L|74:337,3,37.5,2|8|8|0,0:0|0:0|0:0|0:0,0:0:0:0:
62,228,44318,2,0,L|109:217,3,37.5,10|0|8|8,0:0|0:0|0:0|0:0,0:0:0:0:
125,109,44659,5,6,0:0:0:0:
363,79,45000,1,6,0:0:0:0:
246,271,45341,2,0,L|165:280,1,75,14|0,0:0|0:0,0:0:0:0:
113,348,45682,1,2,0:0:0:0:
259,177,45852,2,0,L|415:159,1,150,12|0,0:0|0:0,0:0:0:0:
259,177,46534,1,8,0:0:0:0:
177,139,46704,1,6,0:0:0:0:
95,101,46875,1,4,0:0:0:0:
244,84,47045,2,0,L|332:74,1,75,14|0,0:0|0:0,0:0:0:0:
411,174,47386,6,0,L|323:164,1,75,6|0,0:0|0:0,0:0:0:0:
445,270,47727,1,10,0:0:0:0:
138,297,48068,2,0,P|138:226|79:172,1,150,6|2,0:0|0:0,0:0:0:0:
57,261,48579,1,8,0:0:0:0:
138,297,48750,6,0,L|225:288,1,75,6|0,0:0|0:0,0:0:0:0:
261,179,49091,1,10,0:0:0:0:
213,69,49261,2,0,L|219:25,5,37.5,0|0|2|0|0|0,0:0|0:0|0:0|0:0|0:0|0:0,0:0:0:0:
325,70,49773,2,0,L|352:34,3,37.5,6|0|0|0,0:0|0:0|0:0|0:0,0:0:0:0:
394,169,50113,6,0,P|434:195|467:200,1,75,6|0,0:0|0:0,0:0:0:0:
310,203,50454,2,0,P|270:177|237:172,1,75,10|0,0:0|0:0,0:0:0:0:
381,260,50795,2,0,L|388:175,1,75,6|8,0:0|0:0,0:0:0:0:
297,293,51136,1,2,0:0:0:0:
366,350,51307,6,0,L|443:313,2,75,4|10|0,0:0|0:0|0:0,0:0:0:0:
216,360,51818,1,6,0:0:0:0:
106,259,51988,2,0,B|101:149|101:149|112:104,1,150,8|0,0:0|0:0,0:0:0:0:
143,25,52500,1,10,0:0:0:0:
154,35,52841,6,0,L|239:44,1,75,6|0,0:0|0:0,0:0:0:0:
378,30,53182,1,10,0:0:0:0:
390,39,53523,1,10,0:0:0:0:
402,48,53863,1,2,0:0:0:0:
235,177,54034,6,0,B|230:287|230:287|241:332,1,150,10|2,0:0|0:0,0:0:0:0:
315,277,54545,1,2,0:0:0:0:
150,204,54716,1,8,0:0:0:0:
270,88,54886,1,0,0:0:0:0:
275,74,54971,1,0,0:0:0:0:
277,59,55057,1,0,0:0:0:0:
167,11,55227,1,0,0:0:0:0:
88,101,55398,1,0,0:0:0:0:
150,204,55568,6,0,L|238:210,1,75,6|0,0:0|0:0,0:0:0:0:
323,153,55909,2,0,L|364:90,1,75,10|0,0:0|0:0,0:0:0:0:
327,265,56250,1,2,0:0:0:0:
345,352,56420,1,0,0:0:0:0:
197,326,56591,1,10,0:0:0:0:
215,239,56761,6,0,P|203:162|134:124,1,150
67,250,57273,2,0,P|102:240|129:214,1,75,10|2,0:0|0:0,0:0:0:0:
140,194,57528,1,2,0:0:0:0:
145,172,57613,1,2,0:0:0:0:
130,38,57784,1,0,0:0:0:0:
58,161,57954,1,10,0:0:0:0:
230,98,58125,6,0,B|341:105|341:105|385:98,1,150,2|0,0:0|0:0,0:0:0:0:
271,17,58636,2,0,B|261:48|261:48|257:92,1,75,10|2,0:0|0:0,0:0:0:0:
257,90,58892,1,2,0:0:0:0:
257,90,58977,1,2,0:0:0:0:
417,56,59148,1,0,0:0:0:0:
448,210,59318,1,10,0:0:0:0:
347,95,59488,6,0,P|294:102|241:192,1,150
300,316,60000,2,0,L|372:349,1,75,10|0,0:0|0:0,0:0:0:0:
286,240,60341,2,0,L|214:273,1,75,2|0,0:0|0:0,0:0:0:0:
114,358,60682,1,10,0:0:0:0:
64,233,60852,6,0,L|56:157,2,75,0|2|0,0:0|0:0|0:0,0:0:0:0:
156,155,61363,2,0,L|164:79,1,75,10|2,0:0|0:0,0:0:0:0:
163,80,61619,1,2,0:0:0:0:
163,80,61704,1,2,0:0:0:0:
56,158,61875,1,0,0:0:0:0:
185,234,62045,1,10,0:0:0:0:
187,85,62216,6,0,B|201:71|201:71|224:71|224:71|249:46|281:30|328:37,1,150
457,131,62727,2,0,P|464:169|453:217,1,75,10|0,0:0|0:0,0:0:0:0:
334,325,63068,2,0,P|327:287|338:239,1,75,2|0,0:0|0:0,0:0:0:0:
374,170,63409,1,10,0:0:0:0:
416,286,63579,1,0,0:0:0:0:
334,325,63750,6,0,L|246:335,1,75,2|0,0:0|0:0,0:0:0:0:
152,245,64091,2,0,L|77:236,1,75,10|0,0:0|0:0,0:0:0:0:
171,334,64432,1,2,0:0:0:0:
237,273,64602,2,0,P|240:226|218:181,1,75,2|8,0:0|0:0,0:0:0:0:
333,51,64943,6,0,P|321:100|340:201,1,150,6|0,0:0|0:0,0:0:0:0:
428,277,65454,2,0,L|508:288,1,75,10|2,0:0|0:0,0:0:0:0:
347,317,65795,1,2,0:0:0:0:
266,357,65966,1,6,0:0:0:0:
353,227,66136,1,8,0:0:0:0:
422,368,66307,6,0,L|286:277,1,150,6|0,0:0|0:0,0:0:0:0:
373,146,66818,2,0,P|370:183|379:229,1,75,10|0,0:0|0:0,0:0:0:0:
447,93,67159,1,2,0:0:0:0:
283,76,67329,1,0,0:0:0:0:
418,64,67500,1,10,0:0:0:0:
263,5,67670,6,0,B|233:16|219:41|219:41|181:68|125:60,1,150
283,76,68182,2,0,P|294:115|291:160,1,75,10|2,0:0|0:0,0:0:0:0:
292,156,68437,1,2,0:0:0:0:
290,163,68523,1,2,0:0:0:0:
148,213,68693,1,0,0:0:0:0:
39,134,68863,1,10,0:0:0:0:
204,143,69034,6,0,B|214:210|186:252|186:252|228:234,1,150
365,197,69545,2,0,P|408:196|445:217,1,75,10|2,0:0|0:0,0:0:0:0:
441,215,69801,1,2,0:0:0:0:
446,221,69886,1,2,0:0:0:0:
306,265,70057,1,0,0:0:0:0:
398,141,70227,1,10,0:0:0:0:
249,176,70398,1,0,0:0:0:0:
314,61,70568,6,0,L|396:57,1,75,2|0,0:0|0:0,0:0:0:0:
243,124,70909,2,0,L|161:120,1,75,10|0,0:0|0:0,0:0:0:0:
168,120,71250,1,2,0:0:0:0:
84,57,71420,1,0,0:0:0:0:
175,230,71591,1,8,0:0:0:0:
323,128,71761,6,0,P|326:69|259:13,1,150,2|0,0:0|0:0,0:0:0:0:
236,147,72273,2,0,P|248:178|290:213,1,75,10|2,0:0|0:0,0:0:0:0:
277,206,72528,1,2,0:0:0:0:
277,206,72613,1,2,0:0:0:0:
413,128,72784,1,0,0:0:0:0:
278,51,72954,1,10,0:0:0:0:
359,12,73125,6,0,L|370:161,1,150
209,195,73636,2,0,L|214:120,1,75,10|0,0:0|0:0,0:0:0:0:
125,40,73977,1,2,0:0:0:0:
117,130,74148,1,0,0:0:0:0:
109,220,74318,1,10,0:0:0:0:
199,93,74488,5,0,0:0:0:0:
117,130,74659,1,2,0:0:0:0:
35,167,74829,1,0,0:0:0:0:
190,183,75000,2,0,L|270:154,1,75,10|2,0:0|0:0,0:0:0:0:
260,157,75255,1,2,0:0:0:0:
260,157,75341,1,2,0:0:0:0:
383,72,75511,1,0,0:0:0:0:
296,45,75682,1,10,0:0:0:0:
372,174,75852,5,2,0:0:0:0:
377,188,75937,1,2,0:0:0:0:
382,202,76023,1,2,0:0:0:0:
275,284,76193,1,2,0:0:0:0:
280,270,76278,1,2,0:0:0:0:
285,256,76364,1,2,0:0:0:0:
370,340,76534,1,8,0:0:0:0:
169,287,76704,1,0,0:0:0:0:
169,287,76875,1,2,0:0:0:0:
254,371,77045,1,8,0:0:0:0:
285,256,77216,6,0,B|269:158|269:158|269:100,1,150,6|0,0:0|0:0,0:0:0:0:
373,236,77727,2,0,P|370:287|346:322,1,75,10|0,0:0|0:0,0:0:0:0:
204,249,78068,1,2,0:0:0:0:
287,215,78238,1,0,0:0:0:0:
191,338,78409,1,10,0:0:0:0:
132,193,78579,6,0,P|105:159|2:156,1,150
125,283,79091,2,0,L|204:279,1,75,10|0,0:0|0:0,0:0:0:0:
51,232,79432,1,2,0:0:0:0:
45,322,79602,1,0,0:0:0:0:
132,193,79773,1,10,0:0:0:0:
73,68,79943,6,0,B|118:61|155:79|155:79|190:75|215:45,1,150
332,38,80454,2,0,L|321:113,1,75,10|0,0:0|0:0,0:0:0:0:
214,243,80795,1,2,0:0:0:0:
229,146,80966,1,0,0:0:0:0:
152,84,81136,1,10,0:0:0:0:
306,208,81307,1,0,0:0:0:0:
346,63,81477,6,0,L|354:19,2,37.5,2|0|0,0:0|0:0|0:0,0:0:0:0:
328,167,81818,2,0,L|336:253,1,75,10|0,0:0|0:0,0:0:0:0:
257,113,82159,1,2,0:0:0:0:
186,59,82329,1,0,0:0:0:0:
339,77,82500,1,8,0:0:0:0:
246,203,82670,6,0,B|213:226|175:230|137:218|137:218|120:182,1,150,2|0,0:0|0:0,0:0:0:0:
45,269,83182,2,0,B|60:302|60:302|82:317|107:324,1,75,10|0,0:0|0:0,0:0:0:0:
257,315,83523,2,0,L|263:278,1,37.5,2|2,0:0|0:0,0:0:0:0:
255,234,83693,1,0,0:0:0:0:
121,185,83863,1,10,0:0:0:0:
203,119,84034,6,0,B|243:106|277:112|277:112|301:120|301:120|327:118|327:118|353:126,1,150
462,200,84545,2,0,L|471:125,1,75,10|0,0:0|0:0,0:0:0:0:
359,49,84886,1,2,0:0:0:0:
325,29,84972,1,2,0:0:0:0:
290,14,85057,1,2,0:0:0:0:
277,148,85227,1,10,0:0:0:0:
471,125,85398,1,0,0:0:0:0:
357,230,85568,6,0,L|369:319,1,75,14|0,0:0|0:0,0:0:0:0:
384,143,85909,1,2,0:0:0:0:
270,248,86079,2,0,L|235:331,1,75,8|2,0:0|0:0,0:0:0:0:
128,196,86420,1,0,0:0:0:0:
121,159,86505,1,0,0:0:0:0:
126,121,86591,2,0,P|160:105|203:98,1,75,14|0,0:0|0:0,0:0:0:0:
270,112,86846,1,0,0:0:0:0:
307,119,86932,6,0,P|343:112|377:96,1,75,10|0,0:0|0:0,0:0:0:0:
362,130,87187,1,0,0:0:0:0:
354,167,87273,2,0,P|353:188|355:212,1,37.5,10|0,0:0|0:0,0:0:0:0:
392,302,87443,2,0,P|374:290|352:280,1,37.5,8|0,0:0|0:0,0:0:0:0:
279,267,87613,2,0,P|258:266|234:268,1,37.5,4|0,0:0|0:0,0:0:0:0:
163,293,87784,2,0,P|144:302|124:316,1,37.5,4|0,0:0|0:0,0:0:0:0:
38,375,87954,5,8,0:0:0:0:
52,330,88039,1,0,0:0:0:0:
58,284,88124,1,0,0:0:0:0:
56,237,88209,1,0,0:0:0:0:
44,191,88295,6,0,P|51:118|78:91,1,112.500004291535,4|4,0:0|0:0,0:0:0:0:
225,142,88977,2,0,P|177:170|123:163,1,112.500004291535,12|4,0:0|0:0,0:0:0:0:
92,10,89659,2,0,P|151:52|161:89,1,112.500004291535,4|4,0:0|0:0,0:0:0:0:
127,242,90341,1,4,0:0:0:0:
188,290,90511,2,0,P|214:303|245:308,1,56.2500021457673,8|4,0:0|0:0,0:0:0:0:
393,266,90852,5,0,0:0:0:0:
398,250,90937,1,8,0:0:0:0:
404,234,91023,2,0,L|410:113,1,112.500004291535,4|4,0:0|0:0,0:0:0:0:
252,34,91704,2,0,L|258:155,1,112.500004291535,12|4,0:0|0:0,0:0:0:0:
193,210,92216,1,8,0:0:0:0:
106,187,92386,2,0,B|77:179|77:179|82:262,1,112.500004291535,4|4,0:0|0:0,0:0:0:0:
250,295,93068,2,0,L|327:316,1,56.2500021457673,4|8,0:0|0:0,0:0:0:0:
337,278,93324,1,0,0:0:0:0:
369,246,93409,2,0,L|446:267,1,56.2500021457673,4|8,0:0|0:0,0:0:0:0:
357,201,93665,1,0,0:0:0:0:
346,157,93750,6,0,L|233:124,1,112.500004291535,4|4,0:0|0:0,0:0:0:0:
61,163,94432,2,0,P|53:218|68:280,1,112.500004291535,12|4,0:0|0:0,0:0:0:0:
142,319,94943,1,8,0:0:0:0:
168,327,95028,1,0,0:0:0:0:
195,334,95113,2,0,B|238:330|238:330|262:338|262:338|305:334,1,112.500004291535,4|4,0:0|0:0,0:0:0:0:
387,255,95795,2,0,B|344:259|344:259|320:251|320:251|277:255,1,112.500004291535,12|4,0:0|0:0,0:0:0:0:
189,189,96477,6,0,B|169:109|169:109|168:67,1,112.500004291535,4|4,0:0|0:0,0:0:0:0:
342,79,97159,2,0,B|342:109|342:109|322:189,1,112.500004291535,12|4,0:0|0:0,0:0:0:0:
256,252,97670,1,8,0:0:0:0:
256,280,97755,1,0,0:0:0:0:
256,308,97841,1,4,0:0:0:0:
329,360,98011,1,8,0:0:0:0:
402,307,98182,2,0,L|409:231,1,56.2500021457673,12|0,0:0|0:0,0:0:0:0:
330,88,98523,5,2,0:0:0:0:
287,251,98693,1,2,0:0:0:0:
198,108,98863,5,2,0:0:0:0:
241,271,99033,1,8,0:0:0:0:
361,153,99205,6,0,P|405:140|439:142,1,75,6|0,0:0|0:0,0:0:0:0:
384,242,99545,2,0,P|346:241|311:230,1,75,10|0,0:0|0:0,0:0:0:0:
225,146,99886,1,2,0:0:0:0:
203,28,100057,1,0,0:0:0:0:
316,67,100227,1,10,0:0:0:0:
148,100,100398,6,0,P|138:166|189:229,1,150
225,146,100909,1,10,0:0:0:0:
47,117,101080,1,0,0:0:0:0:
203,28,101250,1,2,0:0:0:0:
39,101,101420,1,0,0:0:0:0:
228,152,101591,2,0,P|255:177|274:214,1,75,10|0,0:0|0:0,0:0:0:0:
148,105,101932,6,0,B|188:78|188:78|213:69,1,75,2|0,0:0|0:0,0:0:0:0:
406,110,102273,2,0,B|366:137|366:137|319:152,1,75,10|0,0:0|0:0,0:0:0:0:
228,152,102614,1,2,0:0:0:0:
295,289,102784,1,0,0:0:0:0:
149,211,102955,1,10,0:0:0:0:
303,119,103125,5,2,0:0:0:0:
308,105,103210,1,2,0:0:0:0:
311,90,103295,2,0,P|309:51|292:15,1,75,2|0,0:0|0:0,0:0:0:0:
161,42,103636,1,10,0:0:0:0:
223,179,103807,1,0,0:0:0:0:
68,204,103977,1,2,0:0:0:0:
99,119,104148,1,0,0:0:0:0:
99,289,104318,1,10,0:0:0:0:
68,204,104489,1,0,0:0:0:0:
246,93,104659,6,0,P|305:90|369:170,1,150,6|10,0:0|0:0,0:0:0:0:
312,323,105170,1,0,0:0:0:0:
261,248,105341,2,0,P|263:210|279:177,1,75,2|0,0:0|0:0,0:0:0:0:
159,240,105682,1,10,0:0:0:0:
350,233,105852,6,0,P|387:173|403:94,1,150
231,37,106364,2,0,P|236:84|248:117,1,75,10|2,0:0|0:0,0:0:0:0:
245,110,106619,1,2,0:0:0:0:
245,110,106705,1,2,0:0:0:0:
370,162,106875,1,0,0:0:0:0:
309,25,107045,1,10,0:0:0:0:
285,192,107216,6,0,B|260:218|260:218|221:225|221:225|178:243|160:282,1,150
157,148,107727,2,0,P|135:110|105:88,1,75,10|0,0:0|0:0,0:0:0:0:
55,198,108068,1,2,0:0:0:0:
166,245,108239,1,0,0:0:0:0:
69,317,108409,1,10,0:0:0:0:
52,152,108580,1,0,0:0:0:0:
103,283,108750,5,14,0:0:0:0:
120,118,108920,2,0,L|201:113,1,75,0|2,0:0|0:0,0:0:0:0:
251,253,109261,2,0,L|170:248,1,75,8|2,0:0|0:0,0:0:0:0:
176,248,109517,1,2,0:0:0:0:
176,248,109602,1,2,0:0:0:0:
120,118,109773,1,10,0:0:0:0:
70,306,109943,1,0,0:0:0:0:
287,170,110114,6,0,P|295:119|288:78,1,75,6|0,0:0|0:0,0:0:0:0:
251,253,110455,2,0,P|243:304|250:345,1,75,10|0,0:0|0:0,0:0:0:0:
340,244,110795,1,2,0:0:0:0:
199,179,110966,1,0,0:0:0:0:
268,122,111136,1,10,0:0:0:0:
271,301,111307,6,0,P|342:335|405:306,1,150
418,128,111818,1,10,0:0:0:0:
340,244,111989,1,2,0:0:0:0:
337,239,112074,1,2,0:0:0:0:
334,233,112159,1,2,0:0:0:0:
279,119,112330,1,0,0:0:0:0:
353,67,112500,1,10,0:0:0:0:
259,207,112670,2,0,L|219:219,1,37.5
235,237,112841,6,0,L|80:230,1,150,2|10,0:0|0:0,0:0:0:0:
85,230,113352,1,0,0:0:0:0:
223,322,113523,1,2,0:0:0:0:
148,371,113693,1,0,0:0:0:0:
192,219,113864,1,10,0:0:0:0:
96,104,114034,6,0,B|81:80|81:80|207:92,1,150
329,45,114545,1,10,0:0:0:0:
343,180,114716,1,0,0:0:0:0:
408,29,114886,1,2,0:0:0:0:
408,29,115057,1,0,0:0:0:0:
270,118,115227,1,10,0:0:0:0:
426,174,115398,1,0,0:0:0:0:
257,140,115568,6,0,B|219:144|186:160,1,75,6|0,0:0|0:0,0:0:0:0:
127,315,115909,2,0,B|165:311|198:295,1,75,10|0,0:0|0:0,0:0:0:0:
293,220,116250,1,2,0:0:0:0:
185,160,116420,1,0,0:0:0:0:
188,284,116591,1,10,0:0:0:0:
270,133,116761,6,0,L|118:123,1,150
92,272,117273,2,0,L|179:267,1,75,10|0,0:0|0:0,0:0:0:0:
309,183,117614,2,0,L|221:187,1,75,2|0,0:0|0:0,0:0:0:0:
234,187,117869,1,0,0:0:0:0:
234,187,117955,1,8,0:0:0:0:
381,237,118125,6,0,P|399:186|393:149,1,75,4|0,0:0|0:0,0:0:0:0:
260,61,118466,1,12,0:0:0:0:
260,61,118636,2,0,L|179:58,1,75,12|0,0:0|0:0,0:0:0:0:
291,143,118977,2,0,L|372:140,1,75,12|0,0:0|0:0,0:0:0:0:
234,213,119318,1,0,0:0:0:0:
123,136,119489,1,0,0:0:0:0:
245,78,119659,6,0,L|310:68,2,50,4|0|0,0:0|0:0|0:0,0:0:0:0:
155,122,120000,2,0,L|105:114,2,50
245,166,120341,2,0,L|294:158,2,50
161,222,120682,1,0,0:0:0:0:
143,300,120795,1,0,0:0:0:0:
194,362,120909,1,0,0:0:0:0:
275,360,121023,6,0,B|313:349|347:308|347:261|347:261|370:229|399:217|434:214,1,225.000008583069,4|0,0:0|0:0,0:0:0:0:
242,259,122386,2,0,P|176:195|234:86,1,225.000008583069
405,55,123750,5,6,0:0:0:0:
422,70,124773,2,0,B|417:109|423:146|445:178|445:178|407:189|380:207|365:241|365:241|365:280|346:324|310:346,1,337.500012874604,6|0,0:0|0:0,0:0:0:0:
272,361,125966,1,8,0:0:0:0:
191,252,126477,6,0,B|164:264|146:284|146:284|105:283|68:264|51:233,2,168.750006437302,6|6|6,0:0|0:0|0:0,0:0:0:0:
280,234,127841,2,0,B|305:230|326:235|326:235|351:214|361:178,1,112.500004291535,2|2,0:0|0:0,0:0:0:0:
393,95,128523,1,2,0:0:0:0:
354,72,128693,2,0,L|235:76,1,112.500004291535,8|8,0:0|0:0,0:0:0:0:
130,58,129375,5,8,0:0:0:0:
77,171,129716,1,4,0:0:0:0:
77,171,129886,2,0,P|119:169|160:179,1,84.3750032186509,8|4,0:0|0:0,0:0:0:0:
232,240,130398,2,0,P|277:250|323:247,2,84.3750032186509,8|8|4,0:0|0:0|0:0,0:0:0:0:
153,209,131080,1,0,0:0:0:0:
149,205,131165,1,0,0:0:0:0:
145,201,131250,2,0,P|100:189|84:189,1,56.2500021457673,8|0,0:0|0:0,0:0:0:0:
56,263,131591,1,4,0:0:0:0:
93,332,131761,1,0,0:0:0:0:
169,350,131932,6,0,B|206:353|206:353|235:348,1,56.2500021457673,8|0,0:0|0:0,0:0:0:0:
301,331,132273,2,0,B|319:327|319:327|356:330,1,56.2500021457673,12|0,0:0|0:0,0:0:0:0:
421,285,132614,1,4,0:0:0:0:
421,285,132784,2,0,P|439:246|443:176,1,112.500004291535
255,111,133295,5,4,0:0:0:0:
345,101,133466,1,0,0:0:0:0:
272,267,133636,1,12,0:0:0:0:
218,194,133806,1,0,0:0:0:0:
399,174,133978,1,0,0:0:0:0:
363,257,134148,1,8,0:0:0:0:
255,111,134318,6,0,P|201:105|144:142,1,112.500004291535,4|0,0:0|0:0,0:0:0:0:
137,302,134830,1,0,0:0:0:0:
200,246,135000,2,0,P|213:221|218:194,1,56.2500021457673,8|0,0:0|0:0,0:0:0:0:
133,79,135341,2,0,P|138:107|151:132,1,56.2500021457673
309,193,135682,1,2,0:0:0:0:
386,202,135852,1,2,0:0:0:0:
308,91,136023,5,0,0:0:0:0:
231,100,136193,1,4,0:0:0:0:
309,193,136364,1,8,0:0:0:0:
200,171,136534,2,0,L|126:163,1,56.2500021457673,4|0,0:0|0:0,0:0:0:0:
72,120,136875,1,0,0:0:0:0:
120,245,137045,6,0,P|123:279|115:332,2,84.3750032186509,4|0|0,0:0|0:0|0:0,0:0:0:0:
144,164,137727,1,12,0:0:0:0:
211,111,137898,2,0,P|245:97|271:93,1,56.2500021457673,0|4,0:0|0:0,0:0:0:0:
219,197,138239,1,8,0:0:0:0:
296,190,138410,2,0,P|332:194|356:204,1,56.2500021457673,4|0,0:0|0:0,0:0:0:0:
410,335,138750,5,8,0:0:0:0:
444,264,138920,2,0,L|449:195,1,56.2500021457673,0|12,0:0|0:0,0:0:0:0:
384,76,139261,2,0,L|389:145,1,56.2500021457673,0|4,0:0|0:0,0:0:0:0:
340,195,139602,1,8,0:0:0:0:
231,74,139773,1,4,0:0:0:0:
307,55,139943,1,0,0:0:0:0:
195,146,140114,5,10,0:0:0:0:
119,127,140284,2,0,P|85:126|55:134,1,56.2500021457673,0|2,0:0|0:0,0:0:0:0:
188,228,140625,2,0,P|205:199|213:169,1,56.2500021457673,8|2,0:0|0:0,0:0:0:0:
66,237,140966,2,0,P|82:266|104:288,1,56.2500021457673,8|2,0:0|0:0,0:0:0:0:
122,296,141222,1,2,0:0:0:0:
149,303,141307,1,2,0:0:0:0:
282,282,141477,5,8,0:0:0:0:
384,193,141648,2,0,B|392:81|392:81|379:24,1,168.750006437302,6|0,0:0|0:0,0:0:0:0:
220,107,142499,6,0,P|202:111|179:113,3,37.5,4|0|0|0,0:0|0:0|0:0|0:0,0:0:0:0:
286,174,142839,2,0,P|272:186|253:199,3,37.5,10|0|0|0,0:0|0:0|0:0|0:0,0:0:0:0:
382,167,143180,2,0,L|423:168,1,37.5,2|0,0:0|0:0,0:0:0:0:
391,270,143351,2,0,L|426:291,1,37.5
299,317,143521,1,10,0:0:0:0:
159,214,143692,6,0,P|106:210|85:213,1,75,0|2,0:0|0:0,0:0:0:0:
80,217,143947,1,0,0:0:0:0:
76,222,144033,1,2,0:0:0:0:
172,337,144203,1,10,0:0:0:0:
261,197,144374,1,0,0:0:0:0:
295,279,144544,1,2,0:0:0:0:
179,162,144714,2,0,L|188:81,1,75,12|2,0:0|0:0,0:0:0:0:
191,82,144970,1,2,0:0:0:0:
195,77,145055,1,2,0:0:0:0:
304,57,145226,5,0,0:0:0:0:
426,143,145396,1,8,0:0:0:0:
341,175,145567,2,0,B|329:222|329:222|329:258,1,75,0|2,0:0|0:0,0:0:0:0:
420,349,145908,2,0,B|432:302|432:302|432:266,1,75,2|10,0:0|0:0,0:0:0:0:
426,143,146249,1,2,0:0:0:0:
329,248,146419,6,0,B|288:256|288:256|224:240|224:240|183:248,1,150,2|2,0:0|0:0,0:0:0:0:
222,328,146930,1,2,0:0:0:0:
289,168,147101,2,0,P|292:119|286:88,1,75,8|0,0:0|0:0,0:0:0:0:
285,88,147356,1,0,0:0:0:0:
283,82,147442,1,2,0:0:0:0:
167,52,147612,1,0,0:0:0:0:
311,9,147783,1,10,0:0:0:0:
207,137,147953,6,0,L|198:238,1,75,0|2,0:0|0:0,0:0:0:0:
307,329,148294,1,2,0:0:0:0:
311,324,148464,2,0,L|302:223,1,75,10|2,0:0|0:0,0:0:0:0:
411,132,148806,1,2,0:0:0:0:
415,137,148976,2,0,L|406:238,1,75,0|8,0:0|0:0,0:0:0:0:
308,80,149317,5,0,0:0:0:0:
395,58,149487,1,2,0:0:0:0:
263,158,149658,1,10,0:0:0:0:
176,136,149828,1,2,0:0:0:0:
287,246,149999,2,0,P|322:225|345:194,1,75
238,72,150339,1,8,0:0:0:0:
395,58,150510,6,0,P|416:133|425:211,1,150,2|2,0:0|0:0,0:0:0:0:
377,331,151021,2,0,L|298:336,1,75,8|2,0:0|0:0,0:0:0:0:
298,340,151277,1,0,0:0:0:0:
294,345,151362,1,2,0:0:0:0:
161,275,151533,1,8,0:0:0:0:
167,238,151618,1,8,0:0:0:0:
161,201,151703,1,8,0:0:0:0:
93,93,151874,5,4,0:0:0:0:
71,218,152044,1,0,0:0:0:0:
250,229,152214,2,0,P|288:225|324:211,1,75,10|0,0:0|0:0,0:0:0:0:
280,95,152555,1,2,0:0:0:0:
148,136,152726,1,0,0:0:0:0:
250,229,152896,2,0,L|246:312,1,75,8|0,0:0|0:0,0:0:0:0:
368,364,153237,5,2,0:0:0:0:
368,364,153322,1,0,0:0:0:0:
368,364,153408,2,0,L|364:281,1,75,2|10,0:0|0:0,0:0:0:0:
381,155,153749,1,0,0:0:0:0:
456,203,153919,1,2,0:0:0:0:
288,207,154089,2,0,P|248:190|219:169,1,75,10|2,0:0|0:0,0:0:0:0:
172,46,154430,1,2,0:0:0:0:
129,125,154601,1,0,0:0:0:0:
288,100,154771,5,8,0:0:0:0:
269,242,154942,2,0,P|252:275|229:305,1,75,0|2,0:0|0:0,0:0:0:0:
133,199,155283,2,0,L|129:125,1,75,2|10,0:0|0:0,0:0:0:0:
241,140,155624,2,0,L|245:65,1,75,2|2,0:0|0:0,0:0:0:0:
287,49,155879,2,0,P|334:52|366:70,1,75
390,97,156135,5,0,0:0:0:0:
413,230,156305,1,2,0:0:0:0:
278,238,156476,2,0,B|272:283|272:283|275:319,1,75,8|2,0:0|0:0,0:0:0:0:
277,318,156731,1,0,0:0:0:0:
279,324,156817,1,4,0:0:0:0:
391,320,156987,1,0,0:0:0:0:
354,174,157158,1,10,0:0:0:0:
420,234,157328,6,0,L|501:238,1,75,0|2,0:0|0:0,0:0:0:0:
420,114,157669,1,2,0:0:0:0:
354,174,157839,2,0,L|273:178,1,75,10|2,0:0|0:0,0:0:0:0:
150,137,158180,2,0,L|107:135,2,37.5,2|0|0,0:0|0:0|0:0,0:0:0:0:
242,71,158521,1,8,0:0:0:0:
279,177,158692,6,0,P|271:234|257:260,1,75,0|2,0:0|0:0,0:0:0:0:
121,296,159033,2,0,P|129:239|143:213,1,75,10|2,0:0|0:0,0:0:0:0:
213,335,159374,1,2,0:0:0:0:
357,255,159544,2,0,P|374:261|389:272,2,37.5,8|8|0,0:0|0:0|0:0,0:0:0:0:
251,128,159885,1,6,0:0:0:0:
367,60,160055,1,8,0:0:0:0:
205,26,160226,6,0,L|165:20,3,37.5,0|8|0|0,0:0|0:0|0:0|0:0,0:0:0:0:
144,112,160567,2,0,L|106:126,3,37.5,8|0|0|0,0:0|0:0|0:0|0:0,0:0:0:0:
181,205,160908,2,0,B|123:253|123:253|101:293,2,112.5,6|6|8,0:0|0:0|0:0,0:0:0:0:
326,243,161589,5,2,0:0:0:0:
434,138,161760,1,2,0:0:0:0:
433,123,161845,2,0,B|421:87|421:87|398:57|357:49,1,112.5,2|0,0:0|0:0,0:0:0:0:
244,115,162271,6,0,L|224:157,5,37.5,12|0|2|0|2|0,0:0|0:0|0:0|0:0|0:0|0:0,0:0:0:0:
126,71,162782,2,0,L|146:113,5,37.5,8|0|2|0|2|0,0:0|0:0|0:0|0:0|0:0|0:0,0:0:0:0:
77,172,163293,2,0,L|115:198,5,37.5,8|0|2|0|2|0,0:0|0:0|0:0|0:0|0:0|0:0,0:0:0:0:
85,283,163805,2,0,L|131:286,5,37.5,8|0|2|0|2|0,0:0|0:0|0:0|0:0|0:0|0:0,0:0:0:0:
219,326,164316,2,0,L|216:241,1,75,8|2,0:0|0:0,0:0:0:0:
328,150,164657,2,0,L|325:235,1,75,12|0,0:0|0:0,0:0:0:0:
220,116,164998,6,0,P|226:97|236:81,5,37.5,6|0|2|0|2|0,0:0|0:0|0:0|0:0|0:0|0:0,0:0:0:0:
305,54,165509,1,8,0:0:0:0:
328,59,165594,1,0,0:0:0:0:
353,66,165679,1,2,0:0:0:0:
374,77,165764,1,0,0:0:0:0:
396,89,165849,1,2,0:0:0:0:
416,104,165935,1,0,0:0:0:0:
434,122,166021,6,0,P|446:142|454:164,5,37.5,8|0|2|0|2|0,0:0|0:0|0:0|0:0|0:0|0:0,0:0:0:0:
442,229,166532,1,10,0:0:0:0:
418,222,166617,1,0,0:0:0:0:
393,217,166702,1,2,0:0:0:0:
369,215,166787,1,0,0:0:0:0:
344,214,166872,1,2,0:0:0:0:
319,215,166958,1,0,0:0:0:0:
294,218,167043,2,0,P|244:231|214:248,1,75,8|2,0:0|0:0,0:0:0:0:
121,133,167384,2,0,P|171:120|201:103,1,75,12|2,0:0|0:0,0:0:0:0:
48,64,167725,6,0,L|30:150,1,75,8|2,0:0|0:0,0:0:0:0:
100,255,168066,1,2,0:0:0:0:
100,255,168236,2,0,L|117:341,1,75,8|2,0:0|0:0,0:0:0:0:
210,175,168577,1,2,0:0:0:0:
210,175,168748,2,0,L|227:88,2,75,8|2|2,0:0|0:0|0:0,0:0:0:0:
250,289,169259,1,8,0:0:0:0:
250,289,169430,2,0,B|278:298|278:298|332:297,1,75,2|2,0:0|0:0,0:0:0:0:
444,185,169771,5,8,0:0:0:0:
465,303,169941,1,2,0:0:0:0:
341,153,170111,1,12,0:0:0:0:
306,321,170282,5,8,0:0:0:0:
306,321,170367,1,8,0:0:0:0:
306,321,170452,2,0,L|153:309,1,150,6|2,0:0|0:0,0:0:0:0:
73,259,170964,1,8,0:0:0:0:
165,228,171134,2,0,L|240:221,1,75,2|2,0:0|0:0,0:0:0:0:
165,159,171475,2,0,P|143:218|194:307,1,150,10|2,0:0|0:0,0:0:0:0:
327,292,171986,5,8,0:0:0:0:
345,181,172156,1,2,0:0:0:0:
239,221,172327,1,2,0:0:0:0:
350,157,172498,1,8,0:0:0:0:
206,116,172668,1,2,0:0:0:0:
370,136,172839,2,0,L|457:124,1,75,12|2,0:0|0:0,0:0:0:0:
481,256,173180,6,0,L|324:233,1,150,12|2,0:0|0:0,0:0:0:0:
408,151,173691,1,8,0:0:0:0:
400,294,173861,2,0,P|365:319|329:325,1,75,2|2,0:0|0:0,0:0:0:0:
188,288,174202,2,0,L|179:373,1,75,8|0,0:0|0:0,0:0:0:0:
273,261,174543,5,2,0:0:0:0:
128,220,174714,1,8,0:0:0:0:
236,114,174884,1,2,3:0:0:0:
300,176,175055,1,2,0:0:0:0:
149,132,175225,2,0,P|149:89|177:48,1,75,8|2,0:0|0:0,0:0:0:0:
340,24,175566,2,0,P|355:57|354:94,1,75,12|8,0:0|0:0,0:0:0:0:
341,130,175822,1,8,0:0:0:0:
344,167,175907,6,0,B|355:273|355:273|346:326,1,150,6|2,0:0|0:0,0:0:0:0:
221,332,176418,1,8,0:0:0:0:
192,179,176589,1,2,0:0:0:0:
249,247,176759,1,2,0:0:0:0:
278,94,176930,2,0,L|363:86,1,75,8|2,0:0|0:0,0:0:0:0:
211,157,177271,6,0,L|126:149,1,75,2|8,0:0|0:0,0:0:0:0:
287,53,177611,2,0,P|315:81|334:119,1,75,2|2,0:0|0:0,0:0:0:0:
252,257,177952,2,0,P|224:229|205:191,1,75,8|2,0:0|0:0,0:0:0:0:
343,191,178293,1,12,0:0:0:0:
367,309,178464,2,0,P|373:329|386:351,1,37.5,8|8,0:0|0:0,0:0:0:0:
409,368,178634,6,0,P|347:347|258:352,1,150,6|2,0:0|0:0,0:0:0:0:
263,350,179146,1,8,0:0:0:0:
236,209,179316,1,2,0:0:0:0:
301,269,179486,1,2,0:0:0:0:
176,339,179657,2,0,P|138:331|103:317,1,75,8|2,0:0|0:0,0:0:0:0:
226,258,179998,5,2,0:0:0:0:
143,223,180168,2,0,P|114:197|90:167,1,75,8|2,0:0|0:0,0:0:0:0:
226,177,180509,1,2,0:0:0:0:
172,106,180679,2,0,P|159:69|154:31,1,75,8|2,0:0|0:0,0:0:0:0:
357,33,181021,2,0,P|351:70|340:106,1,75,12|8,0:0|0:0,0:0:0:0:
319,135,181275,1,8,0:0:0:0:
319,135,181361,6,0,L|325:221,1,75,6|2,0:0|0:0,0:0:0:0:
282,290,181702,1,12,0:0:0:0:
414,161,181873,1,8,0:0:0:0:
228,142,182043,2,0,P|180:156|151:252,1,150,6|4,0:0|0:0,0:0:0:0:
230,344,182555,1,8,0:0:0:0:
348,294,182725,5,6,0:0:0:0:
372,265,182810,1,0,0:0:0:0:
391,232,182895,1,0,0:0:0:0:
405,198,182980,1,0,0:0:0:0:
414,161,183065,1,0,0:0:0:0:
412,123,183151,1,0,0:0:0:0:
402,87,183236,2,0,P|394:60|384:45,1,37.5,6|0,0:0|0:0,0:0:0:0:
276,67,183407,5,8,0:0:0:0:
240,78,183492,1,0,0:0:0:0:
203,84,183577,1,0,0:0:0:0:
166,85,183662,1,0,0:0:0:0:
128,79,183748,2,0,P|93:71|54:53,1,75,6|0,0:0|0:0,0:0:0:0:
73,190,184089,6,0,P|147:184|217:209,1,150,6|8,0:0|0:0,0:0:0:0:
247,341,184600,1,0,0:0:0:0:
157,355,184771,1,2,0:0:0:0:
289,262,184941,1,12,0:0:0:0:
379,276,185112,1,2,0:0:0:0:
212,192,185282,1,8,0:0:0:0:
179,107,185453,1,6,0:0:0:0:
307,29,185623,5,2,0:0:0:0:
297,163,185793,2,0,P|301:193|317:235,2,50,12|0|0,0:0|0:0|0:0,0:0:0:0:
362,101,186134,1,6,0:0:0:0:
234,247,186305,2,0,P|204:217|191:186,1,75,8|4,0:0|0:0,0:0:0:0:
294,77,186646,1,0,0:0:0:0:
324,248,186816,6,0,P|313:288|292:315,1,75,6|0,0:0|0:0,0:0:0:0:
437,360,187157,2,0,P|413:290|445:224,1,150,8|2,0:0|0:0,0:0:0:0:
363,302,187668,2,0,L|277:311,1,75,8|2,0:0|0:0,0:0:0:0:
192,368,188009,1,8,0:0:0:0:
229,222,188180,5,6,0:0:0:0:
228,216,188265,1,0,0:0:0:0:
228,210,188350,2,0,L|217:166,1,37.5,8|0,0:0|0:0,0:0:0:0:
151,113,188521,2,0,L|107:100,1,37.5
236,83,188691,2,0,L|268:51,1,37.5,6|0,0:0|0:0,0:0:0:0:
294,78,188861,2,0,P|331:69|387:74,1,75
390,75,189117,1,0,0:0:0:0:
410,83,189202,2,0,P|432:100|445:118,1,37.5,6|0,0:0|0:0,0:0:0:0:
460,234,189373,2,0,P|455:215|447:198,1,37.5
355,211,189543,6,0,P|316:208|269:191,1,75,6|0,0:0|0:0,0:0:0:0:
175,92,189884,1,8,0:0:0:0:
154,241,190055,2,0,P|162:277|179:310,1,75,0|2,3:0|3:0,3:0:0:0:
116,160,190396,2,0,P|80:148|42:146,1,75,8|2,3:0|3:0,3:0:0:0:
240,217,190736,5,8,0:0:0:0:
240,217,190907,2,0,P|275:228|313:230,1,75,6|2,0:0|0:0,0:0:0:0:
217,129,191248,2,0,P|179:150|162:260,1,150,12|2,0:0|0:0,0:0:0:0:
260,335,191759,1,8,0:0:0:0:
260,335,191930,2,0,L|348:341,1,75,12|2,0:0|0:0,0:0:0:0:
240,217,192271,6,0,L|389:206,1,150,6|2,0:0|0:0,0:0:0:0:
435,103,192782,1,0,0:0:0:0:
370,40,192952,1,2,0:0:0:0:
349,127,193123,1,0,0:0:0:0:
451,89,193293,1,2,0:0:0:0:
349,33,193463,1,8,0:0:0:0:
352,147,193634,6,0,P|377:178|410:197,1,75,12|0,0:0|0:0,0:0:0:0:
413,198,193890,1,0,0:0:0:0:
419,200,193975,1,8,0:0:0:0:
452,331,194146,2,0,L|362:325,1,75,6|8,0:0|0:0,0:0:0:0:
259,262,194486,1,8,0:0:0:0:
240,350,194657,1,8,0:0:0:0:
346,241,194827,2,0,P|339:222|336:199,1,37.5
327,153,194998,6,0,P|283:138|252:136,1,75,6|0,0:0|0:0,0:0:0:0:
113,248,195339,2,0,P|150:244|185:230,1,75,10|0,0:0|0:0,0:0:0:0:
38,200,195680,1,2,0:0:0:0:
34,289,195850,1,0,0:0:0:0:
117,158,196021,1,10,0:0:0:0:
41,110,196191,1,0,0:0:0:0:
113,247,196361,5,2,0:0:0:0:
193,205,196531,1,0,0:0:0:0:
349,211,196702,2,0,L|425:259,1,75,10|0,0:0|0:0,0:0:0:0:
296,320,197043,1,2,0:0:0:0:
208,299,197214,1,0,0:0:0:0:
358,254,197384,1,10,0:0:0:0:
146,365,197555,6,0,P|120:317|159:222,1,150
278,155,198066,2,0,L|361:161,1,75,10|0,0:0|0:0,0:0:0:0:
450,255,198407,1,2,0:0:0:0:
378,309,198577,1,0,3:0:0:0:
212,237,198748,1,10,3:0:0:0:
357,129,198918,5,0,3:0:0:0:
295,274,199089,1,2,0:0:0:0:
223,328,199259,1,0,3:0:0:0:
201,146,199430,2,0,L|117:108,1,75,10|0,0:0|0:0,0:0:0:0:
44,227,199771,1,2,0:0:0:0:
60,315,199941,1,0,0:0:0:0:
113,170,200111,1,10,0:0:0:0:
212,288,200282,6,0,B|253:296|253:296|317:280|317:280|358:288,1,150
248,206,200793,2,0,B|206:198|206:198|175:206,1,75,10|0,0:0|0:0,0:0:0:0:
123,280,201134,1,2,0:0:0:0:
104,127,201305,1,0,0:0:0:0:
70,209,201475,1,10,0:0:0:0:
211,268,201646,1,0,0:0:0:0:
192,117,201816,5,2,0:0:0:0:
247,187,201986,1,0,0:0:0:0:
392,146,202157,2,0,P|421:117|440:60,1,75,10|0,0:0|0:0,0:0:0:0:
287,32,202498,1,2,0:0:0:0:
307,119,202668,1,0,0:0:0:0:
136,66,202839,1,10,0:0:0:0:
293,16,203009,1,0,0:0:0:0:
314,103,203180,5,2,0:0:0:0:
227,78,203350,1,0,0:0:0:0:
379,40,203521,2,0,P|423:47|458:60,1,75,10|0,0:0|0:0,0:0:0:0:
481,204,203861,1,2,0:0:0:0:
393,227,204032,1,2,0:0:0:0:
418,140,204202,1,8,0:0:0:0:
456,291,204373,6,0,B|419:328|363:313|363:313|341:333|305:339,1,150,6|0,0:0|0:0,0:0:0:0:
237,214,204884,2,0,P|273:223|304:246,1,75,10|0,3:0|0:0,0:0:0:0:
160,289,205225,1,10,0:0:0:0:
127,127,205396,1,10,0:0:0:0:
60,244,205566,1,10,0:0:0:0:
207,170,205736,6,0,P|216:114|155:40,1,150,6|2,0:0|0:0,0:0:0:0:
131,217,206248,1,8,0:0:0:0:
300,121,206418,1,0,0:0:0:0:
330,116,206503,1,0,0:0:0:0:
360,121,206589,1,2,0:0:0:0:
248,209,206759,1,12,0:0:0:0:
201,90,206930,1,2,0:0:0:0:
386,30,207100,6,0,L|377:197,1,150,12|2,0:0|0:0,0:0:0:0:
445,289,207611,1,8,0:0:0:0:
280,272,207782,1,0,0:0:0:0:
278,242,207867,1,0,0:0:0:0:
276,212,207952,1,2,0:0:0:0:
355,340,208123,1,8,0:0:0:0:
198,335,208293,1,2,0:0:0:0:
372,245,208464,2,0,L|401:211,1,37.5,8|0,0:0|0:0,0:0:0:0:
424,228,208634,6,0,L|430:148,1,75,6|2,0:0|0:0,0:0:0:0:
271,39,208975,2,0,L|276:113,1,75,8|2,0:0|0:0,0:0:0:0:
273,118,209231,1,2,0:0:0:0:
270,123,209316,1,2,0:0:0:0:
147,177,209486,1,12,0:0:0:0:
161,43,209657,1,2,0:0:0:0:
237,214,209827,6,0,B|266:227|305:233|347:228|347:228|304:257,1,150,12|2,0:0|0:0,0:0:0:0:
134,260,210339,1,8,0:0:0:0:
301,133,210509,2,0,P|312:117|319:98,1,37.5,2|2,0:0|0:0,0:0:0:0:
325,63,210680,1,2,0:0:0:0:
372,189,210850,2,0,P|341:214|294:224,1,75,8|2,0:0|0:0,0:0:0:0:
97,212,211191,6,0,P|168:248|181:337,1,150,6|2,0:0|0:0,0:0:0:0:
281,377,211702,1,8,0:0:0:0:
97,303,211873,1,0,0:0:0:0:
97,303,211958,1,0,0:0:0:0:
97,303,212043,1,2,0:0:0:0:
175,166,212214,1,8,0:0:0:0:
253,211,212384,1,2,0:0:0:0:
97,212,212555,6,0,B|107:111|107:111|97:53,1,150,12|2,0:0|0:0,0:0:0:0:
184,148,213066,2,0,P|230:157|266:153,1,75,8|2,0:0|0:0,0:0:0:0:
287,147,213322,1,2,0:0:0:0:
314,135,213407,1,2,0:0:0:0:
328,31,213577,1,8,0:0:0:0:
431,12,213748,1,2,0:0:0:0:
389,186,213918,6,0,B|366:220|320:226|320:226|293:259|299:306,1,150,6|2,0:0|0:0,0:0:0:0:
447,261,214430,2,0,P|475:219|481:195,1,75,8|0,0:0|0:0,0:0:0:0:
481,83,214771,1,2,0:0:0:0:
362,146,214941,2,0,P|325:153|288:149,1,75,8|2,0:0|0:0,0:0:0:0:
107,256,215282,6,0,P|181:253|241:299,1,150,12|2,0:0|0:0,0:0:0:0:
356,328,215793,2,0,L|438:322,1,75,8|2,0:0|0:0,0:0:0:0:
460,190,216134,1,8,0:0:0:0:
465,153,216219,1,8,0:0:0:0:
456,116,216304,1,8,0:0:0:0:
434,86,216389,1,8,0:0:0:0:
402,66,216474,1,8,0:0:0:0:
215,48,216646,6,0,L|207:202,1,150,6|2,0:0|0:0,0:0:0:0:
136,295,217157,1,8,0:0:0:0:
308,244,217327,1,0,0:0:0:0:
335,230,217413,1,0,0:0:0:0:
356,208,217498,1,2,0:0:0:0:
305,83,217668,2,0,L|308:30,2,37.5,2|0|8,0:0|0:0|0:0,0:0:0:0:
248,311,218009,6,0,P|217:244|246:177,1,150,6|2,0:0|0:0,0:0:0:0:
376,218,218521,2,0,P|344:237|308:244,1,75,8|0,0:0|0:0,0:0:0:0:
278,242,218776,1,0,0:0:0:0:
249,236,218861,1,2,0:0:0:0:
106,126,219032,2,0,L|143:141,1,37.5,8|0,0:0|0:0,0:0:0:0:
175,42,219202,2,0,L|199:74,1,37.5
286,28,219373,6,0,B|330:22|378:37|408:69|408:69|389:77,1,150,6|2,0:0|0:0,0:0:0:0:
260,147,219884,2,0,P|237:182|232:236,1,75,8|0,0:0|0:0,0:0:0:0:
236,244,220140,1,0,0:0:0:0:
251,270,220225,1,2,0:0:0:0:
381,309,220396,2,0,L|417:298,3,37.5,2|0|8|0,0:0|0:0|0:0|0:0,0:0:0:0:
361,348,220736,6,0,L|206:350,1,150,6|2,0:0|0:0,0:0:0:0:
67,266,221248,2,0,L|145:266,1,75,8|2,0:0|0:0,0:0:0:0:
148,264,221503,1,0,0:0:0:0:
154,261,221589,1,8,0:0:0:0:
257,153,221759,1,2,0:0:0:0:
264,124,221844,1,0,0:0:0:0:
266,94,221930,2,0,P|266:73|260:51,1,37.5,8|0,0:0|0:0,0:0:0:0:
175,113,222100,6,0,P|171:180|245:244,1,150,6|2,0:0|0:0,0:0:0:0:
345,175,222611,1,8,0:0:0:0:
257,153,222782,1,0,0:0:0:0:
369,263,222952,2,0,L|407:273,1,37.5,2|0,0:0|0:0,0:0:0:0:
432,198,223123,2,0,L|475:210,1,37.5,8|0,0:0|0:0,0:0:0:0:
320,88,223293,2,0,L|283:78,1,37.5,2|0,0:0|0:0,0:0:0:0:
257,153,223464,2,0,L|220:143,1,37.5,6|0,0:0|0:0,0:0:0:0:
129,162,223634,5,0,0:0:0:0:
114,185,223719,1,0,0:0:0:0:
105,212,223804,1,2,0:0:0:0:
101,240,223889,1,0,0:0:0:0:
104,268,223975,1,8,0:0:0:0:
142,262,224060,1,0,0:0:0:0:
179,263,224145,1,2,0:0:0:0:
216,270,224230,1,0,0:0:0:0:
251,283,224316,2,0,P|266:290|284:303,1,37.5,2|0,0:0|0:0,0:0:0:0:
352,366,224486,6,0,P|369:358|384:347,1,37.5,2|0,3:0|3:0,3:0:0:0:
428,264,224657,2,0,P|430:245|428:226,1,37.5,8|0,3:0|3:0,3:0:0:0:
377,147,224827,1,6,0:0:0:0:
289,218,224998,6,0,P|276:256|271:293,1,75,8|2,0:0|0:0,0:0:0:0:
215,159,225339,2,0,P|209:121|197:86,1,75
194,81,225594,1,0,0:0:0:0:
191,75,225680,1,8,0:0:0:0:
82,218,225850,2,0,P|116:231|153:238,1,75,8|0,0:0|0:0,0:0:0:0:
191,240,226106,1,0,0:0:0:0:
228,237,226191,1,6,0:0:0:0:
264,229,226276,1,0,0:0:0:0:
299,215,226361,5,0,0:0:0:0:
353,205,226446,1,0,0:0:0:0:
401,233,226531,1,6,0:0:0:0:
419,285,226616,1,0,0:0:0:0:
399,336,226701,1,0,0:0:0:0:
348,362,226788,1,0,0:0:0:0:
292,351,226873,1,0,0:0:0:0:
252,311,226958,1,0,0:0:0:0:
242,255,227043,6,0,P|246:233|252:215,3,37.5,2|0|0|0,0:0|0:0|0:0|0:0,0:0:0:0:
302,144,227384,2,0,P|298:122|292:104,3,37.5,2|0|8|0,0:0|0:0|0:0|0:0,0:0:0:0:
220,53,227725,6,0,P|168:46|88:66,1,112.500004291535,6|2,0:0|0:0,0:0:0:0:
293,107,228407,2,0,P|345:100|425:120,1,112.500004291535,2|2,0:0|0:0,0:0:0:0:
334,323,229089,2,0,L|344:195,1,112.500004291535,2|2,0:0|0:0,0:0:0:0:
168,165,229771,2,0,L|178:293,1,112.500004291535,2|2,0:0|0:0,0:0:0:0:
279,315,230282,5,8,0:0:0:0:
306,322,230367,1,0,0:0:0:0:
334,324,230452,2,0,P|370:320|401:309,1,56.2500021457673,6|0,0:0|0:0,0:0:0:0:
343,211,230793,2,0,P|372:189|393:164,1,56.2500021457673,2|0,0:3|0:3,0:3:0:0:
196,204,231134,2,0,P|160:200|129:189,1,56.2500021457673,2|0,0:0|0:0,0:0:0:0:
187,91,231475,2,0,P|157:69|136:44,1,56.2500021457673,2|0,0:3|0:3,0:3:0:0:
313,44,231816,6,0,L|309:109,1,56.2500021457673,2|0,0:0|0:0,0:0:0:0:
424,69,232157,2,0,L|428:134,1,56.2500021457673,2|0,0:0|0:0,0:0:0:0:
301,74,232498,2,0,L|296:152,1,56.2500021457673,2|0,0:0|0:0,0:0:0:0:
434,104,232839,2,0,L|438:182,1,56.2500021457673,2|8,0:0|0:0,0:0:0:0:
410,228,233094,1,0,0:0:0:0:
399,248,233180,6,0,B|374:269|327:269|327:269|288:251,1,112.500004291535,6|2,0:0|0:0,0:0:0:0:
217,130,233861,2,0,B|185:115|185:115|138:115|113:136,1,112.500004291535,2|2,0:0|0:0,0:0:0:0:
75,243,234373,5,8,0:0:0:0:
80,270,234458,1,0,0:0:0:0:
93,294,234543,2,0,P|119:319|148:331,1,56.2500021457673,6|0,0:0|0:0,0:0:0:0:
252,256,234884,2,0,P|226:231|197:219,1,56.2500021457673,2|0,0:0|0:0,0:0:0:0:
283,342,235225,2,0,P|307:328|326:308,1,56.2500021457673,2|0,0:0|0:0,0:0:0:0:
341,134,235566,2,0,P|316:147|297:167,1,56.2500021457673,2|8,0:0|0:0,0:0:0:0:
262,239,235822,1,0,0:0:0:0:
245,254,235907,6,0,L|175:261,1,56.2500021457673,6|0,0:0|0:0,0:0:0:0:
90,205,236248,1,2,0:0:0:0:
52,136,236418,1,0,0:0:0:0:
169,119,236589,1,2,0:0:0:0:
165,29,236759,1,0,0:0:0:0:
301,84,236930,1,10,0:0:0:0:
409,24,237100,1,0,0:0:0:0:
369,177,237271,6,0,L|364:258,1,56.2500021457673,14|0,0:0|0:0,0:0:0:0:
366,240,237526,1,0,0:0:0:0:
367,247,237611,1,2,0:0:0:0:
477,221,237782,1,8,0:0:0:0:
303,339,237952,2,0,P|290:328|280:312,1,28.1250010728836,2|0,0:0|0:0,0:0:0:0:
266,280,238123,1,0,0:0:0:0:
295,137,238293,1,2,0:0:0:0:
156,92,238464,1,0,0:0:0:0:
130,288,238634,6,0,B|149:319|191:326|191:326|200:350|200:350|221:360|221:360|230:374,1,112.5
246,368,238975,1,14,0:0:0:0:
199,240,239316,5,2,0:0:0:0:
360,276,239486,1,0,0:0:0:0:
238,335,239657,1,10,0:0:0:0:
255,156,239827,6,0,P|245:109|159:55,1,150,4|0,0:0|0:0,0:0:0:0:
46,172,240339,1,10,0:0:0:0:
199,234,240509,1,0,0:0:0:0:
204,271,240594,1,0,0:0:0:0:
201,309,240680,1,2,0:0:0:0:
94,275,240850,1,0,0:0:0:0:
210,137,241021,1,10,0:0:0:0:
120,125,241191,1,0,0:0:0:0:
235,243,241361,6,0,P|276:249|322:242,1,75,6|0,0:0|0:0,0:0:0:0:
419,112,241702,2,0,P|378:106|332:113,1,75,10|0,0:0|0:0,0:0:0:0:
422,230,242043,1,2,0:0:0:0:
497,180,242214,1,0,0:0:0:0:
412,50,242384,1,10,0:0:0:0:
342,191,242555,6,0,B|301:199|301:199|237:183|237:183|196:191,1,150
235,272,243066,1,10,0:0:0:0:
302,110,243236,1,0,0:0:0:0:
129,133,243407,1,2,0:0:0:0:
222,171,243577,1,0,0:0:0:0:
49,195,243748,1,10,0:0:0:0:
36,95,243918,1,0,0:0:0:0:
142,233,244089,6,0,L|131:321,1,75,2|0,0:0|0:0,0:0:0:0:
258,376,244430,2,0,L|247:288,1,75,10|0,0:0|0:0,0:0:0:0:
307,179,244771,1,2,0:0:0:0:
395,162,244941,1,0,0:0:0:0:
245,114,245111,1,10,0:0:0:0:
157,97,245282,6,0,P|99:111|59:198,1,150
184,249,245793,2,0,P|173:214|148:187,1,75,10|0,0:0|0:0,0:0:0:0:
81,305,246134,1,2,0:0:0:0:
164,338,246305,1,0,0:0:0:0:
148,187,246475,1,10,0:0:0:0:
231,154,246646,6,0,L|405:145,1,150
420,276,247157,2,0,L|333:271,1,75,10|0,0:0|0:0,0:0:0:0:
231,154,247498,1,2,0:0:0:0:
211,272,247668,1,0,0:0:0:0:
131,102,247839,1,10,0:0:0:0:
151,220,248009,6,0,B|165:242|192:257|221:260|221:260|241:282|243:313|235:338,1,150,4|0,0:0|0:0,0:0:0:0:
78,272,248521,2,0,P|62:221|69:179,1,75,10|0,0:0|0:0,0:0:0:0:
232,79,248861,1,10,0:0:0:0:
226,169,249032,1,0,0:0:0:0:
376,71,249202,1,2,0:0:0:0:
393,159,249373,1,8,0:0:0:0:
222,66,249543,6,0,B|173:58|173:58|132:60,1,75,6|0,0:0|0:0,0:0:0:0:
70,170,249884,2,0,B|119:178|119:178|160:176,1,75,10|0,0:0|0:0,0:0:0:0:
302,127,250225,1,2,0:0:0:0:
391,113,250396,1,0,0:0:0:0:
269,211,250566,1,10,0:0:0:0:
244,55,250736,6,0,P|172:41|113:84,1,150
22,186,251248,1,10,0:0:0:0:
194,128,251418,1,0,0:0:0:0:
113,84,251589,1,2,0:0:0:0:
114,175,251759,1,0,3:0:0:0:
270,83,251930,1,10,3:0:0:0:
191,38,252100,1,0,3:0:0:0:
192,219,252271,6,0,P|165:250|126:266,1,75,2|0,0:0|0:0,0:0:0:0:
271,174,252611,2,0,P|311:181|344:207,1,75,10|0,0:0|0:0,0:0:0:0:
194,128,252952,1,2,0:0:0:0:
170,40,253123,1,0,0:0:0:0:
295,86,253293,1,10,0:0:0:0:
271,174,253464,6,0,B|266:206|286:251|328:272|328:272|291:275,1,150
169,239,253975,1,10,0:0:0:0:
377,174,254146,1,0,0:0:0:0:
262,78,254316,1,2,0:0:0:0:
148,150,254486,1,0,0:0:0:0:
285,213,254657,1,10,0:0:0:0:
181,127,254827,1,0,0:0:0:0:
353,71,254998,6,0,P|389:93|407:120,1,75,6|0,0:0|0:0,0:0:0:0:
318,241,255339,2,0,P|282:219|264:192,1,75,10|0,0:0|0:0,0:0:0:0:
402,210,255680,1,2,0:0:0:0:
303,330,255850,1,0,0:0:0:0:
457,356,256021,1,10,0:0:0:0:
318,241,256191,6,0,P|262:249|214:335,1,150
247,176,256702,2,0,P|239:133|222:99,1,75,10|0,0:0|0:0,0:0:0:0:
88,44,257043,1,2,0:0:0:0:
88,44,257214,1,0,0:0:0:0:
206,26,257384,1,10,0:0:0:0:
101,144,257555,6,0,L|95:293,1,150
229,343,258066,2,0,L|225:264,1,75,10|0,0:0|0:0,0:0:0:0:
305,158,258407,1,2,0:0:0:0:
394,146,258577,1,0,0:0:0:0:
270,241,258748,1,10,0:0:0:0:
340,74,258918,1,0,0:0:0:0:
325,313,259089,6,0,P|292:329|192:286,1,150,10|2,0:0|0:0,0:0:0:0:
196,139,259600,1,8,0:0:0:0:
243,215,259771,1,2,0:0:0:0:
106,141,259941,1,0,0:0:0:0:
238,59,260111,1,10,0:0:0:0:
153,218,260282,1,0,0:0:0:0:
333,212,260452,6,0,P|381:226|406:246,1,75,6|0,0:0|0:0,0:0:0:0:
473,98,260793,2,0,P|442:118|406:128,1,75,10|0,0:0|0:0,0:0:0:0:
307,13,261134,1,2,0:0:0:0:
321,102,261305,1,0,0:0:0:0:
191,137,261475,1,10,0:0:0:0:
205,48,261646,6,0,B|165:41|132:68|132:68|88:66|61:36,1,150
191,137,262157,2,0,P|199:179|191:213,1,75,10|0,0:0|0:0,0:0:0:0:
270,356,262498,2,0,P|262:314|270:280,1,75,2|0,0:0|0:0,0:0:0:0:
345,171,262839,1,10,0:0:0:0:
195,163,263009,6,0,L|345:171,1,150
233,81,263521,2,0,B|184:78|184:78|150:87,1,75,10|0,0:0|0:0,0:0:0:0:
93,202,263861,1,2,0:0:0:0:
172,245,264032,1,0,0:0:0:0:
16,248,264202,1,10,0:0:0:0:
169,154,264373,6,0,P|227:173|260:262,1,150
348,322,264884,2,0,P|367:291|372:237,1,75,10|0,0:0|0:0,0:0:0:0:
344,121,265225,1,2,0:0:0:0:
257,95,265396,1,0,0:0:0:0:
261,249,265566,1,10,0:0:0:0:
348,92,265736,6,0,B|385:75|433:79|465:105|465:105|468:133,1,150,4|0,0:0|0:0,0:0:0:0:
370,255,266248,2,0,L|281:273,1,75,10|0,0:0|0:0,0:0:0:0:
383,165,266589,1,2,0:0:0:0:
453,221,266759,1,0,0:0:0:0:
357,345,266930,1,10,0:0:0:0:
214,232,267100,6,0,P|139:221|82:271,1,150
164,307,267611,1,10,0:0:0:0:
304,238,267782,1,0,0:0:0:0:
223,121,267952,1,2,0:0:0:0:
223,121,268123,1,0,0:0:0:0:
145,221,268293,2,0,L|163:300,1,75,10|0,0:0|0:0,0:0:0:0:
223,228,268634,6,0,L|70:180,1,150,6|2,0:0|0:0,0:0:0:0:
66,281,269146,1,8,0:0:0:0:
161,175,269316,1,2,0:0:0:0:
142,87,269486,1,0,0:0:0:0:
23,202,269657,1,10,0:0:0:0:
154,265,269827,5,8,0:0:0:0:
192,270,269913,1,8,0:0:0:0:
229,263,269998,2,0,P|265:245|289:217,1,75,10|0,0:0|0:0,0:0:0:0:
319,72,270339,1,8,0:0:0:0:
364,62,270424,1,8,0:0:0:0:
410,69,270509,1,8,0:0:0:0:
450,93,270594,1,0,0:0:0:0:
480,129,270680,2,0,P|488:149|501:171,1,37.5
429,224,270850,2,0,P|445:236|467:249,1,37.5,0|0,3:0|3:0,3:0:0:0:
431,331,271021,5,6,0:0:0:0:
417,324,271361,6,0,P|377:317|339:320,1,75,6|0,0:0|0:0,0:0:0:0:
169,247,271702,2,0,P|205:253|243:251,1,75,8|0,0:0|0:0,0:0:0:0:
339,179,272043,1,2,0:0:0:0:
214,126,272214,1,8,0:0:0:0:
301,197,272384,1,2,0:0:0:0:
129,181,272555,6,0,P|119:262|134:343,1,150,8|2,0:0|0:0,0:0:0:0:
308,355,273066,2,0,P|317:308|318:270,1,75,8|0,0:0|0:0,0:0:0:0:
239,181,273407,1,2,0:0:0:0:
221,299,273577,1,8,0:0:0:0:
356,193,273748,1,2,0:0:0:0:
367,157,273833,1,2,0:0:0:0:
367,119,273918,1,2,0:0:0:0:
354,83,274003,1,2,0:0:0:0:
327,55,274089,6,0,L|233:51,1,75,6|2,0:0|0:0,0:0:0:0:
406,147,274430,2,0,L|500:142,1,75,8|2,0:0|0:0,0:0:0:0:
314,230,274771,1,0,0:0:0:0:
296,141,274941,1,8,0:0:0:0:
399,259,275111,1,2,0:0:0:0:
332,319,275282,1,8,0:0:0:0:
382,171,275452,5,2,0:0:0:0:
468,199,275622,1,2,0:0:0:0:
314,230,275793,2,0,L|238:206,1,75,8|0,0:0|0:0,0:0:0:0:
94,232,276134,1,6,0:0:0:0:
160,333,276305,1,2,0:0:0:0:
210,176,276475,2,0,P|216:137|210:93,1,75,8|0,0:0|0:0,0:0:0:0:
322,10,276816,6,0,P|316:49|322:93,1,75,6|2,0:0|0:0,0:0:0:0:
422,202,277157,2,0,L|502:220,1,75,12|0,0:0|0:0,0:0:0:0:
405,112,277498,1,2,0:0:0:0:
338,235,277668,2,0,L|362:313,1,75,8|2,0:0|0:0,0:0:0:0:
422,202,278009,2,0,L|275:169,1,150,8|2,0:0|0:0,0:0:0:0:
349,60,278521,2,0,P|360:103|359:143,1,75,8|0,0:0|0:0,0:0:0:0:
356,162,278776,1,0,0:0:0:0:
347,191,278861,1,2,0:0:0:0:
218,268,279032,2,0,L|138:265,1,75,8|2,0:0|0:0,0:0:0:0:
129,231,279287,1,2,0:0:0:0:
128,193,279372,1,2,0:0:0:0:
140,158,279457,1,2,0:0:0:0:
161,127,279543,6,0,P|195:104|229:96,1,75,6|2,0:0|0:0,0:0:0:0:
362,116,279884,2,0,P|398:106|428:85,1,75,8|2,0:0|0:0,0:0:0:0:
326,9,280225,1,2,0:0:0:0:
256,134,280396,1,8,0:0:0:0:
226,26,280566,1,2,0:0:0:0:
293,160,280736,1,8,0:0:0:0:
358,8,280907,6,0,L|441:5,1,75,2|0,0:0|0:0,0:0:0:0:
439,7,281163,1,0,0:0:0:0:
446,9,281248,1,8,0:0:0:0:
327,100,281418,2,0,L|244:97,1,75,6|8,0:0|0:0,0:0:0:0:
246,99,281674,1,8,0:0:0:0:
239,101,281759,1,8,0:0:0:0:
351,202,281930,1,6,0:0:0:0:
203,255,282100,2,0,P|182:261|163:263,1,37.5,8|0,0:0|0:0,0:0:0:0:
99,244,282271,6,0,P|118:211|160:193,1,75,6|0,0:0|0:0,0:0:0:0:
347,182,282611,2,8,B|373:169|373:169|413:136,1,75,8|0,0:0|0:0,0:0:0:0:
290,46,282952,1,2,0:0:0:0:
252,199,283123,1,8,0:0:0:0:
208,96,283293,1,2,0:0:0:0:
157,269,283464,6,0,P|98:291|20:246,1,150,8|2,0:0|0:0,0:0:0:0:
98,201,283975,2,0,P|136:182|180:182,1,75,8|0,0:0|0:0,0:0:0:0:
301,207,284316,2,0,P|320:220|331:233,1,37.5,2|0,0:0|0:0,0:0:0:0:
371,343,284486,2,0,P|372:320|378:304,1,37.5,8|0,0:0|0:0,0:0:0:0:
454,215,284657,2,0,P|433:224|416:227,1,37.5,2|0,0:0|0:0,0:0:0:0:
307,160,284827,1,0,0:0:0:0:
249,291,284998,6,0,P|213:304|174:302,1,75,6|2,0:0|0:0,0:0:0:0:
98,157,285339,2,0,P|134:144|173:146,1,75,8|0,0:0|0:0,0:0:0:0:
91,255,285680,1,2,0:0:0:0:
35,117,285850,1,8,0:0:0:0:
173,61,286021,1,2,0:0:0:0:
229,199,286191,6,0,B|187:211|148:204|148:204|120:176|84:178,1,150,8|6,0:0|0:0,0:0:0:0:
156,295,286702,2,0,P|197:296|241:288,1,75,12|0,0:0|0:0,0:0:0:0:
346,220,287043,1,2,0:0:0:0:
372,95,287214,1,8,0:0:0:0:
251,135,287384,1,2,0:0:0:0:
422,171,287555,2,0,P|438:181|453:196,1,37.5,8|8,0:0|0:0,0:0:0:0:
472,225,287725,6,0,P|478:272|468:320,1,75,6|2,0:0|0:0,0:0:0:0:
343,356,288066,2,0,P|337:309|347:261,1,75,8|2,0:0|0:0,0:0:0:0:
385,153,288407,1,0,0:0:0:0:
467,118,288577,1,8,0:0:0:0:
374,241,288748,1,2,0:0:0:0:
313,98,288918,6,0,B|278:69|232:65|197:82|197:82|177:126,1,150,8|2,0:0|0:0,0:0:0:0:
161,257,289430,2,0,B|190:262|190:262|235:260,1,75,12|0,0:0|0:0,0:0:0:0:
299,150,289771,1,2,0:0:0:0:
327,126,289856,1,2,0:0:0:0:
363,116,289941,2,0,L|408:120,1,37.5,8|0,0:0|0:0,0:0:0:0:
477,212,290111,2,0,L|439:208,1,37.5,6|0,0:0|0:0,0:0:0:0:
335,270,290282,2,0,L|372:273,1,37.5
267,330,290452,6,0,L|192:323,1,75,6|2,0:0|0:0,0:0:0:0:
75,218,290793,2,0,L|149:211,1,75,8|0,0:0|0:0,0:0:0:0:
209,124,291134,1,2,0:0:0:0:
247,254,291305,1,8,0:0:0:0:
115,221,291475,1,2,0:0:0:0:
220,93,291646,6,0,L|371:86,1,150,12|2,0:0|0:0,0:0:0:0:
422,227,292157,2,0,P|390:249|346:256,1,75,8|0,0:0|0:0,0:0:0:0:
259,172,292498,2,0,P|227:150|183:143,1,75,6|8,0:0|0:0,0:0:0:0:
154,145,292753,1,8,0:0:0:0:
120,159,292838,1,8,0:0:0:0:
91,183,292923,1,8,0:0:0:0:
72,215,293008,1,8,0:0:0:0:
64,252,293094,1,8,0:0:0:0:
70,305,293180,6,0,L|144:324,1,75,6|2,0:0|0:0,0:0:0:0:
299,266,293521,2,0,L|226:246,1,75,8|2,0:0|0:0,0:0:0:0:
316,356,293861,2,0,P|351:341|380:307,1,75,8|0,0:0|0:0,0:0:0:0:
390,180,294202,1,2,0:0:0:0:
210,156,294373,6,0,B|185:161|162:178|148:202|148:202|119:226|72:218,1,150,2|2,0:0|0:0,0:0:0:0:
226,246,294884,2,0,P|269:224|293:195,1,75,8|0,0:0|0:0,0:0:0:0:
344,86,295225,1,2,0:0:0:0:
283,18,295396,1,8,0:0:0:0:
316,173,295566,1,2,0:0:0:0:
404,153,295736,1,8,0:0:0:0:
257,105,295907,6,0,L|177:101,1,75,6|2,0:0|0:0,0:0:0:0:
237,217,296248,2,0,L|165:253,1,75,8|2,0:0|0:0,0:0:0:0:
296,286,296589,2,0,P|320:254|327:203,1,75,8|0,0:0|0:0,0:0:0:0:
297,104,296930,1,2,0:0:0:0:
410,69,297100,1,2,0:0:0:0:
275,64,297271,6,0,B|227:59|227:59|185:46,1,75,8|0,0:0|0:0,0:0:0:0:
89,93,297611,2,0,P|75:133|77:183,1,75,8|0,0:0|0:0,0:0:0:0:
150,295,297952,1,2,0:0:0:0:
159,160,298123,1,12,0:0:0:0:
49,253,298293,2,0,L|38:298,3,37.5
51,333,298634,6,0,P|83:352|131:358,1,75,2|2,0:0|0:0,0:0:0:0:
227,253,298975,2,0,P|195:234|147:228,1,75,12|0,0:0|0:0,0:0:0:0:
233,358,299316,1,2,0:0:0:0:
321,246,299486,1,8,0:0:0:0:
250,113,299657,2,0,L|170:106,1,75,2|2,0:0|0:0,0:0:0:0:
329,156,299998,6,0,L|409:149,1,75,2|2,0:0|0:0,0:0:0:0:
461,289,300339,2,0,P|432:321|394:338,1,75,8|0,0:0|0:0,0:0:0:0:
263,311,300680,1,2,0:0:0:0:
244,223,300850,1,2,0:0:0:0:
378,154,301021,1,8,0:0:0:0:
359,242,301191,1,2,0:0:0:0:
178,283,301361,6,0,L|138:271,5,37.5,6|0|0|0|0|0,0:0|0:0|0:0|0:0|0:0|0:0,0:0:0:0:
135,159,301873,2,0,L|95:171,5,37.5,6|8|8|8|8|8,0:0|0:0|0:0|0:0|0:0|0:0,0:0:0:0:
127,69,302384,2,0,P|137:57|154:43,1,37.5,8|0,0:0|0:0,0:0:0:0:
224,15,302555,1,6,0:0:0:0:
