osu file format v14

[General]
AudioFilename: kualitas maknyus.mp3
AudioLeadIn: 0
PreviewTime: 115685
Countdown: 0
SampleSet: Normal
StackLeniency: 0.3
Mode: 1
LetterboxInBreaks: 0
WidescreenStoryboard: 0

[Editor]
DistanceSpacing: 0.8
BeatDivisor: 4
GridSize: 32
TimelineZoom: 3.599999

[Metadata]
Title:Fuujin Shoujo
TitleUnicode:風神少女
Artist:Demetori
ArtistUnicode:Demetori
Creator:Surono
Version:Ura Oni
Source:東方Project
Tags:東方花映塚 ~ Phantasmagoria of Flower View 東方文花帖 ~ Shoot the Bullet Bohemian Archive in Japanese Red th9 th9.5 Touhou Project Aya Shameimaru theme Wind God Girl metal arrangement ZUN UI-70 Il Mondo dove e Finito il Tempo
BeatmapID:1486175
BeatmapSetID:522366

[Difficulty]
HPDrainRate:3.8
CircleSize:2
OverallDifficulty:7.2
ApproachRate:10
SliderMultiplier:1.4
SliderTickRate:1

[Events]
//Background and Video events
0,0,"qualiti bege tankh lassegna.jpg",0,-69
//Break Periods
//Storyboard Layer 0 (Background)
//Storyboard Layer 1 (Fail)
//Storyboard Layer 2 (Pass)
//Storyboard Layer 3 (Foreground)
//Storyboard Sound Samples

[TimingPoints]
28,300,4,1,0,90,1,0
28,-50,4,1,0,90,0,0
8428,-100,4,1,0,90,0,0
57628,-100,4,1,0,90,0,1
79228,-100,4,1,0,90,0,0
116653,-117.647058823529,4,1,0,80,0,0
117628,-100,4,1,0,90,0,1
136828,-100,4,1,0,90,0,0
136903,-111.111111111111,4,1,0,90,0,0
144028,-100,4,1,0,90,0,0
165628,-100,4,1,0,90,0,1
184828,-100,4,1,0,90,0,0
186028,-50,4,1,0,90,0,0
193228,-66.6666666666667,4,1,0,90,0,0
195328,-111.111111111111,4,1,0,90,0,0
206428,-105.263157894737,4,1,0,90,0,0
216028,-100,4,1,0,90,0,1
224578,-105.263157894737,4,1,0,90,0,1
224803,-111.111111111111,4,1,0,90,0,1
224953,-117.647058823529,4,1,0,90,0,1
225178,-125,4,1,0,90,0,1
225403,-133.333333333333,4,1,0,90,0,1
225628,-100,4,1,0,90,0,0
254428,-100,4,1,0,90,0,1
280828,-100,4,1,0,90,0,0
283228,-100,4,1,0,90,0,1
302428,-100,4,1,0,90,0,0

[HitObjects]
256,192,28,5,4,0:0:0:0:
256,192,2278,1,4,0:0:0:0:
256,192,2428,1,4,0:0:0:0:
256,192,4828,1,4,0:0:0:0:
256,192,7078,1,4,0:0:0:0:
256,192,7228,1,4,0:0:0:0:
256,192,8428,1,8,0:0:0:0:
256,192,8503,1,8,0:0:0:0:
256,192,8578,1,0,0:0:0:0:
256,192,8653,1,0,0:0:0:0:
256,192,8728,1,0,0:0:0:0:
256,192,8803,1,0,0:0:0:0:
256,192,8878,1,8,0:0:0:0:
256,192,8953,1,8,0:0:0:0:
256,192,9028,1,0,0:0:0:0:
256,192,9103,1,0,0:0:0:0:
256,192,9178,1,0,0:0:0:0:
256,192,9253,1,0,0:0:0:0:
256,192,9328,1,8,0:0:0:0:
256,192,9403,1,8,0:0:0:0:
256,192,9478,1,8,0:0:0:0:
256,192,9553,1,8,0:0:0:0:
256,192,9628,1,0,0:0:0:0:
256,192,9778,1,8,0:0:0:0:
256,192,9928,1,0,0:0:0:0:
256,192,10078,1,8,0:0:0:0:
256,192,10153,1,8,0:0:0:0:
256,192,10228,1,0,0:0:0:0:
256,192,10303,1,0,0:0:0:0:
256,192,10378,1,0,0:0:0:0:
256,192,10528,1,8,0:0:0:0:
256,192,10603,1,8,0:0:0:0:
256,192,10678,1,0,0:0:0:0:
256,192,10753,1,0,0:0:0:0:
256,192,10828,1,8,0:0:0:0:
256,192,10978,1,8,0:0:0:0:
256,192,11128,1,0,0:0:0:0:
256,192,11203,1,0,0:0:0:0:
256,192,11278,1,8,0:0:0:0:
256,192,11353,1,0,0:0:0:0:
256,192,11428,1,8,0:0:0:0:
256,192,11503,1,8,0:0:0:0:
256,192,11578,1,0,0:0:0:0:
256,192,11653,1,0,0:0:0:0:
256,192,11728,1,8,0:0:0:0:
256,192,11878,1,8,0:0:0:0:
256,192,11953,1,0,0:0:0:0:
256,192,12028,1,8,0:0:0:0:
256,192,12178,1,0,0:0:0:0:
256,192,12253,1,0,0:0:0:0:
256,192,12328,1,0,0:0:0:0:
256,192,12403,1,0,0:0:0:0:
256,192,12478,1,8,0:0:0:0:
256,192,12628,1,0,0:0:0:0:
256,192,12703,1,0,0:0:0:0:
256,192,12778,1,0,0:0:0:0:
256,192,12853,1,0,0:0:0:0:
256,192,12928,1,8,0:0:0:0:
256,192,13078,1,8,0:0:0:0:
256,192,13153,1,0,0:0:0:0:
256,192,13228,1,8,0:0:0:0:
256,192,13378,1,0,0:0:0:0:
256,192,13453,1,0,0:0:0:0:
256,192,13528,1,0,0:0:0:0:
256,192,13603,1,0,0:0:0:0:
256,192,13678,1,8,0:0:0:0:
256,192,13828,1,0,0:0:0:0:
256,192,13903,1,0,0:0:0:0:
256,192,13978,1,0,0:0:0:0:
256,192,14053,1,0,0:0:0:0:
256,192,14128,1,8,0:0:0:0:
256,192,14278,1,8,0:0:0:0:
256,192,14353,1,8,0:0:0:0:
256,192,14428,1,8,0:0:0:0:
256,192,14578,1,0,0:0:0:0:
256,192,14653,1,0,0:0:0:0:
256,192,14728,1,8,0:0:0:0:
256,192,14803,1,0,0:0:0:0:
256,192,14878,1,8,0:0:0:0:
256,192,15028,1,0,0:0:0:0:
256,192,15103,1,0,0:0:0:0:
256,192,15178,1,8,0:0:0:0:
256,192,15253,1,0,0:0:0:0:
256,192,15328,1,8,0:0:0:0:
256,192,15478,1,0,0:0:0:0:
256,192,15553,1,0,0:0:0:0:
256,192,15628,1,8,0:0:0:0:
256,192,15778,1,0,0:0:0:0:
256,192,15853,1,0,0:0:0:0:
256,192,15928,1,8,0:0:0:0:
256,192,16003,1,0,0:0:0:0:
256,192,16078,1,8,0:0:0:0:
256,192,16228,1,0,0:0:0:0:
256,192,16303,1,0,0:0:0:0:
256,192,16378,1,8,0:0:0:0:
256,192,16453,1,0,0:0:0:0:
256,192,16528,1,8,0:0:0:0:
256,192,16678,1,8,0:0:0:0:
256,192,16828,1,4,0:0:0:0:
256,192,16978,1,8,0:0:0:0:
256,192,17053,1,8,0:0:0:0:
256,192,17128,1,0,0:0:0:0:
256,192,17203,1,8,0:0:0:0:
256,192,17278,1,8,0:0:0:0:
256,192,17353,1,8,0:0:0:0:
256,192,17428,1,0,0:0:0:0:
256,192,17503,1,8,0:0:0:0:
256,192,17578,1,0,0:0:0:0:
256,192,17653,1,8,0:0:0:0:
256,192,17728,1,8,0:0:0:0:
256,192,17803,1,8,0:0:0:0:
256,192,17878,1,0,0:0:0:0:
256,192,17953,1,0,0:0:0:0:
256,192,18028,1,8,0:0:0:0:
256,192,18103,1,8,0:0:0:0:
256,192,18178,1,0,0:0:0:0:
256,192,18253,1,0,0:0:0:0:
256,192,18328,1,8,0:0:0:0:
256,192,18403,1,8,0:0:0:0:
256,192,18478,1,8,0:0:0:0:
256,192,18553,1,8,0:0:0:0:
256,192,18628,1,0,0:0:0:0:
256,192,18703,1,0,0:0:0:0:
256,192,18778,1,0,0:0:0:0:
256,192,18853,1,0,0:0:0:0:
256,192,18928,1,8,0:0:0:0:
256,192,19003,1,8,0:0:0:0:
256,192,19078,1,0,0:0:0:0:
256,192,19153,1,8,0:0:0:0:
256,192,19228,1,0,0:0:0:0:
256,192,19378,1,8,0:0:0:0:
256,192,19528,1,0,0:0:0:0:
256,192,19678,1,8,0:0:0:0:
256,192,19753,1,8,0:0:0:0:
256,192,19828,1,0,0:0:0:0:
256,192,19903,1,0,0:0:0:0:
256,192,19978,1,0,0:0:0:0:
256,192,20128,1,8,0:0:0:0:
256,192,20203,1,8,0:0:0:0:
256,192,20278,1,0,0:0:0:0:
256,192,20353,1,0,0:0:0:0:
256,192,20428,1,8,0:0:0:0:
256,192,20578,1,8,0:0:0:0:
256,192,20728,1,0,0:0:0:0:
256,192,20803,1,0,0:0:0:0:
256,192,20878,1,8,0:0:0:0:
256,192,20953,1,0,0:0:0:0:
256,192,21028,1,8,0:0:0:0:
256,192,21103,1,8,0:0:0:0:
256,192,21178,1,0,0:0:0:0:
256,192,21253,1,0,0:0:0:0:
256,192,21328,1,8,0:0:0:0:
256,192,21478,1,8,0:0:0:0:
256,192,21553,1,0,0:0:0:0:
256,192,21628,1,8,0:0:0:0:
256,192,21778,1,0,0:0:0:0:
256,192,21853,1,0,0:0:0:0:
256,192,21928,1,0,0:0:0:0:
256,192,22003,1,0,0:0:0:0:
256,192,22078,1,8,0:0:0:0:
256,192,22228,1,0,0:0:0:0:
256,192,22303,1,0,0:0:0:0:
256,192,22378,1,0,0:0:0:0:
256,192,22453,1,0,0:0:0:0:
256,192,22528,1,8,0:0:0:0:
256,192,22678,1,8,0:0:0:0:
256,192,22753,1,0,0:0:0:0:
256,192,22828,1,8,0:0:0:0:
256,192,22978,1,0,0:0:0:0:
256,192,23053,1,0,0:0:0:0:
256,192,23128,1,0,0:0:0:0:
256,192,23203,1,0,0:0:0:0:
256,192,23278,1,8,0:0:0:0:
256,192,23428,1,0,0:0:0:0:
256,192,23503,1,0,0:0:0:0:
256,192,23578,1,0,0:0:0:0:
256,192,23653,1,0,0:0:0:0:
256,192,23728,1,8,0:0:0:0:
256,192,23803,1,0,0:0:0:0:
256,192,23878,1,8,0:0:0:0:
256,192,23953,1,8,0:0:0:0:
256,192,24028,1,8,0:0:0:0:
256,192,24178,1,0,0:0:0:0:
256,192,24253,1,0,0:0:0:0:
256,192,24328,1,8,0:0:0:0:
256,192,24403,1,0,0:0:0:0:
256,192,24478,1,8,0:0:0:0:
256,192,24628,1,0,0:0:0:0:
256,192,24703,1,0,0:0:0:0:
256,192,24778,1,8,0:0:0:0:
256,192,24853,1,0,0:0:0:0:
256,192,24928,1,8,0:0:0:0:
256,192,25078,1,0,0:0:0:0:
256,192,25153,1,0,0:0:0:0:
256,192,25228,1,8,0:0:0:0:
256,192,25378,1,0,0:0:0:0:
256,192,25453,1,0,0:0:0:0:
256,192,25528,1,8,0:0:0:0:
256,192,25603,1,0,0:0:0:0:
256,192,25678,1,8,0:0:0:0:
256,192,25828,1,0,0:0:0:0:
256,192,25903,1,0,0:0:0:0:
256,192,25978,1,8,0:0:0:0:
256,192,26053,1,0,0:0:0:0:
256,192,26128,1,8,0:0:0:0:
256,192,26278,1,8,0:0:0:0:
256,192,26428,1,4,0:0:0:0:
256,192,26578,1,8,0:0:0:0:
256,192,26653,1,8,0:0:0:0:
256,192,26728,1,0,0:0:0:0:
256,192,26803,1,8,0:0:0:0:
256,192,26878,1,8,0:0:0:0:
256,192,26953,1,8,0:0:0:0:
256,192,27028,1,0,0:0:0:0:
256,192,27103,1,8,0:0:0:0:
256,192,27178,1,0,0:0:0:0:
256,192,27253,1,8,0:0:0:0:
256,192,27328,1,8,0:0:0:0:
256,192,27403,1,8,0:0:0:0:
256,192,27478,1,0,0:0:0:0:
256,192,27553,1,8,0:0:0:0:
256,192,27628,1,0,0:0:0:0:
256,192,27703,1,8,0:0:0:0:
256,192,27778,1,8,0:0:0:0:
256,192,27853,1,8,0:0:0:0:
256,192,27928,1,0,0:0:0:0:
256,192,28003,1,8,0:0:0:0:
256,192,28078,1,0,0:0:0:0:
256,192,28153,1,0,0:0:0:0:
256,192,28228,1,8,0:0:0:0:
256,192,28303,1,8,0:0:0:0:
256,192,28378,1,0,0:0:0:0:
256,192,28453,1,0,0:0:0:0:
256,192,28528,1,0,0:0:0:0:
256,192,28603,1,8,0:0:0:0:
256,192,28678,1,0,0:0:0:0:
256,192,28828,1,12,0:0:0:0:
256,192,28978,1,8,0:0:0:0:
256,192,29128,1,0,0:0:0:0:
256,192,29203,1,0,0:0:0:0:
256,192,29278,1,8,0:0:0:0:
256,192,29353,1,0,0:0:0:0:
256,192,29428,1,8,0:0:0:0:
256,192,29578,1,8,0:0:0:0:
256,192,29728,1,0,0:0:0:0:
256,192,29803,1,0,0:0:0:0:
256,192,29878,1,8,0:0:0:0:
256,192,30028,1,0,0:0:0:0:
256,192,30178,1,8,0:0:0:0:
256,192,30253,1,8,0:0:0:0:
256,192,30328,1,0,0:0:0:0:
256,192,30403,1,0,0:0:0:0:
256,192,30478,1,8,0:0:0:0:
256,192,30553,1,0,0:0:0:0:
256,192,30628,1,0,0:0:0:0:
256,192,30778,1,8,0:0:0:0:
256,192,30928,1,0,0:0:0:0:
256,192,31003,1,0,0:0:0:0:
256,192,31078,1,8,0:0:0:0:
256,192,31228,1,8,0:0:0:0:
256,192,31303,1,0,0:0:0:0:
256,192,31378,1,8,0:0:0:0:
256,192,31528,1,0,0:0:0:0:
256,192,31603,1,0,0:0:0:0:
256,192,31678,1,8,0:0:0:0:
256,192,31753,1,8,0:0:0:0:
256,192,31828,1,8,0:0:0:0:
256,192,31978,1,8,0:0:0:0:
256,192,32128,1,0,0:0:0:0:
256,192,32203,1,0,0:0:0:0:
256,192,32278,1,8,0:0:0:0:
256,192,32428,1,0,0:0:0:0:
256,192,32578,1,8,0:0:0:0:
256,192,32728,1,0,0:0:0:0:
256,192,32803,1,0,0:0:0:0:
256,192,32878,1,8,0:0:0:0:
256,192,33028,1,0,0:0:0:0:
256,192,33103,1,0,0:0:0:0:
256,192,33178,1,8,0:0:0:0:
256,192,33253,1,0,0:0:0:0:
256,192,33328,1,0,0:0:0:0:
256,192,33403,1,8,0:0:0:0:
256,192,33478,1,8,0:0:0:0:
256,192,33553,1,8,0:0:0:0:
256,192,33628,1,0,0:0:0:0:
256,192,33778,1,8,0:0:0:0:
256,192,33928,1,0,0:0:0:0:
256,192,34003,1,0,0:0:0:0:
256,192,34078,1,8,0:0:0:0:
256,192,34153,1,0,0:0:0:0:
256,192,34228,1,0,0:0:0:0:
256,192,34378,1,8,0:0:0:0:
256,192,34528,1,0,0:0:0:0:
256,192,34603,1,0,0:0:0:0:
256,192,34678,1,8,0:0:0:0:
256,192,34828,1,0,0:0:0:0:
256,192,34978,1,8,0:0:0:0:
256,192,35053,1,0,0:0:0:0:
256,192,35128,1,0,0:0:0:0:
256,192,35203,1,0,0:0:0:0:
256,192,35278,1,8,0:0:0:0:
256,192,35353,1,8,0:0:0:0:
256,192,35428,1,0,0:0:0:0:
256,192,35578,1,8,0:0:0:0:
256,192,35728,1,0,0:0:0:0:
256,192,35803,1,0,0:0:0:0:
256,192,35878,1,8,0:0:0:0:
256,192,36028,1,8,0:0:0:0:
256,192,36103,1,0,0:0:0:0:
256,192,36178,1,8,0:0:0:0:
256,192,36328,1,0,0:0:0:0:
256,192,36403,1,0,0:0:0:0:
256,192,36478,1,8,0:0:0:0:
256,192,36553,1,0,0:0:0:0:
256,192,36628,1,8,0:0:0:0:
256,192,36778,1,8,0:0:0:0:
256,192,36928,1,8,0:0:0:0:
256,192,37003,1,0,0:0:0:0:
256,192,37078,1,8,0:0:0:0:
256,192,37153,1,8,0:0:0:0:
256,192,37228,1,0,0:0:0:0:
256,192,37303,1,8,0:0:0:0:
256,192,37378,1,0,0:0:0:0:
256,192,37453,1,0,0:0:0:0:
256,192,37528,1,0,0:0:0:0:
256,192,37603,1,0,0:0:0:0:
256,192,37678,1,8,0:0:0:0:
256,192,37753,1,8,0:0:0:0:
256,192,37828,1,0,0:0:0:0:
256,192,37903,1,8,0:0:0:0:
256,192,37978,1,0,0:0:0:0:
256,192,38053,1,0,0:0:0:0:
256,192,38128,1,8,0:0:0:0:
256,192,38278,1,0,0:0:0:0:
256,192,38428,1,12,0:0:0:0:
256,192,38578,1,8,0:0:0:0:
256,192,38728,1,0,0:0:0:0:
256,192,38803,1,0,0:0:0:0:
256,192,38878,1,8,0:0:0:0:
256,192,38953,1,8,0:0:0:0:
256,192,39028,1,0,0:0:0:0:
256,192,39178,1,8,0:0:0:0:
256,192,39328,1,0,0:0:0:0:
256,192,39403,1,0,0:0:0:0:
256,192,39478,1,8,0:0:0:0:
256,192,39628,1,0,0:0:0:0:
256,192,39778,1,8,0:0:0:0:
256,192,39853,1,8,0:0:0:0:
256,192,39928,1,0,0:0:0:0:
256,192,40003,1,0,0:0:0:0:
256,192,40078,1,8,0:0:0:0:
256,192,40153,1,0,0:0:0:0:
256,192,40228,1,0,0:0:0:0:
256,192,40378,1,8,0:0:0:0:
256,192,40528,1,0,0:0:0:0:
256,192,40603,1,0,0:0:0:0:
256,192,40678,1,8,0:0:0:0:
256,192,40828,1,8,0:0:0:0:
256,192,40903,1,0,0:0:0:0:
256,192,40978,1,8,0:0:0:0:
256,192,41128,1,0,0:0:0:0:
256,192,41203,1,0,0:0:0:0:
256,192,41278,1,8,0:0:0:0:
256,192,41353,1,8,0:0:0:0:
256,192,41428,1,8,0:0:0:0:
256,192,41578,1,8,0:0:0:0:
256,192,41728,1,0,0:0:0:0:
256,192,41803,1,0,0:0:0:0:
256,192,41878,1,8,0:0:0:0:
256,192,42028,1,0,0:0:0:0:
256,192,42178,1,8,0:0:0:0:
256,192,42328,1,0,0:0:0:0:
256,192,42403,1,0,0:0:0:0:
256,192,42478,1,8,0:0:0:0:
256,192,42628,1,0,0:0:0:0:
256,192,42703,1,0,0:0:0:0:
256,192,42778,1,8,0:0:0:0:
256,192,42853,1,0,0:0:0:0:
256,192,42928,1,0,0:0:0:0:
256,192,43003,1,8,0:0:0:0:
256,192,43078,1,8,0:0:0:0:
256,192,43153,1,0,0:0:0:0:
256,192,43228,1,8,0:0:0:0:
256,192,43378,1,8,0:0:0:0:
256,192,43528,1,0,0:0:0:0:
256,192,43603,1,0,0:0:0:0:
256,192,43678,1,8,0:0:0:0:
256,192,43753,1,0,0:0:0:0:
256,192,43828,1,0,0:0:0:0:
256,192,43978,1,8,0:0:0:0:
256,192,44128,1,0,0:0:0:0:
256,192,44203,1,0,0:0:0:0:
256,192,44278,1,8,0:0:0:0:
256,192,44428,1,0,0:0:0:0:
256,192,44503,1,0,0:0:0:0:
256,192,44578,1,8,0:0:0:0:
256,192,44653,1,0,0:0:0:0:
256,192,44728,1,0,0:0:0:0:
256,192,44803,1,0,0:0:0:0:
256,192,44878,1,8,0:0:0:0:
256,192,44953,1,8,0:0:0:0:
256,192,45028,1,0,0:0:0:0:
256,192,45178,1,8,0:0:0:0:
256,192,45328,1,0,0:0:0:0:
256,192,45403,1,0,0:0:0:0:
256,192,45478,1,8,0:0:0:0:
256,192,45628,1,8,0:0:0:0:
256,192,45703,1,0,0:0:0:0:
256,192,45778,1,8,0:0:0:0:
256,192,45928,1,0,0:0:0:0:
256,192,46003,1,0,0:0:0:0:
256,192,46078,1,8,0:0:0:0:
256,192,46153,1,8,0:0:0:0:
256,192,46228,1,0,0:0:0:0:
256,192,46378,1,8,0:0:0:0:
256,192,46528,1,0,0:0:0:0:
256,192,46603,1,0,0:0:0:0:
256,192,46678,1,8,0:0:0:0:
256,192,46828,1,4,0:0:0:0:
256,192,46978,1,8,0:0:0:0:
256,192,47053,1,8,0:0:0:0:
256,192,47128,1,0,0:0:0:0:
256,192,47203,1,0,0:0:0:0:
256,192,47278,1,8,0:0:0:0:
256,192,47353,1,8,0:0:0:0:
256,192,47428,1,8,0:0:0:0:
256,192,47503,1,8,0:0:0:0:
256,192,47578,1,0,0:0:0:0:
256,192,47653,1,0,0:0:0:0:
256,192,47728,1,0,0:0:0:0:
256,192,47803,1,0,0:0:0:0:
256,192,47878,1,8,0:0:0:0:
256,192,48028,1,12,0:0:0:0:
256,192,48178,1,8,0:0:0:0:
256,192,48253,1,0,0:0:0:0:
256,192,48478,1,8,0:0:0:0:
256,192,48553,1,8,0:0:0:0:
256,192,48628,1,0,0:0:0:0:
256,192,48703,1,0,0:0:0:0:
256,192,48778,1,8,0:0:0:0:
256,192,48853,1,8,0:0:0:0:
256,192,49078,1,8,0:0:0:0:
256,192,49153,1,0,0:0:0:0:
256,192,49228,1,0,0:0:0:0:
256,192,49303,1,0,0:0:0:0:
256,192,49378,1,8,0:0:0:0:
256,192,49528,1,0,0:0:0:0:
256,192,49678,1,8,0:0:0:0:
256,192,49753,1,8,0:0:0:0:
256,192,49828,1,0,0:0:0:0:
256,192,49903,1,0,0:0:0:0:
256,192,49978,1,8,0:0:0:0:
256,192,50053,1,0,0:0:0:0:
256,192,50128,1,8,0:0:0:0:
256,192,50203,1,0,0:0:0:0:
256,192,50278,1,8,0:0:0:0:
256,192,50353,1,8,0:0:0:0:
256,192,50428,1,8,0:0:0:0:
256,192,50503,1,0,0:0:0:0:
256,192,50578,1,8,0:0:0:0:
256,192,50653,1,0,0:0:0:0:
256,192,50878,1,8,0:0:0:0:
256,192,50953,1,0,0:0:0:0:
256,192,51028,1,0,0:0:0:0:
256,192,51103,1,0,0:0:0:0:
256,192,51178,1,8,0:0:0:0:
256,192,51253,1,8,0:0:0:0:
256,192,51478,1,8,0:0:0:0:
256,192,51553,1,8,0:0:0:0:
256,192,51628,1,0,0:0:0:0:
256,192,51703,1,0,0:0:0:0:
256,192,51778,1,8,0:0:0:0:
256,192,51853,1,0,0:0:0:0:
256,192,51928,1,0,0:0:0:0:
256,192,52003,1,0,0:0:0:0:
256,192,52078,1,8,0:0:0:0:
256,192,52153,1,8,0:0:0:0:
256,192,52228,1,0,0:0:0:0:
256,192,52303,1,0,0:0:0:0:
256,192,52378,1,8,0:0:0:0:
256,192,52453,1,8,0:0:0:0:
256,192,52528,1,0,0:0:0:0:
256,192,52603,1,0,0:0:0:0:
256,192,52678,1,8,0:0:0:0:
256,192,52828,1,0,0:0:0:0:
256,192,52978,1,8,0:0:0:0:
256,192,53053,1,0,0:0:0:0:
256,192,53278,1,8,0:0:0:0:
256,192,53353,1,8,0:0:0:0:
256,192,53428,1,0,0:0:0:0:
256,192,53503,1,0,0:0:0:0:
256,192,53578,1,8,0:0:0:0:
256,192,53653,1,0,0:0:0:0:
256,192,53878,1,8,0:0:0:0:
256,192,54028,1,0,0:0:0:0:
256,192,54103,1,0,0:0:0:0:
256,192,54178,1,8,0:0:0:0:
256,192,54253,1,8,0:0:0:0:
256,192,54328,1,0,0:0:0:0:
256,192,54403,1,0,0:0:0:0:
256,192,54478,1,8,0:0:0:0:
256,192,54628,1,8,0:0:0:0:
256,192,54703,1,0,0:0:0:0:
256,192,54778,1,8,0:0:0:0:
256,192,54853,1,8,0:0:0:0:
256,192,54928,1,0,0:0:0:0:
256,192,55003,1,0,0:0:0:0:
256,192,55078,1,8,0:0:0:0:
256,192,55153,1,8,0:0:0:0:
256,192,55228,1,8,0:0:0:0:
256,192,55303,1,0,0:0:0:0:
256,192,55378,1,8,0:0:0:0:
256,192,55453,1,0,0:0:0:0:
256,192,55528,1,0,0:0:0:0:
256,192,55603,1,0,0:0:0:0:
256,192,55678,1,8,0:0:0:0:
256,192,55753,1,0,0:0:0:0:
256,192,55828,1,8,0:0:0:0:
256,192,55903,1,8,0:0:0:0:
256,192,55978,1,0,0:0:0:0:
256,192,56053,1,8,0:0:0:0:
256,192,56128,1,0,0:0:0:0:
256,192,56203,1,0,0:0:0:0:
256,192,56278,1,8,0:0:0:0:
256,192,56353,1,0,0:0:0:0:
256,192,56428,1,8,0:0:0:0:
256,192,56503,1,8,0:0:0:0:
256,192,56578,1,0,0:0:0:0:
256,192,56653,1,0,0:0:0:0:
256,192,56728,1,8,0:0:0:0:
256,192,56803,1,0,0:0:0:0:
256,192,56878,1,8,0:0:0:0:
256,192,56953,1,0,0:0:0:0:
256,192,57028,1,8,0:0:0:0:
256,192,57103,1,8,0:0:0:0:
256,192,57178,1,0,0:0:0:0:
256,192,57253,1,0,0:0:0:0:
256,192,57328,1,8,0:0:0:0:
256,192,57403,1,8,0:0:0:0:
256,192,57478,1,0,0:0:0:0:
256,192,57628,1,4,0:0:0:0:
256,192,57778,1,8,0:0:0:0:
256,192,57928,1,0,0:0:0:0:
256,192,58003,1,0,0:0:0:0:
256,192,58078,1,8,0:0:0:0:
256,192,58153,1,0,0:0:0:0:
256,192,58228,1,8,0:0:0:0:
256,192,58378,1,8,0:0:0:0:
256,192,58453,1,0,0:0:0:0:
256,192,58528,1,0,0:0:0:0:
256,192,58603,1,0,0:0:0:0:
256,192,58678,1,8,0:0:0:0:
256,192,58753,1,0,0:0:0:0:
256,192,58828,1,8,0:0:0:0:
256,192,58978,1,8,0:0:0:0:
256,192,59128,1,0,0:0:0:0:
256,192,59203,1,0,0:0:0:0:
256,192,59278,1,8,0:0:0:0:
256,192,59353,1,0,0:0:0:0:
256,192,59428,1,8,0:0:0:0:
256,192,59578,1,8,0:0:0:0:
256,192,59653,1,0,0:0:0:0:
256,192,59728,1,0,0:0:0:0:
256,192,59803,1,0,0:0:0:0:
256,192,59878,1,8,0:0:0:0:
256,192,59953,1,0,0:0:0:0:
256,192,60028,1,8,0:0:0:0:
256,192,60178,1,8,0:0:0:0:
256,192,60328,1,0,0:0:0:0:
256,192,60403,1,0,0:0:0:0:
256,192,60478,1,8,0:0:0:0:
256,192,60553,1,8,0:0:0:0:
256,192,60628,1,0,0:0:0:0:
256,192,60778,1,8,0:0:0:0:
256,192,60853,1,8,0:0:0:0:
256,192,60928,1,0,0:0:0:0:
256,192,61003,1,0,0:0:0:0:
256,192,61078,1,8,0:0:0:0:
256,192,61153,1,0,0:0:0:0:
256,192,61228,1,0,0:0:0:0:
256,192,61378,1,8,0:0:0:0:
256,192,61528,1,0,0:0:0:0:
256,192,61603,1,0,0:0:0:0:
256,192,61678,1,8,0:0:0:0:
256,192,61828,1,0,0:0:0:0:
256,192,61978,1,8,0:0:0:0:
256,192,62053,1,8,0:0:0:0:
256,192,62128,1,0,0:0:0:0:
256,192,62203,1,8,0:0:0:0:
256,192,62278,1,8,0:0:0:0:
256,192,62353,1,8,0:0:0:0:
256,192,62428,1,0,0:0:0:0:
256,192,62578,1,8,0:0:0:0:
256,192,62728,1,0,0:0:0:0:
256,192,62803,1,0,0:0:0:0:
256,192,62878,1,8,0:0:0:0:
256,192,62953,1,0,0:0:0:0:
256,192,63028,1,8,0:0:0:0:
256,192,63178,1,8,0:0:0:0:
256,192,63253,1,0,0:0:0:0:
256,192,63328,1,0,0:0:0:0:
256,192,63403,1,0,0:0:0:0:
256,192,63478,1,8,0:0:0:0:
256,192,63553,1,0,0:0:0:0:
256,192,63628,1,8,0:0:0:0:
256,192,63778,1,8,0:0:0:0:
256,192,63928,1,0,0:0:0:0:
256,192,64003,1,0,0:0:0:0:
256,192,64078,1,8,0:0:0:0:
256,192,64153,1,0,0:0:0:0:
256,192,64228,1,8,0:0:0:0:
256,192,64378,1,8,0:0:0:0:
256,192,64453,1,0,0:0:0:0:
256,192,64528,1,0,0:0:0:0:
256,192,64603,1,0,0:0:0:0:
256,192,64678,1,8,0:0:0:0:
256,192,64753,1,8,0:0:0:0:
256,192,64828,1,0,0:0:0:0:
256,192,64978,1,8,0:0:0:0:
256,192,65053,1,8,0:0:0:0:
256,192,65128,1,0,0:0:0:0:
256,192,65278,1,8,0:0:0:0:
256,192,65353,1,0,0:0:0:0:
256,192,65428,1,8,0:0:0:0:
256,192,65578,1,8,0:0:0:0:
256,192,65653,1,8,0:0:0:0:
256,192,65728,1,0,0:0:0:0:
256,192,65878,1,8,0:0:0:0:
256,192,65953,1,0,0:0:0:0:
256,192,66028,1,8,0:0:0:0:
256,192,66178,1,8,0:0:0:0:
256,192,66253,1,8,0:0:0:0:
256,192,66328,1,0,0:0:0:0:
256,192,66478,1,8,0:0:0:0:
256,192,66553,1,8,0:0:0:0:
256,192,66628,1,0,0:0:0:0:
256,192,66703,1,0,0:0:0:0:
256,192,66778,1,8,0:0:0:0:
256,192,66853,1,0,0:0:0:0:
256,192,66928,1,8,0:0:0:0:
256,192,67003,1,8,0:0:0:0:
256,192,67078,1,8,0:0:0:0:
256,192,67153,1,8,0:0:0:0:
256,192,67228,1,0,0:0:0:0:
256,192,67378,1,8,0:0:0:0:
256,192,67528,1,0,0:0:0:0:
256,192,67603,1,0,0:0:0:0:
256,192,67678,1,8,0:0:0:0:
256,192,67753,1,8,0:0:0:0:
256,192,67828,1,8,0:0:0:0:
256,192,67978,1,8,0:0:0:0:
256,192,68053,1,8,0:0:0:0:
256,192,68128,1,0,0:0:0:0:
256,192,68203,1,0,0:0:0:0:
256,192,68278,1,8,0:0:0:0:
256,192,68353,1,0,0:0:0:0:
256,192,68428,1,8,0:0:0:0:
256,192,68578,1,8,0:0:0:0:
256,192,68728,1,0,0:0:0:0:
256,192,68803,1,0,0:0:0:0:
256,192,68878,1,8,0:0:0:0:
256,192,68953,1,8,0:0:0:0:
256,192,69028,1,8,0:0:0:0:
256,192,69178,1,8,0:0:0:0:
256,192,69253,1,8,0:0:0:0:
256,192,69328,1,0,0:0:0:0:
256,192,69403,1,0,0:0:0:0:
256,192,69478,1,8,0:0:0:0:
256,192,69553,1,0,0:0:0:0:
256,192,69628,1,8,0:0:0:0:
256,192,69778,1,8,0:0:0:0:
256,192,69928,1,0,0:0:0:0:
256,192,70003,1,0,0:0:0:0:
256,192,70078,1,8,0:0:0:0:
256,192,70153,1,8,0:0:0:0:
256,192,70228,1,0,0:0:0:0:
256,192,70378,1,8,0:0:0:0:
256,192,70453,1,0,0:0:0:0:
256,192,70528,1,0,0:0:0:0:
256,192,70603,1,0,0:0:0:0:
256,192,70678,1,8,0:0:0:0:
256,192,70753,1,0,0:0:0:0:
256,192,70828,1,8,0:0:0:0:
256,192,70978,1,8,0:0:0:0:
256,192,71128,1,0,0:0:0:0:
256,192,71203,1,0,0:0:0:0:
256,192,71278,1,8,0:0:0:0:
256,192,71353,1,0,0:0:0:0:
256,192,71428,1,0,0:0:0:0:
256,192,71578,1,0,0:0:0:0:
256,192,71653,1,0,0:0:0:0:
256,192,71728,1,8,0:0:0:0:
256,192,71803,1,0,0:0:0:0:
256,192,71878,1,0,0:0:0:0:
256,192,71953,1,0,0:0:0:0:
256,192,72028,1,8,0:0:0:0:
256,192,72178,1,8,0:0:0:0:
256,192,72328,1,0,0:0:0:0:
256,192,72403,1,0,0:0:0:0:
256,192,72478,1,8,0:0:0:0:
256,192,72553,1,8,0:0:0:0:
256,192,72628,1,8,0:0:0:0:
256,192,72778,1,8,0:0:0:0:
256,192,72853,1,8,0:0:0:0:
256,192,72928,1,0,0:0:0:0:
256,192,73003,1,0,0:0:0:0:
256,192,73078,1,8,0:0:0:0:
256,192,73153,1,0,0:0:0:0:
256,192,73228,1,8,0:0:0:0:
256,192,73378,1,8,0:0:0:0:
256,192,73528,1,0,0:0:0:0:
256,192,73603,1,0,0:0:0:0:
256,192,73678,1,8,0:0:0:0:
256,192,73753,1,8,0:0:0:0:
256,192,73828,1,8,0:0:0:0:
256,192,73978,1,8,0:0:0:0:
256,192,74053,1,8,0:0:0:0:
256,192,74128,1,0,0:0:0:0:
256,192,74203,1,0,0:0:0:0:
256,192,74278,1,8,0:0:0:0:
256,192,74353,1,0,0:0:0:0:
256,192,74428,1,8,0:0:0:0:
256,192,74503,1,8,0:0:0:0:
256,192,74578,1,0,0:0:0:0:
256,192,74653,1,0,0:0:0:0:
256,192,74728,1,8,0:0:0:0:
256,192,74803,1,0,0:0:0:0:
256,192,74878,1,0,0:0:0:0:
256,192,74953,1,0,0:0:0:0:
256,192,75028,1,8,0:0:0:0:
256,192,75103,1,0,0:0:0:0:
256,192,75178,1,8,0:0:0:0:
256,192,75253,1,0,0:0:0:0:
256,192,75328,1,0,0:0:0:0:
256,192,75478,1,12,0:0:0:0:
256,192,75778,1,0,0:0:0:0:
256,192,75853,1,0,0:0:0:0:
256,192,75928,1,8,0:0:0:0:
256,192,76003,1,8,0:0:0:0:
256,192,76078,1,8,0:0:0:0:
256,192,76153,1,8,0:0:0:0:
256,192,76228,1,0,0:0:0:0:
256,192,76303,1,0,0:0:0:0:
256,192,76378,1,8,0:0:0:0:
256,192,76453,1,8,0:0:0:0:
256,192,76528,1,0,0:0:0:0:
256,192,76603,1,0,0:0:0:0:
256,192,76678,1,0,0:0:0:0:
256,192,76828,1,4,0:0:0:0:
256,192,76978,12,0,78028,0:0:0:0:
256,192,78178,5,0,0:0:0:0:
256,192,78328,1,0,0:0:0:0:
256,192,78478,1,8,0:0:0:0:
256,192,78628,1,8,0:0:0:0:
256,192,78778,1,0,0:0:0:0:
256,192,78853,1,0,0:0:0:0:
256,192,78928,1,8,0:0:0:0:
256,192,79228,1,12,0:0:0:0:
256,192,79378,1,0,0:0:0:0:
256,192,79453,1,0,0:0:0:0:
256,192,79528,1,0,0:0:0:0:
256,192,79603,1,0,0:0:0:0:
256,192,79678,1,8,0:0:0:0:
256,192,79753,1,0,0:0:0:0:
256,192,79828,1,0,0:0:0:0:
256,192,79903,1,0,0:0:0:0:
256,192,79978,1,0,0:0:0:0:
256,192,80053,1,0,0:0:0:0:
256,192,80128,1,8,0:0:0:0:
256,192,80203,1,0,0:0:0:0:
256,192,80278,1,0,0:0:0:0:
256,192,80353,1,0,0:0:0:0:
256,192,80428,1,8,0:0:0:0:
256,192,80503,1,8,0:0:0:0:
256,192,80578,1,0,0:0:0:0:
256,192,80653,1,0,0:0:0:0:
256,192,80728,1,0,0:0:0:0:
256,192,80803,1,0,0:0:0:0:
256,192,80878,1,8,0:0:0:0:
256,192,80953,1,8,0:0:0:0:
256,192,81028,1,0,0:0:0:0:
256,192,81103,1,0,0:0:0:0:
256,192,81178,1,0,0:0:0:0:
256,192,81253,1,0,0:0:0:0:
256,192,81328,1,8,0:0:0:0:
256,192,81403,1,0,0:0:0:0:
256,192,81478,1,0,0:0:0:0:
256,192,81553,1,0,0:0:0:0:
256,192,81628,1,8,0:0:0:0:
256,192,81703,1,8,0:0:0:0:
256,192,81778,1,0,0:0:0:0:
256,192,81853,1,0,0:0:0:0:
256,192,81928,1,0,0:0:0:0:
256,192,82003,1,0,0:0:0:0:
256,192,82078,1,8,0:0:0:0:
256,192,82153,1,8,0:0:0:0:
256,192,82228,1,0,0:0:0:0:
256,192,82303,1,0,0:0:0:0:
256,192,82378,1,0,0:0:0:0:
256,192,82453,1,0,0:0:0:0:
256,192,82528,1,8,0:0:0:0:
256,192,82603,1,0,0:0:0:0:
256,192,82678,1,0,0:0:0:0:
256,192,82753,1,0,0:0:0:0:
256,192,82828,1,8,0:0:0:0:
256,192,82903,1,8,0:0:0:0:
256,192,82978,1,0,0:0:0:0:
256,192,83053,1,0,0:0:0:0:
256,192,83128,1,0,0:0:0:0:
256,192,83203,1,0,0:0:0:0:
256,192,83278,1,8,0:0:0:0:
256,192,83353,1,8,0:0:0:0:
256,192,83428,1,0,0:0:0:0:
256,192,83503,1,0,0:0:0:0:
256,192,83578,1,0,0:0:0:0:
256,192,83653,1,0,0:0:0:0:
256,192,83728,1,8,0:0:0:0:
256,192,83803,1,0,0:0:0:0:
256,192,83878,1,0,0:0:0:0:
256,192,83953,1,0,0:0:0:0:
256,192,84028,1,8,0:0:0:0:
256,192,84103,1,8,0:0:0:0:
256,192,84178,1,8,0:0:0:0:
256,192,84253,1,0,0:0:0:0:
256,192,84328,1,0,0:0:0:0:
256,192,84403,1,0,0:0:0:0:
256,192,84478,1,8,0:0:0:0:
256,192,84553,1,8,0:0:0:0:
256,192,84628,1,8,0:0:0:0:
256,192,84703,1,0,0:0:0:0:
256,192,84778,1,0,0:0:0:0:
256,192,84853,1,0,0:0:0:0:
256,192,84928,1,8,0:0:0:0:
256,192,85003,1,8,0:0:0:0:
256,192,85078,1,8,0:0:0:0:
256,192,85153,1,0,0:0:0:0:
256,192,85228,1,8,0:0:0:0:
256,192,85303,1,8,0:0:0:0:
256,192,85378,1,0,0:0:0:0:
256,192,85453,1,0,0:0:0:0:
256,192,85528,1,0,0:0:0:0:
256,192,85603,1,0,0:0:0:0:
256,192,85678,1,8,0:0:0:0:
256,192,85753,1,8,0:0:0:0:
256,192,85828,1,0,0:0:0:0:
256,192,85903,1,0,0:0:0:0:
256,192,85978,1,0,0:0:0:0:
256,192,86053,1,0,0:0:0:0:
256,192,86128,1,8,0:0:0:0:
256,192,86203,1,0,0:0:0:0:
256,192,86278,1,0,0:0:0:0:
256,192,86353,1,0,0:0:0:0:
256,192,86428,1,8,0:0:0:0:
256,192,86503,1,8,0:0:0:0:
256,192,86578,1,0,0:0:0:0:
256,192,86653,1,0,0:0:0:0:
256,192,86728,1,0,0:0:0:0:
256,192,86803,1,0,0:0:0:0:
256,192,86878,1,8,0:0:0:0:
256,192,86953,1,8,0:0:0:0:
256,192,87028,1,0,0:0:0:0:
256,192,87103,1,0,0:0:0:0:
256,192,87178,1,0,0:0:0:0:
256,192,87328,1,12,0:0:0:0:
256,192,87478,1,0,0:0:0:0:
256,192,87553,1,0,0:0:0:0:
256,192,87628,1,8,0:0:0:0:
256,192,87703,1,8,0:0:0:0:
256,192,87778,1,0,0:0:0:0:
256,192,87853,1,0,0:0:0:0:
256,192,87928,1,8,0:0:0:0:
256,192,88003,1,8,0:0:0:0:
256,192,88078,1,0,0:0:0:0:
256,192,88153,1,0,0:0:0:0:
256,192,88228,1,8,0:0:0:0:
256,192,88303,1,0,0:0:0:0:
256,192,88378,1,0,0:0:0:0:
256,192,88528,1,4,0:0:0:0:
256,192,88678,1,0,0:0:0:0:
256,192,88828,1,12,0:0:0:0:
256,192,88978,1,0,0:0:0:0:
256,192,89053,1,0,0:0:0:0:
256,192,89128,1,0,0:0:0:0:
256,192,89203,1,0,0:0:0:0:
256,192,89278,1,8,0:0:0:0:
256,192,89353,1,0,0:0:0:0:
256,192,89428,1,0,0:0:0:0:
256,192,89503,1,0,0:0:0:0:
256,192,89578,1,0,0:0:0:0:
256,192,89653,1,0,0:0:0:0:
256,192,89728,1,8,0:0:0:0:
256,192,89803,1,8,0:0:0:0:
256,192,89878,1,8,0:0:0:0:
256,192,89953,1,0,0:0:0:0:
256,192,90028,1,8,0:0:0:0:
256,192,90103,1,8,0:0:0:0:
256,192,90178,1,0,0:0:0:0:
256,192,90253,1,0,0:0:0:0:
256,192,90328,1,0,0:0:0:0:
256,192,90403,1,0,0:0:0:0:
256,192,90478,1,8,0:0:0:0:
256,192,90553,1,8,0:0:0:0:
256,192,90628,1,0,0:0:0:0:
256,192,90703,1,0,0:0:0:0:
256,192,90778,1,0,0:0:0:0:
256,192,90853,1,0,0:0:0:0:
256,192,90928,1,8,0:0:0:0:
256,192,91003,1,0,0:0:0:0:
256,192,91078,1,0,0:0:0:0:
256,192,91153,1,0,0:0:0:0:
256,192,91228,1,8,0:0:0:0:
256,192,91303,1,8,0:0:0:0:
256,192,91378,1,0,0:0:0:0:
256,192,91453,1,0,0:0:0:0:
256,192,91528,1,0,0:0:0:0:
256,192,91603,1,0,0:0:0:0:
256,192,91678,1,8,0:0:0:0:
256,192,91753,1,8,0:0:0:0:
256,192,91828,1,0,0:0:0:0:
256,192,91903,1,0,0:0:0:0:
256,192,91978,1,0,0:0:0:0:
256,192,92053,1,0,0:0:0:0:
256,192,92128,1,8,0:0:0:0:
256,192,92203,1,0,0:0:0:0:
256,192,92278,1,0,0:0:0:0:
256,192,92353,1,0,0:0:0:0:
256,192,92428,1,8,0:0:0:0:
256,192,92503,1,8,0:0:0:0:
256,192,92578,1,0,0:0:0:0:
256,192,92653,1,0,0:0:0:0:
256,192,92728,1,0,0:0:0:0:
256,192,92803,1,0,0:0:0:0:
256,192,92878,1,8,0:0:0:0:
256,192,92953,1,8,0:0:0:0:
256,192,93028,1,0,0:0:0:0:
256,192,93103,1,0,0:0:0:0:
256,192,93178,1,0,0:0:0:0:
256,192,93253,1,0,0:0:0:0:
256,192,93328,1,8,0:0:0:0:
256,192,93403,1,0,0:0:0:0:
256,192,93478,1,0,0:0:0:0:
256,192,93628,1,12,0:0:0:0:
256,192,93778,1,0,0:0:0:0:
256,192,93853,1,0,0:0:0:0:
256,192,93928,1,8,0:0:0:0:
256,192,94003,1,8,0:0:0:0:
256,192,94078,1,0,0:0:0:0:
256,192,94153,1,0,0:0:0:0:
256,192,94228,1,8,0:0:0:0:
256,192,94303,1,8,0:0:0:0:
256,192,94378,1,8,0:0:0:0:
256,192,94453,1,0,0:0:0:0:
256,192,94528,1,8,0:0:0:0:
256,192,94603,1,0,0:0:0:0:
256,192,94678,1,0,0:0:0:0:
256,192,94753,1,0,0:0:0:0:
256,192,94828,1,8,0:0:0:0:
256,192,94903,1,0,0:0:0:0:
256,192,94978,1,0,0:0:0:0:
256,192,95053,1,0,0:0:0:0:
256,192,95128,1,8,0:0:0:0:
256,192,95203,1,0,0:0:0:0:
256,192,95278,1,0,0:0:0:0:
256,192,95353,1,0,0:0:0:0:
256,192,95428,1,8,0:0:0:0:
256,192,95503,1,0,0:0:0:0:
256,192,95578,1,0,0:0:0:0:
256,192,95653,1,0,0:0:0:0:
256,192,95728,1,8,0:0:0:0:
256,192,95803,1,0,0:0:0:0:
256,192,95878,1,8,0:0:0:0:
256,192,95953,1,8,0:0:0:0:
256,192,96028,1,8,0:0:0:0:
256,192,96103,1,0,0:0:0:0:
256,192,96178,1,8,0:0:0:0:
256,192,96253,1,8,0:0:0:0:
256,192,96328,1,0,0:0:0:0:
256,192,96403,1,0,0:0:0:0:
256,192,96478,1,8,0:0:0:0:
256,192,96553,1,0,0:0:0:0:
256,192,96628,1,8,0:0:0:0:
256,192,96703,1,0,0:0:0:0:
256,192,96778,1,0,0:0:0:0:
256,192,96853,1,0,0:0:0:0:
256,192,96928,1,8,0:0:0:0:
256,192,97003,1,8,0:0:0:0:
256,192,97078,1,0,0:0:0:0:
256,192,97153,1,8,0:0:0:0:
256,192,97228,1,8,0:0:0:0:
256,192,98428,5,12,0:0:0:0:
256,192,98578,5,8,0:0:0:0:
256,192,98728,1,0,0:0:0:0:
256,192,98803,1,0,0:0:0:0:
256,192,98878,1,8,0:0:0:0:
256,192,98953,1,8,0:0:0:0:
256,192,99028,1,0,0:0:0:0:
256,192,99178,1,8,0:0:0:0:
256,192,99328,1,0,0:0:0:0:
256,192,99403,1,0,0:0:0:0:
256,192,99478,1,8,0:0:0:0:
256,192,99628,1,0,0:0:0:0:
256,192,99778,1,8,0:0:0:0:
256,192,99853,1,8,0:0:0:0:
256,192,99928,1,0,0:0:0:0:
256,192,100003,1,0,0:0:0:0:
256,192,100078,1,8,0:0:0:0:
256,192,100153,1,0,0:0:0:0:
256,192,100228,1,0,0:0:0:0:
256,192,100378,1,8,0:0:0:0:
256,192,100528,1,0,0:0:0:0:
256,192,100603,1,0,0:0:0:0:
256,192,100678,1,8,0:0:0:0:
256,192,100828,1,8,0:0:0:0:
256,192,100903,1,0,0:0:0:0:
256,192,100978,1,8,0:0:0:0:
256,192,101128,1,0,0:0:0:0:
256,192,101203,1,0,0:0:0:0:
256,192,101278,1,8,0:0:0:0:
256,192,101353,1,8,0:0:0:0:
256,192,101428,1,8,0:0:0:0:
256,192,101578,1,8,0:0:0:0:
256,192,101728,1,0,0:0:0:0:
256,192,101803,1,0,0:0:0:0:
256,192,101878,1,8,0:0:0:0:
256,192,102028,1,0,0:0:0:0:
256,192,102178,1,8,0:0:0:0:
256,192,102328,1,0,0:0:0:0:
256,192,102403,1,0,0:0:0:0:
256,192,102478,1,8,0:0:0:0:
256,192,102628,1,0,0:0:0:0:
256,192,102703,1,0,0:0:0:0:
256,192,102778,1,8,0:0:0:0:
256,192,102853,1,0,0:0:0:0:
256,192,102928,1,0,0:0:0:0:
256,192,103003,1,8,0:0:0:0:
256,192,103078,1,8,0:0:0:0:
256,192,103153,1,8,0:0:0:0:
256,192,103228,1,0,0:0:0:0:
256,192,103378,1,8,0:0:0:0:
256,192,103528,1,0,0:0:0:0:
256,192,103603,1,0,0:0:0:0:
256,192,103678,1,8,0:0:0:0:
256,192,103753,1,0,0:0:0:0:
256,192,103828,1,0,0:0:0:0:
256,192,103978,1,8,0:0:0:0:
256,192,104128,1,0,0:0:0:0:
256,192,104203,1,0,0:0:0:0:
256,192,104278,1,8,0:0:0:0:
256,192,104428,1,0,0:0:0:0:
256,192,104578,1,8,0:0:0:0:
256,192,104653,1,0,0:0:0:0:
256,192,104728,1,0,0:0:0:0:
256,192,104803,1,0,0:0:0:0:
256,192,104878,1,8,0:0:0:0:
256,192,104953,1,8,0:0:0:0:
256,192,105028,1,0,0:0:0:0:
256,192,105178,1,8,0:0:0:0:
256,192,105328,1,0,0:0:0:0:
256,192,105403,1,0,0:0:0:0:
256,192,105478,1,8,0:0:0:0:
256,192,105628,1,8,0:0:0:0:
256,192,105703,1,0,0:0:0:0:
256,192,105778,1,8,0:0:0:0:
256,192,105928,1,0,0:0:0:0:
256,192,106003,1,0,0:0:0:0:
256,192,106078,1,8,0:0:0:0:
256,192,106153,1,8,0:0:0:0:
256,192,106228,1,0,0:0:0:0:
256,192,106378,1,8,0:0:0:0:
256,192,106528,1,8,0:0:0:0:
256,192,106603,1,0,0:0:0:0:
256,192,106678,1,8,0:0:0:0:
256,192,106753,1,8,0:0:0:0:
256,192,106828,1,0,0:0:0:0:
256,192,106903,1,8,0:0:0:0:
256,192,106978,1,0,0:0:0:0:
256,192,107053,1,0,0:0:0:0:
256,192,107128,1,0,0:0:0:0:
256,192,107203,1,0,0:0:0:0:
256,192,107278,1,8,0:0:0:0:
256,192,107353,1,8,0:0:0:0:
256,192,107428,1,0,0:0:0:0:
256,192,107503,1,8,0:0:0:0:
256,192,107578,1,0,0:0:0:0:
256,192,107653,1,0,0:0:0:0:
256,192,107728,1,8,0:0:0:0:
256,192,107878,1,0,0:0:0:0:
256,192,108028,1,12,0:0:0:0:
256,192,108178,1,8,0:0:0:0:
256,192,108253,1,0,0:0:0:0:
256,192,108478,1,8,0:0:0:0:
256,192,108553,1,0,0:0:0:0:
256,192,108628,1,0,0:0:0:0:
256,192,108703,1,0,0:0:0:0:
256,192,108778,1,8,0:0:0:0:
256,192,108853,1,8,0:0:0:0:
256,192,109078,1,8,0:0:0:0:
256,192,109153,1,0,0:0:0:0:
256,192,109228,1,0,0:0:0:0:
256,192,109303,1,0,0:0:0:0:
256,192,109378,1,8,0:0:0:0:
256,192,109528,1,0,0:0:0:0:
256,192,109678,1,8,0:0:0:0:
256,192,109753,1,0,0:0:0:0:
256,192,109828,1,0,0:0:0:0:
256,192,109903,1,0,0:0:0:0:
256,192,109978,1,8,0:0:0:0:
256,192,110053,1,0,0:0:0:0:
256,192,110128,1,8,0:0:0:0:
256,192,110203,1,0,0:0:0:0:
256,192,110278,1,8,0:0:0:0:
256,192,110353,1,8,0:0:0:0:
256,192,110428,1,8,0:0:0:0:
256,192,110503,1,0,0:0:0:0:
256,192,110578,1,8,0:0:0:0:
256,192,110653,1,0,0:0:0:0:
256,192,110878,1,8,0:0:0:0:
256,192,110953,1,0,0:0:0:0:
256,192,111028,1,0,0:0:0:0:
256,192,111103,1,0,0:0:0:0:
256,192,111178,1,8,0:0:0:0:
256,192,111253,1,0,0:0:0:0:
256,192,111478,1,8,0:0:0:0:
256,192,111553,1,8,0:0:0:0:
256,192,111628,1,0,0:0:0:0:
256,192,111703,1,0,0:0:0:0:
256,192,111778,1,8,0:0:0:0:
256,192,111853,1,0,0:0:0:0:
256,192,111928,1,0,0:0:0:0:
256,192,112003,1,0,0:0:0:0:
256,192,112078,1,8,0:0:0:0:
256,192,112153,1,8,0:0:0:0:
256,192,112228,1,0,0:0:0:0:
256,192,112303,1,0,0:0:0:0:
256,192,112378,1,8,0:0:0:0:
256,192,112453,1,8,0:0:0:0:
256,192,112528,1,0,0:0:0:0:
256,192,112603,1,0,0:0:0:0:
256,192,112678,1,8,0:0:0:0:
256,192,112828,1,0,0:0:0:0:
256,192,112978,1,8,0:0:0:0:
256,192,113053,1,0,0:0:0:0:
256,192,113278,1,8,0:0:0:0:
256,192,113353,1,8,0:0:0:0:
256,192,113428,1,0,0:0:0:0:
256,192,113503,1,0,0:0:0:0:
256,192,113578,1,8,0:0:0:0:
256,192,113653,1,8,0:0:0:0:
256,192,113878,1,8,0:0:0:0:
256,192,114028,1,0,0:0:0:0:
256,192,114103,1,0,0:0:0:0:
256,192,114178,1,8,0:0:0:0:
256,192,114253,1,8,0:0:0:0:
256,192,114328,1,0,0:0:0:0:
256,192,114403,1,0,0:0:0:0:
256,192,114478,1,8,0:0:0:0:
256,192,114628,1,8,0:0:0:0:
256,192,114703,1,0,0:0:0:0:
256,192,114778,1,8,0:0:0:0:
256,192,114853,1,8,0:0:0:0:
256,192,114928,5,0,0:0:0:0:
256,192,115003,1,8,0:0:0:0:
256,192,115078,1,0,0:0:0:0:
256,192,115228,1,12,0:0:0:0:
256,192,115378,1,8,0:0:0:0:
256,192,115528,1,0,0:0:0:0:
256,192,115603,1,0,0:0:0:0:
256,192,115678,1,8,0:0:0:0:
256,192,115753,1,8,0:0:0:0:
256,192,115828,1,8,0:0:0:0:
256,192,115903,1,0,0:0:0:0:
256,192,115978,1,8,0:0:0:0:
256,192,116053,1,0,0:0:0:0:
256,192,116128,1,8,0:0:0:0:
256,192,116203,1,8,0:0:0:0:
256,192,116278,1,0,0:0:0:0:
256,192,116428,1,12,0:0:0:0:
256,192,116728,1,0,0:0:0:0:
256,192,117028,1,0,0:0:0:0:
256,192,117328,1,0,0:0:0:0:
256,192,117628,1,4,0:0:0:0:
256,192,117778,1,8,0:0:0:0:
256,192,117928,1,0,0:0:0:0:
256,192,118003,1,0,0:0:0:0:
256,192,118078,1,8,0:0:0:0:
256,192,118153,1,0,0:0:0:0:
256,192,118228,1,8,0:0:0:0:
256,192,118378,1,8,0:0:0:0:
256,192,118453,1,0,0:0:0:0:
256,192,118528,1,0,0:0:0:0:
256,192,118603,1,0,0:0:0:0:
256,192,118678,1,8,0:0:0:0:
256,192,118753,1,0,0:0:0:0:
256,192,118828,1,8,0:0:0:0:
256,192,118978,1,8,0:0:0:0:
256,192,119128,1,0,0:0:0:0:
256,192,119203,1,0,0:0:0:0:
256,192,119278,1,8,0:0:0:0:
256,192,119353,1,0,0:0:0:0:
256,192,119428,1,8,0:0:0:0:
256,192,119578,1,8,0:0:0:0:
256,192,119653,1,0,0:0:0:0:
256,192,119728,1,0,0:0:0:0:
256,192,119803,1,0,0:0:0:0:
256,192,119878,1,8,0:0:0:0:
256,192,119953,1,0,0:0:0:0:
256,192,120028,1,8,0:0:0:0:
256,192,120178,1,8,0:0:0:0:
256,192,120328,1,0,0:0:0:0:
256,192,120403,1,0,0:0:0:0:
256,192,120478,1,8,0:0:0:0:
256,192,120553,1,8,0:0:0:0:
256,192,120628,1,0,0:0:0:0:
256,192,120778,1,8,0:0:0:0:
256,192,120853,1,8,0:0:0:0:
256,192,120928,1,0,0:0:0:0:
256,192,121003,1,0,0:0:0:0:
256,192,121078,1,8,0:0:0:0:
256,192,121153,1,0,0:0:0:0:
256,192,121228,1,0,0:0:0:0:
256,192,121378,1,8,0:0:0:0:
256,192,121528,1,0,0:0:0:0:
256,192,121603,1,0,0:0:0:0:
256,192,121678,1,8,0:0:0:0:
256,192,121828,1,0,0:0:0:0:
256,192,121978,1,8,0:0:0:0:
256,192,122053,1,8,0:0:0:0:
256,192,122128,1,0,0:0:0:0:
256,192,122203,1,8,0:0:0:0:
256,192,122278,1,8,0:0:0:0:
256,192,122353,1,8,0:0:0:0:
256,192,122428,1,0,0:0:0:0:
256,192,122578,1,8,0:0:0:0:
256,192,122728,1,0,0:0:0:0:
256,192,122803,1,0,0:0:0:0:
256,192,122878,1,8,0:0:0:0:
256,192,122953,1,0,0:0:0:0:
256,192,123028,1,8,0:0:0:0:
256,192,123178,1,8,0:0:0:0:
256,192,123253,1,0,0:0:0:0:
256,192,123328,1,0,0:0:0:0:
256,192,123403,1,0,0:0:0:0:
256,192,123478,1,8,0:0:0:0:
256,192,123553,1,0,0:0:0:0:
256,192,123628,1,8,0:0:0:0:
256,192,123778,1,8,0:0:0:0:
256,192,123928,1,0,0:0:0:0:
256,192,124003,1,0,0:0:0:0:
256,192,124078,1,8,0:0:0:0:
256,192,124153,1,0,0:0:0:0:
256,192,124228,1,8,0:0:0:0:
256,192,124378,1,8,0:0:0:0:
256,192,124453,1,0,0:0:0:0:
256,192,124528,1,0,0:0:0:0:
256,192,124603,1,0,0:0:0:0:
256,192,124678,1,8,0:0:0:0:
256,192,124753,1,8,0:0:0:0:
256,192,124828,1,0,0:0:0:0:
256,192,124978,1,8,0:0:0:0:
256,192,125053,1,8,0:0:0:0:
256,192,125128,1,0,0:0:0:0:
256,192,125278,1,8,0:0:0:0:
256,192,125353,1,0,0:0:0:0:
256,192,125428,1,8,0:0:0:0:
256,192,125578,1,8,0:0:0:0:
256,192,125653,1,8,0:0:0:0:
256,192,125728,1,0,0:0:0:0:
256,192,125878,1,8,0:0:0:0:
256,192,125953,1,0,0:0:0:0:
256,192,126028,1,8,0:0:0:0:
256,192,126178,1,8,0:0:0:0:
256,192,126253,1,8,0:0:0:0:
256,192,126328,1,0,0:0:0:0:
256,192,126478,1,8,0:0:0:0:
256,192,126553,1,0,0:0:0:0:
256,192,126628,1,0,0:0:0:0:
256,192,126703,1,0,0:0:0:0:
256,192,126778,1,8,0:0:0:0:
256,192,126928,1,8,0:0:0:0:
256,192,127003,1,0,0:0:0:0:
256,192,127078,1,8,0:0:0:0:
256,192,127153,1,8,0:0:0:0:
256,192,127228,1,0,0:0:0:0:
256,192,127378,1,8,0:0:0:0:
256,192,127528,1,0,0:0:0:0:
256,192,127603,1,0,0:0:0:0:
256,192,127678,1,8,0:0:0:0:
256,192,127753,1,8,0:0:0:0:
256,192,127828,1,8,0:0:0:0:
256,192,127978,1,8,0:0:0:0:
256,192,128053,1,8,0:0:0:0:
256,192,128128,1,0,0:0:0:0:
256,192,128203,1,0,0:0:0:0:
256,192,128278,1,8,0:0:0:0:
256,192,128353,1,0,0:0:0:0:
256,192,128428,1,8,0:0:0:0:
256,192,128578,1,8,0:0:0:0:
256,192,128728,1,0,0:0:0:0:
256,192,128803,1,0,0:0:0:0:
256,192,128878,1,8,0:0:0:0:
256,192,128953,1,8,0:0:0:0:
256,192,129028,1,8,0:0:0:0:
256,192,129178,1,8,0:0:0:0:
256,192,129253,1,8,0:0:0:0:
256,192,129328,1,0,0:0:0:0:
256,192,129403,1,0,0:0:0:0:
256,192,129478,1,8,0:0:0:0:
256,192,129553,1,0,0:0:0:0:
256,192,129628,1,8,0:0:0:0:
256,192,129778,1,8,0:0:0:0:
256,192,129928,1,0,0:0:0:0:
256,192,130003,1,0,0:0:0:0:
256,192,130078,1,8,0:0:0:0:
256,192,130153,1,0,0:0:0:0:
256,192,130228,1,8,0:0:0:0:
256,192,130378,1,8,0:0:0:0:
256,192,130453,1,0,0:0:0:0:
256,192,130528,1,0,0:0:0:0:
256,192,130603,1,0,0:0:0:0:
256,192,130678,1,8,0:0:0:0:
256,192,130753,1,8,0:0:0:0:
256,192,130828,1,0,0:0:0:0:
256,192,130978,1,8,0:0:0:0:
256,192,131128,1,0,0:0:0:0:
256,192,131203,1,0,0:0:0:0:
256,192,131278,1,8,0:0:0:0:
256,192,131353,1,0,0:0:0:0:
256,192,131428,1,0,0:0:0:0:
256,192,131578,1,0,0:0:0:0:
256,192,131653,1,0,0:0:0:0:
256,192,131728,1,8,0:0:0:0:
256,192,131803,1,0,0:0:0:0:
256,192,131878,1,0,0:0:0:0:
256,192,131953,1,0,0:0:0:0:
256,192,132028,1,8,0:0:0:0:
256,192,132178,1,8,0:0:0:0:
256,192,132328,1,0,0:0:0:0:
256,192,132403,1,0,0:0:0:0:
256,192,132478,1,8,0:0:0:0:
256,192,132553,1,8,0:0:0:0:
256,192,132628,1,8,0:0:0:0:
256,192,132778,1,8,0:0:0:0:
256,192,132853,1,8,0:0:0:0:
256,192,132928,1,0,0:0:0:0:
256,192,133003,1,0,0:0:0:0:
256,192,133078,1,8,0:0:0:0:
256,192,133153,1,0,0:0:0:0:
256,192,133228,1,8,0:0:0:0:
256,192,133378,1,8,0:0:0:0:
256,192,133528,1,0,0:0:0:0:
256,192,133603,1,0,0:0:0:0:
256,192,133678,1,8,0:0:0:0:
256,192,133753,1,8,0:0:0:0:
256,192,133828,1,8,0:0:0:0:
256,192,133978,1,8,0:0:0:0:
256,192,134053,1,8,0:0:0:0:
256,192,134128,1,0,0:0:0:0:
256,192,134203,1,0,0:0:0:0:
256,192,134278,1,8,0:0:0:0:
256,192,134353,1,0,0:0:0:0:
256,192,134428,1,8,0:0:0:0:
256,192,134503,1,8,0:0:0:0:
256,192,134578,1,0,0:0:0:0:
256,192,134653,1,8,0:0:0:0:
256,192,134728,1,0,0:0:0:0:
256,192,134803,1,0,0:0:0:0:
256,192,134878,1,8,0:0:0:0:
256,192,134953,1,8,0:0:0:0:
256,192,135028,1,8,0:0:0:0:
256,192,135103,1,0,0:0:0:0:
256,192,135178,1,0,0:0:0:0:
256,192,135253,1,8,0:0:0:0:
256,192,135328,1,8,0:0:0:0:
256,192,135403,1,8,0:0:0:0:
256,192,135478,1,8,0:0:0:0:
256,192,135553,1,0,0:0:0:0:
256,192,135628,1,0,0:0:0:0:
256,192,135703,1,8,0:0:0:0:
256,192,135778,1,8,0:0:0:0:
256,192,135853,1,8,0:0:0:0:
256,192,135928,1,8,0:0:0:0:
256,192,136003,1,0,0:0:0:0:
256,192,136078,1,0,0:0:0:0:
256,192,136153,1,0,0:0:0:0:
256,192,136228,1,8,0:0:0:0:
256,192,136303,1,0,0:0:0:0:
256,192,136378,1,8,0:0:0:0:
256,192,136453,1,8,0:0:0:0:
256,192,136528,1,0,0:0:0:0:
256,192,136678,1,8,0:0:0:0:
256,192,136828,1,12,0:0:0:0:
256,192,137428,1,0,0:0:0:0:
256,192,137578,1,0,0:0:0:0:
256,192,137728,1,0,0:0:0:0:
256,192,137878,1,0,0:0:0:0:
256,192,138028,1,4,0:0:0:0:
256,192,138628,1,8,0:0:0:0:
256,192,138778,1,8,0:0:0:0:
256,192,138928,1,8,0:0:0:0:
256,192,139078,1,8,0:0:0:0:
256,192,139228,1,12,0:0:0:0:
256,192,139828,1,0,0:0:0:0:
256,192,139978,1,8,0:0:0:0:
256,192,140128,1,0,0:0:0:0:
256,192,140278,1,8,0:0:0:0:
256,192,140428,1,4,0:0:0:0:
256,192,141028,1,8,0:0:0:0:
256,192,141178,1,0,0:0:0:0:
256,192,141328,1,8,0:0:0:0:
256,192,141478,1,0,0:0:0:0:
256,192,141628,1,12,0:0:0:0:
256,192,141928,1,0,0:0:0:0:
256,192,142228,1,4,0:0:0:0:
256,192,142528,1,8,0:0:0:0:
256,192,142828,1,12,0:0:0:0:
256,192,143128,1,0,0:0:0:0:
256,192,143428,1,12,0:0:0:0:
256,192,143728,1,0,0:0:0:0:
256,192,144028,1,8,0:0:0:0:
256,192,144103,1,8,0:0:0:0:
256,192,144178,1,8,0:0:0:0:
256,192,144253,1,8,0:0:0:0:
256,192,144328,1,0,0:0:0:0:
256,192,144403,1,8,0:0:0:0:
256,192,144478,1,0,0:0:0:0:
256,192,144553,1,0,0:0:0:0:
256,192,144628,1,8,0:0:0:0:
256,192,144703,1,0,0:0:0:0:
256,192,144778,1,0,0:0:0:0:
256,192,144853,1,8,0:0:0:0:
256,192,144928,1,8,0:0:0:0:
256,192,145003,1,8,0:0:0:0:
256,192,145078,1,0,0:0:0:0:
256,192,145153,1,0,0:0:0:0:
256,192,145228,1,8,0:0:0:0:
256,192,145303,1,8,0:0:0:0:
256,192,145378,1,8,0:0:0:0:
256,192,145453,1,8,0:0:0:0:
256,192,145528,1,0,0:0:0:0:
256,192,145603,1,0,0:0:0:0:
256,192,145678,1,0,0:0:0:0:
256,192,145753,1,0,0:0:0:0:
256,192,145828,1,8,0:0:0:0:
256,192,145903,1,0,0:0:0:0:
256,192,145978,1,0,0:0:0:0:
256,192,146128,1,0,0:0:0:0:
256,192,146203,1,0,0:0:0:0:
256,192,146278,1,0,0:0:0:0:
256,192,146428,1,12,0:0:0:0:
256,192,146578,1,8,0:0:0:0:
256,192,146653,1,8,0:0:0:0:
256,192,146728,1,0,0:0:0:0:
256,192,146878,1,8,0:0:0:0:
256,192,146953,1,8,0:0:0:0:
256,192,147028,1,0,0:0:0:0:
256,192,147103,1,0,0:0:0:0:
256,192,147178,1,8,0:0:0:0:
256,192,147253,1,0,0:0:0:0:
256,192,147328,1,8,0:0:0:0:
256,192,147403,1,0,0:0:0:0:
256,192,147478,1,8,0:0:0:0:
256,192,147553,1,8,0:0:0:0:
256,192,147628,1,0,0:0:0:0:
256,192,147778,1,8,0:0:0:0:
256,192,147853,1,8,0:0:0:0:
256,192,147928,1,0,0:0:0:0:
256,192,148078,1,8,0:0:0:0:
256,192,148153,1,0,0:0:0:0:
256,192,148228,1,8,0:0:0:0:
256,192,148303,1,0,0:0:0:0:
256,192,148378,1,8,0:0:0:0:
256,192,148453,1,8,0:0:0:0:
256,192,148528,1,0,0:0:0:0:
256,192,148603,1,0,0:0:0:0:
256,192,148678,1,8,0:0:0:0:
256,192,148753,1,0,0:0:0:0:
256,192,148828,1,8,0:0:0:0:
256,192,148978,1,8,0:0:0:0:
256,192,149053,1,8,0:0:0:0:
256,192,149128,1,0,0:0:0:0:
256,192,149278,1,8,0:0:0:0:
256,192,149353,1,0,0:0:0:0:
256,192,149428,1,8,0:0:0:0:
256,192,149503,1,0,0:0:0:0:
256,192,149578,1,8,0:0:0:0:
256,192,149653,1,8,0:0:0:0:
256,192,149728,1,0,0:0:0:0:
256,192,149803,1,0,0:0:0:0:
256,192,149878,1,8,0:0:0:0:
256,192,149953,1,8,0:0:0:0:
256,192,150028,1,0,0:0:0:0:
256,192,150178,1,8,0:0:0:0:
256,192,150253,1,8,0:0:0:0:
256,192,150328,1,0,0:0:0:0:
256,192,150478,1,8,0:0:0:0:
256,192,150553,1,0,0:0:0:0:
256,192,150628,1,8,0:0:0:0:
256,192,150703,1,0,0:0:0:0:
256,192,150778,1,8,0:0:0:0:
256,192,150853,1,8,0:0:0:0:
256,192,150928,1,0,0:0:0:0:
256,192,151003,1,0,0:0:0:0:
256,192,151078,1,8,0:0:0:0:
256,192,151153,1,0,0:0:0:0:
256,192,151228,1,8,0:0:0:0:
256,192,151303,1,8,0:0:0:0:
256,192,151378,1,8,0:0:0:0:
256,192,151453,1,0,0:0:0:0:
256,192,151528,1,8,0:0:0:0:
256,192,151603,1,8,0:0:0:0:
256,192,151678,1,8,0:0:0:0:
256,192,151753,1,0,0:0:0:0:
256,192,151828,1,8,0:0:0:0:
256,192,151903,1,8,0:0:0:0:
256,192,151978,1,8,0:0:0:0:
256,192,152053,1,0,0:0:0:0:
256,192,152128,1,8,0:0:0:0:
256,192,152203,1,8,0:0:0:0:
256,192,152278,1,8,0:0:0:0:
256,192,152353,1,0,0:0:0:0:
256,192,152428,1,8,0:0:0:0:
256,192,152503,1,8,0:0:0:0:
256,192,152578,1,0,0:0:0:0:
256,192,152653,1,0,0:0:0:0:
256,192,152728,1,8,0:0:0:0:
256,192,152803,1,8,0:0:0:0:
256,192,152878,1,0,0:0:0:0:
256,192,152953,1,0,0:0:0:0:
256,192,153028,1,8,0:0:0:0:
256,192,153103,1,8,0:0:0:0:
256,192,153178,1,0,0:0:0:0:
256,192,153253,1,0,0:0:0:0:
256,192,153328,1,8,0:0:0:0:
256,192,153403,1,8,0:0:0:0:
256,192,153478,1,0,0:0:0:0:
256,192,153553,1,0,0:0:0:0:
256,192,153628,1,8,0:0:0:0:
256,192,153703,1,0,0:0:0:0:
256,192,153778,1,8,0:0:0:0:
256,192,153853,1,0,0:0:0:0:
256,192,153928,1,8,0:0:0:0:
256,192,154003,1,0,0:0:0:0:
256,192,154078,1,0,0:0:0:0:
256,192,154153,1,0,0:0:0:0:
256,192,154228,1,8,0:0:0:0:
256,192,154303,1,0,0:0:0:0:
256,192,154378,1,8,0:0:0:0:
256,192,154453,1,0,0:0:0:0:
256,192,154528,1,8,0:0:0:0:
256,192,154603,1,8,0:0:0:0:
256,192,154678,1,0,0:0:0:0:
256,192,154753,1,0,0:0:0:0:
256,192,154828,1,8,0:0:0:0:
256,192,154903,1,8,0:0:0:0:
256,192,154978,1,8,0:0:0:0:
256,192,155053,1,0,0:0:0:0:
256,192,155128,1,8,0:0:0:0:
256,192,155203,1,8,0:0:0:0:
256,192,155278,1,0,0:0:0:0:
256,192,155353,1,0,0:0:0:0:
256,192,155428,1,8,0:0:0:0:
256,192,155503,1,0,0:0:0:0:
256,192,155578,1,8,0:0:0:0:
256,192,155653,1,8,0:0:0:0:
256,192,155728,1,0,0:0:0:0:
256,192,155803,1,8,0:0:0:0:
256,192,155878,1,8,0:0:0:0:
256,192,155953,1,8,0:0:0:0:
256,192,156028,1,0,0:0:0:0:
256,192,156178,1,8,0:0:0:0:
256,192,156253,1,8,0:0:0:0:
256,192,156328,1,0,0:0:0:0:
256,192,156478,1,8,0:0:0:0:
256,192,156553,1,8,0:0:0:0:
256,192,156628,1,0,0:0:0:0:
256,192,156703,1,0,0:0:0:0:
256,192,156778,1,8,0:0:0:0:
256,192,156853,1,0,0:0:0:0:
256,192,156928,1,8,0:0:0:0:
256,192,157003,1,0,0:0:0:0:
256,192,157078,1,8,0:0:0:0:
256,192,157153,1,8,0:0:0:0:
256,192,157228,1,0,0:0:0:0:
256,192,157378,1,8,0:0:0:0:
256,192,157453,1,8,0:0:0:0:
256,192,157528,1,0,0:0:0:0:
256,192,157678,1,8,0:0:0:0:
256,192,157753,1,0,0:0:0:0:
256,192,157828,1,8,0:0:0:0:
256,192,157903,1,0,0:0:0:0:
256,192,157978,1,8,0:0:0:0:
256,192,158053,1,8,0:0:0:0:
256,192,158128,1,0,0:0:0:0:
256,192,158203,1,0,0:0:0:0:
256,192,158278,1,8,0:0:0:0:
256,192,158353,1,0,0:0:0:0:
256,192,158428,1,8,0:0:0:0:
256,192,158578,1,8,0:0:0:0:
256,192,158653,1,8,0:0:0:0:
256,192,158728,1,0,0:0:0:0:
256,192,158878,1,8,0:0:0:0:
256,192,158953,1,0,0:0:0:0:
256,192,159028,1,8,0:0:0:0:
256,192,159103,1,0,0:0:0:0:
256,192,159178,1,8,0:0:0:0:
256,192,159253,1,8,0:0:0:0:
256,192,159328,1,0,0:0:0:0:
256,192,159403,1,0,0:0:0:0:
256,192,159478,1,8,0:0:0:0:
256,192,159553,1,8,0:0:0:0:
256,192,159628,1,0,0:0:0:0:
256,192,159778,1,8,0:0:0:0:
256,192,159853,1,8,0:0:0:0:
256,192,159928,1,0,0:0:0:0:
256,192,160078,1,8,0:0:0:0:
256,192,160153,1,0,0:0:0:0:
256,192,160228,1,8,0:0:0:0:
256,192,160303,1,0,0:0:0:0:
256,192,160378,1,8,0:0:0:0:
256,192,160453,1,8,0:0:0:0:
256,192,160528,1,0,0:0:0:0:
256,192,160603,1,0,0:0:0:0:
256,192,160678,1,8,0:0:0:0:
256,192,160828,1,12,0:0:0:0:
256,192,160978,1,0,0:0:0:0:
256,192,161053,1,0,0:0:0:0:
256,192,161128,1,8,0:0:0:0:
256,192,161203,1,8,0:0:0:0:
256,192,161278,1,0,0:0:0:0:
256,192,161353,1,0,0:0:0:0:
256,192,161428,1,8,0:0:0:0:
256,192,161503,1,8,0:0:0:0:
256,192,161578,1,0,0:0:0:0:
256,192,161653,1,0,0:0:0:0:
256,192,161728,1,8,0:0:0:0:
256,192,161803,1,8,0:0:0:0:
256,192,161878,1,8,0:0:0:0:
256,192,161953,1,0,0:0:0:0:
256,192,162028,1,8,0:0:0:0:
256,192,162103,1,8,0:0:0:0:
256,192,162178,1,0,0:0:0:0:
256,192,162253,1,0,0:0:0:0:
256,192,162328,1,8,0:0:0:0:
256,192,162403,1,8,0:0:0:0:
256,192,162478,1,8,0:0:0:0:
256,192,162553,1,0,0:0:0:0:
256,192,162628,1,8,0:0:0:0:
256,192,162703,1,8,0:0:0:0:
256,192,162778,1,0,0:0:0:0:
256,192,162853,1,0,0:0:0:0:
256,192,162928,1,8,0:0:0:0:
256,192,163003,1,0,0:0:0:0:
256,192,163078,1,0,0:0:0:0:
256,192,163153,1,0,0:0:0:0:
256,192,163228,1,8,0:0:0:0:
256,192,163303,1,8,0:0:0:0:
256,192,163378,1,0,0:0:0:0:
256,192,163453,1,8,0:0:0:0:
256,192,163528,1,8,0:0:0:0:
256,192,163603,1,0,0:0:0:0:
256,192,163678,1,8,0:0:0:0:
256,192,163753,1,0,0:0:0:0:
256,192,163828,1,8,0:0:0:0:
256,192,163903,1,8,0:0:0:0:
256,192,163978,1,0,0:0:0:0:
256,192,164053,1,8,0:0:0:0:
256,192,164128,1,0,0:0:0:0:
256,192,164203,1,0,0:0:0:0:
256,192,164278,1,8,0:0:0:0:
256,192,164353,1,0,0:0:0:0:
256,192,164428,1,8,0:0:0:0:
256,192,164503,1,0,0:0:0:0:
256,192,164578,1,0,0:0:0:0:
256,192,164653,1,8,0:0:0:0:
256,192,164728,1,0,0:0:0:0:
256,192,164803,1,0,0:0:0:0:
256,192,164878,1,8,0:0:0:0:
256,192,164953,1,0,0:0:0:0:
256,192,165028,1,0,0:0:0:0:
256,192,165103,1,8,0:0:0:0:
256,192,165178,1,0,0:0:0:0:
256,192,165253,1,0,0:0:0:0:
256,192,165328,1,8,0:0:0:0:
256,192,165628,1,12,0:0:0:0:
256,192,165778,1,8,0:0:0:0:
256,192,165853,1,0,0:0:0:0:
256,192,165928,1,8,0:0:0:0:
256,192,166003,1,0,0:0:0:0:
256,192,166078,1,0,0:0:0:0:
256,192,166153,1,0,0:0:0:0:
256,192,166228,1,8,0:0:0:0:
256,192,166303,1,0,0:0:0:0:
256,192,166378,1,8,0:0:0:0:
256,192,166453,1,8,0:0:0:0:
256,192,166528,1,0,0:0:0:0:
256,192,166603,1,0,0:0:0:0:
256,192,166678,1,8,0:0:0:0:
256,192,166753,1,0,0:0:0:0:
256,192,166828,1,8,0:0:0:0:
256,192,166903,1,8,0:0:0:0:
256,192,166978,1,0,0:0:0:0:
256,192,167053,1,0,0:0:0:0:
256,192,167128,1,8,0:0:0:0:
256,192,167203,1,8,0:0:0:0:
256,192,167278,1,0,0:0:0:0:
256,192,167353,1,8,0:0:0:0:
256,192,167428,1,0,0:0:0:0:
256,192,167503,1,0,0:0:0:0:
256,192,167578,1,8,0:0:0:0:
256,192,167653,1,8,0:0:0:0:
256,192,167728,1,0,0:0:0:0:
256,192,167803,1,8,0:0:0:0:
256,192,167878,1,0,0:0:0:0:
256,192,168028,6,0,P|128:256|160:64,1,420
256,192,169078,2,4,P|256:256|416:224,1,280
256,192,169828,5,8,0:0:0:0:
256,192,169903,1,0,0:0:0:0:
256,192,169978,1,0,0:0:0:0:
256,192,170053,1,8,0:0:0:0:
256,192,170128,1,8,0:0:0:0:
256,192,170203,1,0,0:0:0:0:
256,192,170278,1,8,0:0:0:0:
256,192,170353,1,0,0:0:0:0:
256,192,170428,1,8,0:0:0:0:
256,192,170503,1,0,0:0:0:0:
256,192,170578,1,0,0:0:0:0:
256,192,170653,1,0,0:0:0:0:
256,192,170728,1,8,0:0:0:0:
256,192,170803,1,8,0:0:0:0:
256,192,170878,1,0,0:0:0:0:
256,192,170953,1,0,0:0:0:0:
256,192,171028,1,8,0:0:0:0:
256,192,171103,1,0,0:0:0:0:
256,192,171178,1,8,0:0:0:0:
256,192,171253,1,8,0:0:0:0:
256,192,171328,1,8,0:0:0:0:
256,192,171403,1,0,0:0:0:0:
256,192,171478,1,0,0:0:0:0:
256,192,171553,1,0,0:0:0:0:
256,192,171628,1,8,0:0:0:0:
256,192,171703,1,8,0:0:0:0:
256,192,171778,1,8,0:0:0:0:
256,192,171853,1,0,0:0:0:0:
256,192,171928,1,8,0:0:0:0:
256,192,172003,1,0,0:0:0:0:
256,192,172078,1,0,0:0:0:0:
256,192,172153,1,0,0:0:0:0:
256,192,172228,1,8,0:0:0:0:
256,192,172303,1,0,0:0:0:0:
256,192,172378,1,8,0:0:0:0:
256,192,172453,1,8,0:0:0:0:
256,192,172528,1,0,0:0:0:0:
256,192,172603,1,8,0:0:0:0:
256,192,172678,1,0,0:0:0:0:
256,192,172753,1,0,0:0:0:0:
256,192,172828,1,8,0:0:0:0:
256,192,172903,1,0,0:0:0:0:
256,192,172978,1,0,0:0:0:0:
256,192,173053,1,0,0:0:0:0:
256,192,173128,1,8,0:0:0:0:
256,192,173203,1,8,0:0:0:0:
256,192,173278,1,0,0:0:0:0:
256,192,173353,1,0,0:0:0:0:
256,192,173428,1,8,0:0:0:0:
256,192,173503,1,0,0:0:0:0:
256,192,173578,1,0,0:0:0:0:
256,192,173653,1,0,0:0:0:0:
256,192,173728,1,8,0:0:0:0:
256,192,173803,1,8,0:0:0:0:
256,192,173878,1,0,0:0:0:0:
256,192,173953,1,0,0:0:0:0:
256,192,174028,1,8,0:0:0:0:
256,192,174103,1,0,0:0:0:0:
256,192,174178,1,0,0:0:0:0:
256,192,174253,1,0,0:0:0:0:
256,192,174328,1,8,0:0:0:0:
256,192,174403,1,8,0:0:0:0:
256,192,174478,1,8,0:0:0:0:
256,192,174553,1,0,0:0:0:0:
256,192,174628,1,8,0:0:0:0:
256,192,174703,1,0,0:0:0:0:
256,192,174778,1,8,0:0:0:0:
256,192,174928,1,12,0:0:0:0:
256,192,175078,1,0,0:0:0:0:
256,192,175228,1,12,0:0:0:0:
256,192,175378,1,0,0:0:0:0:
256,192,175453,1,0,0:0:0:0:
256,192,175528,1,8,0:0:0:0:
256,192,175603,1,0,0:0:0:0:
256,192,175678,1,0,0:0:0:0:
256,192,175753,1,0,0:0:0:0:
256,192,175828,1,8,0:0:0:0:
256,192,175903,1,0,0:0:0:0:
256,192,175978,1,0,0:0:0:0:
256,192,176053,1,0,0:0:0:0:
256,192,176128,1,8,0:0:0:0:
256,192,176203,1,0,0:0:0:0:
256,192,176278,1,0,0:0:0:0:
256,192,176353,1,0,0:0:0:0:
256,192,176428,1,8,0:0:0:0:
256,192,176503,1,8,0:0:0:0:
256,192,176578,1,0,0:0:0:0:
256,192,176653,1,0,0:0:0:0:
256,192,176728,1,8,0:0:0:0:
256,192,176803,1,8,0:0:0:0:
256,192,176878,1,0,0:0:0:0:
256,192,176953,1,0,0:0:0:0:
256,192,177028,1,8,0:0:0:0:
256,192,177103,1,8,0:0:0:0:
256,192,177178,1,0,0:0:0:0:
256,192,177253,1,0,0:0:0:0:
256,192,177328,1,8,0:0:0:0:
256,192,177403,1,0,0:0:0:0:
256,192,177478,1,8,0:0:0:0:
256,192,177553,1,8,0:0:0:0:
256,192,177628,1,8,0:0:0:0:
256,192,177703,1,8,0:0:0:0:
256,192,177778,1,0,0:0:0:0:
256,192,177853,1,0,0:0:0:0:
256,192,177928,1,8,0:0:0:0:
256,192,178003,1,0,0:0:0:0:
256,192,178078,1,8,0:0:0:0:
256,192,178153,1,8,0:0:0:0:
256,192,178228,1,0,0:0:0:0:
256,192,178303,1,8,0:0:0:0:
256,192,178378,1,8,0:0:0:0:
256,192,178453,1,0,0:0:0:0:
256,192,178528,1,8,0:0:0:0:
256,192,178603,1,0,0:0:0:0:
256,192,178678,1,0,0:0:0:0:
256,192,178753,1,8,0:0:0:0:
256,192,178828,1,0,0:0:0:0:
256,192,178903,1,0,0:0:0:0:
256,192,178978,1,8,0:0:0:0:
256,192,179053,1,0,0:0:0:0:
256,192,179128,1,8,0:0:0:0:
256,192,179203,1,8,0:0:0:0:
256,192,179278,1,0,0:0:0:0:
256,192,179353,1,0,0:0:0:0:
256,192,179428,1,8,0:0:0:0:
256,192,179578,1,0,0:0:0:0:
256,192,179653,1,0,0:0:0:0:
256,192,179728,1,0,0:0:0:0:
256,192,179803,1,8,0:0:0:0:
256,192,179878,1,0,0:0:0:0:
256,192,180028,1,12,0:0:0:0:
256,192,180178,1,0,0:0:0:0:
256,192,180253,1,0,0:0:0:0:
256,192,180328,1,8,0:0:0:0:
256,192,180403,1,0,0:0:0:0:
256,192,180478,1,0,0:0:0:0:
256,192,180553,1,0,0:0:0:0:
256,192,180628,1,8,0:0:0:0:
256,192,180703,1,8,0:0:0:0:
256,192,180778,1,0,0:0:0:0:
256,192,180853,1,0,0:0:0:0:
256,192,180928,1,8,0:0:0:0:
256,192,181003,1,8,0:0:0:0:
256,192,181078,1,0,0:0:0:0:
256,192,181153,1,0,0:0:0:0:
256,192,181228,1,8,0:0:0:0:
256,192,181303,1,0,0:0:0:0:
256,192,181378,1,0,0:0:0:0:
256,192,181453,1,0,0:0:0:0:
256,192,181528,1,8,0:0:0:0:
256,192,181603,1,0,0:0:0:0:
256,192,181678,1,0,0:0:0:0:
256,192,181753,1,0,0:0:0:0:
256,192,181828,1,8,0:0:0:0:
256,192,181903,1,8,0:0:0:0:
256,192,181978,1,0,0:0:0:0:
256,192,182053,1,0,0:0:0:0:
256,192,182128,1,8,0:0:0:0:
256,192,182203,1,8,0:0:0:0:
256,192,182278,1,0,0:0:0:0:
256,192,182353,1,8,0:0:0:0:
256,192,182428,1,0,0:0:0:0:
256,192,182578,1,0,0:0:0:0:
256,192,182653,1,0,0:0:0:0:
256,192,182728,1,8,0:0:0:0:
256,192,182803,1,8,0:0:0:0:
256,192,182878,1,0,0:0:0:0:
256,192,182953,1,0,0:0:0:0:
256,192,183028,1,8,0:0:0:0:
256,192,183103,1,0,0:0:0:0:
256,192,183178,1,0,0:0:0:0:
256,192,183253,1,0,0:0:0:0:
256,192,183328,1,8,0:0:0:0:
256,192,183403,1,8,0:0:0:0:
256,192,183478,1,0,0:0:0:0:
256,192,183553,1,0,0:0:0:0:
256,192,183628,1,8,0:0:0:0:
256,192,183703,1,0,0:0:0:0:
256,192,183778,1,8,0:0:0:0:
256,192,183853,1,8,0:0:0:0:
256,192,183928,1,0,0:0:0:0:
256,192,184003,1,0,0:0:0:0:
256,192,184078,1,8,0:0:0:0:
256,192,184153,1,0,0:0:0:0:
256,192,184228,1,8,0:0:0:0:
256,192,184303,1,8,0:0:0:0:
256,192,184378,1,0,0:0:0:0:
256,192,184453,1,8,0:0:0:0:
256,192,184528,1,8,0:0:0:0:
256,192,184603,1,0,0:0:0:0:
256,192,184678,1,8,0:0:0:0:
256,192,184753,1,8,0:0:0:0:
256,192,184828,1,8,0:0:0:0:
256,192,187228,1,4,0:0:0:0:
256,192,189478,1,4,0:0:0:0:
256,192,189628,1,4,0:0:0:0:
256,192,191728,1,4,0:0:0:0:
256,192,192028,1,4,0:0:0:0:
256,192,194128,1,0,0:0:0:0:
256,192,194203,1,0,0:0:0:0:
256,192,194278,1,0,0:0:0:0:
256,192,194428,1,12,0:0:0:0:
256,192,195328,1,0,0:0:0:0:
256,192,195478,1,0,0:0:0:0:
256,192,195628,1,0,0:0:0:0:
256,192,195778,1,0,0:0:0:0:
256,192,195928,1,8,0:0:0:0:
256,192,196078,1,0,0:0:0:0:
256,192,196153,1,0,0:0:0:0:
256,192,196228,1,8,0:0:0:0:
256,192,196378,1,12,0:0:0:0:
256,192,196828,1,0,0:0:0:0:
256,192,196903,1,0,0:0:0:0:
256,192,196978,1,0,0:0:0:0:
256,192,197128,1,0,0:0:0:0:
256,192,197278,1,8,0:0:0:0:
256,192,197428,1,12,0:0:0:0:
256,192,197728,1,0,0:0:0:0:
256,192,197878,1,0,0:0:0:0:
256,192,198028,1,8,0:0:0:0:
256,192,198178,1,8,0:0:0:0:
256,192,198328,1,0,0:0:0:0:
256,192,198478,1,0,0:0:0:0:
256,192,198628,1,12,0:0:0:0:
256,192,198778,1,0,0:0:0:0:
256,192,198928,1,12,0:0:0:0:
256,192,199078,1,0,0:0:0:0:
256,192,199228,1,0,0:0:0:0:
256,192,199303,1,0,0:0:0:0:
256,192,199378,1,0,0:0:0:0:
256,192,199528,1,0,0:0:0:0:
256,192,199678,1,8,0:0:0:0:
256,192,199828,1,12,0:0:0:0:
256,192,200128,1,0,0:0:0:0:
256,192,200278,1,0,0:0:0:0:
256,192,200428,1,8,0:0:0:0:
256,192,200578,1,8,0:0:0:0:
256,192,200728,1,0,0:0:0:0:
256,192,200878,1,0,0:0:0:0:
256,192,201028,1,12,0:0:0:0:
256,192,201178,1,0,0:0:0:0:
256,192,201328,1,12,0:0:0:0:
256,192,201478,1,0,0:0:0:0:
256,192,201628,1,0,0:0:0:0:
256,192,201703,1,0,0:0:0:0:
256,192,201778,1,0,0:0:0:0:
256,192,201928,1,0,0:0:0:0:
256,192,202078,1,8,0:0:0:0:
256,192,202228,1,12,0:0:0:0:
256,192,202528,1,0,0:0:0:0:
256,192,202678,1,0,0:0:0:0:
256,192,202828,1,8,0:0:0:0:
256,192,202978,1,8,0:0:0:0:
256,192,203128,1,0,0:0:0:0:
256,192,203278,1,0,0:0:0:0:
256,192,203428,1,12,0:0:0:0:
256,192,203578,1,0,0:0:0:0:
256,192,203728,1,12,0:0:0:0:
256,192,203878,1,0,0:0:0:0:
256,192,204028,1,0,0:0:0:0:
256,192,204103,1,0,0:0:0:0:
256,192,204178,1,0,0:0:0:0:
256,192,204328,1,0,0:0:0:0:
256,192,204478,1,8,0:0:0:0:
256,192,204628,1,12,0:0:0:0:
256,192,204928,1,0,0:0:0:0:
256,192,205078,1,0,0:0:0:0:
256,192,205228,1,8,0:0:0:0:
256,192,205378,1,8,0:0:0:0:
256,192,205528,1,0,0:0:0:0:
256,192,205678,1,0,0:0:0:0:
256,192,205828,1,12,0:0:0:0:
256,192,205978,1,0,0:0:0:0:
256,192,206128,1,12,0:0:0:0:
256,192,206278,1,0,0:0:0:0:
256,192,206428,1,8,0:0:0:0:
256,192,206503,1,8,0:0:0:0:
256,192,206578,1,0,0:0:0:0:
256,192,206728,1,8,0:0:0:0:
256,192,206878,1,8,0:0:0:0:
256,192,206953,1,8,0:0:0:0:
256,192,207028,1,0,0:0:0:0:
256,192,207103,1,8,0:0:0:0:
256,192,207178,1,0,0:0:0:0:
256,192,207253,1,0,0:0:0:0:
256,192,207328,1,8,0:0:0:0:
256,192,207478,1,0,0:0:0:0:
256,192,207628,1,8,0:0:0:0:
256,192,207703,1,0,0:0:0:0:
256,192,207778,1,0,0:0:0:0:
256,192,207928,1,8,0:0:0:0:
256,192,208078,1,8,0:0:0:0:
256,192,208153,1,8,0:0:0:0:
256,192,208228,1,0,0:0:0:0:
256,192,208303,1,0,0:0:0:0:
256,192,208378,1,0,0:0:0:0:
256,192,208453,1,0,0:0:0:0:
256,192,208528,1,8,0:0:0:0:
256,192,208678,1,8,0:0:0:0:
256,192,208828,1,0,0:0:0:0:
256,192,208903,1,8,0:0:0:0:
256,192,208978,1,0,0:0:0:0:
256,192,209128,1,8,0:0:0:0:
256,192,209278,1,8,0:0:0:0:
256,192,209353,1,0,0:0:0:0:
256,192,209428,1,8,0:0:0:0:
256,192,209503,1,8,0:0:0:0:
256,192,209578,1,0,0:0:0:0:
256,192,209653,1,0,0:0:0:0:
256,192,209728,1,8,0:0:0:0:
256,192,209878,1,8,0:0:0:0:
256,192,210028,1,0,0:0:0:0:
256,192,210103,1,0,0:0:0:0:
256,192,210178,1,8,0:0:0:0:
256,192,210253,1,8,0:0:0:0:
256,192,210328,1,8,0:0:0:0:
256,192,210403,1,0,0:0:0:0:
256,192,210478,1,8,0:0:0:0:
256,192,210553,1,0,0:0:0:0:
256,192,210628,1,8,0:0:0:0:
256,192,210703,1,8,0:0:0:0:
256,192,210778,1,0,0:0:0:0:
256,192,210853,1,0,0:0:0:0:
256,192,210928,1,8,0:0:0:0:
256,192,211078,1,0,0:0:0:0:
256,192,211228,1,8,0:0:0:0:
256,192,211303,1,8,0:0:0:0:
256,192,211378,1,0,0:0:0:0:
256,192,211528,1,8,0:0:0:0:
256,192,211678,1,8,0:0:0:0:
256,192,211753,1,8,0:0:0:0:
256,192,211828,1,0,0:0:0:0:
256,192,211903,1,8,0:0:0:0:
256,192,211978,1,0,0:0:0:0:
256,192,212053,1,0,0:0:0:0:
256,192,212128,1,8,0:0:0:0:
256,192,212278,1,0,0:0:0:0:
256,192,212428,1,8,0:0:0:0:
256,192,212503,1,0,0:0:0:0:
256,192,212578,1,0,0:0:0:0:
256,192,212728,1,8,0:0:0:0:
256,192,212878,1,8,0:0:0:0:
256,192,212953,1,8,0:0:0:0:
256,192,213028,1,0,0:0:0:0:
256,192,213103,1,0,0:0:0:0:
256,192,213178,1,0,0:0:0:0:
256,192,213253,1,0,0:0:0:0:
256,192,213328,1,8,0:0:0:0:
256,192,213478,1,8,0:0:0:0:
256,192,213628,1,0,0:0:0:0:
256,192,213703,1,8,0:0:0:0:
256,192,213778,1,0,0:0:0:0:
256,192,213928,1,8,0:0:0:0:
256,192,214078,1,8,0:0:0:0:
256,192,214153,1,0,0:0:0:0:
256,192,214228,1,8,0:0:0:0:
256,192,214303,1,8,0:0:0:0:
256,192,214378,1,0,0:0:0:0:
256,192,214453,1,0,0:0:0:0:
256,192,214528,1,8,0:0:0:0:
256,192,214678,1,0,0:0:0:0:
256,192,214753,1,0,0:0:0:0:
256,192,214828,1,8,0:0:0:0:
256,192,214978,1,8,0:0:0:0:
256,192,215053,1,0,0:0:0:0:
256,192,215128,1,8,0:0:0:0:
256,192,215278,1,0,0:0:0:0:
256,192,215353,1,0,0:0:0:0:
256,192,215428,1,8,0:0:0:0:
256,192,215578,1,0,0:0:0:0:
256,192,215653,1,0,0:0:0:0:
256,192,215728,1,8,0:0:0:0:
256,192,215803,1,8,0:0:0:0:
256,192,215878,1,0,0:0:0:0:
256,192,216028,1,12,0:0:0:0:
256,192,216178,1,0,0:0:0:0:
256,192,216253,1,0,0:0:0:0:
256,192,216328,1,8,0:0:0:0:
256,192,216403,1,0,0:0:0:0:
256,192,216478,1,8,0:0:0:0:
256,192,216553,1,0,0:0:0:0:
256,192,216628,1,8,0:0:0:0:
256,192,216703,1,8,0:0:0:0:
256,192,216778,1,0,0:0:0:0:
256,192,216853,1,0,0:0:0:0:
256,192,216928,1,8,0:0:0:0:
256,192,217003,1,0,0:0:0:0:
256,192,217078,1,0,0:0:0:0:
256,192,217153,1,0,0:0:0:0:
256,192,217228,1,8,0:0:0:0:
256,192,217303,1,8,0:0:0:0:
256,192,217378,1,0,0:0:0:0:
256,192,217453,1,0,0:0:0:0:
256,192,217528,1,8,0:0:0:0:
256,192,217603,1,8,0:0:0:0:
256,192,217678,1,0,0:0:0:0:
256,192,217753,1,0,0:0:0:0:
256,192,217828,1,8,0:0:0:0:
256,192,217903,1,8,0:0:0:0:
256,192,217978,1,0,0:0:0:0:
256,192,218053,1,0,0:0:0:0:
256,192,218128,1,8,0:0:0:0:
256,192,218203,1,0,0:0:0:0:
256,192,218278,1,8,0:0:0:0:
256,192,218428,1,12,0:0:0:0:
256,192,218578,1,0,0:0:0:0:
256,192,218653,1,0,0:0:0:0:
256,192,218728,1,8,0:0:0:0:
256,192,218803,1,0,0:0:0:0:
256,192,218878,1,8,0:0:0:0:
256,192,218953,1,0,0:0:0:0:
256,192,219028,1,8,0:0:0:0:
256,192,219103,1,8,0:0:0:0:
256,192,219178,1,0,0:0:0:0:
256,192,219253,1,0,0:0:0:0:
256,192,219328,1,8,0:0:0:0:
256,192,219403,1,8,0:0:0:0:
256,192,219478,1,0,0:0:0:0:
256,192,219553,1,0,0:0:0:0:
256,192,219628,1,8,0:0:0:0:
256,192,219703,1,0,0:0:0:0:
256,192,219778,1,8,0:0:0:0:
256,192,219853,1,8,0:0:0:0:
256,192,219928,1,8,0:0:0:0:
256,192,220003,1,0,0:0:0:0:
256,192,220078,1,0,0:0:0:0:
256,192,220153,1,0,0:0:0:0:
256,192,220228,1,8,0:0:0:0:
256,192,220303,1,0,0:0:0:0:
256,192,220378,1,0,0:0:0:0:
256,192,220453,1,0,0:0:0:0:
256,192,220528,1,8,0:0:0:0:
256,192,220603,1,8,0:0:0:0:
256,192,220678,1,0,0:0:0:0:
256,192,220753,1,0,0:0:0:0:
256,192,220828,1,8,0:0:0:0:
256,192,220903,1,0,0:0:0:0:
256,192,220978,1,8,0:0:0:0:
256,192,221053,1,0,0:0:0:0:
256,192,221128,1,8,0:0:0:0:
256,192,221203,1,0,0:0:0:0:
256,192,221278,1,8,0:0:0:0:
256,192,221353,1,8,0:0:0:0:
256,192,221428,1,8,0:0:0:0:
256,192,221503,1,0,0:0:0:0:
256,192,221578,1,8,0:0:0:0:
256,192,221653,1,0,0:0:0:0:
256,192,221728,1,8,0:0:0:0:
256,192,221803,1,0,0:0:0:0:
256,192,221878,1,8,0:0:0:0:
256,192,221953,1,0,0:0:0:0:
256,192,222028,1,8,0:0:0:0:
256,192,222103,1,0,0:0:0:0:
256,192,222178,1,8,0:0:0:0:
256,192,222253,1,8,0:0:0:0:
256,192,222328,1,8,0:0:0:0:
256,192,222403,1,0,0:0:0:0:
256,192,222478,1,8,0:0:0:0:
256,192,222553,1,0,0:0:0:0:
256,192,222628,1,8,0:0:0:0:
256,192,222703,1,0,0:0:0:0:
256,192,222778,1,8,0:0:0:0:
256,192,222853,1,8,0:0:0:0:
256,192,222928,1,0,0:0:0:0:
256,192,223003,1,0,0:0:0:0:
256,192,223078,1,8,0:0:0:0:
256,192,223153,1,0,0:0:0:0:
256,192,223228,1,8,0:0:0:0:
256,192,223303,1,0,0:0:0:0:
256,192,223378,1,8,0:0:0:0:
256,192,223453,1,0,0:0:0:0:
256,192,223528,1,8,0:0:0:0:
256,192,223603,1,0,0:0:0:0:
256,192,223678,1,8,0:0:0:0:
256,192,223753,1,8,0:0:0:0:
256,192,223828,1,0,0:0:0:0:
256,192,223903,1,0,0:0:0:0:
256,192,223978,1,8,0:0:0:0:
256,192,224053,1,0,0:0:0:0:
256,192,224128,1,8,0:0:0:0:
256,192,224203,1,8,0:0:0:0:
256,192,224278,1,0,0:0:0:0:
256,192,224353,1,0,0:0:0:0:
256,192,224428,1,8,0:0:0:0:
256,192,224628,1,0,0:0:0:0:
256,192,224828,1,0,0:0:0:0:
256,192,225028,1,0,0:0:0:0:
256,192,225228,1,0,0:0:0:0:
256,192,225428,1,0,0:0:0:0:
256,192,225628,1,12,0:0:0:0:
256,192,225778,1,8,0:0:0:0:
256,192,225928,1,0,0:0:0:0:
256,192,226003,1,0,0:0:0:0:
256,192,226078,1,8,0:0:0:0:
256,192,226228,1,0,0:0:0:0:
256,192,226378,1,8,0:0:0:0:
256,192,226528,1,0,0:0:0:0:
256,192,226603,1,0,0:0:0:0:
256,192,226678,1,8,0:0:0:0:
256,192,226753,1,0,0:0:0:0:
256,192,226828,1,0,0:0:0:0:
256,192,226978,1,8,0:0:0:0:
256,192,227128,1,8,0:0:0:0:
256,192,227203,1,8,0:0:0:0:
256,192,227278,1,8,0:0:0:0:
256,192,227353,1,8,0:0:0:0:
256,192,227428,1,0,0:0:0:0:
256,192,227578,1,8,0:0:0:0:
256,192,227728,1,8,0:0:0:0:
256,192,227803,1,0,0:0:0:0:
256,192,227878,1,8,0:0:0:0:
256,192,227953,1,8,0:0:0:0:
256,192,228028,1,0,0:0:0:0:
256,192,228178,1,8,0:0:0:0:
256,192,228328,1,0,0:0:0:0:
256,192,228403,1,0,0:0:0:0:
256,192,228478,1,8,0:0:0:0:
256,192,228628,1,0,0:0:0:0:
256,192,228778,1,8,0:0:0:0:
256,192,228853,1,0,0:0:0:0:
256,192,228928,1,0,0:0:0:0:
256,192,229003,1,8,0:0:0:0:
256,192,229078,1,8,0:0:0:0:
256,192,229153,1,8,0:0:0:0:
256,192,229228,1,0,0:0:0:0:
256,192,229378,1,8,0:0:0:0:
256,192,229528,1,0,0:0:0:0:
256,192,229603,1,0,0:0:0:0:
256,192,229678,1,8,0:0:0:0:
256,192,229753,1,8,0:0:0:0:
256,192,229828,1,0,0:0:0:0:
256,192,229903,1,0,0:0:0:0:
256,192,229978,1,8,0:0:0:0:
256,192,230053,1,8,0:0:0:0:
256,192,230128,1,0,0:0:0:0:
256,192,230203,1,0,0:0:0:0:
256,192,230278,1,8,0:0:0:0:
256,192,230353,1,0,0:0:0:0:
256,192,230428,1,8,0:0:0:0:
256,192,230578,1,8,0:0:0:0:
256,192,230728,1,0,0:0:0:0:
256,192,230803,1,0,0:0:0:0:
256,192,230878,1,8,0:0:0:0:
256,192,231028,1,0,0:0:0:0:
256,192,231178,1,8,0:0:0:0:
256,192,231328,1,0,0:0:0:0:
256,192,231403,1,0,0:0:0:0:
256,192,231478,1,8,0:0:0:0:
256,192,231553,1,0,0:0:0:0:
256,192,231628,1,0,0:0:0:0:
256,192,231778,1,8,0:0:0:0:
256,192,231928,1,8,0:0:0:0:
256,192,232003,1,8,0:0:0:0:
256,192,232078,1,0,0:0:0:0:
256,192,232153,1,8,0:0:0:0:
256,192,232228,1,0,0:0:0:0:
256,192,232378,1,8,0:0:0:0:
256,192,232528,1,8,0:0:0:0:
256,192,232603,1,0,0:0:0:0:
256,192,232678,1,8,0:0:0:0:
256,192,232753,1,8,0:0:0:0:
256,192,232828,1,0,0:0:0:0:
256,192,232978,1,8,0:0:0:0:
256,192,233128,1,0,0:0:0:0:
256,192,233203,1,0,0:0:0:0:
256,192,233278,1,8,0:0:0:0:
256,192,233353,1,8,0:0:0:0:
256,192,233428,1,0,0:0:0:0:
256,192,233578,1,8,0:0:0:0:
256,192,233728,1,0,0:0:0:0:
256,192,233803,1,0,0:0:0:0:
256,192,233878,1,8,0:0:0:0:
256,192,233953,1,8,0:0:0:0:
256,192,234028,1,8,0:0:0:0:
256,192,234178,1,8,0:0:0:0:
256,192,234328,1,0,0:0:0:0:
256,192,234403,1,0,0:0:0:0:
256,192,234478,1,8,0:0:0:0:
256,192,234553,1,0,0:0:0:0:
256,192,234628,1,8,0:0:0:0:
256,192,234703,1,8,0:0:0:0:
256,192,234778,1,8,0:0:0:0:
256,192,234853,1,8,0:0:0:0:
256,192,234928,1,8,0:0:0:0:
256,192,235003,1,8,0:0:0:0:
256,192,235078,1,8,0:0:0:0:
256,192,235153,1,8,0:0:0:0:
256,192,235228,1,0,0:0:0:0:
256,192,235378,1,8,0:0:0:0:
256,192,235528,1,0,0:0:0:0:
256,192,235603,1,0,0:0:0:0:
256,192,235678,1,8,0:0:0:0:
256,192,235753,1,0,0:0:0:0:
256,192,235828,1,0,0:0:0:0:
256,192,235978,1,8,0:0:0:0:
256,192,236053,1,8,0:0:0:0:
256,192,236128,1,0,0:0:0:0:
256,192,236203,1,8,0:0:0:0:
256,192,236278,1,8,0:0:0:0:
256,192,236428,1,8,0:0:0:0:
256,192,236503,1,0,0:0:0:0:
256,192,236578,1,8,0:0:0:0:
256,192,236653,1,0,0:0:0:0:
256,192,236728,1,0,0:0:0:0:
256,192,236803,1,0,0:0:0:0:
256,192,236878,1,8,0:0:0:0:
256,192,237028,1,0,0:0:0:0:
256,192,237178,1,8,0:0:0:0:
256,192,237253,1,8,0:0:0:0:
256,192,237328,1,8,0:0:0:0:
256,192,237403,1,0,0:0:0:0:
256,192,237478,1,8,0:0:0:0:
256,192,237628,1,8,0:0:0:0:
256,192,237703,1,0,0:0:0:0:
256,192,237778,1,8,0:0:0:0:
256,192,237853,1,8,0:0:0:0:
256,192,237928,1,0,0:0:0:0:
256,192,238003,1,0,0:0:0:0:
256,192,238078,1,8,0:0:0:0:
256,192,238228,1,0,0:0:0:0:
256,192,238303,1,0,0:0:0:0:
256,192,238378,1,8,0:0:0:0:
256,192,238528,1,0,0:0:0:0:
256,192,238603,1,0,0:0:0:0:
256,192,238678,1,8,0:0:0:0:
256,192,238753,1,0,0:0:0:0:
256,192,238828,1,8,0:0:0:0:
256,192,238978,1,0,0:0:0:0:
256,192,239053,1,0,0:0:0:0:
256,192,239128,1,8,0:0:0:0:
256,192,239203,1,0,0:0:0:0:
256,192,239278,1,8,0:0:0:0:
256,192,239353,1,8,0:0:0:0:
256,192,239428,1,0,0:0:0:0:
256,192,239578,1,8,0:0:0:0:
256,192,239653,1,8,0:0:0:0:
256,192,239728,1,0,0:0:0:0:
256,192,239803,1,0,0:0:0:0:
256,192,239878,1,8,0:0:0:0:
256,192,240028,1,4,0:0:0:0:
256,192,240178,1,8,0:0:0:0:
256,192,240328,1,0,0:0:0:0:
256,192,240403,1,8,0:0:0:0:
256,192,240478,1,8,0:0:0:0:
256,192,240553,1,0,0:0:0:0:
256,192,240628,1,0,0:0:0:0:
256,192,240778,1,8,0:0:0:0:
256,192,240853,1,0,0:0:0:0:
256,192,241003,1,0,0:0:0:0:
256,192,241078,1,8,0:0:0:0:
256,192,241153,1,0,0:0:0:0:
256,192,241228,1,0,0:0:0:0:
256,192,241378,1,8,0:0:0:0:
256,192,241528,1,0,0:0:0:0:
256,192,241603,1,8,0:0:0:0:
256,192,241678,1,8,0:0:0:0:
256,192,241753,1,8,0:0:0:0:
256,192,241828,1,0,0:0:0:0:
256,192,241978,1,8,0:0:0:0:
256,192,242128,1,0,0:0:0:0:
256,192,242203,1,0,0:0:0:0:
256,192,242278,1,8,0:0:0:0:
256,192,242353,1,0,0:0:0:0:
256,192,242428,1,8,0:0:0:0:
256,192,242503,1,8,0:0:0:0:
256,192,242578,1,8,0:0:0:0:
256,192,242728,1,0,0:0:0:0:
256,192,242803,1,0,0:0:0:0:
256,192,242878,1,8,0:0:0:0:
256,192,242953,1,8,0:0:0:0:
256,192,243028,1,0,0:0:0:0:
256,192,243103,1,8,0:0:0:0:
256,192,243178,1,8,0:0:0:0:
256,192,243328,1,0,0:0:0:0:
256,192,243403,1,0,0:0:0:0:
256,192,243478,1,8,0:0:0:0:
256,192,243628,1,4,0:0:0:0:
256,192,243778,1,8,0:0:0:0:
256,192,243853,1,0,0:0:0:0:
256,192,243928,1,0,0:0:0:0:
256,192,244003,1,0,0:0:0:0:
256,192,244078,1,0,0:0:0:0:
256,192,244153,1,0,0:0:0:0:
256,192,244228,1,8,0:0:0:0:
256,192,244303,1,0,0:0:0:0:
256,192,244378,1,0,0:0:0:0:
256,192,244453,1,0,0:0:0:0:
256,192,244528,1,0,0:0:0:0:
256,192,244603,1,0,0:0:0:0:
256,192,244678,1,8,0:0:0:0:
256,192,244828,1,12,0:0:0:0:
256,192,244978,1,8,0:0:0:0:
256,192,245053,1,0,0:0:0:0:
256,192,245278,1,8,0:0:0:0:
256,192,245353,1,8,0:0:0:0:
256,192,245428,1,0,0:0:0:0:
256,192,245503,1,0,0:0:0:0:
256,192,245578,1,8,0:0:0:0:
256,192,245653,1,0,0:0:0:0:
256,192,245878,1,8,0:0:0:0:
256,192,245953,1,0,0:0:0:0:
256,192,246028,1,0,0:0:0:0:
256,192,246103,1,0,0:0:0:0:
256,192,246178,1,8,0:0:0:0:
256,192,246328,1,0,0:0:0:0:
256,192,246478,1,8,0:0:0:0:
256,192,246553,1,8,0:0:0:0:
256,192,246628,1,0,0:0:0:0:
256,192,246703,1,0,0:0:0:0:
256,192,246778,1,8,0:0:0:0:
256,192,246928,1,8,0:0:0:0:
256,192,247003,1,0,0:0:0:0:
256,192,247078,1,8,0:0:0:0:
256,192,247153,1,8,0:0:0:0:
256,192,247228,1,8,0:0:0:0:
256,192,247303,1,0,0:0:0:0:
256,192,247378,1,8,0:0:0:0:
256,192,247453,1,0,0:0:0:0:
256,192,247678,1,8,0:0:0:0:
256,192,247753,1,0,0:0:0:0:
256,192,247828,1,0,0:0:0:0:
256,192,247903,1,0,0:0:0:0:
256,192,247978,1,8,0:0:0:0:
256,192,248053,1,0,0:0:0:0:
256,192,248278,1,8,0:0:0:0:
256,192,248353,1,8,0:0:0:0:
256,192,248428,1,0,0:0:0:0:
256,192,248503,1,0,0:0:0:0:
256,192,248578,1,8,0:0:0:0:
256,192,248728,1,0,0:0:0:0:
256,192,248803,1,0,0:0:0:0:
256,192,248878,1,8,0:0:0:0:
256,192,248953,1,8,0:0:0:0:
256,192,249028,1,0,0:0:0:0:
256,192,249178,1,8,0:0:0:0:
256,192,249253,1,0,0:0:0:0:
256,192,249328,1,0,0:0:0:0:
256,192,249403,1,0,0:0:0:0:
256,192,249478,1,8,0:0:0:0:
256,192,249628,1,12,0:0:0:0:
256,192,249778,1,8,0:0:0:0:
256,192,249853,1,0,0:0:0:0:
256,192,250078,1,8,0:0:0:0:
256,192,250153,1,8,0:0:0:0:
256,192,250228,1,0,0:0:0:0:
256,192,250303,1,0,0:0:0:0:
256,192,250378,1,8,0:0:0:0:
256,192,250453,1,8,0:0:0:0:
256,192,250678,1,8,0:0:0:0:
256,192,250828,1,0,0:0:0:0:
256,192,250903,1,0,0:0:0:0:
256,192,250978,1,8,0:0:0:0:
256,192,251053,1,0,0:0:0:0:
256,192,251128,1,0,0:0:0:0:
256,192,251203,1,0,0:0:0:0:
256,192,251278,1,8,0:0:0:0:
256,192,251428,1,8,0:0:0:0:
256,192,251503,1,0,0:0:0:0:
256,192,251578,1,8,0:0:0:0:
256,192,251653,1,8,0:0:0:0:
256,192,251728,5,0,0:0:0:0:
256,192,251803,1,0,0:0:0:0:
256,192,251878,1,8,0:0:0:0:
256,192,252028,1,12,0:0:0:0:
256,192,252178,1,8,0:0:0:0:
256,192,252253,1,8,0:0:0:0:
256,192,252328,1,0,0:0:0:0:
256,192,252403,1,0,0:0:0:0:
256,192,252478,1,8,0:0:0:0:
256,192,252553,1,0,0:0:0:0:
256,192,252628,1,8,0:0:0:0:
256,192,252703,1,8,0:0:0:0:
256,192,252778,1,8,0:0:0:0:
256,192,252853,1,0,0:0:0:0:
256,192,252928,1,8,0:0:0:0:
256,192,253003,1,0,0:0:0:0:
256,192,253078,1,0,0:0:0:0:
256,192,253153,1,0,0:0:0:0:
256,192,253228,1,8,0:0:0:0:
256,192,253303,1,0,0:0:0:0:
256,192,253378,1,8,0:0:0:0:
256,192,253453,1,8,0:0:0:0:
256,192,253528,1,0,0:0:0:0:
256,192,253603,1,0,0:0:0:0:
256,192,253678,1,8,0:0:0:0:
256,192,253753,1,0,0:0:0:0:
256,192,253828,1,8,0:0:0:0:
256,192,253903,1,0,0:0:0:0:
256,192,253978,1,0,0:0:0:0:
256,192,254053,1,0,0:0:0:0:
256,192,254128,1,8,0:0:0:0:
256,192,254428,1,8,0:0:0:0:
256,192,254503,1,8,0:0:0:0:
256,192,254578,1,0,0:0:0:0:
256,192,254653,1,0,0:0:0:0:
256,192,254728,1,8,0:0:0:0:
256,192,254803,1,8,0:0:0:0:
256,192,254878,1,8,0:0:0:0:
256,192,254953,1,8,0:0:0:0:
256,192,255028,1,8,0:0:0:0:
256,192,255103,1,8,0:0:0:0:
256,192,255178,1,0,0:0:0:0:
256,192,255253,1,0,0:0:0:0:
256,192,255328,1,8,0:0:0:0:
256,192,255403,1,8,0:0:0:0:
256,192,255478,1,0,0:0:0:0:
256,192,255553,1,0,0:0:0:0:
256,192,255628,1,8,0:0:0:0:
256,192,255703,1,8,0:0:0:0:
256,192,255778,1,0,0:0:0:0:
256,192,255853,1,0,0:0:0:0:
256,192,255928,1,8,0:0:0:0:
256,192,256003,1,8,0:0:0:0:
256,192,256078,1,8,0:0:0:0:
256,192,256153,1,8,0:0:0:0:
256,192,256228,1,0,0:0:0:0:
256,192,256303,1,0,0:0:0:0:
256,192,256378,1,8,0:0:0:0:
256,192,256453,1,8,0:0:0:0:
256,192,256528,1,8,0:0:0:0:
256,192,256603,1,8,0:0:0:0:
256,192,256678,1,0,0:0:0:0:
256,192,256753,1,0,0:0:0:0:
256,192,256828,1,8,0:0:0:0:
256,192,256903,1,0,0:0:0:0:
256,192,256978,1,8,0:0:0:0:
256,192,257053,1,0,0:0:0:0:
256,192,257128,1,0,0:0:0:0:
256,192,257203,1,0,0:0:0:0:
256,192,257278,1,8,0:0:0:0:
256,192,257353,1,0,0:0:0:0:
256,192,257428,1,8,0:0:0:0:
256,192,257503,1,0,0:0:0:0:
256,192,257578,1,0,0:0:0:0:
256,192,257653,1,0,0:0:0:0:
256,192,257728,1,8,0:0:0:0:
256,192,257803,1,0,0:0:0:0:
256,192,257878,1,8,0:0:0:0:
256,192,257953,1,8,0:0:0:0:
256,192,258028,1,0,0:0:0:0:
256,192,258103,1,0,0:0:0:0:
256,192,258178,1,8,0:0:0:0:
256,192,258253,1,0,0:0:0:0:
256,192,258328,1,0,0:0:0:0:
256,192,258403,1,0,0:0:0:0:
256,192,258478,1,8,0:0:0:0:
256,192,258553,1,0,0:0:0:0:
256,192,258628,1,0,0:0:0:0:
256,192,258703,1,0,0:0:0:0:
256,192,258778,1,8,0:0:0:0:
256,192,258853,1,8,0:0:0:0:
256,192,258928,1,0,0:0:0:0:
256,192,259003,1,0,0:0:0:0:
256,192,259078,1,8,0:0:0:0:
256,192,259228,1,4,0:0:0:0:
256,192,259378,1,0,0:0:0:0:
256,192,259528,1,12,0:0:0:0:
256,192,259678,1,0,0:0:0:0:
256,192,259753,1,0,0:0:0:0:
256,192,259828,1,0,0:0:0:0:
256,192,259978,1,12,0:0:0:0:
256,192,260128,1,0,0:0:0:0:
256,192,260278,1,8,0:0:0:0:
256,192,260428,1,8,0:0:0:0:
256,192,260503,1,0,0:0:0:0:
256,192,260578,1,0,0:0:0:0:
256,192,260653,1,0,0:0:0:0:
256,192,260728,1,8,0:0:0:0:
256,192,260803,1,8,0:0:0:0:
256,192,260878,1,0,0:0:0:0:
256,192,260953,1,0,0:0:0:0:
256,192,261028,1,8,0:0:0:0:
256,192,261103,1,8,0:0:0:0:
256,192,261178,1,0,0:0:0:0:
256,192,261253,1,0,0:0:0:0:
256,192,261328,1,8,0:0:0:0:
256,192,261403,1,0,0:0:0:0:
256,192,261478,1,8,0:0:0:0:
256,192,261553,1,8,0:0:0:0:
256,192,261628,1,0,0:0:0:0:
256,192,261703,1,8,0:0:0:0:
256,192,261778,1,8,0:0:0:0:
256,192,261853,1,8,0:0:0:0:
256,192,261928,1,8,0:0:0:0:
256,192,262003,1,8,0:0:0:0:
256,192,262078,1,0,0:0:0:0:
256,192,262153,1,8,0:0:0:0:
256,192,262228,1,8,0:0:0:0:
256,192,262303,1,8,0:0:0:0:
256,192,262378,1,8,0:0:0:0:
256,192,262453,1,8,0:0:0:0:
256,192,262528,1,0,0:0:0:0:
256,192,262678,1,0,0:0:0:0:
256,192,262753,1,0,0:0:0:0:
256,192,262828,1,8,0:0:0:0:
256,192,262978,1,0,0:0:0:0:
256,192,263053,1,0,0:0:0:0:
256,192,263128,1,8,0:0:0:0:
256,192,263278,1,0,0:0:0:0:
256,192,263353,1,0,0:0:0:0:
256,192,263428,1,8,0:0:0:0:
256,192,263578,1,0,0:0:0:0:
256,192,263653,1,0,0:0:0:0:
256,192,263728,1,8,0:0:0:0:
256,192,263803,1,8,0:0:0:0:
256,192,263878,1,8,0:0:0:0:
256,192,263953,1,8,0:0:0:0:
256,192,264028,1,0,0:0:0:0:
256,192,264178,1,8,0:0:0:0:
256,192,264328,1,0,0:0:0:0:
256,192,264403,1,0,0:0:0:0:
256,192,264478,1,8,0:0:0:0:
256,192,264553,1,8,0:0:0:0:
256,192,264628,1,0,0:0:0:0:
256,192,264778,1,8,0:0:0:0:
256,192,264853,1,0,0:0:0:0:
256,192,264928,1,0,0:0:0:0:
256,192,265003,1,0,0:0:0:0:
256,192,265078,1,8,0:0:0:0:
256,192,265153,1,0,0:0:0:0:
256,192,265228,1,8,0:0:0:0:
256,192,265378,1,8,0:0:0:0:
256,192,265528,1,0,0:0:0:0:
256,192,265603,1,0,0:0:0:0:
256,192,265678,1,8,0:0:0:0:
256,192,265753,1,8,0:0:0:0:
256,192,265828,1,0,0:0:0:0:
256,192,265978,1,8,0:0:0:0:
256,192,266053,1,0,0:0:0:0:
256,192,266128,1,0,0:0:0:0:
256,192,266203,1,0,0:0:0:0:
256,192,266278,1,8,0:0:0:0:
256,192,266353,1,0,0:0:0:0:
256,192,266428,1,8,0:0:0:0:
256,192,266578,1,8,0:0:0:0:
256,192,266728,1,0,0:0:0:0:
256,192,266803,1,0,0:0:0:0:
256,192,266878,1,8,0:0:0:0:
256,192,266953,1,0,0:0:0:0:
256,192,267028,1,8,0:0:0:0:
256,192,267178,1,8,0:0:0:0:
256,192,267253,1,8,0:0:0:0:
256,192,267328,1,0,0:0:0:0:
256,192,267403,1,0,0:0:0:0:
256,192,267478,1,8,0:0:0:0:
256,192,267553,1,0,0:0:0:0:
256,192,267628,1,0,0:0:0:0:
256,192,267778,1,8,0:0:0:0:
256,192,267928,1,0,0:0:0:0:
256,192,268003,1,0,0:0:0:0:
256,192,268078,1,8,0:0:0:0:
256,192,268228,1,0,0:0:0:0:
256,192,268378,1,8,0:0:0:0:
256,192,268453,1,8,0:0:0:0:
256,192,268528,1,0,0:0:0:0:
256,192,268603,1,8,0:0:0:0:
256,192,268678,1,8,0:0:0:0:
256,192,268753,1,8,0:0:0:0:
256,192,268828,1,0,0:0:0:0:
256,192,268978,1,8,0:0:0:0:
256,192,269128,1,0,0:0:0:0:
256,192,269203,1,0,0:0:0:0:
256,192,269278,1,8,0:0:0:0:
256,192,269353,1,8,0:0:0:0:
256,192,269428,1,0,0:0:0:0:
256,192,269578,1,8,0:0:0:0:
256,192,269653,1,0,0:0:0:0:
256,192,269728,1,0,0:0:0:0:
256,192,269803,1,0,0:0:0:0:
256,192,269878,1,8,0:0:0:0:
256,192,269953,1,0,0:0:0:0:
256,192,270028,1,8,0:0:0:0:
256,192,270178,1,8,0:0:0:0:
256,192,270328,1,0,0:0:0:0:
256,192,270403,1,0,0:0:0:0:
256,192,270478,1,8,0:0:0:0:
256,192,270553,1,8,0:0:0:0:
256,192,270628,1,0,0:0:0:0:
256,192,270778,1,8,0:0:0:0:
256,192,270853,1,0,0:0:0:0:
256,192,270928,1,0,0:0:0:0:
256,192,271003,1,0,0:0:0:0:
256,192,271078,1,8,0:0:0:0:
256,192,271153,1,8,0:0:0:0:
256,192,271228,1,0,0:0:0:0:
256,192,271378,1,8,0:0:0:0:
256,192,271453,1,0,0:0:0:0:
256,192,271528,1,8,0:0:0:0:
256,192,271678,1,8,0:0:0:0:
256,192,271753,1,8,0:0:0:0:
256,192,271828,1,8,0:0:0:0:
256,192,271978,1,8,0:0:0:0:
256,192,272053,1,8,0:0:0:0:
256,192,272128,1,0,0:0:0:0:
256,192,272278,1,0,0:0:0:0:
256,192,272353,1,0,0:0:0:0:
256,192,272428,1,8,0:0:0:0:
256,192,272503,1,8,0:0:0:0:
256,192,272578,1,8,0:0:0:0:
256,192,272653,1,0,0:0:0:0:
256,192,272728,1,8,0:0:0:0:
256,192,272803,1,0,0:0:0:0:
256,192,272878,1,8,0:0:0:0:
256,192,272953,1,8,0:0:0:0:
256,192,273028,1,0,0:0:0:0:
256,192,273103,1,0,0:0:0:0:
256,192,273178,1,8,0:0:0:0:
256,192,273328,1,8,0:0:0:0:
256,192,273403,1,0,0:0:0:0:
256,192,273478,1,8,0:0:0:0:
256,192,273553,1,8,0:0:0:0:
256,192,273628,1,0,0:0:0:0:
256,192,273778,1,8,0:0:0:0:
256,192,273928,1,0,0:0:0:0:
256,192,274003,1,0,0:0:0:0:
256,192,274078,1,8,0:0:0:0:
256,192,274153,1,0,0:0:0:0:
256,192,274228,1,8,0:0:0:0:
256,192,274378,1,8,0:0:0:0:
256,192,274453,1,8,0:0:0:0:
256,192,274528,1,0,0:0:0:0:
256,192,274603,1,0,0:0:0:0:
256,192,274678,1,8,0:0:0:0:
256,192,274753,1,0,0:0:0:0:
256,192,274828,1,8,0:0:0:0:
256,192,274978,1,8,0:0:0:0:
256,192,275128,1,0,0:0:0:0:
256,192,275203,1,0,0:0:0:0:
256,192,275278,1,8,0:0:0:0:
256,192,275353,1,0,0:0:0:0:
256,192,275428,1,8,0:0:0:0:
256,192,275578,1,8,0:0:0:0:
256,192,275653,1,8,0:0:0:0:
256,192,275728,1,0,0:0:0:0:
256,192,275803,1,0,0:0:0:0:
256,192,275878,1,8,0:0:0:0:
256,192,275953,1,0,0:0:0:0:
256,192,276028,1,8,0:0:0:0:
256,192,276178,1,8,0:0:0:0:
256,192,276328,1,0,0:0:0:0:
256,192,276403,1,0,0:0:0:0:
256,192,276478,1,8,0:0:0:0:
256,192,276553,1,8,0:0:0:0:
256,192,276628,1,0,0:0:0:0:
256,192,276778,1,8,0:0:0:0:
256,192,276853,1,0,0:0:0:0:
256,192,276928,1,0,0:0:0:0:
256,192,277003,1,0,0:0:0:0:
256,192,277078,1,8,0:0:0:0:
256,192,277153,1,0,0:0:0:0:
256,192,277228,1,8,0:0:0:0:
256,192,277378,1,8,0:0:0:0:
256,192,277528,1,0,0:0:0:0:
256,192,277603,1,0,0:0:0:0:
256,192,277678,1,8,0:0:0:0:
256,192,277753,1,0,0:0:0:0:
256,192,277828,1,0,0:0:0:0:
256,192,277978,1,0,0:0:0:0:
256,192,278053,1,0,0:0:0:0:
256,192,278128,1,8,0:0:0:0:
256,192,278203,1,0,0:0:0:0:
256,192,278278,1,0,0:0:0:0:
256,192,278353,1,0,0:0:0:0:
256,192,278428,1,8,0:0:0:0:
256,192,278578,1,8,0:0:0:0:
256,192,278728,1,0,0:0:0:0:
256,192,278803,1,0,0:0:0:0:
256,192,278878,1,8,0:0:0:0:
256,192,278953,1,0,0:0:0:0:
256,192,279028,1,8,0:0:0:0:
256,192,279178,1,8,0:0:0:0:
256,192,279253,1,8,0:0:0:0:
256,192,279328,1,0,0:0:0:0:
256,192,279403,1,0,0:0:0:0:
256,192,279478,1,8,0:0:0:0:
256,192,279553,1,0,0:0:0:0:
256,192,279628,1,8,0:0:0:0:
256,192,279778,1,8,0:0:0:0:
256,192,279928,1,0,0:0:0:0:
256,192,280003,1,0,0:0:0:0:
256,192,280078,1,8,0:0:0:0:
256,192,280153,1,0,0:0:0:0:
256,192,280228,1,8,0:0:0:0:
256,192,280378,1,8,0:0:0:0:
256,192,280453,1,0,0:0:0:0:
256,192,280528,1,8,0:0:0:0:
256,192,280603,1,0,0:0:0:0:
256,192,280678,1,8,0:0:0:0:
256,192,280753,1,8,0:0:0:0:
256,192,280828,1,8,0:0:0:0:
256,192,280978,1,8,0:0:0:0:
256,192,281053,1,0,0:0:0:0:
256,192,281128,1,8,0:0:0:0:
256,192,281203,1,8,0:0:0:0:
256,192,281278,1,0,0:0:0:0:
256,192,281353,1,0,0:0:0:0:
256,192,281428,1,8,0:0:0:0:
256,192,281503,1,0,0:0:0:0:
256,192,281578,1,8,0:0:0:0:
256,192,281653,1,0,0:0:0:0:
256,192,281728,1,0,0:0:0:0:
256,192,281803,1,0,0:0:0:0:
256,192,281878,1,8,0:0:0:0:
256,192,281953,1,0,0:0:0:0:
256,192,282028,1,8,0:0:0:0:
256,192,282103,1,0,0:0:0:0:
256,192,282178,1,0,0:0:0:0:
256,192,282253,1,0,0:0:0:0:
256,192,282328,1,0,0:0:0:0:
256,192,282403,1,0,0:0:0:0:
256,192,282478,1,8,0:0:0:0:
256,192,282553,1,8,0:0:0:0:
256,192,282628,1,0,0:0:0:0:
256,192,282703,1,0,0:0:0:0:
256,192,282778,1,0,0:0:0:0:
256,192,282853,1,0,0:0:0:0:
256,192,282928,1,8,0:0:0:0:
256,192,283078,1,8,0:0:0:0:
256,192,283228,1,4,0:0:0:0:
256,192,283378,1,8,0:0:0:0:
256,192,283528,1,0,0:0:0:0:
256,192,283603,1,0,0:0:0:0:
256,192,283678,1,8,0:0:0:0:
256,192,283753,1,8,0:0:0:0:
256,192,283828,1,0,0:0:0:0:
256,192,283903,1,0,0:0:0:0:
256,192,283978,1,8,0:0:0:0:
256,192,284128,1,0,0:0:0:0:
256,192,284203,1,0,0:0:0:0:
256,192,284278,1,8,0:0:0:0:
256,192,284353,1,0,0:0:0:0:
256,192,284428,1,8,0:0:0:0:
256,192,284578,1,8,0:0:0:0:
256,192,284728,1,0,0:0:0:0:
256,192,284803,1,0,0:0:0:0:
256,192,284878,1,8,0:0:0:0:
256,192,284953,1,8,0:0:0:0:
256,192,285028,1,0,0:0:0:0:
256,192,285103,1,0,0:0:0:0:
256,192,285178,1,8,0:0:0:0:
256,192,285328,1,0,0:0:0:0:
256,192,285403,1,0,0:0:0:0:
256,192,285478,1,8,0:0:0:0:
256,192,285553,1,0,0:0:0:0:
256,192,285628,1,8,0:0:0:0:
256,192,285778,1,8,0:0:0:0:
256,192,285928,1,0,0:0:0:0:
256,192,286003,1,0,0:0:0:0:
256,192,286078,1,8,0:0:0:0:
256,192,286153,1,0,0:0:0:0:
256,192,286228,1,0,0:0:0:0:
256,192,286303,1,0,0:0:0:0:
256,192,286378,1,8,0:0:0:0:
256,192,286528,1,0,0:0:0:0:
256,192,286603,1,0,0:0:0:0:
256,192,286678,1,8,0:0:0:0:
256,192,286753,1,0,0:0:0:0:
256,192,286828,1,0,0:0:0:0:
256,192,286978,1,8,0:0:0:0:
256,192,287128,1,0,0:0:0:0:
256,192,287203,1,0,0:0:0:0:
256,192,287278,1,8,0:0:0:0:
256,192,287428,1,0,0:0:0:0:
256,192,287503,1,0,0:0:0:0:
256,192,287578,1,8,0:0:0:0:
256,192,287653,1,8,0:0:0:0:
256,192,287728,1,0,0:0:0:0:
256,192,287803,1,8,0:0:0:0:
256,192,287878,1,8,0:0:0:0:
256,192,287953,1,8,0:0:0:0:
256,192,288028,1,0,0:0:0:0:
256,192,288178,1,8,0:0:0:0:
256,192,288328,1,0,0:0:0:0:
256,192,288403,1,0,0:0:0:0:
256,192,288478,1,8,0:0:0:0:
256,192,288553,1,8,0:0:0:0:
256,192,288628,1,0,0:0:0:0:
256,192,288703,1,0,0:0:0:0:
256,192,288778,1,8,0:0:0:0:
256,192,288928,1,0,0:0:0:0:
256,192,289003,1,0,0:0:0:0:
256,192,289078,1,8,0:0:0:0:
256,192,289153,1,0,0:0:0:0:
256,192,289228,1,8,0:0:0:0:
256,192,289378,1,8,0:0:0:0:
256,192,289528,1,0,0:0:0:0:
256,192,289603,1,0,0:0:0:0:
256,192,289678,1,8,0:0:0:0:
256,192,289753,1,8,0:0:0:0:
256,192,289828,1,0,0:0:0:0:
256,192,289903,1,0,0:0:0:0:
256,192,289978,1,8,0:0:0:0:
256,192,290128,1,0,0:0:0:0:
256,192,290203,1,0,0:0:0:0:
256,192,290278,1,8,0:0:0:0:
256,192,290428,1,8,0:0:0:0:
256,192,290503,1,0,0:0:0:0:
256,192,290578,1,8,0:0:0:0:
256,192,290653,1,0,0:0:0:0:
256,192,290728,1,8,0:0:0:0:
256,192,290803,1,8,0:0:0:0:
256,192,290878,1,0,0:0:0:0:
256,192,290953,1,0,0:0:0:0:
256,192,291028,1,8,0:0:0:0:
256,192,291103,1,0,0:0:0:0:
256,192,291178,1,0,0:0:0:0:
256,192,291253,1,8,0:0:0:0:
256,192,291328,1,0,0:0:0:0:
256,192,291478,1,12,0:0:0:0:
256,192,291628,1,8,0:0:0:0:
256,192,291703,1,0,0:0:0:0:
256,192,291778,1,0,0:0:0:0:
256,192,291853,1,8,0:0:0:0:
256,192,291928,1,8,0:0:0:0:
256,192,292003,1,0,0:0:0:0:
256,192,292078,1,0,0:0:0:0:
256,192,292153,1,8,0:0:0:0:
256,192,292228,1,8,0:0:0:0:
256,192,292303,1,0,0:0:0:0:
256,192,292378,1,0,0:0:0:0:
256,192,292453,1,8,0:0:0:0:
256,192,292528,1,8,0:0:0:0:
256,192,292603,1,0,0:0:0:0:
256,192,292678,1,8,0:0:0:0:
256,192,292828,1,12,0:0:0:0:
256,192,292978,1,0,0:0:0:0:
256,192,293053,1,0,0:0:0:0:
256,192,293128,1,0,0:0:0:0:
256,192,293203,1,0,0:0:0:0:
256,192,293278,1,8,0:0:0:0:
256,192,293353,1,0,0:0:0:0:
256,192,293428,1,8,0:0:0:0:
256,192,293503,1,0,0:0:0:0:
256,192,293578,1,8,0:0:0:0:
256,192,293653,1,8,0:0:0:0:
256,192,293728,1,0,0:0:0:0:
256,192,293803,1,0,0:0:0:0:
256,192,293878,1,8,0:0:0:0:
256,192,293953,1,0,0:0:0:0:
256,192,294028,1,8,0:0:0:0:
256,192,294103,1,0,0:0:0:0:
256,192,294178,1,0,0:0:0:0:
256,192,294253,1,0,0:0:0:0:
256,192,294328,1,0,0:0:0:0:
256,192,294403,1,0,0:0:0:0:
256,192,294478,1,8,0:0:0:0:
256,192,294553,1,0,0:0:0:0:
256,192,294628,1,8,0:0:0:0:
256,192,294703,1,0,0:0:0:0:
256,192,294778,1,8,0:0:0:0:
256,192,294853,1,8,0:0:0:0:
256,192,294928,1,0,0:0:0:0:
256,192,295003,1,0,0:0:0:0:
256,192,295078,1,8,0:0:0:0:
256,192,295153,1,0,0:0:0:0:
256,192,295228,1,8,0:0:0:0:
256,192,295303,1,8,0:0:0:0:
256,192,295378,1,0,0:0:0:0:
256,192,295453,1,0,0:0:0:0:
256,192,295528,1,0,0:0:0:0:
256,192,295603,1,0,0:0:0:0:
256,192,295678,1,8,0:0:0:0:
256,192,295753,1,8,0:0:0:0:
256,192,295828,1,8,0:0:0:0:
256,192,295903,1,0,0:0:0:0:
256,192,295978,1,8,0:0:0:0:
256,192,296053,1,0,0:0:0:0:
256,192,296128,1,0,0:0:0:0:
256,192,296203,1,0,0:0:0:0:
256,192,296278,1,8,0:0:0:0:
256,192,296353,1,0,0:0:0:0:
256,192,296428,1,8,0:0:0:0:
256,192,296503,1,0,0:0:0:0:
256,192,296578,1,8,0:0:0:0:
256,192,296653,1,0,0:0:0:0:
256,192,296728,1,0,0:0:0:0:
256,192,296803,1,0,0:0:0:0:
256,192,296878,1,8,0:0:0:0:
256,192,296953,1,0,0:0:0:0:
256,192,297028,1,8,0:0:0:0:
256,192,297103,1,0,0:0:0:0:
256,192,297178,1,0,0:0:0:0:
256,192,297253,1,0,0:0:0:0:
256,192,297328,1,8,0:0:0:0:
256,192,297403,1,8,0:0:0:0:
256,192,297478,1,0,0:0:0:0:
256,192,297628,1,12,0:0:0:0:
256,192,297778,1,0,0:0:0:0:
256,192,297853,1,0,0:0:0:0:
256,192,297928,1,0,0:0:0:0:
256,192,298003,1,0,0:0:0:0:
256,192,298078,1,8,0:0:0:0:
256,192,298153,1,0,0:0:0:0:
256,192,298228,1,8,0:0:0:0:
256,192,298303,1,0,0:0:0:0:
256,192,298378,1,8,0:0:0:0:
256,192,298453,1,8,0:0:0:0:
256,192,298528,1,0,0:0:0:0:
256,192,298603,1,0,0:0:0:0:
256,192,298678,1,8,0:0:0:0:
256,192,298828,1,12,0:0:0:0:
256,192,298978,1,0,0:0:0:0:
256,192,299053,1,0,0:0:0:0:
256,192,299128,1,0,0:0:0:0:
256,192,299203,1,0,0:0:0:0:
256,192,299278,1,8,0:0:0:0:
256,192,299353,1,0,0:0:0:0:
256,192,299428,1,8,0:0:0:0:
256,192,299503,1,0,0:0:0:0:
256,192,299578,1,8,0:0:0:0:
256,192,299653,1,8,0:0:0:0:
256,192,299728,1,0,0:0:0:0:
256,192,299803,1,0,0:0:0:0:
256,192,299878,1,8,0:0:0:0:
256,192,299953,1,0,0:0:0:0:
256,192,300028,1,8,0:0:0:0:
256,192,300103,1,0,0:0:0:0:
256,192,300178,1,0,0:0:0:0:
256,192,300253,1,8,0:0:0:0:
256,192,300328,1,0,0:0:0:0:
256,192,300403,1,0,0:0:0:0:
256,192,300478,1,8,0:0:0:0:
256,192,300553,1,0,0:0:0:0:
256,192,300628,1,0,0:0:0:0:
256,192,300703,1,8,0:0:0:0:
256,192,300778,1,0,0:0:0:0:
256,192,300853,1,0,0:0:0:0:
256,192,300928,1,8,0:0:0:0:
256,192,301003,1,0,0:0:0:0:
256,192,301078,1,0,0:0:0:0:
256,192,301153,1,0,0:0:0:0:
256,192,301228,1,8,0:0:0:0:
256,192,301303,1,8,0:0:0:0:
256,192,301378,1,8,0:0:0:0:
256,192,301453,1,8,0:0:0:0:
256,192,301528,1,0,0:0:0:0:
256,192,301603,1,0,0:0:0:0:
256,192,301678,1,0,0:0:0:0:
256,192,301828,1,8,0:0:0:0:
256,192,301903,1,8,0:0:0:0:
256,192,302053,1,8,0:0:0:0:
256,192,302128,1,8,0:0:0:0:
256,192,302278,1,8,0:0:0:0:
256,192,302428,1,4,0:0:0:0:
256,192,302578,1,0,0:0:0:0:
256,192,302653,1,0,0:0:0:0:
256,192,302728,1,0,0:0:0:0:
256,192,302803,1,0,0:0:0:0:
256,192,302878,1,8,0:0:0:0:
256,192,302953,1,0,0:0:0:0:
256,192,303028,1,0,0:0:0:0:
256,192,303103,1,0,0:0:0:0:
256,192,303178,1,0,0:0:0:0:
256,192,303253,1,0,0:0:0:0:
256,192,303328,1,8,0:0:0:0:
256,192,303403,1,0,0:0:0:0:
256,192,303478,1,0,0:0:0:0:
256,192,303553,1,0,0:0:0:0:
256,192,303628,1,8,0:0:0:0:
256,192,303703,1,8,0:0:0:0:
256,192,303778,1,0,0:0:0:0:
256,192,303853,1,0,0:0:0:0:
256,192,303928,1,0,0:0:0:0:
256,192,304003,1,0,0:0:0:0:
256,192,304078,1,8,0:0:0:0:
256,192,304153,1,8,0:0:0:0:
256,192,304228,1,0,0:0:0:0:
256,192,304303,1,0,0:0:0:0:
256,192,304378,1,0,0:0:0:0:
256,192,304453,1,0,0:0:0:0:
256,192,304528,1,8,0:0:0:0:
256,192,304603,1,0,0:0:0:0:
256,192,304678,1,0,0:0:0:0:
256,192,304753,1,0,0:0:0:0:
256,192,304828,1,8,0:0:0:0:
256,192,304903,1,8,0:0:0:0:
256,192,304978,1,0,0:0:0:0:
256,192,305053,1,0,0:0:0:0:
256,192,305128,1,0,0:0:0:0:
256,192,305203,1,0,0:0:0:0:
256,192,305278,1,8,0:0:0:0:
256,192,305353,1,8,0:0:0:0:
256,192,305428,1,0,0:0:0:0:
256,192,305503,1,0,0:0:0:0:
256,192,305578,1,0,0:0:0:0:
256,192,305653,1,0,0:0:0:0:
256,192,305728,1,8,0:0:0:0:
256,192,305803,1,0,0:0:0:0:
256,192,305878,1,0,0:0:0:0:
256,192,305953,1,0,0:0:0:0:
256,192,306028,1,8,0:0:0:0:
256,192,306103,1,8,0:0:0:0:
256,192,306178,1,0,0:0:0:0:
256,192,306253,1,0,0:0:0:0:
256,192,306328,1,0,0:0:0:0:
256,192,306403,1,0,0:0:0:0:
256,192,306478,1,8,0:0:0:0:
256,192,306553,1,8,0:0:0:0:
256,192,306628,1,0,0:0:0:0:
256,192,306703,1,0,0:0:0:0:
256,192,306778,1,0,0:0:0:0:
256,192,306853,1,0,0:0:0:0:
256,192,306928,1,8,0:0:0:0:
256,192,307003,1,8,0:0:0:0:
256,192,307078,1,0,0:0:0:0:
256,192,307153,1,0,0:0:0:0:
256,192,307228,1,8,0:0:0:0:
256,192,307303,1,8,0:0:0:0:
256,192,307378,1,8,0:0:0:0:
256,192,307453,1,0,0:0:0:0:
256,192,307528,1,0,0:0:0:0:
256,192,307603,1,0,0:0:0:0:
256,192,307678,1,8,0:0:0:0:
256,192,307753,1,8,0:0:0:0:
256,192,307828,1,8,0:0:0:0:
256,192,307903,1,0,0:0:0:0:
256,192,307978,1,0,0:0:0:0:
256,192,308053,1,0,0:0:0:0:
256,192,308128,1,8,0:0:0:0:
256,192,308203,1,8,0:0:0:0:
256,192,308278,1,8,0:0:0:0:
256,192,308353,1,0,0:0:0:0:
256,192,308428,1,8,0:0:0:0:
256,192,308503,1,8,0:0:0:0:
256,192,308578,1,0,0:0:0:0:
256,192,308653,1,0,0:0:0:0:
256,192,308728,1,0,0:0:0:0:
256,192,308803,1,0,0:0:0:0:
256,192,308878,1,8,0:0:0:0:
256,192,308953,1,8,0:0:0:0:
256,192,309028,1,0,0:0:0:0:
256,192,309103,1,0,0:0:0:0:
256,192,309178,1,0,0:0:0:0:
256,192,309253,1,0,0:0:0:0:
256,192,309328,1,8,0:0:0:0:
256,192,309403,1,0,0:0:0:0:
256,192,309478,1,0,0:0:0:0:
256,192,309553,1,0,0:0:0:0:
256,192,309628,1,8,0:0:0:0:
256,192,309703,1,8,0:0:0:0:
256,192,309778,1,0,0:0:0:0:
256,192,309853,1,0,0:0:0:0:
256,192,309928,1,0,0:0:0:0:
256,192,310003,1,0,0:0:0:0:
256,192,310078,1,8,0:0:0:0:
256,192,310153,1,8,0:0:0:0:
256,192,310228,1,0,0:0:0:0:
256,192,310303,1,0,0:0:0:0:
256,192,310378,1,0,0:0:0:0:
256,192,310453,1,0,0:0:0:0:
256,192,310528,1,8,0:0:0:0:
256,192,310603,1,8,0:0:0:0:
256,192,310678,1,0,0:0:0:0:
256,192,310753,1,0,0:0:0:0:
256,192,310828,1,8,0:0:0:0:
256,192,310903,1,8,0:0:0:0:
256,192,310978,1,8,0:0:0:0:
256,192,311053,1,0,0:0:0:0:
256,192,311128,1,0,0:0:0:0:
256,192,311203,1,0,0:0:0:0:
256,192,311278,1,8,0:0:0:0:
256,192,311353,1,8,0:0:0:0:
256,192,311428,1,8,0:0:0:0:
256,192,311503,1,0,0:0:0:0:
256,192,311578,1,0,0:0:0:0:
256,192,311653,1,0,0:0:0:0:
256,192,311728,1,8,0:0:0:0:
256,192,311803,1,8,0:0:0:0:
256,192,311878,1,0,0:0:0:0:
256,192,312028,1,4,0:0:0:0:
256,192,312178,1,0,0:0:0:0:
256,192,312253,1,0,0:0:0:0:
256,192,312328,1,0,0:0:0:0:
256,192,312403,1,0,0:0:0:0:
256,192,312478,1,8,0:0:0:0:
256,192,312553,1,0,0:0:0:0:
256,192,312628,1,0,0:0:0:0:
256,192,312703,1,0,0:0:0:0:
256,192,312778,1,0,0:0:0:0:
256,192,312853,1,0,0:0:0:0:
256,192,312928,1,8,0:0:0:0:
256,192,313003,1,8,0:0:0:0:
256,192,313078,1,8,0:0:0:0:
256,192,313153,1,0,0:0:0:0:
256,192,313228,1,8,0:0:0:0:
256,192,313303,1,8,0:0:0:0:
256,192,313378,1,0,0:0:0:0:
256,192,313453,1,0,0:0:0:0:
256,192,313528,1,0,0:0:0:0:
256,192,313603,1,0,0:0:0:0:
256,192,313678,1,8,0:0:0:0:
256,192,313753,1,8,0:0:0:0:
256,192,313828,1,0,0:0:0:0:
256,192,313903,1,0,0:0:0:0:
256,192,313978,1,0,0:0:0:0:
256,192,314053,1,0,0:0:0:0:
256,192,314128,1,8,0:0:0:0:
256,192,314203,1,0,0:0:0:0:
256,192,314278,1,0,0:0:0:0:
256,192,314353,1,0,0:0:0:0:
256,192,314428,1,8,0:0:0:0:
256,192,314503,1,8,0:0:0:0:
256,192,314578,1,0,0:0:0:0:
256,192,314653,1,0,0:0:0:0:
256,192,314728,1,0,0:0:0:0:
256,192,314803,1,0,0:0:0:0:
256,192,314878,1,8,0:0:0:0:
256,192,314953,1,8,0:0:0:0:
256,192,315028,1,0,0:0:0:0:
256,192,315103,1,0,0:0:0:0:
256,192,315178,1,0,0:0:0:0:
256,192,315253,1,0,0:0:0:0:
256,192,315328,1,8,0:0:0:0:
256,192,315403,1,0,0:0:0:0:
256,192,315478,1,0,0:0:0:0:
256,192,315553,1,0,0:0:0:0:
256,192,315628,1,8,0:0:0:0:
256,192,315703,1,8,0:0:0:0:
256,192,315778,1,0,0:0:0:0:
256,192,315853,1,0,0:0:0:0:
256,192,315928,1,0,0:0:0:0:
256,192,316003,1,0,0:0:0:0:
256,192,316078,1,8,0:0:0:0:
256,192,316153,1,8,0:0:0:0:
256,192,316228,1,0,0:0:0:0:
256,192,316303,1,0,0:0:0:0:
256,192,316378,1,0,0:0:0:0:
256,192,316453,1,0,0:0:0:0:
256,192,316528,1,8,0:0:0:0:
256,192,316603,1,0,0:0:0:0:
256,192,316678,1,0,0:0:0:0:
256,192,316828,1,12,0:0:0:0:
256,192,316978,1,0,0:0:0:0:
256,192,317053,1,0,0:0:0:0:
256,192,317128,1,0,0:0:0:0:
256,192,317203,1,0,0:0:0:0:
256,192,317278,1,8,0:0:0:0:
256,192,317353,1,8,0:0:0:0:
256,192,317428,1,8,0:0:0:0:
256,192,317503,1,0,0:0:0:0:
256,192,317578,1,0,0:0:0:0:
256,192,317653,1,0,0:0:0:0:
256,192,317728,1,8,0:0:0:0:
256,192,317803,1,8,0:0:0:0:
256,192,317878,1,8,0:0:0:0:
256,192,317953,1,0,0:0:0:0:
256,192,318028,1,8,0:0:0:0:
256,192,318103,1,8,0:0:0:0:
256,192,318178,1,0,0:0:0:0:
256,192,318253,1,0,0:0:0:0:
256,192,318328,1,0,0:0:0:0:
256,192,318403,1,0,0:0:0:0:
256,192,318478,1,8,0:0:0:0:
256,192,318553,1,8,0:0:0:0:
256,192,318628,1,0,0:0:0:0:
256,192,318703,1,0,0:0:0:0:
256,192,318778,1,0,0:0:0:0:
256,192,318853,1,0,0:0:0:0:
256,192,318928,1,8,0:0:0:0:
256,192,319003,1,0,0:0:0:0:
256,192,319078,1,0,0:0:0:0:
256,192,319228,1,12,0:0:0:0:
256,192,319378,1,0,0:0:0:0:
256,192,319453,1,0,0:0:0:0:
256,192,319528,1,8,0:0:0:0:
256,192,319678,1,4,0:0:0:0:
256,192,319828,1,8,0:0:0:0:
256,192,319903,1,0,0:0:0:0:
256,192,319978,1,8,0:0:0:0:
256,192,320053,1,8,0:0:0:0:
256,192,320128,1,0,0:0:0:0:
256,192,320203,1,8,0:0:0:0:
256,192,320278,1,0,0:0:0:0:
256,192,320353,1,0,0:0:0:0:
256,192,320428,1,8,0:0:0:0:
256,192,320578,1,0,0:0:0:0:
256,192,320878,1,0,0:0:0:0:
256,192,321178,1,0,0:0:0:0:
256,192,321478,1,0,0:0:0:0:
256,192,321553,1,0,0:0:0:0:
256,192,321628,1,8,0:0:0:0:
256,192,321928,2,0,P|128:192|160:64,1,280
256,192,322828,1,8,0:0:0:0:
256,192,322903,1,8,0:0:0:0:
256,192,322978,1,0,0:0:0:0:
256,192,323053,1,8,0:0:0:0:
256,192,323128,1,0,0:0:0:0:
256,192,323203,1,0,0:0:0:0:
256,192,323278,1,8,0:0:0:0:
256,192,323353,1,0,0:0:0:0:
256,192,323428,1,8,0:0:0:0:
256,192,323503,1,8,0:0:0:0:
256,192,323578,1,0,0:0:0:0:
256,192,323653,1,0,0:0:0:0:
256,192,323728,1,8,0:0:0:0:
256,192,323803,1,8,0:0:0:0:
256,192,323878,1,0,0:0:0:0:
256,192,323953,1,0,0:0:0:0:
256,192,324028,1,8,0:0:0:0:
256,192,324103,1,0,0:0:0:0:
