osu file format v14

[General]
AudioFilename: audio.ogg
AudioLeadIn: 0
PreviewTime: 105287
Countdown: 0
SampleSet: Normal
StackLeniency: 0.7
Mode: 1
LetterboxInBreaks: 0
WidescreenStoryboard: 0

[Editor]
Bookmarks: 10200,19800,29400,34200,43800,85950,95550,139500,144300,149100
DistanceSpacing: 0.3
BeatDivisor: 4
GridSize: 32
TimelineZoom: 2.9

[Metadata]
Title:Furuki Yuanxian ~ Death Echo
TitleUnicode:古きユアンシェン ~ Death Echo
Artist:Demetori
ArtistUnicode:Demetori
Creator:uranosu1030
Version:Unethical
Source:東方神霊廟 ~ Ten Desires.
Tags:yassu- Nokduro Touhou project 東方project shinreibyou th13 Old Yuanshen Distant Hermit Tendre est la Mort Tender is Death le Grimoire De reve The Grimoire of Dream Desires Metal arrangement 九宝時 Kyuuhouji 徳南 Tokunan 霍青娥 Kaku Seiga ZUN 上海アリス幻樂団 Team Shanghai Alice comiket 83 85 c83 c85 instrumental video game
BeatmapID:3799711
BeatmapSetID:1849728

[Difficulty]
HPDrainRate:6
CircleSize:5
OverallDifficulty:6.6
ApproachRate:5
SliderMultiplier:1.4
SliderTickRate:1

[Events]
//Background and Video events
0,0,"Seiga^-^.jpg",0,80
//Break Periods
//Storyboard Layer 0 (Background)
//Storyboard Layer 1 (Fail)
//Storyboard Layer 2 (Pass)
//Storyboard Layer 3 (Foreground)
//Storyboard Layer 4 (Overlay)
//Storyboard Sound Samples

[TimingPoints]
479,300,4,1,0,75,1,0
479,-111.111111111111,4,1,0,75,0,0
10079,-100,4,1,0,75,0,0
52979,300,4,1,0,75,1,0
62429,-105.263157894737,4,1,0,75,0,0
62579,300,3,1,0,75,1,0
62579,-111.111111111111,4,1,0,50,0,0
69779,-100,4,1,0,75,0,0
85829,-100,4,1,0,85,0,1
85979,300,4,1,0,85,1,1
105179,-100,4,1,0,75,0,0
109979,-100,4,1,0,85,0,1
129179,-100,4,1,0,75,0,0
137579,300,3,1,0,75,1,0
139379,300,4,1,0,75,1,0
192179,-100,4,1,0,85,0,1
210179,-100,4,1,0,75,0,0
211379,-100,4,1,0,90,0,1
230579,-100,4,1,0,75,0,0

[HitObjects]
219,241,479,5,4,0:0:0:0:
213,234,779,1,0,0:0:0:0:
213,234,1079,1,0,0:0:0:0:
213,234,1379,1,0,0:0:0:0:
86,207,1529,1,2,0:0:0:0:
213,234,1679,1,0,0:0:0:0:
127,171,1979,1,0,0:0:0:0:
127,171,2279,1,0,0:0:0:0:
127,171,2579,1,0,0:0:0:0:
127,171,2879,1,4,0:0:0:0:
151,167,3179,1,0,0:0:0:0:
151,167,3479,1,0,0:0:0:0:
151,167,3779,1,0,0:0:0:0:
151,167,3929,1,2,0:0:0:0:
151,167,4079,1,0,0:0:0:0:
226,114,4229,1,2,0:0:0:0:
281,59,4266,1,2,0:0:0:0:
270,219,4379,1,0,0:0:0:0:
226,114,4529,1,0,0:0:0:0:
226,114,4679,1,2,0:0:0:0:
165,55,4716,1,2,0:0:0:0:
226,114,4829,1,2,0:0:0:0:
226,114,4979,1,0,0:0:0:0:
285,252,5129,1,0,0:0:0:0:
285,252,5279,1,6,0:0:0:0:
206,217,5579,1,0,0:0:0:0:
206,217,5879,1,0,0:0:0:0:
206,217,6179,1,0,0:0:0:0:
201,157,6329,1,2,0:0:0:0:
206,217,6479,1,0,0:0:0:0:
206,217,6779,1,0,0:0:0:0:
206,217,7079,1,0,0:0:0:0:
206,217,7379,1,0,0:0:0:0:
238,189,7529,1,0,0:0:0:0:
238,189,7579,1,0,0:0:0:0:
236,183,7629,1,0,0:0:0:0:
233,177,7679,1,8,0:0:0:0:
31,174,7979,1,0,0:0:0:0:
197,251,8129,1,2,0:0:0:0:
31,174,8279,1,0,0:0:0:0:
197,251,8429,1,2,0:0:0:0:
31,174,8579,1,0,0:0:0:0:
219,249,8729,1,0,0:0:0:0:
241,155,8879,1,2,0:0:0:0:
182,114,8954,1,2,0:0:0:0:
182,114,9029,1,2,0:0:0:0:
182,114,9104,1,2,0:0:0:0:
31,174,9179,1,0,0:0:0:0:
182,114,9254,1,0,0:0:0:0:
182,114,9329,1,0,0:0:0:0:
182,114,9404,1,0,0:0:0:0:
182,114,9479,1,2,0:0:0:0:
236,183,10079,1,4,0:0:0:0:
189,122,10229,1,2,0:0:0:0:
151,133,10304,1,2,0:0:0:0:
151,133,10379,1,0,0:0:0:0:
151,133,10529,1,2,0:0:0:0:
169,93,10679,1,0,0:0:0:0:
169,93,10829,1,2,0:0:0:0:
234,153,10979,1,0,0:0:0:0:
169,93,11054,1,0,0:0:0:0:
169,93,11129,1,2,0:0:0:0:
149,150,11279,1,0,0:0:0:0:
156,186,11429,1,2,0:0:0:0:
192,119,11504,1,2,0:0:0:0:
192,119,11579,1,0,0:0:0:0:
182,133,11729,1,2,0:0:0:0:
151,128,11879,1,0,0:0:0:0:
151,128,11954,1,0,0:0:0:0:
151,128,12029,1,2,0:0:0:0:
151,128,12104,1,0,0:0:0:0:
151,128,12179,1,2,0:0:0:0:
95,92,12329,1,2,0:0:0:0:
209,205,12479,1,0,0:0:0:0:
209,205,12629,1,2,0:0:0:0:
209,205,12704,1,2,0:0:0:0:
209,205,12779,1,0,0:0:0:0:
254,136,12929,1,2,0:0:0:0:
209,205,13079,1,0,0:0:0:0:
77,77,13229,1,2,0:0:0:0:
155,141,13304,1,2,0:0:0:0:
127,219,13379,1,0,0:0:0:0:
143,91,13454,1,0,0:0:0:0:
137,217,13529,1,2,0:0:0:0:
137,217,13679,1,0,0:0:0:0:
137,217,13829,1,2,0:0:0:0:
190,65,13904,1,2,0:0:0:0:
190,65,13979,1,0,0:0:0:0:
209,205,14129,1,2,0:0:0:0:
209,205,14279,1,0,0:0:0:0:
121,72,14354,1,0,0:0:0:0:
209,205,14429,1,2,0:0:0:0:
171,124,14504,1,2,0:0:0:0:
209,205,14579,1,0,0:0:0:0:
264,78,14729,1,2,0:0:0:0:
236,183,14879,1,4,0:0:0:0:
189,122,15029,1,2,0:0:0:0:
151,133,15104,1,2,0:0:0:0:
151,133,15179,1,0,0:0:0:0:
151,133,15329,1,2,0:0:0:0:
169,93,15479,1,0,0:0:0:0:
169,93,15629,1,2,0:0:0:0:
169,93,15704,1,0,0:0:0:0:
234,153,15779,1,0,0:0:0:0:
169,93,15854,1,0,0:0:0:0:
169,93,15929,1,2,0:0:0:0:
149,150,16079,1,0,0:0:0:0:
156,186,16229,1,2,0:0:0:0:
192,119,16304,1,2,0:0:0:0:
192,119,16379,1,0,0:0:0:0:
182,133,16529,1,2,0:0:0:0:
151,128,16679,1,0,0:0:0:0:
151,128,16754,1,2,0:0:0:0:
151,128,16829,1,0,0:0:0:0:
151,128,16904,1,0,0:0:0:0:
151,128,16979,1,2,0:0:0:0:
95,92,17129,1,2,0:0:0:0:
209,205,17279,1,0,0:0:0:0:
209,205,17429,1,2,0:0:0:0:
209,205,17504,1,2,0:0:0:0:
209,205,17579,1,0,0:0:0:0:
254,136,17729,1,2,0:0:0:0:
209,205,17879,1,0,0:0:0:0:
77,77,18029,1,0,0:0:0:0:
155,141,18104,1,0,0:0:0:0:
127,219,18179,1,2,0:0:0:0:
143,91,18254,1,0,0:0:0:0:
137,217,18329,1,2,0:0:0:0:
137,217,18479,1,0,0:0:0:0:
196,112,18554,1,0,0:0:0:0:
137,217,18629,1,2,0:0:0:0:
190,65,18704,1,2,0:0:0:0:
190,65,18779,1,2,0:0:0:0:
341,183,18854,1,2,0:0:0:0:
209,205,18929,1,0,0:0:0:0:
81,110,19004,1,2,0:0:0:0:
209,205,19079,1,0,0:0:0:0:
121,72,19154,1,0,0:0:0:0:
209,205,19229,1,2,0:0:0:0:
171,124,19304,1,2,0:0:0:0:
209,205,19379,1,0,0:0:0:0:
151,160,19454,1,0,0:0:0:0:
264,78,19529,1,2,0:0:0:0:
236,183,19679,1,4,0:0:0:0:
189,122,19829,1,2,0:0:0:0:
151,133,19904,1,2,0:0:0:0:
151,133,19979,1,0,0:0:0:0:
151,133,20129,1,2,0:0:0:0:
169,93,20279,1,0,0:0:0:0:
169,93,20429,1,2,0:0:0:0:
169,93,20504,1,0,0:0:0:0:
234,153,20579,1,0,0:0:0:0:
169,93,20654,1,0,0:0:0:0:
169,93,20729,1,2,0:0:0:0:
149,150,20879,1,0,0:0:0:0:
156,186,21029,1,2,0:0:0:0:
192,119,21104,1,2,0:0:0:0:
192,119,21179,1,0,0:0:0:0:
182,133,21329,1,2,0:0:0:0:
92,152,21404,1,2,0:0:0:0:
151,128,21479,1,0,0:0:0:0:
151,128,21554,1,0,0:0:0:0:
151,128,21629,1,2,0:0:0:0:
151,128,21704,1,0,0:0:0:0:
151,128,21779,1,0,0:0:0:0:
95,92,21929,1,2,0:0:0:0:
209,205,22079,1,0,0:0:0:0:
209,205,22229,1,2,0:0:0:0:
209,205,22304,1,2,0:0:0:0:
209,205,22379,1,0,0:0:0:0:
254,136,22529,1,2,0:0:0:0:
209,205,22679,1,0,0:0:0:0:
77,77,22829,1,2,0:0:0:0:
155,141,22904,1,2,0:0:0:0:
127,219,22979,1,0,0:0:0:0:
143,91,23054,1,0,0:0:0:0:
137,217,23129,1,2,0:0:0:0:
137,217,23279,1,0,0:0:0:0:
137,217,23429,1,2,0:0:0:0:
190,65,23504,1,2,0:0:0:0:
190,65,23579,1,0,0:0:0:0:
144,22,23654,1,0,0:0:0:0:
209,205,23729,1,2,0:0:0:0:
22,77,23804,1,0,0:0:0:0:
209,205,23879,1,0,0:0:0:0:
121,72,23954,1,0,0:0:0:0:
209,205,24029,1,2,0:0:0:0:
171,124,24104,1,2,0:0:0:0:
209,205,24179,1,0,0:0:0:0:
264,78,24329,1,2,0:0:0:0:
236,183,24479,1,4,0:0:0:0:
189,122,24629,1,2,0:0:0:0:
151,133,24704,1,2,0:0:0:0:
151,133,24779,1,0,0:0:0:0:
151,133,24929,1,2,0:0:0:0:
169,93,25079,1,0,0:0:0:0:
169,93,25229,1,2,0:0:0:0:
169,93,25304,1,0,0:0:0:0:
234,153,25379,1,0,0:0:0:0:
169,93,25454,1,0,0:0:0:0:
169,93,25529,1,2,0:0:0:0:
149,150,25679,1,0,0:0:0:0:
156,186,25829,1,2,0:0:0:0:
192,119,25904,1,2,0:0:0:0:
192,119,25979,1,0,0:0:0:0:
182,133,26129,1,2,0:0:0:0:
20,139,26204,1,2,0:0:0:0:
151,128,26279,1,0,0:0:0:0:
151,128,26354,1,0,0:0:0:0:
151,128,26429,1,2,0:0:0:0:
151,128,26579,1,0,0:0:0:0:
95,92,26729,1,2,0:0:0:0:
209,205,26879,1,0,0:0:0:0:
209,205,27029,1,2,0:0:0:0:
209,205,27104,1,2,0:0:0:0:
197,78,27179,1,0,0:0:0:0:
209,205,27329,1,2,0:0:0:0:
254,136,27404,1,0,0:0:0:0:
209,205,27479,1,0,0:0:0:0:
77,77,27629,1,2,0:0:0:0:
155,141,27704,1,2,0:0:0:0:
127,219,27779,1,0,0:0:0:0:
143,91,27854,1,0,0:0:0:0:
137,217,27929,1,2,0:0:0:0:
137,217,28079,1,0,0:0:0:0:
196,112,28154,1,0,0:0:0:0:
137,217,28229,1,2,0:0:0:0:
190,65,28304,1,2,0:0:0:0:
190,65,28379,1,2,0:0:0:0:
341,183,28454,1,2,0:0:0:0:
209,205,28529,1,0,0:0:0:0:
81,110,28604,1,2,0:0:0:0:
209,205,28679,1,0,0:0:0:0:
121,72,28754,1,0,0:0:0:0:
209,205,28829,1,2,0:0:0:0:
171,124,28904,1,2,0:0:0:0:
209,205,28979,1,0,0:0:0:0:
151,160,29054,1,0,0:0:0:0:
264,78,29129,1,2,0:0:0:0:
201,181,29279,1,4,0:0:0:0:
201,181,29579,1,4,0:0:0:0:
201,181,29879,1,4,0:0:0:0:
201,181,30179,1,4,0:0:0:0:
201,181,30479,1,4,0:0:0:0:
201,181,30779,1,4,0:0:0:0:
201,181,31079,1,4,0:0:0:0:
201,181,31379,1,4,0:0:0:0:
237,53,31529,1,0,0:0:0:0:
251,50,31604,1,0,0:0:0:0:
168,209,31679,1,2,0:0:0:0:
64,163,31904,1,0,0:0:0:0:
64,163,31979,1,0,0:0:0:0:
160,148,32129,1,2,0:0:0:0:
145,155,32279,1,0,0:0:0:0:
145,155,32429,1,0,0:0:0:0:
145,155,32579,1,2,0:0:0:0:
222,104,32654,1,2,0:0:0:0:
222,104,32729,1,0,0:0:0:0:
226,187,32879,1,0,0:0:0:0:
226,187,32979,1,2,0:0:0:0:
226,187,33079,1,2,0:0:0:0:
165,127,33179,1,0,0:0:0:0:
129,151,33279,1,0,0:0:0:0:
129,151,33379,1,0,0:0:0:0:
124,150,33479,1,2,0:0:0:0:
123,151,33579,1,0,0:0:0:0:
123,151,33679,1,0,0:0:0:0:
123,151,33779,1,2,0:0:0:0:
123,151,33879,1,0,0:0:0:0:
123,151,33979,1,0,0:0:0:0:
191,134,34079,1,6,0:0:0:0:
221,270,34379,1,0,0:0:0:0:
221,270,34529,1,0,0:0:0:0:
221,270,34679,1,2,0:0:0:0:
179,206,34979,1,0,0:0:0:0:
179,206,35129,1,0,0:0:0:0:
268,203,35279,1,0,0:0:0:0:
115,215,35579,1,0,0:0:0:0:
115,215,35729,1,0,0:0:0:0:
115,215,35879,1,2,0:0:0:0:
178,97,36029,1,0,0:0:0:0:
179,206,36179,1,2,0:0:0:0:
179,206,36329,1,2,0:0:0:0:
197,122,36479,1,0,0:0:0:0:
115,215,36779,1,0,0:0:0:0:
115,215,36929,1,0,0:0:0:0:
115,215,37079,1,2,0:0:0:0:
179,206,37379,1,0,0:0:0:0:
179,206,37529,1,0,0:0:0:0:
182,153,37679,1,0,0:0:0:0:
115,215,37979,1,0,0:0:0:0:
115,215,38129,1,0,0:0:0:0:
115,215,38279,1,2,0:0:0:0:
186,96,38429,1,2,0:0:0:0:
253,225,38504,1,2,0:0:0:0:
212,168,38579,1,0,0:0:0:0:
212,168,38729,1,0,0:0:0:0:
212,168,38879,1,4,0:0:0:0:
190,184,39179,1,0,0:0:0:0:
190,184,39329,1,0,0:0:0:0:
205,163,39479,1,2,0:0:0:0:
179,206,39779,1,0,0:0:0:0:
179,206,39929,1,0,0:0:0:0:
172,103,40079,1,2,0:0:0:0:
129,92,40229,1,2,0:0:0:0:
115,215,40379,1,0,0:0:0:0:
115,215,40529,1,0,0:0:0:0:
115,215,40679,1,2,0:0:0:0:
179,206,40979,1,0,0:0:0:0:
179,206,41129,1,2,0:0:0:0:
182,153,41279,1,0,0:0:0:0:
115,215,41579,1,0,0:0:0:0:
115,215,41729,1,0,0:0:0:0:
115,215,41879,1,2,0:0:0:0:
164,204,42179,1,0,0:0:0:0:
164,204,42329,1,0,0:0:0:0:
139,170,42479,1,0,0:0:0:0:
149,172,42629,1,2,0:0:0:0:
216,201,42704,1,2,0:0:0:0:
151,171,42779,1,0,0:0:0:0:
151,170,42929,1,2,0:0:0:0:
151,170,43079,1,0,0:0:0:0:
151,170,43154,1,2,0:0:0:0:
151,170,43229,1,2,0:0:0:0:
123,46,43304,1,2,0:0:0:0:
151,170,43379,1,0,0:0:0:0:
252,193,43529,1,0,0:0:0:0:
191,134,43679,1,6,0:0:0:0:
221,270,43979,1,0,0:0:0:0:
221,270,44129,1,0,0:0:0:0:
221,270,44279,1,2,0:0:0:0:
179,206,44579,1,0,0:0:0:0:
179,206,44729,1,0,0:0:0:0:
182,153,44879,1,0,0:0:0:0:
115,215,45179,1,0,0:0:0:0:
115,215,45329,1,0,0:0:0:0:
115,215,45479,1,2,0:0:0:0:
178,97,45629,1,0,0:0:0:0:
179,206,45779,1,2,0:0:0:0:
179,206,45929,1,2,0:0:0:0:
197,122,46079,1,0,0:0:0:0:
115,215,46379,1,0,0:0:0:0:
115,215,46529,1,0,0:0:0:0:
115,215,46679,1,2,0:0:0:0:
179,206,46979,1,0,0:0:0:0:
179,206,47129,1,0,0:0:0:0:
225,214,47279,1,0,0:0:0:0:
115,215,47579,1,0,0:0:0:0:
115,215,47729,1,0,0:0:0:0:
236,298,47804,1,0,0:0:0:0:
115,215,47879,1,2,0:0:0:0:
186,96,48029,1,2,0:0:0:0:
212,168,48179,1,0,0:0:0:0:
77,112,48254,1,0,0:0:0:0:
212,168,48329,1,0,0:0:0:0:
77,112,48404,1,0,0:0:0:0:
77,112,48479,1,2,0:0:0:0:
190,184,48779,1,0,0:0:0:0:
190,184,48929,1,0,0:0:0:0:
205,163,49079,1,2,0:0:0:0:
179,206,49379,1,0,0:0:0:0:
179,206,49529,1,0,0:0:0:0:
172,103,49679,1,2,0:0:0:0:
129,92,49829,1,2,0:0:0:0:
115,215,49979,1,0,0:0:0:0:
115,215,50129,1,0,0:0:0:0:
115,215,50279,1,2,0:0:0:0:
179,206,50579,1,0,0:0:0:0:
179,206,50729,1,2,0:0:0:0:
170,60,50879,1,6,0:0:0:0:
186,207,51079,1,2,0:0:0:0:
186,207,51279,1,0,0:0:0:0:
95,140,51479,1,6,0:0:0:0:
155,147,51679,1,0,0:0:0:0:
155,147,51879,1,0,0:0:0:0:
226,113,52079,1,2,0:0:0:0:
226,113,52154,1,2,0:0:0:0:
226,113,52229,1,0,0:0:0:0:
36,185,52304,1,0,0:0:0:0:
226,113,52379,1,2,0:0:0:0:
226,113,52454,1,2,0:0:0:0:
226,113,52529,1,0,0:0:0:0:
226,113,52604,1,2,0:0:0:0:
190,151,52679,1,0,0:0:0:0:
236,183,52979,1,4,0:0:0:0:
189,122,53129,1,2,0:0:0:0:
151,133,53279,1,0,0:0:0:0:
151,133,53354,1,0,0:0:0:0:
151,133,53429,1,2,0:0:0:0:
169,93,53579,1,0,0:0:0:0:
169,93,53729,1,2,0:0:0:0:
169,93,53804,1,0,0:0:0:0:
234,153,53879,1,0,0:0:0:0:
169,93,54029,1,2,0:0:0:0:
149,150,54179,1,0,0:0:0:0:
156,186,54329,1,2,0:0:0:0:
192,119,54404,1,2,0:0:0:0:
192,119,54479,1,0,0:0:0:0:
182,133,54629,1,2,0:0:0:0:
151,128,54779,1,0,0:0:0:0:
151,128,54854,1,0,0:0:0:0:
151,128,54929,1,2,0:0:0:0:
151,128,55004,1,0,0:0:0:0:
151,128,55079,1,2,0:0:0:0:
95,92,55229,1,2,0:0:0:0:
209,205,55379,1,0,0:0:0:0:
209,205,55529,1,2,0:0:0:0:
209,205,55679,1,0,0:0:0:0:
254,136,55754,1,0,0:0:0:0:
209,205,55829,1,2,0:0:0:0:
209,205,55979,1,0,0:0:0:0:
77,77,56129,1,2,0:0:0:0:
155,141,56204,1,2,0:0:0:0:
127,219,56279,1,0,0:0:0:0:
143,91,56354,1,0,0:0:0:0:
137,217,56429,1,2,0:0:0:0:
137,217,56579,1,0,0:0:0:0:
137,217,56729,1,2,0:0:0:0:
190,65,56804,1,2,0:0:0:0:
190,65,56879,1,0,0:0:0:0:
209,205,57029,1,0,0:0:0:0:
81,110,57104,1,2,0:0:0:0:
209,205,57179,1,0,0:0:0:0:
121,72,57254,1,0,0:0:0:0:
209,205,57329,1,2,0:0:0:0:
171,124,57404,1,2,0:0:0:0:
209,205,57479,1,0,0:0:0:0:
264,78,57629,1,2,0:0:0:0:
236,183,57779,1,4,0:0:0:0:
189,122,57929,1,2,0:0:0:0:
151,133,58079,1,0,0:0:0:0:
151,133,58154,1,0,0:0:0:0:
151,133,58229,1,2,0:0:0:0:
169,93,58379,1,0,0:0:0:0:
169,93,58529,1,2,0:0:0:0:
169,93,58604,1,0,0:0:0:0:
234,153,58679,1,0,0:0:0:0:
169,93,58754,1,0,0:0:0:0:
169,93,58829,1,2,0:0:0:0:
149,150,58979,1,0,0:0:0:0:
156,186,59129,1,2,0:0:0:0:
192,119,59204,1,2,0:0:0:0:
192,119,59279,1,0,0:0:0:0:
182,133,59429,1,2,0:0:0:0:
151,128,59579,1,0,0:0:0:0:
151,128,59654,1,2,0:0:0:0:
151,128,59729,1,0,0:0:0:0:
151,128,59804,1,0,0:0:0:0:
151,128,59879,1,2,0:0:0:0:
95,92,60029,1,2,0:0:0:0:
209,205,60179,1,0,0:0:0:0:
209,205,60329,1,2,0:0:0:0:
209,205,60479,1,0,0:0:0:0:
254,136,60554,1,0,0:0:0:0:
209,205,60629,1,2,0:0:0:0:
209,205,60779,1,0,0:0:0:0:
77,77,60929,1,2,0:0:0:0:
155,141,61004,1,2,0:0:0:0:
127,219,61079,1,0,0:0:0:0:
143,91,61154,1,0,0:0:0:0:
137,217,61229,1,2,0:0:0:0:
137,217,61379,1,0,0:0:0:0:
196,112,61454,1,0,0:0:0:0:
137,217,61529,1,2,0:0:0:0:
190,65,61604,1,2,0:0:0:0:
190,65,61679,1,0,0:0:0:0:
209,205,61829,1,0,0:0:0:0:
209,205,61979,1,2,0:0:0:0:
121,72,62054,1,0,0:0:0:0:
209,205,62129,1,2,0:0:0:0:
171,124,62204,1,2,0:0:0:0:
209,205,62279,1,0,0:0:0:0:
60,148,62429,1,0,0:0:0:0:
203,244,62579,1,0,0:0:0:0:
193,157,62879,1,2,0:0:0:0:
191,76,63029,1,2,0:0:0:0:
180,148,63179,1,2,0:0:0:0:
203,244,63479,1,0,0:0:0:0:
193,157,63779,1,2,0:0:0:0:
180,148,64079,1,2,0:0:0:0:
273,119,64179,1,2,0:0:0:0:
273,119,64279,1,2,0:0:0:0:
203,244,64379,1,0,0:0:0:0:
193,157,64679,1,2,0:0:0:0:
141,59,64829,1,0,0:0:0:0:
180,148,64979,1,2,0:0:0:0:
203,244,65279,1,0,0:0:0:0:
193,157,65579,1,2,0:0:0:0:
180,148,65879,1,2,0:0:0:0:
236,97,65979,1,2,0:0:0:0:
236,97,66079,1,0,0:0:0:0:
203,244,66179,1,0,0:0:0:0:
193,157,66479,1,2,0:0:0:0:
109,87,66629,1,2,0:0:0:0:
180,148,66779,1,2,0:0:0:0:
203,244,67079,1,0,0:0:0:0:
193,157,67379,1,2,0:0:0:0:
180,148,67679,1,2,0:0:0:0:
189,110,67779,1,2,0:0:0:0:
189,110,67879,1,2,0:0:0:0:
203,244,67979,1,0,0:0:0:0:
193,157,68279,1,2,0:0:0:0:
267,101,68379,1,2,0:0:0:0:
267,101,68479,1,2,0:0:0:0:
251,111,68579,1,0,0:0:0:0:
251,111,68679,1,0,0:0:0:0:
251,111,68779,1,0,0:0:0:0:
203,244,68879,1,2,0:0:0:0:
193,157,69179,1,2,0:0:0:0:
137,144,69279,1,0,0:0:0:0:
137,144,69379,1,0,0:0:0:0:
173,89,69479,1,0,0:0:0:0:
257,204,69779,1,4,0:0:0:0:
257,204,69929,1,0,0:0:0:0:
257,204,70079,1,2,0:0:0:0:
226,194,70379,1,2,0:0:0:0:
227,134,70679,1,0,0:0:0:0:
207,173,70829,1,0,0:0:0:0:
207,173,70979,1,2,0:0:0:0:
311,213,71279,1,2,0:0:0:0:
274,225,71429,1,2,0:0:0:0:
274,225,71579,1,0,0:0:0:0:
193,156,71729,1,0,0:0:0:0:
193,156,71879,1,2,0:0:0:0:
169,159,72179,1,2,0:0:0:0:
217,181,72479,1,0,0:0:0:0:
217,181,72629,1,0,0:0:0:0:
217,181,72779,1,2,0:0:0:0:
217,181,72929,1,0,0:0:0:0:
201,125,73004,1,0,0:0:0:0:
217,181,73079,1,2,0:0:0:0:
257,204,73379,1,4,0:0:0:0:
257,204,73529,1,0,0:0:0:0:
257,204,73679,1,2,0:0:0:0:
226,194,73979,1,2,0:0:0:0:
227,134,74279,1,0,0:0:0:0:
207,173,74429,1,0,0:0:0:0:
207,173,74579,1,2,0:0:0:0:
311,213,74879,1,2,0:0:0:0:
274,225,75029,1,2,0:0:0:0:
274,225,75179,1,0,0:0:0:0:
193,156,75329,1,0,0:0:0:0:
193,156,75479,1,2,0:0:0:0:
148,221,75629,1,0,0:0:0:0:
169,159,75779,1,2,0:0:0:0:
107,198,75929,1,0,0:0:0:0:
107,198,76004,1,0,0:0:0:0:
217,181,76079,1,2,0:0:0:0:
137,190,76304,1,0,0:0:0:0:
137,190,76379,1,0,0:0:0:0:
102,180,76529,1,2,0:0:0:0:
135,152,76679,1,0,0:0:0:0:
206,92,76754,1,2,0:0:0:0:
135,152,76829,1,2,0:0:0:0:
135,152,76979,1,4,0:0:0:0:
135,152,77129,1,0,0:0:0:0:
135,152,77279,1,2,0:0:0:0:
135,152,77429,1,0,0:0:0:0:
231,144,77579,1,2,0:0:0:0:
231,144,77654,1,2,0:0:0:0:
231,144,77729,1,0,0:0:0:0:
206,133,77879,1,2,0:0:0:0:
245,134,78029,1,0,0:0:0:0:
233,127,78179,1,2,0:0:0:0:
233,127,78254,1,2,0:0:0:0:
191,168,78329,1,0,0:0:0:0:
191,168,78479,1,2,0:0:0:0:
191,168,78629,1,2,0:0:0:0:
256,225,78779,1,0,0:0:0:0:
221,222,78854,1,0,0:0:0:0:
221,222,78929,1,0,0:0:0:0:
221,222,79004,1,0,0:0:0:0:
221,222,79079,1,2,0:0:0:0:
174,160,79229,1,0,0:0:0:0:
174,160,79379,1,2,0:0:0:0:
171,150,79454,1,2,0:0:0:0:
171,150,79529,1,2,0:0:0:0:
170,129,79679,1,2,0:0:0:0:
170,129,79829,1,0,0:0:0:0:
289,177,79979,1,2,0:0:0:0:
289,177,80054,1,2,0:0:0:0:
195,187,80129,1,0,0:0:0:0:
195,187,80279,1,2,0:0:0:0:
143,176,80579,1,4,0:0:0:0:
192,153,80729,1,0,0:0:0:0:
192,153,80879,1,2,0:0:0:0:
218,127,81029,1,0,0:0:0:0:
218,127,81179,1,2,0:0:0:0:
218,127,81254,1,2,0:0:0:0:
218,127,81329,1,0,0:0:0:0:
218,127,81404,1,0,0:0:0:0:
218,127,81479,1,2,0:0:0:0:
174,105,81704,1,0,0:0:0:0:
174,105,81779,1,0,0:0:0:0:
152,106,81929,1,2,0:0:0:0:
152,106,82079,1,0,0:0:0:0:
152,106,82229,1,0,0:0:0:0:
152,106,82379,1,6,0:0:0:0:
241,162,83129,1,0,0:0:0:0:
246,148,83179,1,0,0:0:0:0:
246,148,83229,1,0,0:0:0:0:
246,148,83279,1,2,0:0:0:0:
187,183,84029,1,0,0:0:0:0:
187,183,84104,1,0,0:0:0:0:
187,183,84179,1,2,0:0:0:0:
116,224,84254,1,0,0:0:0:0:
116,224,84329,1,0,0:0:0:0:
116,224,84404,1,0,0:0:0:0:
212,226,84479,1,2,0:0:0:0:
212,226,84554,1,0,0:0:0:0:
212,226,84629,1,2,0:0:0:0:
212,226,84704,1,0,0:0:0:0:
212,226,84779,1,0,0:0:0:0:
175,98,84854,1,0,0:0:0:0:
175,98,84929,1,2,0:0:0:0:
175,98,85004,1,0,0:0:0:0:
175,98,85079,1,2,0:0:0:0:
175,98,85154,1,0,0:0:0:0:
175,98,85229,1,0,0:0:0:0:
175,98,85304,1,0,0:0:0:0:
275,103,85379,1,2,0:0:0:0:
275,103,85454,1,2,0:0:0:0:
275,103,85529,1,0,0:0:0:0:
275,103,85604,1,2,0:0:0:0:
275,103,85679,1,2,0:0:0:0:
253,195,85829,1,4,0:0:0:0:
189,209,86129,1,0,0:0:0:0:
155,268,86279,1,2,0:0:0:0:
155,268,86429,1,2,0:0:0:0:
155,268,86579,1,0,0:0:0:0:
141,136,86654,1,0,0:0:0:0:
198,139,86729,1,2,0:0:0:0:
25,146,86804,1,2,0:0:0:0:
138,198,86879,1,0,0:0:0:0:
145,194,87029,1,2,0:0:0:0:
141,117,87104,1,2,0:0:0:0:
145,194,87179,1,0,0:0:0:0:
141,117,87254,1,2,0:0:0:0:
251,142,87329,1,0,0:0:0:0:
90,122,87404,1,0,0:0:0:0:
251,142,87479,1,2,0:0:0:0:
177,87,87629,1,2,0:0:0:0:
148,126,87779,1,0,0:0:0:0:
148,126,87854,1,2,0:0:0:0:
177,87,87929,1,0,0:0:0:0:
177,87,88079,1,2,0:0:0:0:
165,102,88229,1,0,0:0:0:0:
211,193,88304,1,0,0:0:0:0:
211,193,88379,1,0,0:0:0:0:
165,102,88529,1,0,0:0:0:0:
165,102,88679,1,2,0:0:0:0:
214,139,88829,1,0,0:0:0:0:
218,141,88979,1,2,0:0:0:0:
172,65,89054,1,2,0:0:0:0:
218,141,89129,1,0,0:0:0:0:
218,141,89279,1,2,0:0:0:0:
218,141,89429,1,0,0:0:0:0:
124,91,89504,1,2,0:0:0:0:
124,91,89579,1,0,0:0:0:0:
168,200,89729,1,2,0:0:0:0:
168,200,89879,1,0,0:0:0:0:
168,200,90029,1,2,0:0:0:0:
222,87,90104,1,2,0:0:0:0:
168,200,90179,1,0,0:0:0:0:
222,87,90254,1,0,0:0:0:0:
168,200,90329,1,2,0:0:0:0:
168,200,90479,1,2,0:0:0:0:
253,195,90629,1,4,0:0:0:0:
189,209,90929,1,0,0:0:0:0:
155,268,91079,1,2,0:0:0:0:
155,268,91229,1,2,0:0:0:0:
155,268,91379,1,0,0:0:0:0:
141,136,91454,1,0,0:0:0:0:
198,139,91529,1,2,0:0:0:0:
25,146,91604,1,2,0:0:0:0:
138,198,91679,1,0,0:0:0:0:
145,194,91829,1,2,0:0:0:0:
141,117,91904,1,2,0:0:0:0:
145,194,91979,1,0,0:0:0:0:
141,117,92054,1,2,0:0:0:0:
251,142,92129,1,0,0:0:0:0:
90,122,92204,1,0,0:0:0:0:
251,142,92279,1,2,0:0:0:0:
177,87,92429,1,2,0:0:0:0:
148,126,92579,1,0,0:0:0:0:
148,126,92654,1,2,0:0:0:0:
177,87,92729,1,0,0:0:0:0:
177,87,92879,1,2,0:0:0:0:
165,102,93029,1,0,0:0:0:0:
211,193,93104,1,0,0:0:0:0:
211,193,93179,1,0,0:0:0:0:
165,102,93329,1,0,0:0:0:0:
165,102,93479,1,2,0:0:0:0:
214,139,93629,1,0,0:0:0:0:
218,141,93779,1,2,0:0:0:0:
172,65,93854,1,2,0:0:0:0:
218,141,93929,1,0,0:0:0:0:
218,141,94079,1,2,0:0:0:0:
218,141,94229,1,0,0:0:0:0:
124,91,94304,1,2,0:0:0:0:
124,91,94379,1,2,0:0:0:0:
168,200,94529,1,0,0:0:0:0:
168,200,94679,1,2,0:0:0:0:
117,127,94754,1,2,0:0:0:0:
168,200,94829,1,0,0:0:0:0:
222,87,94904,1,2,0:0:0:0:
168,200,94979,1,0,0:0:0:0:
222,87,95054,1,2,0:0:0:0:
168,200,95129,1,0,0:0:0:0:
108,51,95204,1,0,0:0:0:0:
168,200,95279,1,2,0:0:0:0:
253,195,95429,1,4,0:0:0:0:
189,209,95729,1,0,0:0:0:0:
155,268,95879,1,2,0:0:0:0:
155,268,96029,1,2,0:0:0:0:
155,268,96179,1,0,0:0:0:0:
141,136,96254,1,0,0:0:0:0:
198,139,96329,1,2,0:0:0:0:
25,146,96404,1,2,0:0:0:0:
138,198,96479,1,0,0:0:0:0:
145,194,96629,1,2,0:0:0:0:
141,117,96704,1,2,0:0:0:0:
145,194,96779,1,0,0:0:0:0:
141,117,96854,1,2,0:0:0:0:
251,142,96929,1,0,0:0:0:0:
90,122,97004,1,0,0:0:0:0:
251,142,97079,1,2,0:0:0:0:
177,87,97229,1,2,0:0:0:0:
148,126,97379,1,0,0:0:0:0:
148,126,97454,1,2,0:0:0:0:
177,87,97529,1,0,0:0:0:0:
177,87,97679,1,2,0:0:0:0:
165,102,97829,1,0,0:0:0:0:
211,193,97904,1,0,0:0:0:0:
211,193,97979,1,0,0:0:0:0:
165,102,98129,1,0,0:0:0:0:
165,102,98279,1,2,0:0:0:0:
214,139,98429,1,0,0:0:0:0:
308,161,98504,1,0,0:0:0:0:
218,141,98579,1,2,0:0:0:0:
172,65,98654,1,2,0:0:0:0:
218,141,98729,1,0,0:0:0:0:
218,141,98879,1,2,0:0:0:0:
218,141,99029,1,0,0:0:0:0:
124,91,99104,1,2,0:0:0:0:
124,91,99179,1,0,0:0:0:0:
168,200,99329,1,2,0:0:0:0:
168,200,99479,1,0,0:0:0:0:
168,200,99629,1,2,0:0:0:0:
222,87,99704,1,2,0:0:0:0:
168,200,99779,1,0,0:0:0:0:
222,87,99854,1,0,0:0:0:0:
168,200,99929,1,2,0:0:0:0:
168,200,100079,1,2,0:0:0:0:
253,195,100229,1,4,0:0:0:0:
189,209,100529,1,0,0:0:0:0:
155,268,100679,1,2,0:0:0:0:
155,268,100829,1,2,0:0:0:0:
155,268,100979,1,0,0:0:0:0:
141,136,101054,1,0,0:0:0:0:
198,139,101129,1,2,0:0:0:0:
25,146,101204,1,2,0:0:0:0:
138,198,101279,1,0,0:0:0:0:
145,194,101429,1,2,0:0:0:0:
141,117,101504,1,2,0:0:0:0:
145,194,101579,1,0,0:0:0:0:
141,117,101654,1,2,0:0:0:0:
251,142,101729,1,0,0:0:0:0:
90,122,101804,1,0,0:0:0:0:
251,142,101879,1,2,0:0:0:0:
177,87,102029,1,2,0:0:0:0:
148,126,102179,1,0,0:0:0:0:
148,126,102254,1,2,0:0:0:0:
177,87,102329,1,0,0:0:0:0:
177,87,102479,1,2,0:0:0:0:
165,102,102629,1,0,0:0:0:0:
211,193,102704,1,2,0:0:0:0:
211,193,102779,1,2,0:0:0:0:
132,153,102854,1,2,0:0:0:0:
165,102,102929,1,0,0:0:0:0:
165,102,103079,1,2,0:0:0:0:
214,139,103229,1,0,0:0:0:0:
218,141,103379,1,2,0:0:0:0:
172,65,103454,1,2,0:0:0:0:
218,141,103529,1,0,0:0:0:0:
218,141,103679,1,2,0:0:0:0:
218,141,103829,1,0,0:0:0:0:
124,91,103904,1,2,0:0:0:0:
124,91,103979,1,2,0:0:0:0:
168,200,104129,1,0,0:0:0:0:
168,200,104279,1,2,0:0:0:0:
168,200,104429,1,0,0:0:0:0:
222,87,104504,1,0,0:0:0:0:
168,200,104579,1,2,0:0:0:0:
209,65,104729,1,0,0:0:0:0:
209,65,104804,1,8,0:0:0:0:
153,56,104879,1,0,0:0:0:0:
113,47,105029,1,0,0:0:0:0:
132,210,105104,1,0,0:0:0:0:
206,147,105179,1,0,0:0:0:0:
158,52,105254,1,0,0:0:0:0:
158,52,105329,1,2,0:0:0:0:
158,52,105404,1,0,0:0:0:0:
158,52,105479,1,2,0:0:0:0:
158,52,105554,1,2,0:0:0:0:
158,52,105629,1,0,0:0:0:0:
191,68,105779,1,0,0:0:0:0:
191,68,105854,1,0,0:0:0:0:
191,68,105929,1,2,0:0:0:0:
191,68,106004,1,0,0:0:0:0:
191,68,106079,1,2,0:0:0:0:
191,68,106154,1,2,0:0:0:0:
191,68,106229,1,0,0:0:0:0:
191,68,106304,1,2,0:0:0:0:
161,57,106379,1,0,0:0:0:0:
161,57,106454,1,2,0:0:0:0:
161,57,106529,1,2,0:0:0:0:
161,57,106604,1,0,0:0:0:0:
161,57,106679,1,2,0:0:0:0:
161,57,106754,1,2,0:0:0:0:
161,57,106829,1,0,0:0:0:0:
241,184,106979,1,0,0:0:0:0:
41,149,107054,1,0,0:0:0:0:
49,130,107129,1,2,0:0:0:0:
49,130,107204,1,0,0:0:0:0:
49,130,107279,1,2,0:0:0:0:
49,130,107354,1,2,0:0:0:0:
178,100,107429,1,0,0:0:0:0:
178,100,107504,1,0,0:0:0:0:
259,199,107579,5,2,0:0:0:0:
259,199,107679,1,2,0:0:0:0:
259,199,107779,1,2,0:0:0:0:
259,199,107879,1,0,0:0:0:0:
259,199,107979,1,0,0:0:0:0:
151,194,108079,1,0,0:0:0:0:
151,194,108179,1,2,0:0:0:0:
151,194,108279,1,2,0:0:0:0:
151,194,108379,1,2,0:0:0:0:
151,194,108479,1,0,0:0:0:0:
121,128,108579,1,0,0:0:0:0:
121,128,108679,1,0,0:0:0:0:
81,145,108779,1,2,0:0:0:0:
230,93,108879,1,2,0:0:0:0:
230,93,108979,1,2,0:0:0:0:
230,93,109079,1,0,0:0:0:0:
111,89,109179,1,2,0:0:0:0:
111,89,109279,1,0,0:0:0:0:
154,153,109379,1,2,0:0:0:0:
154,153,109454,1,2,0:0:0:0:
154,153,109529,1,2,0:0:0:0:
154,153,109604,1,0,0:0:0:0:
154,153,109679,1,2,0:0:0:0:
154,153,109754,1,2,0:0:0:0:
154,153,109829,1,0,0:0:0:0:
11,45,109904,1,2,0:0:0:0:
239,165,109979,1,0,0:0:0:0:
167,206,110129,1,0,0:0:0:0:
195,196,110204,1,0,0:0:0:0:
201,158,110279,1,2,0:0:0:0:
236,148,110429,1,2,0:0:0:0:
236,148,110579,1,0,0:0:0:0:
149,173,110654,1,2,0:0:0:0:
149,173,110729,1,0,0:0:0:0:
176,138,110804,1,0,0:0:0:0:
247,136,110879,1,2,0:0:0:0:
247,136,111029,1,2,0:0:0:0:
247,136,111179,1,0,0:0:0:0:
132,170,111329,1,2,0:0:0:0:
132,170,111404,1,2,0:0:0:0:
238,109,111479,1,0,0:0:0:0:
121,198,111629,1,2,0:0:0:0:
121,198,111779,1,0,0:0:0:0:
121,198,111854,1,2,0:0:0:0:
121,198,111929,1,2,0:0:0:0:
121,198,112004,1,2,0:0:0:0:
121,198,112079,1,0,0:0:0:0:
162,100,112229,1,2,0:0:0:0:
162,100,112379,1,0,0:0:0:0:
160,186,112454,1,0,0:0:0:0:
160,186,112529,1,2,0:0:0:0:
160,186,112604,1,0,0:0:0:0:
160,186,112679,1,0,0:0:0:0:
226,201,112829,1,2,0:0:0:0:
244,148,112904,1,2,0:0:0:0:
240,230,112979,1,0,0:0:0:0:
219,122,113054,1,0,0:0:0:0:
219,122,113129,1,0,0:0:0:0:
219,122,113204,1,0,0:0:0:0:
219,122,113279,1,2,0:0:0:0:
221,141,113429,1,0,0:0:0:0:
204,77,113504,1,0,0:0:0:0:
221,141,113579,1,2,0:0:0:0:
221,141,113729,1,2,0:0:0:0:
221,141,113879,1,0,0:0:0:0:
191,137,114029,1,2,0:0:0:0:
145,60,114104,1,2,0:0:0:0:
191,137,114179,1,0,0:0:0:0:
145,69,114254,1,2,0:0:0:0:
145,69,114329,1,0,0:0:0:0:
145,69,114404,1,0,0:0:0:0:
145,69,114479,1,2,0:0:0:0:
200,158,114629,1,2,0:0:0:0:
239,165,114779,1,0,0:0:0:0:
167,206,114929,1,0,0:0:0:0:
195,196,115004,1,0,0:0:0:0:
201,158,115079,1,2,0:0:0:0:
236,148,115229,1,2,0:0:0:0:
236,148,115379,1,0,0:0:0:0:
149,173,115454,1,2,0:0:0:0:
149,173,115529,1,0,0:0:0:0:
176,138,115604,1,0,0:0:0:0:
247,136,115679,1,2,0:0:0:0:
247,136,115829,1,2,0:0:0:0:
247,136,115979,1,0,0:0:0:0:
205,82,116054,1,2,0:0:0:0:
205,82,116129,1,2,0:0:0:0:
188,77,116204,1,2,0:0:0:0:
215,223,116279,1,0,0:0:0:0:
215,223,116354,1,0,0:0:0:0:
215,223,116429,1,2,0:0:0:0:
215,223,116504,1,2,0:0:0:0:
215,223,116579,1,0,0:0:0:0:
215,223,116654,1,0,0:0:0:0:
215,223,116729,1,2,0:0:0:0:
215,223,116804,1,2,0:0:0:0:
215,223,116879,1,0,0:0:0:0:
215,223,117029,1,2,0:0:0:0:
212,208,117179,1,0,0:0:0:0:
127,163,117254,1,0,0:0:0:0:
127,163,117329,1,2,0:0:0:0:
127,163,117404,1,0,0:0:0:0:
127,163,117479,1,2,0:0:0:0:
127,163,117554,1,2,0:0:0:0:
127,163,117629,1,0,0:0:0:0:
127,163,117704,1,2,0:0:0:0:
127,163,117779,1,0,0:0:0:0:
127,163,117854,1,0,0:0:0:0:
127,163,117929,1,2,0:0:0:0:
127,163,118004,1,2,0:0:0:0:
127,163,118079,1,0,0:0:0:0:
127,163,118154,1,2,0:0:0:0:
127,163,118229,1,2,0:0:0:0:
127,163,118304,1,0,0:0:0:0:
127,163,118379,1,2,0:0:0:0:
127,163,118454,1,2,0:0:0:0:
127,163,118529,1,2,0:0:0:0:
127,163,118604,1,0,0:0:0:0:
127,163,118679,1,2,0:0:0:0:
127,163,118754,1,2,0:0:0:0:
127,163,118829,1,0,0:0:0:0:
127,163,118904,1,2,0:0:0:0:
127,163,118979,1,0,0:0:0:0:
127,163,119054,1,0,0:0:0:0:
127,163,119129,1,2,0:0:0:0:
127,163,119204,1,0,0:0:0:0:
127,163,119279,1,0,0:0:0:0:
218,109,119354,1,0,0:0:0:0:
218,109,119429,1,2,0:0:0:0:
185,168,119579,1,0,0:0:0:0:
228,212,119729,1,2,0:0:0:0:
228,212,119804,1,0,0:0:0:0:
228,212,119879,1,0,0:0:0:0:
228,212,119954,1,0,0:0:0:0:
228,212,120029,1,2,0:0:0:0:
228,212,120104,1,2,0:0:0:0:
228,212,120179,1,0,0:0:0:0:
228,212,120254,1,2,0:0:0:0:
221,215,120329,1,2,0:0:0:0:
221,215,120404,1,2,0:0:0:0:
202,69,120479,1,0,0:0:0:0:
196,107,120629,1,2,0:0:0:0:
203,90,120704,1,2,0:0:0:0:
146,95,120779,1,0,0:0:0:0:
69,129,120929,1,0,0:0:0:0:
127,62,121004,1,0,0:0:0:0:
69,129,121079,1,2,0:0:0:0:
69,129,121154,1,0,0:0:0:0:
69,129,121229,1,2,0:0:0:0:
69,129,121304,1,2,0:0:0:0:
69,129,121379,1,0,0:0:0:0:
69,129,121454,1,0,0:0:0:0:
63,135,121529,1,2,0:0:0:0:
61,138,121604,1,0,0:0:0:0:
61,135,121679,1,0,0:0:0:0:
274,193,121829,1,2,0:0:0:0:
274,193,121979,1,0,0:0:0:0:
167,158,122129,1,0,0:0:0:0:
171,156,122204,1,0,0:0:0:0:
171,156,122279,1,2,0:0:0:0:
171,156,122354,1,0,0:0:0:0:
171,156,122429,1,2,0:0:0:0:
171,156,122504,1,2,0:0:0:0:
171,156,122579,1,0,0:0:0:0:
171,156,122654,1,2,0:0:0:0:
136,97,122729,1,2,0:0:0:0:
136,97,122804,1,2,0:0:0:0:
136,97,122879,1,0,0:0:0:0:
163,97,123029,1,2,0:0:0:0:
224,146,123179,1,0,0:0:0:0:
224,146,123254,1,0,0:0:0:0:
224,146,123329,1,0,0:0:0:0:
224,146,123404,1,2,0:0:0:0:
224,146,123479,1,2,0:0:0:0:
224,146,123554,1,2,0:0:0:0:
224,146,123629,1,0,0:0:0:0:
224,146,123704,1,0,0:0:0:0:
224,146,123779,1,2,0:0:0:0:
85,179,123854,1,0,0:0:0:0:
85,179,123929,1,0,0:0:0:0:
89,141,124079,1,2,0:0:0:0:
174,106,124229,1,0,0:0:0:0:
174,106,124304,1,0,0:0:0:0:
174,106,124379,1,2,0:0:0:0:
241,176,124529,1,0,0:0:0:0:
241,176,124604,1,0,0:0:0:0:
241,176,124679,1,2,0:0:0:0:
232,176,124754,1,0,0:0:0:0:
232,176,124829,1,2,0:0:0:0:
232,176,124904,1,2,0:0:0:0:
232,176,124979,1,0,0:0:0:0:
232,176,125054,1,0,0:0:0:0:
232,176,125129,1,0,0:0:0:0:
232,176,125204,1,0,0:0:0:0:
232,176,125279,1,2,0:0:0:0:
200,171,125429,1,2,0:0:0:0:
216,71,125504,1,2,0:0:0:0:
200,171,125579,1,0,0:0:0:0:
184,151,125729,1,2,0:0:0:0:
184,151,125804,1,2,0:0:0:0:
184,151,125879,1,0,0:0:0:0:
184,151,125954,1,2,0:0:0:0:
184,151,126029,1,0,0:0:0:0:
184,151,126104,1,0,0:0:0:0:
184,151,126179,1,0,0:0:0:0:
184,151,126254,1,2,0:0:0:0:
184,151,126329,1,0,0:0:0:0:
184,151,126404,1,0,0:0:0:0:
184,151,126479,1,2,0:0:0:0:
166,117,126629,1,0,0:0:0:0:
237,97,126779,1,2,0:0:0:0:
224,202,126854,1,2,0:0:0:0:
224,202,126929,1,0,0:0:0:0:
224,202,127004,1,0,0:0:0:0:
224,202,127079,1,2,0:0:0:0:
224,202,127154,1,0,0:0:0:0:
224,202,127229,1,2,0:0:0:0:
224,202,127304,1,2,0:0:0:0:
224,202,127379,1,0,0:0:0:0:
224,202,127454,1,0,0:0:0:0:
71,129,127529,1,0,0:0:0:0:
76,130,127604,1,0,0:0:0:0:
151,123,127679,1,2,0:0:0:0:
151,123,127754,1,2,0:0:0:0:
151,123,127829,1,0,0:0:0:0:
206,129,127979,1,2,0:0:0:0:
206,129,128054,1,2,0:0:0:0:
206,129,128129,1,2,0:0:0:0:
206,129,128204,1,2,0:0:0:0:
206,129,128279,1,0,0:0:0:0:
206,129,128354,1,0,0:0:0:0:
206,129,128429,1,0,0:0:0:0:
206,129,128504,1,0,0:0:0:0:
206,129,128579,1,2,0:0:0:0:
194,82,128729,1,2,0:0:0:0:
194,82,128879,1,0,0:0:0:0:
194,82,129029,1,0,0:0:0:0:
151,169,129179,1,6,0:0:0:0:
208,224,129479,1,0,0:0:0:0:
208,224,129629,1,0,0:0:0:0:
208,224,129779,1,2,0:0:0:0:
224,156,130079,1,0,0:0:0:0:
224,156,130229,1,0,0:0:0:0:
224,156,130379,1,0,0:0:0:0:
224,156,130529,1,2,0:0:0:0:
224,156,130679,1,0,0:0:0:0:
224,156,130829,1,0,0:0:0:0:
224,156,130979,1,2,0:0:0:0:
224,156,131279,1,0,0:0:0:0:
206,121,131429,1,0,0:0:0:0:
163,117,131579,1,6,0:0:0:0:
286,226,131879,1,0,0:0:0:0:
286,226,132029,1,0,0:0:0:0:
286,226,132179,1,2,0:0:0:0:
225,230,132479,1,0,0:0:0:0:
149,128,132629,1,0,0:0:0:0:
212,229,132779,1,0,0:0:0:0:
198,188,132929,1,2,0:0:0:0:
203,127,133079,1,2,0:0:0:0:
198,188,133229,1,0,0:0:0:0:
198,188,133379,1,2,0:0:0:0:
198,188,133529,1,2,0:0:0:0:
191,127,133679,1,2,0:0:0:0:
191,127,133829,1,0,0:0:0:0:
191,127,133979,1,6,0:0:0:0:
134,164,134279,1,0,0:0:0:0:
134,164,134429,1,0,0:0:0:0:
134,164,134579,1,2,0:0:0:0:
156,177,134879,1,0,0:0:0:0:
156,177,135029,1,0,0:0:0:0:
156,177,135179,1,0,0:0:0:0:
144,171,135329,1,2,0:0:0:0:
144,171,135479,1,0,0:0:0:0:
144,171,135629,1,0,0:0:0:0:
144,171,135779,1,2,0:0:0:0:
190,133,136079,1,0,0:0:0:0:
214,82,136229,1,0,0:0:0:0:
175,109,136379,1,6,0:0:0:0:
213,170,136679,1,0,0:0:0:0:
213,170,136829,1,0,0:0:0:0:
213,170,136979,1,2,0:0:0:0:
244,122,137279,1,0,0:0:0:0:
244,122,137429,1,0,0:0:0:0:
196,138,137579,1,4,0:0:0:0:
133,180,138029,1,6,0:0:0:0:
133,180,138479,1,6,0:0:0:0:
133,180,138929,1,6,0:0:0:0:
133,180,139379,1,0,0:0:0:0:
326,238,139529,1,2,0:0:0:0:
211,185,139679,1,0,0:0:0:0:
211,185,139754,1,0,0:0:0:0:
211,185,139829,1,2,0:0:0:0:
304,180,139979,1,0,0:0:0:0:
304,180,140129,1,2,0:0:0:0:
304,180,140279,1,0,0:0:0:0:
304,180,140354,1,0,0:0:0:0:
304,180,140429,1,2,0:0:0:0:
133,180,140579,1,0,0:0:0:0:
326,238,140729,1,2,0:0:0:0:
211,185,140879,1,0,0:0:0:0:
211,185,140954,1,0,0:0:0:0:
211,185,141029,1,2,0:0:0:0:
304,180,141179,1,0,0:0:0:0:
304,180,141329,1,2,0:0:0:0:
304,180,141479,1,0,0:0:0:0:
304,180,141554,1,0,0:0:0:0:
304,180,141629,1,2,0:0:0:0:
156,92,141704,1,2,0:0:0:0:
133,180,141779,1,0,0:0:0:0:
326,238,141929,1,2,0:0:0:0:
211,185,142079,1,0,0:0:0:0:
211,185,142154,1,0,0:0:0:0:
211,185,142229,1,2,0:0:0:0:
304,180,142379,1,0,0:0:0:0:
304,180,142529,1,2,0:0:0:0:
304,180,142679,1,0,0:0:0:0:
304,180,142754,1,0,0:0:0:0:
304,180,142829,1,2,0:0:0:0:
133,180,142979,1,0,0:0:0:0:
326,238,143129,1,2,0:0:0:0:
177,159,143204,1,2,0:0:0:0:
211,185,143279,1,0,0:0:0:0:
211,185,143354,1,0,0:0:0:0:
211,185,143429,1,2,0:0:0:0:
304,180,143579,1,0,0:0:0:0:
208,100,143654,1,0,0:0:0:0:
304,180,143729,1,2,0:0:0:0:
208,100,143804,1,0,0:0:0:0:
304,180,143879,1,2,0:0:0:0:
133,180,144029,1,0,0:0:0:0:
24,152,144104,1,2,0:0:0:0:
326,238,144179,1,2,0:0:0:0:
26,121,144254,1,2,0:0:0:0:
211,185,144329,1,0,0:0:0:0:
116,70,144404,1,2,0:0:0:0:
161,45,144479,1,0,0:0:0:0:
191,99,144554,1,8,0:0:0:0:
211,185,144629,1,0,0:0:0:0:
125,89,144704,1,2,0:0:0:0:
304,180,144779,1,2,0:0:0:0:
126,78,144854,1,8,0:0:0:0:
304,180,144929,1,0,0:0:0:0:
214,74,145004,1,2,0:0:0:0:
304,180,145079,1,0,0:0:0:0:
304,180,145154,1,0,0:0:0:0:
304,180,145229,1,2,0:0:0:0:
214,74,145304,1,0,0:0:0:0:
214,74,145379,1,2,0:0:0:0:
214,74,145454,1,2,0:0:0:0:
214,74,145529,1,0,0:0:0:0:
214,74,145604,1,2,0:0:0:0:
211,185,145679,1,0,0:0:0:0:
211,185,145754,1,0,0:0:0:0:
211,185,145829,1,2,0:0:0:0:
304,180,145979,1,0,0:0:0:0:
304,180,146129,1,2,0:0:0:0:
304,180,146279,1,0,0:0:0:0:
304,180,146354,1,0,0:0:0:0:
304,180,146429,1,2,0:0:0:0:
156,92,146504,1,2,0:0:0:0:
133,180,146579,1,0,0:0:0:0:
326,238,146729,1,2,0:0:0:0:
211,185,146879,1,0,0:0:0:0:
211,185,146954,1,0,0:0:0:0:
211,185,147029,1,2,0:0:0:0:
304,180,147179,1,0,0:0:0:0:
304,180,147329,1,2,0:0:0:0:
304,180,147479,1,0,0:0:0:0:
304,180,147554,1,0,0:0:0:0:
304,180,147629,1,2,0:0:0:0:
133,180,147779,1,0,0:0:0:0:
326,238,147929,1,2,0:0:0:0:
177,159,148004,1,2,0:0:0:0:
211,185,148079,1,0,0:0:0:0:
211,185,148154,1,0,0:0:0:0:
211,185,148229,1,2,0:0:0:0:
67,95,148304,1,2,0:0:0:0:
304,180,148379,1,0,0:0:0:0:
208,100,148454,1,0,0:0:0:0:
304,180,148529,1,2,0:0:0:0:
208,100,148604,1,0,0:0:0:0:
304,180,148679,1,2,0:0:0:0:
179,66,148754,1,2,0:0:0:0:
304,180,148829,1,0,0:0:0:0:
201,77,148904,1,2,0:0:0:0:
133,180,148979,1,0,0:0:0:0:
326,238,149129,1,2,0:0:0:0:
211,185,149279,1,0,0:0:0:0:
111,64,149429,1,2,0:0:0:0:
196,62,149504,1,0,0:0:0:0:
187,94,149579,1,0,0:0:0:0:
196,62,149654,1,0,0:0:0:0:
187,94,149729,1,2,0:0:0:0:
187,94,149879,1,0,0:0:0:0:
187,94,150029,1,2,0:0:0:0:
166,85,150104,1,0,0:0:0:0:
200,84,150179,1,0,0:0:0:0:
187,94,150329,1,2,0:0:0:0:
187,94,150479,1,0,0:0:0:0:
183,97,150629,1,2,0:0:0:0:
211,34,150704,1,2,0:0:0:0:
304,180,150779,1,0,0:0:0:0:
211,87,150929,1,0,0:0:0:0:
211,87,151079,1,2,0:0:0:0:
304,180,151229,1,2,0:0:0:0:
152,61,151304,1,2,0:0:0:0:
133,180,151379,1,0,0:0:0:0:
326,238,151529,1,2,0:0:0:0:
211,185,151679,1,0,0:0:0:0:
211,185,151754,1,0,0:0:0:0:
211,185,151829,1,2,0:0:0:0:
304,180,151979,1,0,0:0:0:0:
304,180,152129,1,2,0:0:0:0:
304,180,152279,1,0,0:0:0:0:
304,180,152354,1,0,0:0:0:0:
304,180,152429,1,2,0:0:0:0:
133,180,152579,1,0,0:0:0:0:
326,238,152729,1,2,0:0:0:0:
177,159,152804,1,2,0:0:0:0:
211,185,152879,1,0,0:0:0:0:
211,185,152954,1,0,0:0:0:0:
211,185,153029,1,2,0:0:0:0:
304,180,153179,1,0,0:0:0:0:
208,100,153254,1,0,0:0:0:0:
304,180,153329,1,2,0:0:0:0:
208,100,153404,1,0,0:0:0:0:
304,180,153479,1,2,0:0:0:0:
179,66,153554,1,2,0:0:0:0:
304,180,153629,1,0,0:0:0:0:
133,180,153779,1,0,0:0:0:0:
326,238,153929,1,0,0:0:0:0:
211,185,154004,1,2,0:0:0:0:
211,185,154079,1,0,0:0:0:0:
211,185,154229,1,2,0:0:0:0:
304,180,154379,1,0,0:0:0:0:
214,74,154454,1,0,0:0:0:0:
304,180,154529,1,0,0:0:0:0:
304,180,154679,1,2,0:0:0:0:
304,180,154829,1,0,0:0:0:0:
91,116,154904,1,0,0:0:0:0:
214,74,154979,1,2,0:0:0:0:
214,74,155054,1,2,0:0:0:0:
214,74,155129,1,0,0:0:0:0:
214,74,155204,1,0,0:0:0:0:
211,185,155279,1,0,0:0:0:0:
211,185,155354,1,0,0:0:0:0:
211,185,155429,1,2,0:0:0:0:
82,93,155504,1,2,0:0:0:0:
304,180,155579,1,0,0:0:0:0:
82,93,155654,1,0,0:0:0:0:
130,49,155729,1,0,0:0:0:0:
304,180,155804,1,0,0:0:0:0:
119,58,155879,1,2,0:0:0:0:
304,180,155954,1,2,0:0:0:0:
304,180,156029,1,0,0:0:0:0:
150,43,156104,1,2,0:0:0:0:
133,180,156179,1,0,0:0:0:0:
18,126,156254,1,0,0:0:0:0:
326,238,156329,1,2,0:0:0:0:
91,118,156404,1,0,0:0:0:0:
211,185,156479,1,0,0:0:0:0:
211,185,156554,1,0,0:0:0:0:
211,185,156629,1,2,0:0:0:0:
151,84,156704,1,2,0:0:0:0:
304,180,156779,1,0,0:0:0:0:
151,84,156854,1,0,0:0:0:0:
151,84,156929,1,0,0:0:0:0:
151,84,157004,1,0,0:0:0:0:
151,84,157079,1,2,0:0:0:0:
151,84,157154,1,2,0:0:0:0:
151,84,157229,1,0,0:0:0:0:
151,84,157304,1,2,0:0:0:0:
133,180,157379,1,0,0:0:0:0:
153,146,157479,1,2,0:0:0:0:
326,238,157579,1,2,0:0:0:0:
113,140,157679,1,2,0:0:0:0:
113,140,157779,1,0,0:0:0:0:
113,140,157879,1,0,0:0:0:0:
37,132,157979,1,2,0:0:0:0:
103,139,158079,1,2,0:0:0:0:
103,139,158179,1,0,0:0:0:0:
171,127,158279,1,2,0:0:0:0:
171,127,158379,1,0,0:0:0:0:
171,127,158479,1,0,0:0:0:0:
171,127,158579,1,6,0:0:0:0:
229,206,158729,1,0,0:0:0:0:
229,206,158879,1,0,0:0:0:0:
229,206,159029,1,0,0:0:0:0:
229,206,159179,1,2,0:0:0:0:
188,177,159329,1,0,0:0:0:0:
188,177,159479,1,0,0:0:0:0:
188,177,159629,1,0,0:0:0:0:
229,206,159779,1,2,0:0:0:0:
231,237,160079,1,0,0:0:0:0:
229,206,160379,1,2,0:0:0:0:
230,198,160529,1,2,0:0:0:0:
230,198,160679,1,0,0:0:0:0:
230,198,160754,1,0,0:0:0:0:
210,201,160829,1,0,0:0:0:0:
229,206,160979,1,2,0:0:0:0:
210,201,161129,1,0,0:0:0:0:
210,201,161279,1,0,0:0:0:0:
210,201,161429,1,0,0:0:0:0:
229,206,161579,1,2,0:0:0:0:
210,201,161729,1,2,0:0:0:0:
210,201,161879,1,0,0:0:0:0:
210,201,162029,1,0,0:0:0:0:
229,206,162179,1,2,0:0:0:0:
166,213,162479,1,0,0:0:0:0:
229,206,162779,1,2,0:0:0:0:
111,149,162854,1,2,0:0:0:0:
111,149,162929,1,2,0:0:0:0:
144,133,163079,1,2,0:0:0:0:
144,133,163229,1,0,0:0:0:0:
229,206,163379,1,2,0:0:0:0:
222,83,163529,1,2,0:0:0:0:
222,68,163679,1,0,0:0:0:0:
222,68,163829,1,2,0:0:0:0:
222,68,163979,1,0,0:0:0:0:
222,68,164129,1,2,0:0:0:0:
193,47,164279,1,2,0:0:0:0:
193,47,164429,1,0,0:0:0:0:
229,206,164579,1,2,0:0:0:0:
285,151,164729,1,2,0:0:0:0:
210,127,164879,1,0,0:0:0:0:
209,111,165029,1,0,0:0:0:0:
229,206,165179,1,2,0:0:0:0:
190,98,165329,1,0,0:0:0:0:
190,98,165479,1,2,0:0:0:0:
190,98,165629,1,2,0:0:0:0:
229,206,165779,1,2,0:0:0:0:
176,52,165929,1,2,0:0:0:0:
191,74,166079,1,0,0:0:0:0:
191,73,166229,1,2,0:0:0:0:
191,73,166379,1,0,0:0:0:0:
192,38,166529,1,2,0:0:0:0:
192,45,166679,1,2,0:0:0:0:
192,45,166829,1,0,0:0:0:0:
229,206,166979,1,2,0:0:0:0:
192,108,167129,1,0,0:0:0:0:
229,206,167279,1,2,0:0:0:0:
192,108,167429,1,0,0:0:0:0:
229,206,167579,1,2,0:0:0:0:
259,186,167729,1,0,0:0:0:0:
259,186,167804,1,0,0:0:0:0:
259,186,167879,1,2,0:0:0:0:
259,186,167954,1,0,0:0:0:0:
191,109,168029,1,0,0:0:0:0:
204,152,168179,1,0,0:0:0:0:
204,152,168329,1,0,0:0:0:0:
202,183,168479,1,2,0:0:0:0:
204,152,168629,1,0,0:0:0:0:
217,141,168704,1,0,0:0:0:0:
204,152,168779,1,0,0:0:0:0:
204,152,168929,1,0,0:0:0:0:
202,183,169079,1,2,0:0:0:0:
204,87,169229,1,0,0:0:0:0:
204,87,169379,1,0,0:0:0:0:
204,87,169529,1,0,0:0:0:0:
202,183,169679,1,2,0:0:0:0:
204,87,169829,1,0,0:0:0:0:
217,141,169904,1,0,0:0:0:0:
204,87,169979,1,0,0:0:0:0:
204,87,170129,1,2,0:0:0:0:
202,183,170279,1,2,0:0:0:0:
204,87,170429,1,0,0:0:0:0:
204,87,170579,1,0,0:0:0:0:
204,87,170729,1,0,0:0:0:0:
202,183,170879,1,2,0:0:0:0:
204,87,171029,1,0,0:0:0:0:
217,141,171104,1,0,0:0:0:0:
204,87,171179,1,0,0:0:0:0:
204,87,171329,1,0,0:0:0:0:
202,183,171479,1,2,0:0:0:0:
204,87,171629,1,0,0:0:0:0:
204,87,171779,1,0,0:0:0:0:
204,87,171929,1,0,0:0:0:0:
202,183,172079,1,2,0:0:0:0:
204,87,172229,1,0,0:0:0:0:
217,141,172304,1,0,0:0:0:0:
204,87,172379,1,0,0:0:0:0:
204,87,172529,1,2,0:0:0:0:
202,183,172679,1,2,0:0:0:0:
191,99,172829,1,0,0:0:0:0:
191,99,172979,1,0,0:0:0:0:
191,99,173129,1,2,0:0:0:0:
191,99,173279,1,0,0:0:0:0:
191,99,173429,1,2,0:0:0:0:
217,141,173504,1,0,0:0:0:0:
191,99,173579,1,0,0:0:0:0:
191,99,173729,1,2,0:0:0:0:
202,183,173879,1,0,0:0:0:0:
191,99,174029,1,2,0:0:0:0:
217,141,174104,1,0,0:0:0:0:
191,99,174179,1,0,0:0:0:0:
191,99,174329,1,2,0:0:0:0:
202,183,174479,1,0,0:0:0:0:
191,99,174629,1,2,0:0:0:0:
242,42,174704,1,2,0:0:0:0:
217,141,174779,1,0,0:0:0:0:
186,102,174929,1,2,0:0:0:0:
186,102,175079,1,2,0:0:0:0:
186,102,175229,1,2,0:0:0:0:
217,141,175304,1,0,0:0:0:0:
186,102,175379,1,0,0:0:0:0:
186,102,175529,1,2,0:0:0:0:
202,183,175679,1,0,0:0:0:0:
178,106,175829,1,2,0:0:0:0:
261,112,175904,1,2,0:0:0:0:
178,106,175979,1,0,0:0:0:0:
178,106,176129,1,2,0:0:0:0:
202,183,176279,1,2,0:0:0:0:
244,99,176429,1,2,0:0:0:0:
217,141,176504,1,0,0:0:0:0:
178,106,176579,1,0,0:0:0:0:
178,106,176729,1,2,0:0:0:0:
202,183,176879,1,2,0:0:0:0:
178,106,177029,1,2,0:0:0:0:
178,106,177179,1,0,0:0:0:0:
178,106,177329,1,2,0:0:0:0:
202,183,177479,1,0,0:0:0:0:
238,123,177629,1,0,0:0:0:0:
238,123,177779,1,4,0:0:0:0:
81,110,177929,1,0,0:0:0:0:
127,111,178079,1,0,0:0:0:0:
127,111,178229,1,2,0:0:0:0:
147,110,178379,1,4,0:0:0:0:
169,173,178529,1,2,0:0:0:0:
169,173,178829,1,2,0:0:0:0:
164,152,178979,1,4,0:0:0:0:
76,157,179129,1,2,0:0:0:0:
76,157,179429,1,2,0:0:0:0:
99,134,179579,1,4,0:0:0:0:
76,157,179729,1,2,0:0:0:0:
46,122,179879,1,2,0:0:0:0:
185,123,180179,1,4,0:0:0:0:
185,123,180329,1,0,0:0:0:0:
185,123,180479,1,0,0:0:0:0:
171,116,180629,1,2,0:0:0:0:
191,112,180779,1,4,0:0:0:0:
149,97,180929,1,2,0:0:0:0:
149,97,181229,1,2,0:0:0:0:
168,103,181379,1,4,0:0:0:0:
149,97,181529,1,2,0:0:0:0:
119,75,181829,1,0,0:0:0:0:
136,114,181979,1,0,0:0:0:0:
136,114,182129,1,0,0:0:0:0:
136,114,182279,1,2,0:0:0:0:
254,98,182429,1,0,0:0:0:0:
206,151,182579,1,6,0:0:0:0:
239,172,183629,1,0,0:0:0:0:
239,172,183679,1,0,0:0:0:0:
239,172,183729,1,0,0:0:0:0:
239,172,183779,1,2,0:0:0:0:
227,141,184829,1,0,0:0:0:0:
227,141,184904,1,0,0:0:0:0:
237,153,184979,1,2,0:0:0:0:
237,153,185054,1,0,0:0:0:0:
237,153,185129,1,0,0:0:0:0:
237,153,185204,1,0,0:0:0:0:
237,153,185279,1,2,0:0:0:0:
237,153,185354,1,0,0:0:0:0:
237,153,185429,1,2,0:0:0:0:
237,153,185504,1,0,0:0:0:0:
237,153,185579,1,0,0:0:0:0:
207,127,185654,1,0,0:0:0:0:
207,127,185729,1,2,0:0:0:0:
207,127,185804,1,0,0:0:0:0:
207,127,185879,1,2,0:0:0:0:
207,127,185954,1,0,0:0:0:0:
207,127,186029,1,0,0:0:0:0:
207,127,186104,1,0,0:0:0:0:
207,127,186179,1,2,0:0:0:0:
207,127,186254,1,0,0:0:0:0:
207,127,186329,1,2,0:0:0:0:
144,100,186404,1,2,0:0:0:0:
207,127,186479,1,0,0:0:0:0:
195,136,186554,1,2,0:0:0:0:
168,200,186629,1,0,0:0:0:0:
222,87,186704,1,0,0:0:0:0:
168,200,186779,1,2,0:0:0:0:
218,29,186879,1,2,0:0:0:0:
118,139,186979,1,0,0:0:0:0:
96,95,187079,1,2,0:0:0:0:
96,95,187179,1,0,0:0:0:0:
191,23,187279,1,0,0:0:0:0:
206,147,187379,1,0,0:0:0:0:
158,52,187454,1,0,0:0:0:0:
158,52,187529,1,2,0:0:0:0:
158,52,187604,1,0,0:0:0:0:
158,52,187679,1,2,0:0:0:0:
158,52,187754,1,2,0:0:0:0:
158,52,187829,1,0,0:0:0:0:
191,68,187979,1,0,0:0:0:0:
191,68,188054,1,0,0:0:0:0:
191,68,188129,1,2,0:0:0:0:
191,68,188204,1,0,0:0:0:0:
191,68,188279,1,2,0:0:0:0:
191,68,188354,1,2,0:0:0:0:
191,68,188429,1,0,0:0:0:0:
191,68,188504,1,2,0:0:0:0:
161,57,188579,1,0,0:0:0:0:
161,57,188654,1,2,0:0:0:0:
161,57,188729,1,2,0:0:0:0:
161,57,188804,1,0,0:0:0:0:
161,57,188879,1,2,0:0:0:0:
161,57,188954,1,2,0:0:0:0:
161,57,189029,1,0,0:0:0:0:
241,184,189179,1,0,0:0:0:0:
41,149,189254,1,0,0:0:0:0:
49,130,189329,1,2,0:0:0:0:
49,130,189404,1,0,0:0:0:0:
49,130,189479,1,2,0:0:0:0:
49,130,189554,1,2,0:0:0:0:
178,100,189629,1,0,0:0:0:0:
178,100,189704,1,0,0:0:0:0:
259,199,189779,5,2,0:0:0:0:
259,199,189879,1,2,0:0:0:0:
259,199,189979,1,2,0:0:0:0:
259,199,190079,1,0,0:0:0:0:
259,199,190179,1,0,0:0:0:0:
151,194,190279,1,0,0:0:0:0:
151,194,190379,1,2,0:0:0:0:
151,194,190479,1,2,0:0:0:0:
151,194,190579,1,2,0:0:0:0:
151,194,190679,1,0,0:0:0:0:
121,128,190779,1,0,0:0:0:0:
121,128,190879,1,0,0:0:0:0:
81,145,190979,1,2,0:0:0:0:
230,93,191079,1,2,0:0:0:0:
230,93,191179,1,2,0:0:0:0:
230,93,191279,5,0,0:0:0:0:
111,89,191379,1,2,0:0:0:0:
111,89,191479,1,0,0:0:0:0:
154,153,191579,1,2,0:0:0:0:
154,153,191654,1,2,0:0:0:0:
154,153,191729,1,2,0:0:0:0:
154,153,191804,1,0,0:0:0:0:
154,153,191879,1,2,0:0:0:0:
154,153,191954,1,2,0:0:0:0:
154,153,192029,1,0,0:0:0:0:
11,45,192104,1,2,0:0:0:0:
239,165,192179,1,0,0:0:0:0:
167,206,192329,5,0,0:0:0:0:
195,196,192404,1,0,0:0:0:0:
201,158,192479,1,2,0:0:0:0:
236,148,192629,1,2,0:0:0:0:
236,148,192779,1,0,0:0:0:0:
149,173,192854,1,2,0:0:0:0:
149,173,192929,1,0,0:0:0:0:
176,138,193004,1,0,0:0:0:0:
247,136,193079,1,2,0:0:0:0:
247,136,193229,1,2,0:0:0:0:
247,136,193379,1,0,0:0:0:0:
132,170,193529,1,2,0:0:0:0:
132,170,193604,1,2,0:0:0:0:
238,109,193679,1,0,0:0:0:0:
121,198,193829,1,2,0:0:0:0:
121,198,193979,1,0,0:0:0:0:
121,198,194054,1,2,0:0:0:0:
121,198,194129,1,2,0:0:0:0:
121,198,194204,1,2,0:0:0:0:
121,198,194279,1,0,0:0:0:0:
162,100,194429,1,2,0:0:0:0:
162,100,194579,1,0,0:0:0:0:
160,186,194654,1,0,0:0:0:0:
160,186,194729,1,2,0:0:0:0:
160,186,194804,1,0,0:0:0:0:
160,186,194879,1,0,0:0:0:0:
226,201,195029,1,2,0:0:0:0:
244,148,195104,1,2,0:0:0:0:
240,230,195179,1,0,0:0:0:0:
219,122,195254,1,0,0:0:0:0:
219,122,195329,1,0,0:0:0:0:
219,122,195404,1,0,0:0:0:0:
219,122,195479,1,2,0:0:0:0:
221,141,195629,1,0,0:0:0:0:
204,77,195704,1,0,0:0:0:0:
221,141,195779,1,2,0:0:0:0:
221,141,195929,1,2,0:0:0:0:
221,141,196079,1,0,0:0:0:0:
191,137,196229,1,2,0:0:0:0:
145,60,196304,1,2,0:0:0:0:
191,137,196379,1,0,0:0:0:0:
145,69,196454,1,2,0:0:0:0:
145,69,196529,1,0,0:0:0:0:
145,69,196604,1,0,0:0:0:0:
145,69,196679,1,2,0:0:0:0:
200,158,196829,1,2,0:0:0:0:
239,165,196979,1,0,0:0:0:0:
167,206,197129,1,0,0:0:0:0:
195,196,197204,1,0,0:0:0:0:
201,158,197279,1,2,0:0:0:0:
236,148,197429,1,2,0:0:0:0:
236,148,197579,1,0,0:0:0:0:
149,173,197654,1,2,0:0:0:0:
149,173,197729,1,0,0:0:0:0:
176,138,197804,1,0,0:0:0:0:
247,136,197879,1,2,0:0:0:0:
247,136,198029,1,2,0:0:0:0:
247,136,198179,1,0,0:0:0:0:
205,82,198254,1,2,0:0:0:0:
205,82,198329,1,2,0:0:0:0:
215,223,198479,1,0,0:0:0:0:
215,223,198554,1,0,0:0:0:0:
215,223,198629,1,2,0:0:0:0:
215,223,198704,1,2,0:0:0:0:
215,223,198779,1,0,0:0:0:0:
215,223,198854,1,0,0:0:0:0:
215,223,198929,1,2,0:0:0:0:
215,223,199004,1,2,0:0:0:0:
215,223,199079,1,0,0:0:0:0:
215,223,199229,1,2,0:0:0:0:
212,208,199379,1,0,0:0:0:0:
127,163,199454,1,2,0:0:0:0:
127,163,199529,1,2,0:0:0:0:
127,163,199604,1,0,0:0:0:0:
127,163,199679,1,2,0:0:0:0:
127,163,199754,1,2,0:0:0:0:
127,163,199829,1,0,0:0:0:0:
127,163,199904,1,2,0:0:0:0:
127,163,199979,1,0,0:0:0:0:
127,163,200054,1,2,0:0:0:0:
127,163,200129,1,2,0:0:0:0:
127,163,200204,1,0,0:0:0:0:
127,163,200279,1,2,0:0:0:0:
127,163,200354,1,2,0:0:0:0:
127,163,200429,1,0,0:0:0:0:
127,163,200504,1,2,0:0:0:0:
127,163,200579,1,0,0:0:0:0:
127,163,200654,1,0,0:0:0:0:
127,163,200729,1,2,0:0:0:0:
127,163,200804,1,0,0:0:0:0:
127,163,200879,1,2,0:0:0:0:
127,163,200954,1,2,0:0:0:0:
127,163,201029,1,0,0:0:0:0:
127,163,201104,1,2,0:0:0:0:
127,163,201179,1,0,0:0:0:0:
127,163,201254,1,0,0:0:0:0:
127,163,201329,1,2,0:0:0:0:
127,163,201404,1,0,0:0:0:0:
127,163,201479,1,0,0:0:0:0:
218,109,201554,1,0,0:0:0:0:
218,109,201629,1,2,0:0:0:0:
185,168,201779,1,0,0:0:0:0:
228,212,201929,1,2,0:0:0:0:
228,212,202004,1,0,0:0:0:0:
228,212,202079,1,0,0:0:0:0:
228,212,202154,1,0,0:0:0:0:
228,212,202229,1,2,0:0:0:0:
228,212,202304,1,2,0:0:0:0:
228,212,202379,1,0,0:0:0:0:
228,212,202454,1,2,0:0:0:0:
221,215,202529,1,2,0:0:0:0:
221,215,202604,1,2,0:0:0:0:
202,69,202679,1,0,0:0:0:0:
196,107,202829,1,2,0:0:0:0:
203,90,202904,1,2,0:0:0:0:
146,95,202979,1,0,0:0:0:0:
69,129,203129,1,0,0:0:0:0:
127,62,203204,1,0,0:0:0:0:
69,129,203279,1,2,0:0:0:0:
69,129,203354,1,0,0:0:0:0:
69,129,203429,1,2,0:0:0:0:
69,129,203504,1,2,0:0:0:0:
69,129,203579,1,0,0:0:0:0:
69,129,203654,1,2,0:0:0:0:
63,135,203729,1,2,0:0:0:0:
61,138,203804,1,0,0:0:0:0:
61,135,203879,1,0,0:0:0:0:
274,193,204029,1,2,0:0:0:0:
274,193,204179,1,0,0:0:0:0:
167,158,204329,1,0,0:0:0:0:
171,156,204404,1,0,0:0:0:0:
171,156,204479,1,2,0:0:0:0:
171,156,204554,1,0,0:0:0:0:
171,156,204629,1,2,0:0:0:0:
171,156,204704,1,2,0:0:0:0:
171,156,204779,1,0,0:0:0:0:
171,156,204854,1,2,0:0:0:0:
136,97,204929,1,2,0:0:0:0:
136,97,205004,1,2,0:0:0:0:
136,97,205079,1,0,0:0:0:0:
163,97,205229,1,2,0:0:0:0:
224,146,205379,1,0,0:0:0:0:
224,146,205454,1,0,0:0:0:0:
224,146,205529,1,0,0:0:0:0:
224,146,205604,1,2,0:0:0:0:
224,146,205679,1,2,0:0:0:0:
224,146,205754,1,2,0:0:0:0:
224,146,205829,1,0,0:0:0:0:
224,146,205904,1,0,0:0:0:0:
224,146,205979,1,2,0:0:0:0:
85,179,206054,1,0,0:0:0:0:
85,179,206129,1,0,0:0:0:0:
89,141,206279,1,2,0:0:0:0:
174,106,206429,1,0,0:0:0:0:
174,106,206504,1,0,0:0:0:0:
174,106,206579,1,2,0:0:0:0:
241,176,206729,1,0,0:0:0:0:
241,176,206804,1,0,0:0:0:0:
241,176,206879,1,2,0:0:0:0:
232,176,206954,1,0,0:0:0:0:
232,176,207029,1,2,0:0:0:0:
232,176,207104,1,2,0:0:0:0:
232,176,207179,1,0,0:0:0:0:
232,176,207254,1,0,0:0:0:0:
232,176,207329,1,0,0:0:0:0:
232,176,207404,1,0,0:0:0:0:
232,176,207479,1,2,0:0:0:0:
200,171,207629,1,2,0:0:0:0:
216,71,207704,1,2,0:0:0:0:
200,171,207779,1,0,0:0:0:0:
184,151,207929,1,2,0:0:0:0:
184,151,208004,1,2,0:0:0:0:
184,151,208079,1,0,0:0:0:0:
184,151,208154,1,2,0:0:0:0:
184,151,208229,1,0,0:0:0:0:
184,151,208304,1,0,0:0:0:0:
184,151,208379,1,0,0:0:0:0:
184,151,208454,1,2,0:0:0:0:
184,151,208529,1,0,0:0:0:0:
184,151,208604,1,0,0:0:0:0:
184,151,208679,1,2,0:0:0:0:
166,117,208829,1,0,0:0:0:0:
237,97,208979,1,2,0:0:0:0:
224,202,209054,1,2,0:0:0:0:
224,202,209129,1,0,0:0:0:0:
224,202,209204,1,0,0:0:0:0:
224,202,209279,1,2,0:0:0:0:
224,202,209354,1,0,0:0:0:0:
224,202,209429,1,2,0:0:0:0:
224,202,209504,1,2,0:0:0:0:
224,202,209579,1,0,0:0:0:0:
224,202,209654,1,0,0:0:0:0:
71,129,209729,1,0,0:0:0:0:
76,130,209804,1,0,0:0:0:0:
151,123,209879,1,2,0:0:0:0:
151,123,209954,1,2,0:0:0:0:
151,123,210029,1,0,0:0:0:0:
152,60,210179,1,2,0:0:0:0:
206,129,210254,1,2,0:0:0:0:
206,129,210329,1,2,0:0:0:0:
206,129,210404,1,2,0:0:0:0:
206,129,210479,1,0,0:0:0:0:
206,129,210554,1,2,0:0:0:0:
206,129,210629,1,0,0:0:0:0:
206,129,210704,1,0,0:0:0:0:
206,129,210779,1,2,0:0:0:0:
269,33,210854,1,2,0:0:0:0:
194,82,210929,1,2,0:0:0:0:
185,28,211004,1,0,0:0:0:0:
194,82,211079,1,2,0:0:0:0:
161,21,211154,1,2,0:0:0:0:
194,82,211229,1,0,0:0:0:0:
149,26,211304,1,2,0:0:0:0:
239,165,211379,5,0,0:0:0:0:
391,217,211454,1,0,0:0:0:0:
167,206,211529,1,0,0:0:0:0:
195,196,211604,1,0,0:0:0:0:
201,158,211679,1,2,0:0:0:0:
261,82,211754,1,0,0:0:0:0:
236,148,211829,1,2,0:0:0:0:
238,60,211904,1,2,0:0:0:0:
236,148,211979,1,0,0:0:0:0:
149,173,212054,1,2,0:0:0:0:
149,173,212129,1,0,0:0:0:0:
176,138,212204,1,0,0:0:0:0:
247,136,212279,1,2,0:0:0:0:
168,83,212354,1,0,0:0:0:0:
247,136,212429,1,2,0:0:0:0:
168,83,212504,1,2,0:0:0:0:
247,136,212579,1,8,0:0:0:0:
172,74,212654,1,0,0:0:0:0:
132,170,212729,1,2,0:0:0:0:
132,170,212804,1,2,0:0:0:0:
238,109,212879,1,0,0:0:0:0:
162,56,212954,1,2,0:0:0:0:
121,198,213029,1,2,0:0:0:0:
121,198,213104,1,0,0:0:0:0:
162,56,213179,1,2,0:0:0:0:
121,198,213254,1,2,0:0:0:0:
121,198,213329,1,0,0:0:0:0:
121,198,213404,1,0,0:0:0:0:
121,198,213479,1,2,0:0:0:0:
172,58,213554,1,0,0:0:0:0:
162,100,213629,1,2,0:0:0:0:
172,58,213704,1,2,0:0:0:0:
160,186,213779,1,2,0:0:0:0:
162,100,213854,1,0,0:0:0:0:
160,186,213929,1,2,0:0:0:0:
160,186,214004,1,2,0:0:0:0:
160,186,214079,1,0,0:0:0:0:
172,58,214154,1,0,0:0:0:0:
226,201,214229,1,2,0:0:0:0:
244,148,214304,1,2,0:0:0:0:
240,230,214379,1,0,0:0:0:0:
219,122,214454,1,0,0:0:0:0:
219,122,214529,1,0,0:0:0:0:
177,140,214604,1,0,0:0:0:0:
219,122,214679,1,2,0:0:0:0:
177,140,214754,1,2,0:0:0:0:
221,141,214829,1,0,0:0:0:0:
204,77,214904,1,0,0:0:0:0:
221,141,214979,1,2,0:0:0:0:
192,112,215054,1,0,0:0:0:0:
221,141,215129,1,2,0:0:0:0:
192,118,215204,1,2,0:0:0:0:
221,141,215279,1,0,0:0:0:0:
192,118,215354,1,0,0:0:0:0:
191,137,215429,1,2,0:0:0:0:
145,60,215504,1,2,0:0:0:0:
191,137,215579,1,0,0:0:0:0:
145,69,215654,1,2,0:0:0:0:
145,69,215729,1,0,0:0:0:0:
145,69,215804,1,0,0:0:0:0:
145,69,215879,1,2,0:0:0:0:
191,95,215954,1,2,0:0:0:0:
200,158,216029,1,0,0:0:0:0:
191,98,216104,1,0,0:0:0:0:
239,165,216179,1,2,0:0:0:0:
309,191,216254,1,0,0:0:0:0:
167,206,216329,1,0,0:0:0:0:
195,196,216404,1,0,0:0:0:0:
201,158,216479,1,2,0:0:0:0:
166,97,216554,1,0,0:0:0:0:
236,148,216629,1,2,0:0:0:0:
166,97,216704,1,2,0:0:0:0:
236,148,216779,1,0,0:0:0:0:
149,173,216854,1,2,0:0:0:0:
149,173,216929,1,0,0:0:0:0:
176,138,217004,1,0,0:0:0:0:
247,136,217079,1,2,0:0:0:0:
197,89,217154,1,0,0:0:0:0:
247,136,217229,1,2,0:0:0:0:
197,89,217304,1,2,0:0:0:0:
247,136,217379,1,0,0:0:0:0:
205,82,217454,1,2,0:0:0:0:
205,82,217529,1,2,0:0:0:0:
197,89,217604,1,2,0:0:0:0:
215,223,217679,1,0,0:0:0:0:
215,223,217754,1,0,0:0:0:0:
215,223,217829,1,2,0:0:0:0:
215,223,217904,1,2,0:0:0:0:
215,223,217979,1,0,0:0:0:0:
215,223,218054,1,2,0:0:0:0:
215,223,218129,1,0,0:0:0:0:
215,223,218204,1,0,0:0:0:0:
215,223,218279,1,2,0:0:0:0:
200,138,218354,1,0,0:0:0:0:
215,223,218429,1,2,0:0:0:0:
200,138,218504,1,2,0:0:0:0:
212,208,218579,1,0,0:0:0:0:
127,163,218654,1,0,0:0:0:0:
127,163,218729,1,2,1:3:0:0:
127,163,218804,1,0,1:3:0:0:
127,163,218879,1,2,0:0:0:0:
127,163,218954,1,2,0:0:0:0:
127,163,219029,1,0,0:0:0:0:
127,163,219104,1,2,0:0:0:0:
127,163,219179,1,0,0:0:0:0:
127,163,219254,1,0,0:0:0:0:
127,163,219329,1,0,0:0:0:0:
127,163,219404,1,0,0:0:0:0:
127,163,219479,1,2,0:0:0:0:
127,163,219554,1,2,0:0:0:0:
127,163,219629,1,0,0:0:0:0:
127,163,219704,1,2,0:0:0:0:
127,163,219779,1,0,0:0:0:0:
127,163,219854,1,2,0:0:0:0:
127,163,219929,1,2,0:0:0:0:
127,163,220004,1,2,0:0:0:0:
127,163,220079,1,0,0:0:0:0:
127,163,220154,1,8,0:0:0:0:
127,163,220229,1,0,0:0:0:0:
127,163,220304,1,2,0:0:0:0:
127,163,220379,1,0,0:0:0:0:
127,163,220454,1,0,0:0:0:0:
127,163,220529,1,2,0:0:0:0:
127,163,220604,1,0,0:0:0:0:
127,163,220679,1,2,0:0:0:0:
189,62,220754,1,2,0:0:0:0:
218,109,220829,1,0,0:0:0:0:
185,168,220904,1,0,0:0:0:0:
176,24,220979,1,2,0:0:0:0:
150,92,221054,1,0,0:0:0:0:
228,212,221129,1,2,0:0:0:0:
228,212,221204,1,2,0:0:0:0:
228,212,221279,1,0,0:0:0:0:
228,212,221354,1,0,0:0:0:0:
228,212,221429,1,8,0:0:0:0:
228,212,221504,1,2,0:0:0:0:
228,212,221579,1,0,0:0:0:0:
228,212,221654,1,0,0:0:0:0:
221,215,221729,1,2,0:0:0:0:
221,215,221804,1,0,0:0:0:0:
202,69,221879,1,2,0:0:0:0:
189,46,221954,1,2,0:0:0:0:
196,107,222029,1,0,0:0:0:0:
203,90,222104,1,2,0:0:0:0:
185,168,222179,1,0,0:0:0:0:
150,92,222254,1,0,0:0:0:0:
228,212,222329,1,2,0:0:0:0:
228,212,222404,1,2,0:0:0:0:
228,212,222479,1,0,0:0:0:0:
228,212,222554,1,0,0:0:0:0:
228,212,222629,1,8,0:0:0:0:
228,212,222704,1,2,0:0:0:0:
228,212,222779,1,0,0:0:0:0:
228,212,222854,1,0,0:0:0:0:
221,215,222929,1,2,0:0:0:0:
221,215,223004,1,0,0:0:0:0:
202,69,223079,1,2,0:0:0:0:
189,46,223154,1,2,0:0:0:0:
196,107,223229,1,0,0:0:0:0:
203,90,223304,1,2,0:0:0:0:
274,193,223379,1,0,0:0:0:0:
147,54,223454,1,0,0:0:0:0:
167,158,223529,1,0,0:0:0:0:
171,156,223604,1,0,0:0:0:0:
171,156,223679,1,2,0:0:0:0:
171,156,223754,1,0,0:0:0:0:
171,156,223829,1,2,0:0:0:0:
171,156,223904,1,2,0:0:0:0:
171,156,223979,1,0,0:0:0:0:
171,156,224054,1,2,0:0:0:0:
136,97,224129,1,2,0:0:0:0:
136,97,224204,1,2,0:0:0:0:
136,97,224279,1,0,0:0:0:0:
163,97,224429,1,2,0:0:0:0:
224,146,224579,1,0,0:0:0:0:
224,146,224654,1,0,0:0:0:0:
224,146,224729,1,0,0:0:0:0:
224,146,224804,1,2,0:0:0:0:
224,146,224879,1,2,0:0:0:0:
224,146,224954,1,0,0:0:0:0:
224,146,225029,1,2,0:0:0:0:
224,146,225104,1,0,0:0:0:0:
224,146,225179,1,2,0:0:0:0:
85,179,225254,1,2,0:0:0:0:
85,179,225329,1,0,0:0:0:0:
76,86,225404,1,0,0:0:0:0:
89,141,225479,1,2,0:0:0:0:
174,106,225629,1,0,0:0:0:0:
174,106,225704,1,0,0:0:0:0:
174,106,225779,1,2,0:0:0:0:
226,60,225854,1,2,0:0:0:0:
241,176,225929,1,0,0:0:0:0:
241,176,226004,1,0,0:0:0:0:
241,176,226079,1,2,0:0:0:0:
232,176,226154,1,0,0:0:0:0:
232,176,226229,1,2,0:0:0:0:
232,176,226304,1,2,0:0:0:0:
232,176,226379,1,0,0:0:0:0:
232,176,226454,1,0,0:0:0:0:
232,176,226529,1,0,0:0:0:0:
232,176,226604,1,0,0:0:0:0:
232,176,226679,1,2,0:0:0:0:
52,101,226754,1,0,0:0:0:0:
200,171,226829,1,2,0:0:0:0:
216,71,226904,1,2,0:0:0:0:
200,171,226979,1,0,0:0:0:0:
283,80,227054,1,0,0:0:0:0:
184,151,227129,1,2,0:0:0:0:
184,151,227204,1,2,0:0:0:0:
184,151,227279,1,0,0:0:0:0:
184,151,227354,1,2,0:0:0:0:
184,151,227429,1,0,0:0:0:0:
184,151,227504,1,0,0:0:0:0:
184,151,227579,1,8,0:0:0:0:
184,151,227654,1,2,0:0:0:0:
184,151,227729,1,0,0:0:0:0:
184,151,227804,1,0,0:0:0:0:
184,151,227879,1,2,0:0:0:0:
88,105,227954,1,2,0:0:0:0:
166,117,228029,1,0,0:0:0:0:
180,109,228104,1,0,0:0:0:0:
237,97,228179,1,2,0:0:0:0:
224,202,228254,1,2,0:0:0:0:
224,202,228329,1,0,0:0:0:0:
224,202,228404,1,0,0:0:0:0:
224,202,228479,1,2,0:0:0:0:
224,202,228554,1,0,0:0:0:0:
224,202,228629,1,2,0:0:0:0:
224,202,228704,1,2,0:0:0:0:
224,202,228779,1,0,0:0:0:0:
224,202,228854,1,0,0:0:0:0:
71,129,228929,1,0,0:0:0:0:
76,130,229004,1,0,0:0:0:0:
151,123,229079,1,2,0:0:0:0:
151,123,229154,1,2,0:0:0:0:
151,123,229229,1,0,0:0:0:0:
208,97,229304,1,0,0:0:0:0:
206,129,229379,1,2,0:0:0:0:
206,129,229454,1,2,0:0:0:0:
206,129,229529,1,2,0:0:0:0:
206,129,229604,1,2,0:0:0:0:
206,129,229679,1,0,0:0:0:0:
206,129,229754,1,0,0:0:0:0:
206,129,229829,1,0,0:0:0:0:
206,129,229904,1,0,0:0:0:0:
206,129,229979,1,2,0:0:0:0:
152,42,230054,1,2,0:0:0:0:
152,42,230129,1,2,0:0:0:0:
269,76,230204,1,0,0:0:0:0:
194,82,230279,1,2,0:0:0:0:
152,42,230354,1,2,0:0:0:0:
194,82,230429,1,0,0:0:0:0:
253,157,230504,1,2,0:0:0:0:
151,169,230579,1,0,0:0:0:0:
116,116,230729,1,2,0:0:0:0:
116,116,230804,1,2,0:0:0:0:
116,116,230879,1,0,0:0:0:0:
105,87,230954,1,0,0:0:0:0:
105,87,231029,1,2,0:0:0:0:
110,84,231104,1,2,0:0:0:0:
122,112,231179,1,0,0:0:0:0:
182,87,231254,1,0,0:0:0:0:
182,87,231329,1,0,0:0:0:0:
182,87,231404,1,0,0:0:0:0:
182,87,231479,1,2,0:0:0:0:
182,87,231554,1,0,0:0:0:0:
182,87,231629,1,2,0:0:0:0:
182,87,231704,1,2,0:0:0:0:
182,87,231779,1,0,0:0:0:0:
156,117,231929,1,2,0:0:0:0:
156,117,232004,1,0,0:0:0:0:
156,117,232079,1,2,0:0:0:0:
156,117,232154,1,2,0:0:0:0:
156,117,232229,1,0,0:0:0:0:
156,117,232304,1,0,0:0:0:0:
156,117,232379,1,0,0:0:0:0:
156,117,232454,1,0,0:0:0:0:
156,117,232529,1,2,0:0:0:0:
156,117,232604,1,2,0:0:0:0:
156,117,232679,1,0,0:0:0:0:
131,94,232754,1,0,0:0:0:0:
131,94,232829,1,2,0:0:0:0:
151,169,232979,1,0,0:0:0:0:
116,116,233129,1,2,0:0:0:0:
116,116,233204,1,2,0:0:0:0:
116,116,233279,1,0,0:0:0:0:
105,87,233354,1,0,0:0:0:0:
105,87,233429,1,2,0:0:0:0:
110,84,233504,1,2,0:0:0:0:
122,112,233579,1,0,0:0:0:0:
182,87,233654,1,0,0:0:0:0:
182,87,233729,1,0,0:0:0:0:
182,87,233804,1,0,0:0:0:0:
182,87,233879,1,2,0:0:0:0:
182,87,233954,1,0,0:0:0:0:
182,87,234029,1,2,0:0:0:0:
182,87,234104,1,2,0:0:0:0:
182,87,234179,1,0,0:0:0:0:
156,117,234329,1,2,0:0:0:0:
156,117,234404,1,0,0:0:0:0:
156,117,234479,1,2,0:0:0:0:
156,117,234554,1,2,0:0:0:0:
156,117,234629,1,0,0:0:0:0:
156,117,234704,1,2,0:0:0:0:
156,117,234779,1,0,0:0:0:0:
156,117,234854,1,0,0:0:0:0:
156,117,234929,1,0,0:0:0:0:
156,117,235004,1,2,0:0:0:0:
156,117,235079,1,0,0:0:0:0:
131,94,235154,1,0,0:0:0:0:
131,94,235229,1,2,0:0:0:0:
151,169,235379,1,0,0:0:0:0:
116,116,235529,1,2,0:0:0:0:
116,116,235604,1,2,0:0:0:0:
116,116,235679,1,0,0:0:0:0:
105,87,235754,1,0,0:0:0:0:
105,87,235829,1,2,0:0:0:0:
110,84,235904,1,2,0:0:0:0:
122,112,235979,1,0,0:0:0:0:
182,87,236054,1,0,0:0:0:0:
182,87,236129,1,0,0:0:0:0:
182,87,236204,1,0,0:0:0:0:
182,87,236279,1,2,0:0:0:0:
182,87,236354,1,0,0:0:0:0:
182,87,236429,1,2,0:0:0:0:
182,87,236504,1,2,0:0:0:0:
182,87,236579,1,0,0:0:0:0:
156,117,236729,1,2,0:0:0:0:
156,117,236804,1,0,0:0:0:0:
156,117,236879,1,2,0:0:0:0:
156,117,236954,1,2,0:0:0:0:
156,117,237029,1,0,0:0:0:0:
156,117,237104,1,0,0:0:0:0:
156,117,237179,1,0,0:0:0:0:
156,117,237254,1,0,0:0:0:0:
156,117,237329,1,2,0:0:0:0:
156,117,237404,1,2,0:0:0:0:
156,117,237479,1,0,0:0:0:0:
131,94,237554,1,0,0:0:0:0:
131,94,237629,1,2,0:0:0:0:
151,169,237779,1,0,0:0:0:0:
116,116,237929,1,2,0:0:0:0:
116,116,238004,1,2,0:0:0:0:
116,116,238079,1,0,0:0:0:0:
105,87,238154,1,0,0:0:0:0:
105,87,238229,1,2,0:0:0:0:
110,84,238304,1,2,0:0:0:0:
122,112,238379,1,0,0:0:0:0:
182,87,238454,1,0,0:0:0:0:
182,87,238529,1,0,0:0:0:0:
182,87,238604,1,0,0:0:0:0:
182,87,238679,1,2,0:0:0:0:
182,87,238754,1,0,0:0:0:0:
182,87,238829,1,2,0:0:0:0:
182,87,238904,1,2,0:0:0:0:
182,87,238979,1,0,0:0:0:0:
156,117,239129,1,2,0:0:0:0:
156,117,239204,1,0,0:0:0:0:
156,117,239279,1,2,0:0:0:0:
156,117,239354,1,2,0:0:0:0:
156,117,239429,1,0,0:0:0:0:
156,117,239504,1,0,0:0:0:0:
156,117,239579,1,0,0:0:0:0:
156,117,239654,1,2,0:0:0:0:
156,117,239729,1,2,0:0:0:0:
156,117,239804,1,2,0:0:0:0:
156,117,239879,1,0,0:0:0:0:
131,94,239954,1,0,0:0:0:0:
131,94,240029,1,2,0:0:0:0:
151,169,240179,1,0,0:0:0:0:
116,116,240329,1,2,0:0:0:0:
116,116,240404,1,2,0:0:0:0:
116,116,240479,1,0,0:0:0:0:
105,87,240554,1,0,0:0:0:0:
105,87,240629,1,2,0:0:0:0:
110,84,240704,1,2,0:0:0:0:
122,112,240779,1,0,0:0:0:0:
182,87,240854,1,0,0:0:0:0:
182,87,240929,1,0,0:0:0:0:
182,87,241004,1,0,0:0:0:0:
182,87,241079,1,2,0:0:0:0:
182,87,241154,1,0,0:0:0:0:
182,87,241229,1,2,0:0:0:0:
182,87,241304,1,2,0:0:0:0:
182,87,241379,1,0,0:0:0:0:
156,117,241529,1,2,0:0:0:0:
156,117,241604,1,0,0:0:0:0:
156,117,241679,1,2,0:0:0:0:
156,117,241754,1,2,0:0:0:0:
156,117,241829,1,0,0:0:0:0:
156,117,241904,1,0,0:0:0:0:
156,117,241979,1,0,0:0:0:0:
156,117,242054,1,0,0:0:0:0:
156,117,242129,1,2,0:0:0:0:
156,117,242204,1,2,0:0:0:0:
156,117,242279,1,0,0:0:0:0:
131,94,242354,1,0,0:0:0:0:
131,94,242429,1,2,0:0:0:0:
151,169,242579,1,0,0:0:0:0:
116,116,242729,1,2,0:0:0:0:
116,116,242804,1,2,0:0:0:0:
116,116,242879,1,0,0:0:0:0:
105,87,242954,1,0,0:0:0:0:
105,87,243029,1,2,0:0:0:0:
110,84,243104,1,2,0:0:0:0:
122,112,243179,1,0,0:0:0:0:
182,87,243254,1,0,0:0:0:0:
182,87,243329,1,0,0:0:0:0:
182,87,243404,1,0,0:0:0:0:
182,87,243479,1,2,0:0:0:0:
182,87,243554,1,0,0:0:0:0:
182,87,243629,1,2,0:0:0:0:
182,87,243704,1,2,0:0:0:0:
182,87,243779,1,0,0:0:0:0:
156,117,243929,1,2,0:0:0:0:
156,117,244004,1,0,0:0:0:0:
156,117,244079,1,2,0:0:0:0:
156,117,244154,1,2,0:0:0:0:
156,117,244229,1,0,0:0:0:0:
156,117,244304,1,0,0:0:0:0:
156,117,244379,1,0,0:0:0:0:
156,117,244454,1,0,0:0:0:0:
156,117,244529,1,2,0:0:0:0:
156,117,244604,1,2,0:0:0:0:
156,117,244679,1,0,0:0:0:0:
131,94,244754,1,0,0:0:0:0:
131,94,244829,1,2,0:0:0:0:
151,169,244979,1,0,0:0:0:0:
116,116,245129,1,2,0:0:0:0:
116,116,245204,1,2,0:0:0:0:
116,116,245279,1,0,0:0:0:0:
105,87,245354,1,0,0:0:0:0:
105,87,245429,1,2,0:0:0:0:
110,84,245504,1,2,0:0:0:0:
122,112,245579,1,0,0:0:0:0:
182,87,245654,1,2,0:0:0:0:
182,87,245729,1,2,0:0:0:0:
182,87,245804,1,2,0:0:0:0:
182,87,245879,1,0,0:0:0:0:
182,87,245954,1,0,0:0:0:0:
182,87,246029,1,2,0:0:0:0:
182,87,246104,1,2,0:0:0:0:
182,87,246179,1,0,0:0:0:0:
156,117,246329,1,2,0:0:0:0:
156,117,246404,1,2,0:0:0:0:
156,117,246479,1,0,0:0:0:0:
156,117,246554,1,0,0:0:0:0:
156,117,246629,1,2,0:0:0:0:
156,117,246704,1,2,0:0:0:0:
156,117,246779,1,0,0:0:0:0:
156,117,246854,1,2,0:0:0:0:
156,117,246929,1,0,0:0:0:0:
156,117,247004,1,2,0:0:0:0:
156,117,247079,1,0,0:0:0:0:
131,94,247154,1,0,0:0:0:0:
131,94,247229,1,2,0:0:0:0:
151,169,247379,1,0,0:0:0:0:
116,116,247529,1,2,0:0:0:0:
116,116,247604,1,2,0:0:0:0:
116,116,247679,1,0,0:0:0:0:
105,87,247754,1,0,0:0:0:0:
105,87,247829,1,2,0:0:0:0:
110,84,247904,1,2,0:0:0:0:
122,112,247979,1,0,0:0:0:0:
182,87,248054,1,0,0:0:0:0:
182,87,248129,1,0,0:0:0:0:
182,87,248204,1,0,0:0:0:0:
182,87,248279,1,2,0:0:0:0:
182,87,248354,1,0,0:0:0:0:
182,87,248429,1,2,0:0:0:0:
182,87,248504,1,2,0:0:0:0:
182,87,248579,1,0,0:0:0:0:
61,159,248654,1,0,0:0:0:0:
156,117,248729,1,2,0:0:0:0:
156,117,248804,1,0,0:0:0:0:
156,117,248879,1,2,0:0:0:0:
156,117,248954,1,0,0:0:0:0:
156,117,249029,1,0,0:0:0:0:
156,117,249104,1,0,0:0:0:0:
156,117,249179,1,2,0:0:0:0:
156,117,249254,1,0,0:0:0:0:
156,117,249329,1,2,0:0:0:0:
156,117,249404,1,2,0:0:0:0:
156,117,249479,1,0,0:0:0:0:
131,94,249554,1,0,0:0:0:0:
131,94,249629,1,2,0:0:0:0:
274,141,249779,1,6,0:0:0:0:
274,141,250079,1,6,0:0:0:0:
274,141,250379,1,6,0:0:0:0:
274,141,250679,1,6,0:0:0:0:
274,141,250979,1,6,0:0:0:0:
274,141,251279,1,6,0:0:0:0:
173,104,251579,1,2,0:0:0:0:
184,138,251679,5,0,0:0:0:0:
184,138,251779,5,0,0:0:0:0:
173,104,251879,1,2,0:0:0:0:
184,138,251979,5,0,0:0:0:0:
184,138,252079,5,0,0:0:0:0:
151,92,252179,1,2,0:0:0:0:
