osu file format v14

[General]
AudioFilename: audio.ogg
AudioLeadIn: 0
PreviewTime: 85829
Countdown: 1
SampleSet: Normal
StackLeniency: 0.7
Mode: 1
LetterboxInBreaks: 0
WidescreenStoryboard: 1

[Editor]
Bookmarks: 479,10079,34079,52979,69779,85829,109979,129179,144179,158579,177779,192179,211379,230579,240179,249779,266333,285533,295133
DistanceSpacing: 1
BeatDivisor: 4
GridSize: 32
TimelineZoom: 1.700001

[Metadata]
Title:Furuki Yuanxian ~ Death Echo
TitleUnicode:古きユアンシェン ~ Death Echo
Artist:Demetori
ArtistUnicode:Demetori
Creator:gaston_2199
Version:Sen's Muzukashii
Source:東方神霊廟 ~ Ten Desires.
Tags:le Grimoire De reve The Grimoire of Dream DECD-0009 Tendre est la Mort Tender is Death c83 83 DECD-0008 C85 comiket 85 Old Yuanxian Distant Hermit 九宝時 Kyuuhouji 徳南 Tokunan 霍青娥 Kaku Seiga ZUN 上海アリス幻樂団 Team Shanghai Alice Toho Touhou Shinreibyou project th13 power speed metal instrumental 東方project arrangement video game vgm Akonine SenSenko
BeatmapID:3843333
BeatmapSetID:790573

[Difficulty]
HPDrainRate:5
CircleSize:2
OverallDifficulty:5
ApproachRate:10
SliderMultiplier:1.4
SliderTickRate:1

[Events]
//Background and Video events
0,0,"BG.jpg",0,60
//Break Periods
2,62629,69329
//Storyboard Layer 0 (Background)
//Storyboard Layer 1 (Fail)
//Storyboard Layer 2 (Pass)
//Storyboard Layer 3 (Foreground)
//Storyboard Layer 4 (Overlay)
//Storyboard Sound Samples

[TimingPoints]
479,300,4,1,0,70,1,0
10004,-100,4,1,0,80,0,0
29279,-100,4,1,0,90,0,0
31904,-100,4,1,0,80,0,0
34229,-100,4,1,0,70,0,0
52979,300,4,1,0,80,1,0
62579,300,3,1,0,40,1,0
69779,-100,3,1,0,80,0,0
85829,-100,3,1,0,90,0,1
85979,300,4,1,0,90,1,1
105179,-100,4,1,0,80,0,0
109979,-100,4,1,0,90,0,1
129179,-100,4,1,0,90,0,0
129329,-100,4,1,0,70,0,0
137579,300,3,1,0,80,1,0
139379,300,4,1,0,80,1,0
158729,-100,4,1,0,70,0,0
168179,-100,3,1,0,80,0,0
177729,-100,3,1,0,70,0,0
182529,-100,3,1,0,80,0,0
192179,-100,4,1,0,90,0,1
230579,-100,4,1,0,90,0,0
230729,-100,4,1,0,80,0,0
249779,-100,4,1,0,90,0,0

[HitObjects]
209,188,479,5,4,0:0:0:0:
364,172,779,1,0,0:0:0:0:
364,172,1079,1,0,0:0:0:0:
197,160,1379,1,0,0:0:0:0:
197,161,1529,1,8,0:0:0:0:
364,172,1979,1,0,0:0:0:0:
364,172,2279,1,0,0:0:0:0:
364,172,2579,1,0,0:0:0:0:
364,172,2879,1,8,0:0:0:0:
364,172,3179,1,0,0:0:0:0:
364,172,3479,1,0,0:0:0:0:
197,161,3779,1,0,0:0:0:0:
197,161,3929,1,8,0:0:0:0:
364,172,4229,1,8,0:0:0:0:
355,162,4679,1,8,0:0:0:0:
355,162,4829,1,0,0:0:0:0:
355,162,4979,1,0,0:0:0:0:
354,157,5129,1,0,0:0:0:0:
351,155,5279,1,12,0:0:0:0:
351,155,5579,1,0,0:0:0:0:
355,162,5879,1,0,0:0:0:0:
354,157,6179,1,0,0:0:0:0:
351,155,6329,1,8,0:0:0:0:
355,162,6779,1,0,0:0:0:0:
354,157,7079,1,0,0:0:0:0:
351,155,7379,1,0,0:0:0:0:
351,155,7529,1,0,0:0:0:0:
355,162,7679,1,12,0:0:0:0:
354,157,7979,1,0,0:0:0:0:
296,170,8129,1,8,0:0:0:0:
351,155,8279,1,0,0:0:0:0:
296,170,8429,1,0,0:0:0:0:
296,170,8579,1,8,0:0:0:0:
296,170,8729,1,0,0:0:0:0:
296,170,8879,1,8,0:0:0:0:
296,170,8954,1,8,0:0:0:0:
296,170,9029,1,8,0:0:0:0:
296,170,9179,1,0,0:0:0:0:
296,170,9254,1,0,0:0:0:0:
296,170,9329,1,0,0:0:0:0:
296,170,9479,1,12,0:0:0:0:
245,157,10079,1,4,0:0:0:0:
245,157,10379,1,0,0:0:0:0:
245,157,10529,1,8,0:0:0:0:
245,157,10679,1,0,0:0:0:0:
245,157,10979,1,8,0:0:0:0:
268,114,11054,1,8,0:0:0:0:
268,114,11129,1,8,0:0:0:0:
268,114,11279,1,0,0:0:0:0:
251,78,11429,1,8,0:0:0:0:
251,78,11729,1,8,0:0:0:0:
251,78,12029,1,8,0:0:0:0:
268,114,12179,1,0,0:0:0:0:
217,93,12254,1,0,0:0:0:0:
217,93,12329,1,0,0:0:0:0:
306,108,12479,1,0,0:0:0:0:
306,108,12629,1,8,0:0:0:0:
306,108,12779,1,8,0:0:0:0:
306,108,12854,1,8,0:0:0:0:
306,108,12929,1,8,0:0:0:0:
306,108,13079,1,0,0:0:0:0:
306,108,13379,1,0,0:0:0:0:
306,108,13529,1,8,0:0:0:0:
136,87,13829,1,8,0:0:0:0:
136,87,14129,1,8,0:0:0:0:
136,87,14429,1,8,0:0:0:0:
136,87,14579,1,0,0:0:0:0:
136,87,14654,1,0,0:0:0:0:
136,87,14729,1,0,0:0:0:0:
136,87,14879,1,12,0:0:0:0:
336,148,15179,1,0,0:0:0:0:
336,148,15329,1,8,0:0:0:0:
336,148,15479,1,0,0:0:0:0:
336,148,15779,1,0,0:0:0:0:
336,148,15854,1,0,0:0:0:0:
336,148,15929,1,0,0:0:0:0:
336,148,16079,1,0,0:0:0:0:
336,148,16229,1,8,0:0:0:0:
336,148,16529,1,8,0:0:0:0:
336,148,16829,1,8,0:0:0:0:
336,148,16979,1,0,0:0:0:0:
336,148,17054,1,0,0:0:0:0:
336,148,17129,1,0,0:0:0:0:
336,148,17279,1,0,0:0:0:0:
336,148,17429,1,8,0:0:0:0:
336,148,17729,1,8,0:0:0:0:
336,148,17879,1,0,0:0:0:0:
336,148,18179,1,0,0:0:0:0:
336,148,18254,1,0,0:0:0:0:
336,148,18329,1,0,0:0:0:0:
336,148,18479,1,8,0:0:0:0:
336,148,18554,1,8,0:0:0:0:
336,148,18629,1,8,0:0:0:0:
336,148,18929,1,8,0:0:0:0:
336,148,19229,1,8,0:0:0:0:
336,148,19529,1,8,0:0:0:0:
336,148,19679,1,4,0:0:0:0:
344,147,19979,1,0,0:0:0:0:
343,147,20129,1,8,0:0:0:0:
344,148,20279,1,8,0:0:0:0:
343,147,20579,1,8,0:0:0:0:
343,147,20654,1,8,0:0:0:0:
343,147,20729,1,8,0:0:0:0:
344,147,20879,1,0,0:0:0:0:
343,147,21029,1,8,0:0:0:0:
344,148,21329,1,8,0:0:0:0:
343,147,21629,1,8,0:0:0:0:
344,147,21779,1,8,0:0:0:0:
344,147,21854,1,8,0:0:0:0:
344,147,21929,1,8,0:0:0:0:
343,147,22079,1,0,0:0:0:0:
344,148,22229,1,8,0:0:0:0:
343,147,22379,1,8,0:0:0:0:
343,147,22529,1,0,0:0:0:0:
344,147,22679,1,8,0:0:0:0:
344,147,22979,1,0,0:0:0:0:
343,147,23054,1,0,0:0:0:0:
343,147,23129,1,0,0:0:0:0:
343,147,23279,1,0,0:0:0:0:
343,147,23429,1,8,0:0:0:0:
344,147,23729,1,8,0:0:0:0:
343,147,24029,1,8,0:0:0:0:
343,147,24329,1,0,0:0:0:0:
343,147,24479,1,8,0:0:0:0:
238,204,24629,1,0,0:0:0:0:
238,204,24704,1,0,0:0:0:0:
238,204,24779,1,0,0:0:0:0:
238,204,24929,1,0,0:0:0:0:
238,204,25079,1,8,0:0:0:0:
238,204,25379,1,0,0:0:0:0:
238,204,25529,1,0,0:0:0:0:
238,204,25679,1,0,0:0:0:0:
238,204,25829,1,8,0:0:0:0:
238,204,26129,1,8,0:0:0:0:
238,204,26429,1,8,0:0:0:0:
238,204,26579,1,0,0:0:0:0:
238,204,26654,1,0,0:0:0:0:
238,204,26729,1,0,0:0:0:0:
238,204,26879,1,0,0:0:0:0:
238,204,27029,1,8,0:0:0:0:
238,204,27179,1,0,0:0:0:0:
238,204,27329,1,0,0:0:0:0:
238,204,27479,1,0,0:0:0:0:
238,204,27779,1,8,0:0:0:0:
238,204,27854,1,8,0:0:0:0:
238,204,27929,1,8,0:0:0:0:
238,204,28079,1,0,0:0:0:0:
238,204,28229,1,8,0:0:0:0:
238,204,28529,1,8,0:0:0:0:
238,204,28829,1,8,0:0:0:0:
353,135,28904,1,8,0:0:0:0:
353,135,28979,1,8,0:0:0:0:
353,135,29129,1,0,0:0:0:0:
353,135,29279,1,12,0:0:0:0:
353,135,29579,1,12,0:0:0:0:
353,135,29879,1,12,0:0:0:0:
353,135,30179,1,12,0:0:0:0:
353,135,30479,1,12,0:0:0:0:
353,135,30779,1,12,0:0:0:0:
353,135,31079,1,12,0:0:0:0:
353,135,31379,1,12,0:0:0:0:
353,135,31679,1,4,0:0:0:0:
260,121,31904,1,0,0:0:0:0:
168,172,31979,1,0,0:0:0:0:
353,135,32129,1,8,0:0:0:0:
396,165,32279,1,8,0:0:0:0:
396,165,32429,1,0,0:0:0:0:
396,165,32579,1,8,0:0:0:0:
157,72,32879,1,8,0:0:0:0:
173,78,32979,1,8,0:0:0:0:
173,78,33079,1,8,0:0:0:0:
173,78,33179,1,8,0:0:0:0:
350,153,33379,1,0,0:0:0:0:
350,153,33479,1,8,0:0:0:0:
377,220,33679,1,8,0:0:0:0:
377,220,33779,1,0,0:0:0:0:
78,84,34079,1,4,0:0:0:0:
256,192,34379,1,0,0:0:0:0:
256,192,34529,1,0,0:0:0:0:
256,192,34679,1,8,0:0:0:0:
256,192,34979,1,8,0:0:0:0:
256,192,35129,1,8,0:0:0:0:
256,192,35279,1,8,0:0:0:0:
256,192,35579,1,0,0:0:0:0:
256,192,35729,1,0,0:0:0:0:
256,192,35879,1,8,0:0:0:0:
256,192,36179,1,8,0:0:0:0:
256,192,36329,1,8,0:0:0:0:
256,192,36479,1,8,0:0:0:0:
256,192,36779,1,0,0:0:0:0:
256,192,36929,1,0,0:0:0:0:
256,192,37079,1,8,0:0:0:0:
121,153,37379,1,0,0:0:0:0:
121,153,37529,1,0,0:0:0:0:
256,192,37979,1,0,0:0:0:0:
256,192,38129,1,0,0:0:0:0:
256,192,38279,1,8,0:0:0:0:
256,192,38579,1,8,0:0:0:0:
256,192,38879,1,4,0:0:0:0:
256,192,39179,1,0,0:0:0:0:
256,192,39329,1,0,0:0:0:0:
256,192,39479,1,8,0:0:0:0:
256,192,39779,1,8,0:0:0:0:
256,192,39929,1,0,0:0:0:0:
256,192,40079,1,8,0:0:0:0:
256,192,40379,1,0,0:0:0:0:
256,192,40529,1,0,0:0:0:0:
256,192,40679,1,8,0:0:0:0:
256,192,40979,1,0,0:0:0:0:
256,192,41129,1,8,0:0:0:0:
256,192,41279,1,0,0:0:0:0:
256,192,41579,1,0,0:0:0:0:
256,192,41729,1,0,0:0:0:0:
256,192,41879,1,8,0:0:0:0:
166,113,42179,1,0,0:0:0:0:
166,113,42329,1,0,0:0:0:0:
166,113,42479,1,0,0:0:0:0:
399,174,42629,1,8,0:0:0:0:
394,167,42779,1,0,0:0:0:0:
395,167,42929,1,0,0:0:0:0:
395,167,43079,1,8,0:0:0:0:
395,167,43154,1,8,0:0:0:0:
394,167,43229,1,8,0:0:0:0:
399,174,43379,1,0,0:0:0:0:
399,174,43529,1,0,0:0:0:0:
394,167,43679,1,12,0:0:0:0:
256,192,43979,1,0,0:0:0:0:
256,192,44129,1,0,0:0:0:0:
256,192,44279,1,8,0:0:0:0:
256,192,44579,1,8,0:0:0:0:
256,192,44729,1,8,0:0:0:0:
256,192,44879,1,8,0:0:0:0:
256,192,45179,1,0,0:0:0:0:
256,192,45329,1,0,0:0:0:0:
256,192,45479,1,8,0:0:0:0:
256,192,45779,1,8,0:0:0:0:
256,192,45929,1,8,0:0:0:0:
256,192,46079,1,8,0:0:0:0:
256,192,46379,1,0,0:0:0:0:
256,192,46529,1,0,0:0:0:0:
256,192,46679,1,8,0:0:0:0:
149,129,46979,1,0,0:0:0:0:
149,129,47129,1,0,0:0:0:0:
256,192,47579,1,0,0:0:0:0:
256,192,47729,1,0,0:0:0:0:
256,192,47879,1,8,0:0:0:0:
256,192,48179,1,8,0:0:0:0:
256,192,48479,1,4,0:0:0:0:
256,192,48779,1,0,0:0:0:0:
256,192,48929,1,0,0:0:0:0:
256,192,49079,1,8,0:0:0:0:
256,192,49379,1,8,0:0:0:0:
256,192,49529,1,0,0:0:0:0:
256,192,49679,1,8,0:0:0:0:
256,192,49979,1,0,0:0:0:0:
256,192,50129,1,0,0:0:0:0:
256,192,50279,1,8,0:0:0:0:
256,192,50579,1,0,0:0:0:0:
256,192,50879,1,12,0:0:0:0:
256,192,51079,1,0,0:0:0:0:
256,192,51279,1,0,0:0:0:0:
256,192,51479,1,12,0:0:0:0:
256,192,51679,1,0,0:0:0:0:
256,192,51879,1,0,0:0:0:0:
243,157,52079,1,8,0:0:0:0:
328,132,52229,1,0,0:0:0:0:
328,132,52304,1,0,0:0:0:0:
328,132,52379,1,0,0:0:0:0:
328,132,52529,1,0,0:0:0:0:
328,132,52679,1,8,0:0:0:0:
245,157,52979,1,4,0:0:0:0:
245,157,53279,1,0,0:0:0:0:
245,157,53429,1,8,0:0:0:0:
245,157,53579,1,0,0:0:0:0:
245,157,53729,1,0,0:0:0:0:
245,157,53879,1,8,0:0:0:0:
268,114,53954,1,8,0:0:0:0:
268,114,54029,1,8,0:0:0:0:
268,114,54179,1,0,0:0:0:0:
251,78,54329,1,8,0:0:0:0:
251,78,54629,1,8,0:0:0:0:
251,78,54929,1,8,0:0:0:0:
268,114,55079,1,0,0:0:0:0:
217,93,55154,1,0,0:0:0:0:
217,93,55229,1,0,0:0:0:0:
306,108,55379,1,0,0:0:0:0:
306,108,55529,1,8,0:0:0:0:
306,108,55679,1,8,0:0:0:0:
306,108,55754,1,8,0:0:0:0:
306,108,55829,1,8,0:0:0:0:
306,108,55979,1,0,0:0:0:0:
306,108,56129,1,8,0:0:0:0:
306,108,56279,1,0,0:0:0:0:
306,108,56429,1,8,0:0:0:0:
136,87,56729,1,8,0:0:0:0:
136,87,57029,1,8,0:0:0:0:
136,87,57329,1,8,0:0:0:0:
136,87,57479,1,0,0:0:0:0:
136,87,57554,1,0,0:0:0:0:
136,87,57629,1,0,0:0:0:0:
136,87,57779,1,12,0:0:0:0:
336,148,58079,1,0,0:0:0:0:
336,148,58229,1,8,0:0:0:0:
336,148,58379,1,0,0:0:0:0:
336,148,58529,1,0,0:0:0:0:
336,148,58679,1,0,0:0:0:0:
336,148,58754,1,0,0:0:0:0:
336,148,58829,1,0,0:0:0:0:
336,148,58979,1,0,0:0:0:0:
336,148,59129,1,8,0:0:0:0:
336,148,59429,1,8,0:0:0:0:
336,148,59729,1,8,0:0:0:0:
336,148,59879,1,0,0:0:0:0:
336,148,59954,1,0,0:0:0:0:
336,148,60029,1,0,0:0:0:0:
27,109,60179,1,12,0:0:0:0:
336,148,60479,1,0,0:0:0:0:
336,148,60629,1,8,0:0:0:0:
336,148,60779,1,0,0:0:0:0:
336,148,60929,1,0,0:0:0:0:
336,148,61079,1,0,0:0:0:0:
336,148,61154,1,0,0:0:0:0:
336,148,61229,1,0,0:0:0:0:
336,148,61379,1,0,0:0:0:0:
336,148,61529,1,8,0:0:0:0:
181,112,61604,1,8,0:0:0:0:
181,112,61679,1,8,0:0:0:0:
181,112,61829,1,0,0:0:0:0:
181,112,61979,1,8,0:0:0:0:
181,112,62129,1,0,0:0:0:0:
181,112,62279,1,0,0:0:0:0:
181,112,62429,1,8,0:0:0:0:
256,192,69779,5,4,0:0:0:0:
256,192,69929,5,0,0:0:0:0:
256,192,70079,1,8,0:0:0:0:
256,192,70379,1,8,0:0:0:0:
256,192,70679,1,8,0:0:0:0:
256,192,70829,1,0,0:0:0:0:
256,192,70979,1,8,0:0:0:0:
256,192,71279,1,8,0:0:0:0:
256,192,71579,1,0,0:0:0:0:
256,192,71729,1,0,0:0:0:0:
256,192,71879,1,8,0:0:0:0:
256,192,72179,1,8,0:0:0:0:
256,192,72479,1,8,0:0:0:0:
256,192,72629,1,0,0:0:0:0:
256,192,72779,1,8,0:0:0:0:
256,192,73079,1,8,0:0:0:0:
256,192,73379,1,4,0:0:0:0:
256,192,73529,1,0,0:0:0:0:
256,192,73679,1,8,0:0:0:0:
256,192,73979,1,8,0:0:0:0:
256,192,74279,1,8,0:0:0:0:
256,192,74429,1,0,0:0:0:0:
256,192,74579,1,8,0:0:0:0:
256,192,74879,1,8,0:0:0:0:
256,192,75179,1,4,0:0:0:0:
256,192,75329,1,0,0:0:0:0:
256,192,75479,1,8,0:0:0:0:
256,192,75779,1,8,0:0:0:0:
256,192,75929,1,0,0:0:0:0:
256,192,76004,1,0,0:0:0:0:
256,192,76079,1,0,0:0:0:0:
256,192,76229,1,0,0:0:0:0:
256,192,76379,1,8,0:0:0:0:
256,192,76529,1,8,0:0:0:0:
256,192,76679,1,0,0:0:0:0:
256,192,76829,1,8,0:0:0:0:
256,192,76979,1,4,0:0:0:0:
299,117,77279,1,8,0:0:0:0:
299,117,77579,1,0,0:0:0:0:
299,117,77879,1,8,0:0:0:0:
299,117,78029,1,0,0:0:0:0:
299,117,78329,1,0,0:0:0:0:
299,117,78479,1,8,0:0:0:0:
299,117,78779,1,0,0:0:0:0:
299,117,78929,1,8,0:0:0:0:
299,117,79079,1,8,0:0:0:0:
299,117,79379,1,0,0:0:0:0:
299,117,79529,1,8,0:0:0:0:
299,117,79679,1,8,0:0:0:0:
299,117,79829,1,0,0:0:0:0:
299,117,80129,1,0,0:0:0:0:
299,117,80279,1,8,0:0:0:0:
299,117,80579,1,0,0:0:0:0:
299,117,80879,1,8,0:0:0:0:
299,117,81179,1,0,0:0:0:0:
299,117,81329,1,0,0:0:0:0:
299,117,81479,1,8,0:0:0:0:
299,117,81629,1,8,0:0:0:0:
299,117,81704,1,8,0:0:0:0:
299,117,81779,1,8,0:0:0:0:
299,117,81929,1,0,0:0:0:0:
299,117,82079,1,8,0:0:0:0:
299,117,82229,1,0,0:0:0:0:
299,117,82379,1,12,0:0:0:0:
263,111,83129,1,0,0:0:0:0:
263,111,83279,1,12,0:0:0:0:
272,140,84029,1,8,0:0:0:0:
272,140,84104,1,8,0:0:0:0:
272,140,84179,1,8,0:0:0:0:
272,140,84329,1,0,0:0:0:0:
272,140,84404,1,0,0:0:0:0:
272,140,84479,1,0,0:0:0:0:
272,140,84629,1,8,0:0:0:0:
136,133,84779,1,0,0:0:0:0:
272,140,84929,1,8,0:0:0:0:
272,140,85079,1,8,0:0:0:0:
272,140,85154,1,8,0:0:0:0:
204,163,85229,1,8,0:0:0:0:
205,188,85379,1,0,0:0:0:0:
172,171,85529,1,0,0:0:0:0:
195,162,85679,1,8,0:0:0:0:
195,162,85829,1,4,0:0:0:0:
208,172,86129,1,0,0:0:0:0:
36,226,86279,1,8,0:0:0:0:
241,178,86579,1,0,0:0:0:0:
241,178,86729,1,0,0:0:0:0:
243,178,86879,1,8,0:0:0:0:
412,152,87029,1,8,0:0:0:0:
412,152,87104,1,8,0:0:0:0:
412,152,87179,1,8,0:0:0:0:
431,151,87329,1,0,0:0:0:0:
431,152,87479,1,8,0:0:0:0:
430,152,87629,1,0,0:0:0:0:
429,151,87779,1,0,0:0:0:0:
430,152,88079,1,8,0:0:0:0:
431,151,88229,1,0,0:0:0:0:
431,152,88679,1,8,0:0:0:0:
243,81,88979,1,0,0:0:0:0:
243,81,89129,1,8,0:0:0:0:
105,126,89279,1,0,0:0:0:0:
243,81,89429,1,8,0:0:0:0:
243,81,89504,1,8,0:0:0:0:
105,126,89579,1,8,0:0:0:0:
105,126,89729,1,0,0:0:0:0:
105,126,89879,1,8,0:0:0:0:
189,174,90179,1,0,0:0:0:0:
189,174,90329,1,0,0:0:0:0:
189,174,90479,1,8,0:0:0:0:
185,167,90629,1,4,0:0:0:0:
184,167,90929,1,0,0:0:0:0:
183,166,91079,1,8,0:0:0:0:
184,165,91379,1,0,0:0:0:0:
181,208,91529,1,0,0:0:0:0:
181,208,91679,1,8,0:0:0:0:
181,208,91829,1,0,0:0:0:0:
181,208,91904,1,0,0:0:0:0:
181,208,91979,1,0,0:0:0:0:
181,208,92129,1,0,0:0:0:0:
181,208,92279,1,8,0:0:0:0:
181,208,92579,1,8,0:0:0:0:
181,208,92729,1,0,0:0:0:0:
181,208,92879,1,0,0:0:0:0:
181,208,93029,1,8,0:0:0:0:
181,208,93479,1,8,0:0:0:0:
181,208,93779,1,0,0:0:0:0:
181,208,93929,1,0,0:0:0:0:
181,208,94079,1,0,0:0:0:0:
181,208,94229,1,8,0:0:0:0:
174,205,94304,1,8,0:0:0:0:
174,206,94379,1,8,0:0:0:0:
172,205,94529,1,0,0:0:0:0:
172,205,94679,1,8,0:0:0:0:
172,205,94829,1,0,0:0:0:0:
171,205,94979,1,0,0:0:0:0:
171,204,95129,1,8,0:0:0:0:
170,203,95279,1,0,0:0:0:0:
174,206,95429,1,12,0:0:0:0:
171,204,95879,1,8,0:0:0:0:
157,128,96179,1,0,0:0:0:0:
157,128,96329,1,0,0:0:0:0:
164,132,96479,1,8,0:0:0:0:
175,137,96629,1,0,0:0:0:0:
176,137,96704,1,0,0:0:0:0:
177,138,96779,1,0,0:0:0:0:
178,139,96929,1,0,0:0:0:0:
179,140,97079,1,8,0:0:0:0:
182,141,97379,1,8,0:0:0:0:
182,142,97529,1,0,0:0:0:0:
183,142,97679,1,0,0:0:0:0:
184,142,97829,1,8,0:0:0:0:
182,141,98129,1,0,0:0:0:0:
182,141,98279,1,8,0:0:0:0:
196,148,98429,1,8,0:0:0:0:
188,145,98579,1,0,0:0:0:0:
195,147,98654,1,0,0:0:0:0:
190,145,98729,1,0,0:0:0:0:
191,145,98879,1,0,0:0:0:0:
192,146,99029,1,8,0:0:0:0:
305,165,99329,1,0,0:0:0:0:
305,165,99479,1,8,0:0:0:0:
305,165,99554,1,8,0:0:0:0:
305,165,99629,1,8,0:0:0:0:
305,165,99779,1,0,0:0:0:0:
305,165,99929,1,8,0:0:0:0:
305,165,100079,1,0,0:0:0:0:
311,168,100229,1,12,0:0:0:0:
311,169,100679,1,8,0:0:0:0:
312,169,100979,1,0,0:0:0:0:
313,169,101129,1,0,0:0:0:0:
311,168,101279,1,8,0:0:0:0:
311,169,101429,1,8,0:0:0:0:
311,169,101504,1,8,0:0:0:0:
311,169,101579,1,8,0:0:0:0:
311,169,101729,1,0,0:0:0:0:
312,169,101879,1,8,0:0:0:0:
313,169,102179,1,8,0:0:0:0:
318,172,102329,1,8,0:0:0:0:
325,177,102479,1,0,0:0:0:0:
326,177,102629,1,12,0:0:0:0:
326,177,102929,1,0,0:0:0:0:
327,177,103079,1,8,0:0:0:0:
325,177,103379,1,0,0:0:0:0:
326,177,103529,1,0,0:0:0:0:
326,177,103679,1,0,0:0:0:0:
326,177,103829,1,12,0:0:0:0:
327,177,104129,1,0,0:0:0:0:
103,137,104279,1,8,0:0:0:0:
103,137,104429,1,0,0:0:0:0:
103,137,104504,1,0,0:0:0:0:
103,137,104579,1,0,0:0:0:0:
103,137,104804,1,0,0:0:0:0:
103,137,105029,1,0,0:0:0:0:
103,137,105179,1,12,0:0:0:0:
103,137,105779,1,4,0:0:0:0:
103,137,106379,1,4,0:0:0:0:
103,137,106979,1,4,0:0:0:0:
256,192,107579,1,0,0:0:0:0:
256,192,107679,1,0,0:0:0:0:
256,192,107779,1,0,0:0:0:0:
256,192,107879,1,0,0:0:0:0:
256,192,108179,1,8,0:0:0:0:
256,192,108279,1,8,0:0:0:0:
256,192,108379,1,8,0:0:0:0:
256,192,108479,1,8,0:0:0:0:
256,192,108779,1,0,0:0:0:0:
256,192,108879,1,0,0:0:0:0:
256,192,108979,1,0,0:0:0:0:
256,192,109079,1,0,0:0:0:0:
136,110,109379,1,8,0:0:0:0:
136,110,109529,1,0,0:0:0:0:
136,110,109604,1,0,0:0:0:0:
256,192,109679,1,0,0:0:0:0:
256,192,109829,1,8,0:0:0:0:
256,192,109979,1,4,0:0:0:0:
92,115,110429,1,8,0:0:0:0:
99,113,110579,1,0,0:0:0:0:
105,114,110729,1,8,0:0:0:0:
106,115,111029,1,0,0:0:0:0:
108,115,111179,1,0,0:0:0:0:
107,115,111254,1,0,0:0:0:0:
109,115,111329,1,0,0:0:0:0:
109,115,111479,1,8,0:0:0:0:
105,114,111629,1,0,0:0:0:0:
106,115,111779,1,8,0:0:0:0:
109,116,111854,1,8,0:0:0:0:
123,120,111929,1,8,0:0:0:0:
116,118,112079,1,0,0:0:0:0:
108,115,112229,1,0,0:0:0:0:
125,120,112379,1,8,0:0:0:0:
123,120,112829,1,8,0:0:0:0:
123,120,112979,1,0,0:0:0:0:
126,121,113129,1,8,0:0:0:0:
128,121,113279,1,0,0:0:0:0:
131,124,113429,1,0,0:0:0:0:
372,146,113579,1,8,0:0:0:0:
372,146,113654,1,8,0:0:0:0:
372,146,113729,1,8,0:0:0:0:
372,146,113879,1,0,0:0:0:0:
372,146,114029,1,0,0:0:0:0:
381,146,114179,1,8,0:0:0:0:
381,146,114254,1,8,0:0:0:0:
381,146,114329,1,8,0:0:0:0:
78,134,114479,1,0,0:0:0:0:
78,134,114629,1,0,0:0:0:0:
78,134,114779,1,12,0:0:0:0:
372,146,115229,1,8,0:0:0:0:
390,198,115379,1,0,0:0:0:0:
390,198,115454,1,0,0:0:0:0:
390,198,115529,1,0,0:0:0:0:
390,198,115679,1,8,0:0:0:0:
390,198,115829,1,8,0:0:0:0:
390,198,115979,1,0,0:0:0:0:
390,198,116129,1,8,0:0:0:0:
390,198,116279,1,0,0:0:0:0:
390,198,116429,1,8,0:0:0:0:
390,198,116729,1,8,0:0:0:0:
390,198,116879,1,0,0:0:0:0:
390,198,116954,1,0,0:0:0:0:
390,198,117029,1,0,0:0:0:0:
390,198,117179,1,0,0:0:0:0:
390,198,117404,1,8,0:0:0:0:
397,199,117629,1,8,0:0:0:0:
399,199,117779,1,0,0:0:0:0:
399,199,118004,1,8,0:0:0:0:
398,199,118229,1,8,0:0:0:0:
399,199,118379,1,0,0:0:0:0:
399,199,118454,1,0,0:0:0:0:
397,199,118529,1,0,0:0:0:0:
397,199,118679,1,0,0:0:0:0:
399,199,118829,1,8,0:0:0:0:
399,199,118904,1,8,0:0:0:0:
399,199,118979,1,8,0:0:0:0:
398,199,119129,1,0,0:0:0:0:
398,199,119279,1,8,0:0:0:0:
399,199,119354,1,8,0:0:0:0:
399,199,119429,1,8,0:0:0:0:
397,199,119579,1,4,0:0:0:0:
399,199,120029,1,8,0:0:0:0:
398,199,120179,1,0,0:0:0:0:
86,147,120254,1,0,0:0:0:0:
86,147,120329,1,0,0:0:0:0:
86,147,120479,1,0,0:0:0:0:
86,147,120629,1,8,0:0:0:0:
86,147,120779,1,0,0:0:0:0:
86,147,120929,1,8,0:0:0:0:
86,147,121079,1,8,0:0:0:0:
86,147,121154,1,8,0:0:0:0:
86,147,121229,1,8,0:0:0:0:
86,147,121379,1,0,0:0:0:0:
95,124,121529,1,8,0:0:0:0:
86,147,121679,1,0,0:0:0:0:
86,147,121829,1,0,0:0:0:0:
86,147,121979,1,8,0:0:0:0:
86,147,122429,1,8,0:0:0:0:
86,147,122579,1,0,0:0:0:0:
86,147,122729,1,8,0:0:0:0:
92,149,122879,1,0,0:0:0:0:
170,122,122954,1,0,0:0:0:0:
170,122,123029,1,0,0:0:0:0:
90,23,123179,1,8,0:0:0:0:
90,23,123404,1,8,0:0:0:0:
90,23,123629,1,8,0:0:0:0:
100,28,123779,1,0,0:0:0:0:
103,28,123929,1,8,0:0:0:0:
108,30,124079,1,0,0:0:0:0:
127,40,124229,1,0,0:0:0:0:
129,43,124379,1,12,0:0:0:0:
131,42,124679,1,8,0:0:0:0:
142,46,124829,1,0,0:0:0:0:
148,48,124904,1,0,0:0:0:0:
150,49,124979,1,0,0:0:0:0:
152,50,125129,1,8,0:0:0:0:
154,51,125279,1,0,0:0:0:0:
155,52,125429,1,8,0:0:0:0:
156,52,125879,1,8,0:0:0:0:
158,52,126029,1,0,0:0:0:0:
159,53,126104,1,0,0:0:0:0:
160,56,126179,1,0,0:0:0:0:
163,56,126329,1,8,0:0:0:0:
164,57,126479,1,8,0:0:0:0:
261,87,126554,1,8,0:0:0:0:
230,76,126629,1,8,0:0:0:0:
261,87,126779,1,4,0:0:0:0:
261,87,127229,1,0,0:0:0:0:
261,87,127379,1,0,0:0:0:0:
261,87,127529,1,8,0:0:0:0:
261,87,127679,1,0,0:0:0:0:
175,119,127754,1,0,0:0:0:0:
175,119,127829,1,0,0:0:0:0:
261,87,127979,1,0,0:0:0:0:
203,112,128279,1,8,0:0:0:0:
204,113,128429,1,0,0:0:0:0:
205,113,128504,1,0,0:0:0:0:
206,115,128579,1,0,0:0:0:0:
212,117,128729,1,8,0:0:0:0:
213,117,128879,1,8,0:0:0:0:
214,117,129029,1,8,0:0:0:0:
215,117,129179,1,4,0:0:0:0:
213,117,129779,1,8,0:0:0:0:
214,117,130079,1,0,0:0:0:0:
213,117,130229,1,8,0:0:0:0:
221,119,130379,1,0,0:0:0:0:
221,120,130529,1,0,0:0:0:0:
222,120,130679,1,8,0:0:0:0:
224,120,130979,1,8,0:0:0:0:
221,119,131279,1,8,0:0:0:0:
151,42,131429,1,8,0:0:0:0:
164,32,131579,1,4,0:0:0:0:
224,120,131879,1,0,0:0:0:0:
230,123,132029,1,0,0:0:0:0:
228,122,132179,1,8,0:0:0:0:
231,123,132479,1,8,0:0:0:0:
231,124,132629,1,0,0:0:0:0:
240,128,132779,1,8,0:0:0:0:
240,128,132929,1,0,0:0:0:0:
240,128,133079,1,0,0:0:0:0:
241,129,133379,1,8,0:0:0:0:
241,129,133529,1,0,0:0:0:0:
207,146,133679,1,8,0:0:0:0:
207,146,133829,1,0,0:0:0:0:
207,146,133979,1,12,0:0:0:0:
171,151,134579,1,0,0:0:0:0:
206,127,134879,1,8,0:0:0:0:
206,127,135029,1,8,0:0:0:0:
206,127,135179,1,0,0:0:0:0:
206,127,135329,1,0,0:0:0:0:
206,127,135479,1,8,0:0:0:0:
206,127,135779,1,8,0:0:0:0:
206,127,136079,1,0,0:0:0:0:
206,127,136229,1,0,0:0:0:0:
206,127,136379,1,12,0:0:0:0:
206,127,136679,1,0,0:0:0:0:
206,127,136829,1,8,0:0:0:0:
206,127,136979,1,8,0:0:0:0:
206,127,137279,1,8,0:0:0:0:
206,127,137429,1,8,0:0:0:0:
206,127,137579,1,4,0:0:0:0:
206,127,138029,1,4,0:0:0:0:
206,127,138479,1,4,0:0:0:0:
206,127,138929,1,4,0:0:0:0:
206,127,139379,1,4,0:0:0:0:
256,160,139529,1,8,0:0:0:0:
156,104,139679,1,8,0:0:0:0:
156,104,139829,1,8,0:0:0:0:
156,104,139979,1,0,0:0:0:0:
156,104,140129,1,8,0:0:0:0:
156,104,140279,1,0,0:0:0:0:
156,104,140354,1,0,0:0:0:0:
156,104,140429,1,0,0:0:0:0:
156,104,140579,1,0,0:0:0:0:
156,104,140729,1,8,0:0:0:0:
156,104,141029,1,8,0:0:0:0:
156,104,141179,1,0,0:0:0:0:
156,104,141329,1,8,0:0:0:0:
156,104,141479,1,0,0:0:0:0:
156,104,141554,1,0,0:0:0:0:
156,104,141629,1,0,0:0:0:0:
156,104,141779,1,0,0:0:0:0:
156,104,141929,1,8,0:0:0:0:
156,104,142229,1,8,0:0:0:0:
156,104,142379,1,0,0:0:0:0:
156,104,142529,1,8,0:0:0:0:
156,104,142679,1,0,0:0:0:0:
156,104,142754,1,0,0:0:0:0:
156,104,142829,1,0,0:0:0:0:
156,104,142979,1,0,0:0:0:0:
156,104,143129,1,8,0:0:0:0:
156,104,143429,1,8,0:0:0:0:
156,104,143729,1,8,0:0:0:0:
156,104,144029,1,0,0:0:0:0:
156,104,144179,1,8,0:0:0:0:
252,211,144329,1,8,0:0:0:0:
252,211,144479,1,0,0:0:0:0:
252,211,144554,1,0,0:0:0:0:
252,211,144629,1,0,0:0:0:0:
252,211,144779,1,0,0:0:0:0:
252,211,144929,1,8,0:0:0:0:
252,211,145079,1,0,0:0:0:0:
252,211,145154,1,0,0:0:0:0:
252,211,145229,1,0,0:0:0:0:
252,211,145379,1,0,0:0:0:0:
252,211,145529,1,8,0:0:0:0:
252,211,145829,1,8,0:0:0:0:
260,211,146129,1,8,0:0:0:0:
261,211,146279,1,0,0:0:0:0:
261,211,146354,1,0,0:0:0:0:
262,212,146429,1,0,0:0:0:0:
262,211,146579,1,0,0:0:0:0:
262,211,146729,1,8,0:0:0:0:
260,211,147029,1,8,0:0:0:0:
261,211,147329,1,8,0:0:0:0:
262,211,147629,1,8,0:0:0:0:
266,210,147779,1,8,0:0:0:0:
260,211,147854,1,8,0:0:0:0:
260,211,147929,1,8,0:0:0:0:
261,211,148079,1,0,0:0:0:0:
268,212,148229,1,8,0:0:0:0:
262,211,148379,1,0,0:0:0:0:
262,211,148529,1,8,0:0:0:0:
266,210,148679,1,8,0:0:0:0:
266,210,148754,1,8,0:0:0:0:
269,213,148829,1,8,0:0:0:0:
269,213,148979,1,4,0:0:0:0:
269,213,149429,1,8,0:0:0:0:
266,210,149579,1,0,0:0:0:0:
321,240,149729,1,8,0:0:0:0:
321,240,149879,1,0,0:0:0:0:
321,240,149954,1,0,0:0:0:0:
321,240,150029,1,0,0:0:0:0:
321,240,150179,1,0,0:0:0:0:
321,240,150329,1,8,0:0:0:0:
321,240,150629,1,8,0:0:0:0:
321,240,150929,1,8,0:0:0:0:
321,240,151079,1,8,0:0:0:0:
321,240,151154,1,8,0:0:0:0:
321,240,151229,1,8,0:0:0:0:
321,240,151379,1,0,0:0:0:0:
321,240,151529,1,8,0:0:0:0:
321,240,151829,1,8,0:0:0:0:
321,240,152129,1,8,0:0:0:0:
321,240,152279,1,0,0:0:0:0:
321,240,152354,1,0,0:0:0:0:
321,240,152429,1,0,0:0:0:0:
321,240,152579,1,0,0:0:0:0:
321,240,152729,1,8,0:0:0:0:
218,129,153029,1,8,0:0:0:0:
225,128,153329,1,8,0:0:0:0:
226,131,153479,1,0,0:0:0:0:
228,130,153554,1,0,0:0:0:0:
231,131,153629,1,0,0:0:0:0:
232,132,153779,1,12,0:0:0:0:
171,94,154079,1,8,0:0:0:0:
171,94,154154,1,8,0:0:0:0:
171,94,154229,1,8,0:0:0:0:
171,94,154379,1,0,0:0:0:0:
76,127,154529,1,8,0:0:0:0:
181,100,154829,1,0,0:0:0:0:
127,127,154979,1,8,0:0:0:0:
183,101,155129,1,8,0:0:0:0:
142,124,155279,1,0,0:0:0:0:
116,142,155429,1,8,0:0:0:0:
116,142,155504,1,8,0:0:0:0:
156,129,155579,1,8,0:0:0:0:
166,134,155729,1,8,0:0:0:0:
169,136,155879,1,0,0:0:0:0:
171,136,156029,1,0,0:0:0:0:
97,108,156179,1,8,0:0:0:0:
356,148,156329,1,8,0:0:0:0:
334,113,156404,1,8,0:0:0:0:
334,113,156479,1,8,0:0:0:0:
334,113,156629,1,8,0:0:0:0:
334,113,156779,1,0,0:0:0:0:
334,113,156854,1,0,0:0:0:0:
334,113,156929,1,0,0:0:0:0:
334,113,157079,1,0,0:0:0:0:
131,106,157229,1,0,0:0:0:0:
334,113,157379,1,8,0:0:0:0:
340,115,158579,1,4,0:0:0:0:
256,192,159029,1,0,0:0:0:0:
256,192,159179,1,8,0:0:0:0:
256,192,159329,1,8,0:0:0:0:
256,192,159479,1,0,0:0:0:0:
256,192,159779,1,8,0:0:0:0:
256,192,160079,1,0,0:0:0:0:
256,192,160229,1,0,0:0:0:0:
256,192,160379,1,8,0:0:0:0:
256,192,160529,1,8,0:0:0:0:
256,192,160679,1,0,0:0:0:0:
256,192,160979,1,8,0:0:0:0:
256,192,161279,1,0,0:0:0:0:
256,192,161429,1,8,0:0:0:0:
256,192,161579,1,0,0:0:0:0:
256,192,161729,1,0,0:0:0:0:
256,192,161879,1,8,0:0:0:0:
256,192,162179,1,0,0:0:0:0:
256,192,162479,1,8,0:0:0:0:
256,192,162779,1,0,0:0:0:0:
256,192,162929,1,0,0:0:0:0:
256,192,163079,1,0,0:0:0:0:
256,192,163379,1,8,0:0:0:0:
222,168,163529,1,8,0:0:0:0:
222,168,163679,1,0,0:0:0:0:
222,168,163829,1,8,0:0:0:0:
222,168,164129,1,8,0:0:0:0:
243,151,164204,1,8,0:0:0:0:
242,151,164279,1,8,0:0:0:0:
242,150,164429,1,0,0:0:0:0:
241,150,164579,1,8,0:0:0:0:
243,150,164729,1,8,0:0:0:0:
244,151,164879,1,0,0:0:0:0:
244,150,165029,1,0,0:0:0:0:
243,151,165179,1,12,0:0:0:0:
409,291,165329,1,8,0:0:0:0:
409,291,165404,1,8,0:0:0:0:
409,291,165479,1,8,0:0:0:0:
126,139,165629,1,0,0:0:0:0:
189,126,165779,1,12,0:0:0:0:
189,126,166229,1,8,0:0:0:0:
189,126,166379,1,0,0:0:0:0:
189,126,166529,1,0,0:0:0:0:
189,126,166604,1,0,0:0:0:0:
189,126,166679,1,0,0:0:0:0:
189,126,166829,1,0,0:0:0:0:
189,126,166979,1,8,0:0:0:0:
202,144,167129,1,8,0:0:0:0:
204,145,167279,1,8,0:0:0:0:
299,78,167429,1,0,0:0:0:0:
290,77,167579,1,0,0:0:0:0:
290,73,167729,1,8,0:0:0:0:
289,74,167804,1,8,0:0:0:0:
288,74,167879,1,8,0:0:0:0:
286,72,168029,1,8,0:0:0:0:
286,72,168179,1,4,0:0:0:0:
231,30,168479,1,0,0:0:0:0:
174,130,168779,1,8,0:0:0:0:
174,130,169079,1,0,0:0:0:0:
174,130,169229,1,8,0:0:0:0:
174,130,169304,1,8,0:0:0:0:
174,130,169379,1,8,0:0:0:0:
185,131,169529,1,0,0:0:0:0:
185,131,169679,1,8,0:0:0:0:
185,131,169829,1,0,0:0:0:0:
187,131,169979,1,0,0:0:0:0:
187,131,170129,1,0,0:0:0:0:
186,130,170279,1,8,0:0:0:0:
185,130,170429,1,8,0:0:0:0:
185,131,170504,1,8,0:0:0:0:
185,131,170579,1,8,0:0:0:0:
185,131,170729,1,0,0:0:0:0:
185,131,170879,1,8,0:0:0:0:
186,130,171179,1,0,0:0:0:0:
185,131,171479,1,8,0:0:0:0:
362,100,171629,1,0,0:0:0:0:
362,100,171704,1,0,0:0:0:0:
362,100,171779,1,0,0:0:0:0:
362,100,171929,1,0,0:0:0:0:
362,100,172079,1,8,0:0:0:0:
362,100,172229,1,0,0:0:0:0:
362,100,172379,1,8,0:0:0:0:
362,100,172454,1,8,0:0:0:0:
362,100,172529,1,8,0:0:0:0:
362,100,172679,1,8,0:0:0:0:
362,100,172829,1,0,0:0:0:0:
362,100,172979,1,12,0:0:0:0:
362,100,173279,1,8,0:0:0:0:
362,100,173429,1,0,0:0:0:0:
362,100,173504,1,0,0:0:0:0:
362,100,173579,1,0,0:0:0:0:
362,100,173729,1,8,0:0:0:0:
362,100,173879,1,8,0:0:0:0:
362,100,173954,1,8,0:0:0:0:
362,100,174029,1,8,0:0:0:0:
195,152,174179,1,0,0:0:0:0:
195,152,174329,1,0,0:0:0:0:
362,100,174479,1,8,0:0:0:0:
362,100,174779,1,8,0:0:0:0:
362,100,174929,1,0,0:0:0:0:
362,100,175004,1,0,0:0:0:0:
362,100,175079,1,0,0:0:0:0:
362,100,175229,1,0,0:0:0:0:
362,100,175379,1,8,0:0:0:0:
273,144,175679,1,0,0:0:0:0:
362,100,175829,1,8,0:0:0:0:
362,100,175904,1,8,0:0:0:0:
362,100,175979,1,8,0:0:0:0:
362,100,176129,1,0,0:0:0:0:
362,100,176279,1,8,0:0:0:0:
362,100,176729,1,8,0:0:0:0:
362,100,176879,1,0,0:0:0:0:
362,100,177029,1,8,0:0:0:0:
362,100,177179,1,0,0:0:0:0:
362,100,177329,1,0,0:0:0:0:
362,100,177479,1,0,0:0:0:0:
362,100,177629,1,0,0:0:0:0:
362,100,177779,1,12,0:0:0:0:
339,131,178079,1,0,0:0:0:0:
339,131,178229,1,0,0:0:0:0:
235,236,178379,1,8,0:0:0:0:
235,236,178529,1,0,0:0:0:0:
235,236,178829,1,0,0:0:0:0:
235,236,179129,1,0,0:0:0:0:
235,236,179429,1,0,0:0:0:0:
235,236,179579,1,8,0:0:0:0:
235,236,179729,1,0,0:0:0:0:
235,236,179879,1,8,0:0:0:0:
235,236,179954,1,8,0:0:0:0:
235,236,180029,1,8,0:0:0:0:
235,236,180179,1,0,0:0:0:0:
234,246,180479,1,8,0:0:0:0:
237,248,180629,1,0,0:0:0:0:
238,248,180779,1,8,0:0:0:0:
235,246,180929,1,0,0:0:0:0:
233,246,181229,1,8,0:0:0:0:
234,246,181529,1,8,0:0:0:0:
235,246,181829,1,0,0:0:0:0:
233,246,181979,1,8,0:0:0:0:
239,248,182129,1,8,0:0:0:0:
234,246,182279,1,0,0:0:0:0:
234,246,182429,1,0,0:0:0:0:
241,249,182579,1,12,0:0:0:0:
241,249,183629,1,0,0:0:0:0:
239,318,183779,1,8,0:0:0:0:
240,318,184979,1,8,0:0:0:0:
240,318,185054,1,8,0:0:0:0:
240,318,185129,1,8,0:0:0:0:
240,318,185279,1,0,0:0:0:0:
240,318,185354,1,0,0:0:0:0:
240,318,185429,1,0,0:0:0:0:
240,318,185579,1,0,0:0:0:0:
240,318,185729,1,8,0:0:0:0:
240,318,185879,1,8,0:0:0:0:
246,322,185954,1,8,0:0:0:0:
245,322,186029,1,8,0:0:0:0:
246,322,186179,1,0,0:0:0:0:
246,322,186329,1,8,0:0:0:0:
247,323,186479,1,8,0:0:0:0:
247,323,186629,1,8,0:0:0:0:
248,323,186779,1,0,0:0:0:0:
245,322,186979,1,0,0:0:0:0:
246,322,187179,1,0,0:0:0:0:
247,323,187379,1,12,0:0:0:0:
245,322,187979,1,12,0:0:0:0:
251,324,188579,1,12,0:0:0:0:
251,324,189179,1,12,0:0:0:0:
256,192,189779,1,8,0:0:0:0:
256,192,189879,1,8,0:0:0:0:
256,192,189979,1,8,0:0:0:0:
256,192,190079,1,8,0:0:0:0:
246,147,190379,1,0,0:0:0:0:
256,192,190479,1,0,0:0:0:0:
256,192,190579,1,0,0:0:0:0:
256,192,190679,1,0,0:0:0:0:
256,192,190979,1,8,0:0:0:0:
256,192,191079,1,8,0:0:0:0:
256,192,191179,1,8,0:0:0:0:
256,192,191279,1,8,0:0:0:0:
256,192,191579,1,8,0:0:0:0:
256,192,191729,1,0,0:0:0:0:
256,192,191804,1,0,0:0:0:0:
256,192,191879,1,0,0:0:0:0:
256,192,192029,1,8,0:0:0:0:
256,192,192179,1,4,0:0:0:0:
194,95,192629,1,8,0:0:0:0:
194,95,192779,1,0,0:0:0:0:
194,95,193079,1,0,0:0:0:0:
194,95,193154,1,0,0:0:0:0:
194,95,193229,1,0,0:0:0:0:
201,98,193379,1,0,0:0:0:0:
201,98,193529,1,8,0:0:0:0:
201,98,193679,1,0,0:0:0:0:
201,98,193829,1,0,0:0:0:0:
201,98,193979,1,8,0:0:0:0:
201,98,194129,1,8,0:0:0:0:
201,98,194279,1,0,0:0:0:0:
201,98,194354,1,0,0:0:0:0:
201,98,194429,1,0,0:0:0:0:
201,98,194579,1,8,0:0:0:0:
201,98,195029,1,8,0:0:0:0:
201,98,195179,1,0,0:0:0:0:
201,98,195329,1,8,0:0:0:0:
201,98,195479,1,0,0:0:0:0:
201,98,195554,1,0,0:0:0:0:
201,98,195629,1,0,0:0:0:0:
201,98,195779,1,8,0:0:0:0:
201,98,195929,1,0,0:0:0:0:
201,98,196079,1,8,0:0:0:0:
201,98,196154,1,8,0:0:0:0:
201,98,196229,1,8,0:0:0:0:
201,98,196379,1,0,0:0:0:0:
201,98,196829,1,0,0:0:0:0:
201,98,196979,1,12,0:0:0:0:
65,146,197279,1,0,0:0:0:0:
201,98,197429,1,8,0:0:0:0:
48,126,197579,1,0,0:0:0:0:
54,132,197654,1,0,0:0:0:0:
54,132,197729,1,0,0:0:0:0:
54,132,197879,1,8,0:0:0:0:
56,135,198029,1,8,0:0:0:0:
55,134,198179,1,0,0:0:0:0:
46,124,198329,1,8,0:0:0:0:
48,126,198479,1,0,0:0:0:0:
40,118,198629,1,8,0:0:0:0:
39,117,198929,1,8,0:0:0:0:
39,117,199079,1,0,0:0:0:0:
39,117,199229,1,0,0:0:0:0:
34,110,199379,1,8,0:0:0:0:
34,110,199604,1,8,0:0:0:0:
32,107,199829,1,8,0:0:0:0:
31,107,199979,1,8,0:0:0:0:
31,107,200204,1,8,0:0:0:0:
34,110,200429,1,8,0:0:0:0:
200,120,200579,1,0,0:0:0:0:
200,120,200729,1,8,0:0:0:0:
206,124,200804,1,8,0:0:0:0:
206,124,200879,1,8,0:0:0:0:
206,124,201029,1,0,0:0:0:0:
206,124,201179,1,8,0:0:0:0:
206,124,201329,1,0,0:0:0:0:
207,124,201479,1,0,0:0:0:0:
207,124,201554,1,0,0:0:0:0:
207,124,201629,1,0,0:0:0:0:
206,124,201779,1,12,0:0:0:0:
197,151,202229,1,8,0:0:0:0:
200,154,202379,1,0,0:0:0:0:
200,154,202529,1,0,0:0:0:0:
200,154,202679,1,8,0:0:0:0:
200,154,202829,1,0,0:0:0:0:
197,151,202904,1,0,0:0:0:0:
197,151,202979,1,0,0:0:0:0:
197,151,203129,1,8,0:0:0:0:
205,164,203279,1,8,0:0:0:0:
205,164,203429,1,0,0:0:0:0:
205,164,203579,1,8,0:0:0:0:
205,164,203879,1,0,0:0:0:0:
205,164,204029,1,8,0:0:0:0:
205,164,204329,1,8,0:0:0:0:
205,164,204479,1,0,0:0:0:0:
76,133,204554,1,0,0:0:0:0:
76,133,204629,1,0,0:0:0:0:
205,164,204779,1,8,0:0:0:0:
205,164,204929,1,8,0:0:0:0:
205,164,205079,1,0,0:0:0:0:
205,164,205154,1,0,0:0:0:0:
205,164,205229,1,0,0:0:0:0:
205,164,205379,1,8,0:0:0:0:
205,164,205604,1,8,0:0:0:0:
205,164,205829,1,8,0:0:0:0:
205,164,205979,1,8,0:0:0:0:
205,164,206429,1,0,0:0:0:0:
205,164,206579,1,12,0:0:0:0:
205,164,206879,1,8,0:0:0:0:
205,164,206954,1,8,0:0:0:0:
205,164,207029,1,8,0:0:0:0:
205,164,207179,1,0,0:0:0:0:
205,164,207329,1,8,0:0:0:0:
205,164,207479,1,0,0:0:0:0:
205,164,207629,1,8,0:0:0:0:
205,164,207929,1,8,0:0:0:0:
205,164,208079,1,0,0:0:0:0:
205,164,208229,1,8,0:0:0:0:
205,164,208304,1,8,0:0:0:0:
205,164,208379,1,8,0:0:0:0:
205,164,208529,1,0,0:0:0:0:
205,164,208679,1,0,0:0:0:0:
205,164,208754,1,0,0:0:0:0:
205,164,208829,1,0,0:0:0:0:
205,164,208979,1,12,0:0:0:0:
194,133,209429,1,8,0:0:0:0:
194,133,209579,1,0,0:0:0:0:
194,133,209654,1,0,0:0:0:0:
194,133,209729,1,0,0:0:0:0:
195,135,209879,1,8,0:0:0:0:
195,135,210029,1,0,0:0:0:0:
194,133,210179,1,8,0:0:0:0:
194,133,210479,1,0,0:0:0:0:
194,133,210629,1,0,0:0:0:0:
140,120,210704,1,0,0:0:0:0:
194,133,210779,1,0,0:0:0:0:
195,135,210929,1,0,0:0:0:0:
195,135,211079,1,8,0:0:0:0:
194,133,211229,1,0,0:0:0:0:
194,133,211379,1,12,0:0:0:0:
194,133,211679,1,8,0:0:0:0:
195,135,211979,1,0,0:0:0:0:
194,133,212279,1,0,0:0:0:0:
241,134,212429,1,8,0:0:0:0:
241,134,212504,1,8,0:0:0:0:
241,134,212579,1,8,0:0:0:0:
241,134,212729,1,0,0:0:0:0:
241,134,212879,1,8,0:0:0:0:
241,134,213029,1,0,0:0:0:0:
241,134,213179,1,0,0:0:0:0:
241,134,213254,1,0,0:0:0:0:
241,134,213329,1,0,0:0:0:0:
241,134,213479,1,8,0:0:0:0:
241,134,213629,1,0,0:0:0:0:
241,134,213779,1,8,0:0:0:0:
241,134,214079,1,8,0:0:0:0:
241,134,214379,1,8,0:0:0:0:
241,134,214679,1,0,0:0:0:0:
241,134,214829,1,0,0:0:0:0:
241,134,214904,1,0,0:0:0:0:
241,134,214979,1,0,0:0:0:0:
241,134,215129,1,8,0:0:0:0:
241,134,215279,1,0,0:0:0:0:
241,134,215429,1,0,0:0:0:0:
241,134,215579,1,8,0:0:0:0:
241,134,216029,1,0,0:0:0:0:
241,134,216179,1,12,0:0:0:0:
241,134,216479,1,0,0:0:0:0:
241,134,216629,1,8,0:0:0:0:
241,134,216779,1,0,0:0:0:0:
241,134,216854,1,0,0:0:0:0:
241,134,216929,1,0,0:0:0:0:
241,134,217079,1,8,0:0:0:0:
241,134,217229,1,8,0:0:0:0:
241,134,217304,1,8,0:0:0:0:
241,134,217379,1,8,0:0:0:0:
241,134,217529,1,0,0:0:0:0:
176,99,217679,1,0,0:0:0:0:
176,99,217829,1,8,0:0:0:0:
224,160,217979,1,8,0:0:0:0:
241,134,218129,1,0,0:0:0:0:
241,134,218279,1,0,0:0:0:0:
241,134,218429,1,8,0:0:0:0:
241,134,218579,1,0,0:0:0:0:
241,134,218804,1,8,0:0:0:0:
241,134,219029,1,8,0:0:0:0:
241,134,219179,1,8,0:0:0:0:
241,134,219404,1,8,0:0:0:0:
241,134,219629,1,8,0:0:0:0:
241,134,219779,1,0,0:0:0:0:
241,134,219929,1,8,0:0:0:0:
241,134,220004,1,8,0:0:0:0:
241,134,220079,1,8,0:0:0:0:
241,134,220229,1,0,0:0:0:0:
241,134,220379,1,0,0:0:0:0:
241,134,220454,1,0,0:0:0:0:
241,134,220529,1,0,0:0:0:0:
241,134,220679,1,8,0:0:0:0:
241,134,220829,1,0,0:0:0:0:
241,134,220979,1,12,0:0:0:0:
241,134,221279,1,8,0:0:0:0:
241,134,221579,1,8,0:0:0:0:
241,134,221879,1,8,0:0:0:0:
241,134,222029,1,0,0:0:0:0:
241,134,222104,1,0,0:0:0:0:
241,134,222179,1,0,0:0:0:0:
241,134,222329,1,0,0:0:0:0:
241,134,222479,1,8,0:0:0:0:
241,134,222629,1,0,0:0:0:0:
241,134,222779,1,8,0:0:0:0:
149,145,223079,1,8,0:0:0:0:
241,134,223229,1,0,0:0:0:0:
241,134,223304,1,0,0:0:0:0:
241,134,223379,1,0,0:0:0:0:
241,134,223529,1,8,0:0:0:0:
241,134,223679,1,8,0:0:0:0:
241,134,223829,1,8,0:0:0:0:
241,134,223979,1,0,0:0:0:0:
241,134,224054,1,0,0:0:0:0:
241,134,224129,1,0,0:0:0:0:
241,134,224279,1,8,0:0:0:0:
241,134,224429,1,0,0:0:0:0:
241,134,224579,1,8,0:0:0:0:
241,134,224804,1,8,0:0:0:0:
241,134,225029,1,8,0:0:0:0:
241,134,225179,1,8,0:0:0:0:
241,134,225629,1,0,0:0:0:0:
241,134,225779,1,12,0:0:0:0:
241,134,226079,1,8,0:0:0:0:
241,134,226229,1,8,0:0:0:0:
241,134,226304,1,8,0:0:0:0:
241,134,226379,1,8,0:0:0:0:
241,134,226529,1,0,0:0:0:0:
241,134,226679,1,8,0:0:0:0:
241,134,226829,1,0,0:0:0:0:
241,134,226979,1,12,0:0:0:0:
318,194,227279,1,8,0:0:0:0:
318,194,227429,1,0,0:0:0:0:
318,194,227504,1,0,0:0:0:0:
252,112,227579,1,0,0:0:0:0:
251,113,227729,1,0,0:0:0:0:
255,117,227879,1,8,0:0:0:0:
186,152,228029,1,0,0:0:0:0:
214,154,228179,1,8,0:0:0:0:
214,154,228329,1,0,0:0:0:0:
214,154,228404,1,0,0:0:0:0:
214,154,228479,1,0,0:0:0:0:
149,157,228629,1,8,0:0:0:0:
157,158,228779,1,0,0:0:0:0:
157,158,228854,1,0,0:0:0:0:
157,158,228929,1,0,0:0:0:0:
157,158,229079,1,8,0:0:0:0:
157,158,229379,1,12,0:0:0:0:
157,158,229829,1,0,0:0:0:0:
157,158,229904,1,0,0:0:0:0:
157,158,229979,1,0,0:0:0:0:
157,158,230129,1,8,0:0:0:0:
157,158,230279,1,0,0:0:0:0:
157,158,230429,1,0,0:0:0:0:
157,158,230579,1,12,0:0:0:0:
219,183,231029,1,0,0:0:0:0:
219,183,231179,1,8,0:0:0:0:
219,183,231329,1,0,0:0:0:0:
219,183,231479,1,0,0:0:0:0:
219,183,231554,1,0,0:0:0:0:
219,183,231629,1,0,0:0:0:0:
219,183,231779,1,0,0:0:0:0:
219,183,231929,1,8,0:0:0:0:
219,183,232229,1,8,0:0:0:0:
219,183,232379,1,0,0:0:0:0:
219,183,232529,1,8,0:0:0:0:
219,183,232679,1,0,0:0:0:0:
219,183,232754,1,0,0:0:0:0:
219,183,232829,1,0,0:0:0:0:
219,183,232979,1,8,0:0:0:0:
219,183,233429,1,8,0:0:0:0:
219,183,233579,1,0,0:0:0:0:
219,183,233729,1,0,0:0:0:0:
219,183,233879,1,8,0:0:0:0:
219,183,233954,1,8,0:0:0:0:
219,183,234029,1,8,0:0:0:0:
224,187,234179,1,0,0:0:0:0:
224,187,234329,1,8,0:0:0:0:
224,187,234479,1,0,0:0:0:0:
224,187,234554,1,0,0:0:0:0:
219,183,234629,1,0,0:0:0:0:
219,183,234779,1,0,0:0:0:0:
224,187,235379,1,12,0:0:0:0:
338,205,235679,1,0,0:0:0:0:
338,205,235754,1,0,0:0:0:0:
338,205,235829,1,0,0:0:0:0:
338,205,235979,1,0,0:0:0:0:
338,205,236129,1,8,0:0:0:0:
338,205,236279,1,8,0:0:0:0:
338,205,236354,1,8,0:0:0:0:
338,205,236429,1,8,0:0:0:0:
338,205,236579,1,0,0:0:0:0:
338,205,236729,1,8,0:0:0:0:
338,205,237029,1,8,0:0:0:0:
338,205,237329,1,8,0:0:0:0:
345,207,237479,1,0,0:0:0:0:
345,207,237554,1,0,0:0:0:0:
345,207,237629,1,0,0:0:0:0:
346,207,237779,1,0,0:0:0:0:
346,207,237929,1,8,0:0:0:0:
361,218,238229,1,8,0:0:0:0:
361,218,238379,1,0,0:0:0:0:
361,218,238529,1,8,0:0:0:0:
362,219,238679,1,8,0:0:0:0:
362,219,238829,1,0,0:0:0:0:
361,218,238979,1,0,0:0:0:0:
361,218,239054,1,0,0:0:0:0:
361,218,239129,1,0,0:0:0:0:
361,218,239279,1,8,0:0:0:0:
361,218,239429,1,8,0:0:0:0:
361,218,239504,1,8,0:0:0:0:
362,219,239579,1,8,0:0:0:0:
362,219,239729,1,8,0:0:0:0:
361,218,239879,1,0,0:0:0:0:
361,218,240029,1,0,0:0:0:0:
361,218,240179,1,12,0:0:0:0:
362,219,240629,1,8,0:0:0:0:
373,224,240779,1,0,0:0:0:0:
373,224,240929,1,8,0:0:0:0:
373,224,241004,1,8,0:0:0:0:
374,225,241079,1,8,0:0:0:0:
374,225,241229,1,0,0:0:0:0:
374,225,241379,1,0,0:0:0:0:
374,225,241529,1,8,0:0:0:0:
373,224,241829,1,8,0:0:0:0:
374,225,242129,1,8,0:0:0:0:
374,225,242279,1,0,0:0:0:0:
374,225,242354,1,0,0:0:0:0:
374,225,242429,1,0,0:0:0:0:
374,225,242579,1,8,0:0:0:0:
374,225,242879,1,8,0:0:0:0:
374,225,242954,1,8,0:0:0:0:
374,225,243029,1,8,0:0:0:0:
374,225,243179,1,0,0:0:0:0:
374,225,243329,1,8,0:0:0:0:
374,225,243479,1,0,0:0:0:0:
373,224,243629,1,8,0:0:0:0:
374,225,243929,1,8,0:0:0:0:
374,225,244229,1,8,0:0:0:0:
373,224,244529,1,8,0:0:0:0:
374,225,244679,1,0,0:0:0:0:
382,230,244829,1,0,0:0:0:0:
382,230,244979,1,8,0:0:0:0:
380,230,245054,1,8,0:0:0:0:
380,230,245129,1,8,0:0:0:0:
380,230,245279,1,0,0:0:0:0:
379,230,245429,1,8,0:0:0:0:
379,230,245579,1,0,0:0:0:0:
284,109,245729,1,8,0:0:0:0:
284,109,245804,1,8,0:0:0:0:
284,109,245879,1,8,0:0:0:0:
351,97,246029,1,8,0:0:0:0:
351,97,246329,1,8,0:0:0:0:
351,97,246629,1,8,0:0:0:0:
351,97,246929,1,8,0:0:0:0:
351,97,247079,1,0,0:0:0:0:
351,97,247154,1,0,0:0:0:0:
364,113,247229,1,0,0:0:0:0:
371,119,247379,1,12,0:0:0:0:
371,118,247679,1,0,0:0:0:0:
371,118,247754,1,0,0:0:0:0:
371,119,247829,1,0,0:0:0:0:
371,119,247979,1,0,0:0:0:0:
371,119,248129,1,8,0:0:0:0:
371,119,248279,1,0,0:0:0:0:
371,119,248429,1,12,0:0:0:0:
371,118,248729,1,8,0:0:0:0:
371,119,248879,1,8,0:0:0:0:
371,119,249029,1,0,0:0:0:0:
371,119,249179,1,0,0:0:0:0:
371,119,249254,1,0,0:0:0:0:
371,119,249329,1,0,0:0:0:0:
371,119,249479,1,8,0:0:0:0:
371,118,249554,1,8,0:0:0:0:
380,119,249629,1,8,0:0:0:0:
377,211,249779,1,4,0:0:0:0:
377,211,250079,1,4,0:0:0:0:
377,211,250379,1,4,0:0:0:0:
377,211,250679,1,4,0:0:0:0:
377,211,250979,1,4,0:0:0:0:
377,211,251279,1,4,0:0:0:0:
256,192,251579,1,8,0:0:0:0:
256,192,251779,1,0,0:0:0:0:
256,192,251879,1,0,0:0:0:0:
256,192,251979,1,0,0:0:0:0:
256,192,252179,1,12,0:0:0:0:
