osu file format v14

[General]
AudioFilename: GoldenWolf.mp3
AudioLeadIn: 0
PreviewTime: 159308
Countdown: 0
SampleSet: Normal
StackLeniency: 0.7
Mode: 1
LetterboxInBreaks: 0
WidescreenStoryboard: 0

[Editor]
DistanceSpacing: 0.8
BeatDivisor: 4
GridSize: 32
TimelineZoom: 2.5

[Metadata]
Title:Furuki Yuanxian
TitleUnicode:古きユアンシェン
Artist:Demetori
ArtistUnicode:Demetori
Creator:Surono
Version:Ura Oni
Source:東方神霊廟 ~ Ten Desires.
Tags:Touhou Project Kaku Seiga Death Echo Old Yuanshen Tendre est la mort Introduction le Grimoire De reve C83 C85 power speed metal arrangement shinreibyou th13 ZUN
BeatmapID:1866630
BeatmapSetID:893097

[Difficulty]
HPDrainRate:3.8
CircleSize:2
OverallDifficulty:7.2
ApproachRate:10
SliderMultiplier:1.4
SliderTickRate:1

[Events]
//Background and Video events
0,0,"bg from GoldenWolf mapset.jpg",0,0
//Break Periods
//Storyboard Layer 0 (Background)
//Storyboard Layer 1 (Fail)
//Storyboard Layer 2 (Pass)
//Storyboard Layer 3 (Foreground)
//Storyboard Sound Samples

[TimingPoints]
1515,508.474576271186,4,1,0,5,1,0
1515,-1000,4,1,0,5,0,0
3548,-666.666666666667,4,1,0,5,0,0
5582,-500,4,1,0,5,0,0
7616,-400,4,1,0,5,0,0
9650,-333.333333333333,4,1,0,5,0,0
11684,-285.714285714286,4,1,0,5,0,0
13718,-250,4,1,0,5,0,0
15752,-222.222222222222,4,1,0,5,0,0
17786,-200,4,1,0,5,0,0
19820,-181.818181818182,4,1,0,5,0,0
21853,-166.666666666667,4,1,0,5,0,0
23887,-153.846153846154,4,1,0,5,0,0
25921,-142.857142857143,4,1,0,5,0,0
27955,-133.333333333333,4,1,0,5,0,0
29989,-125,4,1,0,5,0,0
32023,-117.647058823529,4,1,0,5,0,0
34057,-111.111111111111,4,1,0,5,0,0
36091,-105.263157894737,4,1,0,5,0,0
38125,-100,4,1,0,5,0,0
55433,300,4,1,0,90,1,0
62858,-113.636363636364,4,1,0,90,0,0
63008,-111.111111111111,4,1,0,90,0,0
63158,-108.695652173913,4,1,0,90,0,0
63308,-106.382978723404,4,1,0,90,0,0
63458,-104.166666666667,4,1,0,90,0,0
63608,-102.040816326531,4,1,0,90,0,0
63758,-100,4,1,0,90,0,0
64433,-95.2380952380952,4,1,0,90,0,0
65033,-100,4,1,0,90,0,0
83633,-98.0392156862745,4,1,0,90,0,0
83708,-96.1538461538461,4,1,0,90,0,0
83783,-94.3396226415094,4,1,0,90,0,0
83858,-92.5925925925926,4,1,0,90,0,0
83933,-90.9090909090909,4,1,0,90,0,0
84008,-89.2857142857143,4,1,0,90,0,0
84083,-87.719298245614,4,1,0,90,0,0
84158,-86.2068965517241,4,1,0,90,0,0
84233,-80,4,1,0,90,0,0
86408,-83.3333333333333,4,1,0,90,0,0
86558,-86.9565217391304,4,1,0,90,0,0
86633,-90.9090909090909,4,1,0,90,0,0
86783,-95.2380952380952,4,1,0,90,0,0
87758,-97.5609756097561,4,1,0,90,0,0
87833,-100,4,1,0,90,0,0
89183,-111.111111111111,4,1,0,90,0,0
97958,-100,4,1,0,90,0,0
98408,-105.263157894737,4,1,0,90,0,0
98558,-111.111111111111,4,1,0,90,0,0
105608,-105.263157894737,4,1,0,90,0,0
105758,-100,4,1,0,90,0,0
107333,-102.040816326531,4,1,0,90,0,0
107408,-104.166666666667,4,1,0,90,0,0
107483,-106.382978723404,4,1,0,90,0,0
107558,-108.695652173913,4,1,0,90,0,0
107633,-111.111111111111,4,1,0,90,0,0
107933,300,4,1,0,90,1,0
116858,-105.263157894737,4,1,0,90,0,0
117008,-111.111111111111,4,1,0,90,0,0
117158,-117.647058823529,4,1,0,90,0,0
117308,-125,4,1,0,90,0,0
117533,300,3,2,0,35,1,0
117533,-133.333333333333,3,2,0,35,0,0
124658,-100,3,1,0,90,0,0
137258,-95.2380952380952,3,1,0,90,0,0
140408,-97.5609756097561,3,1,0,90,0,0
140783,-100,3,1,0,90,0,1
140933,300,4,1,0,90,1,1
149108,-95.2380952380952,4,1,0,90,0,1
149783,-100,4,1,0,90,0,1
149933,-102.040816326531,4,1,0,90,0,1
150008,-104.166666666667,4,1,0,90,0,1
150158,-106.382978723404,4,1,0,90,0,1
150308,-100,4,1,0,90,0,1
159458,-102.564102564103,4,1,0,90,0,1
159533,-105.263157894737,4,1,0,90,0,0
164333,-102.564102564103,4,1,0,90,0,0
164933,-100,4,1,0,90,0,1
173408,-87.719298245614,4,1,0,90,0,1
173558,-88.4955752212389,4,1,0,90,0,1
173633,-89.2857142857143,4,1,0,90,0,1
173708,-90.0900900900901,4,1,0,90,0,1
173783,-90.9090909090909,4,1,0,90,0,1
173858,-91.743119266055,4,1,0,90,0,1
173933,-92.5925925925926,4,1,0,90,0,1
174008,-93.4579439252336,4,1,0,90,0,1
174083,-94.3396226415094,4,1,0,90,0,1
174158,-95.2380952380952,4,1,0,90,0,1
174233,-96.1538461538461,4,1,0,90,0,1
174308,-97.0873786407767,4,1,0,90,0,1
174383,-98.0392156862745,4,1,0,90,0,1
174458,-99.009900990099,4,1,0,90,0,1
174533,-100,4,1,0,90,0,1
183608,-102.040816326531,4,1,0,90,0,1
183758,-104.166666666667,4,1,0,90,0,1
183908,-106.382978723404,4,1,0,90,0,1
184133,-100,4,1,0,90,0,0
188333,-95.2380952380952,4,1,0,90,0,0
188858,-100,4,1,0,90,0,0
192158,-111.111111111111,4,1,0,90,0,0
192308,-108.108108108108,4,1,0,90,0,0
192458,-105.263157894737,4,1,0,90,0,0
192533,300,3,1,0,90,1,0
192608,-100,3,1,0,69,0,0
192908,-100,3,1,0,90,0,0
193058,-100,3,1,0,69,0,0
193358,-100,3,1,0,90,0,0
193508,-100,3,1,0,69,0,0
193808,-100,3,1,0,90,0,0
193958,-100,3,1,0,69,0,0
194333,300,4,1,0,90,1,0
204008,-95.2380952380952,4,1,0,90,0,0
213083,-96.1538461538461,4,1,0,90,0,0
213233,-97.0873786407767,4,1,0,90,0,0
213308,-98.0392156862745,4,1,0,90,0,0
213383,-99.009900990099,4,1,0,90,0,0
213458,-100,4,1,0,90,0,0
221858,-97.5609756097561,4,1,0,90,0,0
223133,-95.2380952380952,4,1,0,90,0,1
232058,-96.1538461538461,4,1,0,90,0,1
232208,-97.0873786407767,4,1,0,90,0,1
232358,-98.0392156862745,4,1,0,90,0,1
232508,-99.009900990099,4,1,0,90,0,1
232733,-100,4,1,0,90,0,0
237458,-95.2380952380952,4,1,0,90,0,0
241433,-96.1538461538461,4,1,0,90,0,0
241508,-97.0873786407767,4,1,0,90,0,0
241583,-98.0392156862745,4,1,0,90,0,0
241658,-99.009900990099,4,1,0,90,0,0
241733,-100,4,1,0,90,0,0
241808,-105.263157894737,4,1,0,90,0,0
246458,-102.564102564103,4,1,0,90,0,0
247133,-100,4,1,0,90,0,1
255564,-87.719298245614,4,1,0,90,0,1
255714,-88.4955752212389,4,1,0,90,0,1
255789,-89.2857142857143,4,1,0,90,0,1
255864,-90.0900900900901,4,1,0,90,0,1
255939,-90.9090909090909,4,1,0,90,0,1
256014,-91.743119266055,4,1,0,90,0,1
256089,-92.5925925925926,4,1,0,90,0,1
256164,-93.4579439252336,4,1,0,90,0,1
256239,-94.3396226415094,4,1,0,90,0,1
256314,-95.2380952380952,4,1,0,90,0,1
256389,-96.1538461538461,4,1,0,90,0,1
256464,-97.0873786407767,4,1,0,90,0,1
256539,-98.0392156862745,4,1,0,90,0,1
256614,-99.009900990099,4,1,0,90,0,1
256689,-100,4,1,0,90,0,1
265133,-95.2380952380952,4,1,0,90,0,0
266333,-90.9090909090909,4,1,0,90,0,1
274808,-81.3008130081301,4,1,0,90,0,1
274958,-81.9672131147541,4,1,0,90,0,1
275033,-82.6446280991736,4,1,0,90,0,1
275108,-83.3333333333333,4,1,0,90,0,1
275183,-84.0336134453781,4,1,0,90,0,1
275258,-84.7457627118644,4,1,0,90,0,1
275333,-85.4700854700855,4,1,0,90,0,1
275483,-86.2068965517241,4,1,0,90,0,1
275558,-86.9565217391304,4,1,0,90,0,1
275633,-87.719298245614,4,1,0,90,0,1
275783,-88.4955752212389,4,1,0,90,0,1
275858,-90.0900900900901,4,1,0,90,0,1
275933,-90.9090909090909,4,1,0,90,0,1
283208,-95.2380952380952,4,1,0,90,0,1
283658,-100,4,1,0,90,0,1
284108,-105.263157894737,4,1,0,90,0,1
284558,-100,4,1,0,90,0,1
285533,-100,4,1,0,90,0,0
293858,-95.2380952380952,4,1,0,90,0,0
304133,-93.4579439252336,4,1,0,90,0,0
304208,-91.743119266055,4,1,0,90,0,0
304283,-90.0900900900901,4,1,0,90,0,0
304358,-88.4955752212389,4,1,0,90,0,0
304433,-86.9565217391304,4,1,0,90,0,0
304508,-85.4700854700855,4,1,0,90,0,0
304583,-84.0336134453781,4,1,0,90,0,0
304658,-82.6446280991736,4,1,0,90,0,0
304733,-80,4,1,0,90,0,0

[HitObjects]
256,192,1515,12,0,2531,0:0:0:0:
256,192,3548,12,0,4565,0:0:0:0:
256,192,5582,12,0,6599,0:0:0:0:
256,192,7616,12,0,8633,0:0:0:0:
256,192,9650,12,0,10667,0:0:0:0:
256,192,11684,12,0,12065,0:0:0:0:
256,192,12192,5,0,0:0:0:0:
256,192,12447,5,0,0:0:0:0:
256,192,12701,1,8,0:0:0:0:
256,192,13082,1,0,0:0:0:0:
256,192,13718,12,0,14099,0:0:0:0:
256,192,14226,5,0,0:0:0:0:
256,192,14481,5,0,0:0:0:0:
256,192,14735,1,8,0:0:0:0:
256,192,15116,1,0,0:0:0:0:
256,192,15752,12,0,16133,0:0:0:0:
256,192,16260,5,0,0:0:0:0:
256,192,16515,5,0,0:0:0:0:
256,192,16769,1,8,0:0:0:0:
256,192,17150,1,0,0:0:0:0:
256,192,17786,12,0,18167,0:0:0:0:
256,192,18294,5,0,0:0:0:0:
256,192,18549,5,0,0:0:0:0:
256,192,18803,1,8,0:0:0:0:
256,192,19184,1,0,0:0:0:0:
256,192,19820,12,0,20201,0:0:0:0:
256,192,20328,5,0,0:0:0:0:
256,192,20583,5,0,0:0:0:0:
256,192,20837,1,8,0:0:0:0:
256,192,21218,1,0,0:0:0:0:
256,192,21853,2,0,L|128:64,1,167.999994873047
96,256,23887,2,0,L|224:128,1,181.999991668702
384,288,25921,2,0,L|224:160,1,195.999994018555
128,288,27955,2,0,L|320:160,1,210.000008010865
416,320,29989,2,0,L|256:160,1,224
256,192,32023,2,0,L|195:135,1,59.5000011348725
256,192,32531,1,0,0:0:0:0:
256,192,32786,1,0,0:0:0:0:
256,192,33040,1,8,0:0:0:0:
256,192,33421,1,8,0:0:0:0:
256,192,34057,2,0,L|198:137,1,62.9999980773926
256,192,34565,1,0,0:0:0:0:
256,192,34820,1,0,0:0:0:0:
256,192,35074,1,8,0:0:0:0:
256,192,35455,1,8,0:0:0:0:
256,192,36091,2,0,L|194:135,1,66.4999982242585
256,192,36599,1,0,0:0:0:0:
256,192,36854,1,0,0:0:0:0:
256,192,37108,1,8,0:0:0:0:
256,192,37489,1,8,0:0:0:0:
256,192,38125,2,0,L|193:134,1,70
256,192,38633,1,0,0:0:0:0:
256,192,38888,1,0,0:0:0:0:
256,192,39142,1,8,0:0:0:0:
256,192,39523,1,8,0:0:0:0:
256,192,40159,2,0,L|190:131,1,70
256,192,40667,1,0,0:0:0:0:
256,192,40922,1,0,0:0:0:0:
256,192,41176,1,8,0:0:0:0:
256,192,41557,1,8,0:0:0:0:
256,192,42193,12,0,43210,0:0:0:0:
352,288,44226,6,0,L|128:96,1,280
256,192,46260,12,0,47277,0:0:0:0:
256,192,47531,12,0,54650,0:0:0:0:
256,192,55433,5,12,0:0:0:0:
256,192,55733,1,0,0:0:0:0:
256,192,56033,1,0,0:0:0:0:
256,192,56333,1,8,0:0:0:0:
256,192,56483,1,12,0:0:0:0:
256,192,56633,1,0,0:0:0:0:
256,192,56933,1,0,0:0:0:0:
256,192,57233,1,0,0:0:0:0:
256,192,57533,1,0,0:0:0:0:
256,192,57833,1,12,0:0:0:0:
256,192,58133,1,0,0:0:0:0:
256,192,58433,1,0,0:0:0:0:
256,192,58733,1,8,0:0:0:0:
256,192,58883,1,12,0:0:0:0:
256,192,59033,1,0,0:0:0:0:
256,192,59183,1,0,0:0:0:0:
256,192,59220,1,0,0:0:0:0:
256,192,59333,1,0,0:0:0:0:
256,192,59483,1,0,0:0:0:0:
256,192,59633,1,0,0:0:0:0:
256,192,59670,1,0,0:0:0:0:
256,192,59783,1,0,0:0:0:0:
256,192,59933,1,0,0:0:0:0:
256,192,60083,1,0,0:0:0:0:
256,192,60233,1,12,0:0:0:0:
256,192,60533,1,0,0:0:0:0:
256,192,60833,1,0,0:0:0:0:
256,192,61133,1,8,0:0:0:0:
256,192,61283,1,12,0:0:0:0:
256,192,61433,1,0,0:0:0:0:
256,192,61733,1,0,0:0:0:0:
256,192,62033,1,0,0:0:0:0:
256,192,62333,1,0,0:0:0:0:
256,192,62483,1,0,0:0:0:0:
256,192,62533,1,0,0:0:0:0:
256,192,62583,1,0,0:0:0:0:
256,192,62633,1,12,0:0:0:0:
256,192,62933,1,0,0:0:0:0:
256,192,63083,1,0,0:0:0:0:
256,192,63233,1,0,0:0:0:0:
256,192,63383,1,8,0:0:0:0:
256,192,63533,1,8,0:0:0:0:
256,192,63683,1,8,0:0:0:0:
256,192,63833,1,8,0:0:0:0:
256,192,63908,1,8,0:0:0:0:
256,192,63983,1,0,0:0:0:0:
256,192,64058,1,0,0:0:0:0:
256,192,64133,1,0,0:0:0:0:
256,192,64208,1,0,0:0:0:0:
256,192,64283,1,0,0:0:0:0:
256,192,64358,1,0,0:0:0:0:
256,192,64433,1,8,0:0:0:0:
256,192,64470,1,8,0:0:0:0:
256,192,64658,1,8,0:0:0:0:
256,192,64883,1,8,0:0:0:0:
256,192,65033,1,4,0:0:0:0:
256,192,65183,1,8,0:0:0:0:
256,192,65408,1,0,0:0:0:0:
256,192,65483,1,8,0:0:0:0:
256,192,65633,1,0,0:0:0:0:
256,192,65783,1,8,0:0:0:0:
256,192,65933,1,0,0:0:0:0:
256,192,66008,1,0,0:0:0:0:
256,192,66083,1,8,0:0:0:0:
256,192,66158,1,8,0:0:0:0:
256,192,66233,1,0,0:0:0:0:
256,192,66383,1,8,0:0:0:0:
256,192,66458,1,0,0:0:0:0:
256,192,66608,1,0,0:0:0:0:
256,192,66683,1,8,0:0:0:0:
256,192,66758,1,0,0:0:0:0:
256,192,66833,1,0,0:0:0:0:
256,192,66983,1,8,0:0:0:0:
256,192,67058,1,0,0:0:0:0:
256,192,67133,1,0,0:0:0:0:
256,192,67208,1,0,0:0:0:0:
256,192,67283,1,8,0:0:0:0:
256,192,67433,1,0,0:0:0:0:
256,192,67583,1,8,0:0:0:0:
256,192,67808,1,0,0:0:0:0:
256,192,67883,1,8,0:0:0:0:
256,192,68033,1,0,0:0:0:0:
256,192,68183,1,8,0:0:0:0:
256,192,68333,1,0,0:0:0:0:
256,192,68408,1,0,0:0:0:0:
256,192,68483,1,8,0:0:0:0:
256,192,68633,1,0,0:0:0:0:
256,192,68783,1,8,0:0:0:0:
256,192,68858,1,8,0:0:0:0:
256,192,68933,1,0,0:0:0:0:
256,192,69008,1,0,0:0:0:0:
256,192,69083,1,8,0:0:0:0:
256,192,69233,1,0,0:0:0:0:
256,192,69383,1,8,0:0:0:0:
256,192,69533,1,0,0:0:0:0:
256,192,69608,1,0,0:0:0:0:
256,192,69683,1,8,0:0:0:0:
256,192,69833,1,4,0:0:0:0:
256,192,69983,1,8,0:0:0:0:
256,192,70208,1,0,0:0:0:0:
256,192,70283,1,8,0:0:0:0:
256,192,70433,1,0,0:0:0:0:
256,192,70583,1,8,0:0:0:0:
256,192,70733,1,0,0:0:0:0:
256,192,70808,1,0,0:0:0:0:
256,192,70883,1,8,0:0:0:0:
256,192,70958,1,8,0:0:0:0:
256,192,71033,1,0,0:0:0:0:
256,192,71183,1,8,0:0:0:0:
256,192,71258,1,0,0:0:0:0:
256,192,71408,1,0,0:0:0:0:
256,192,71483,1,8,0:0:0:0:
256,192,71558,1,8,0:0:0:0:
256,192,71633,1,0,0:0:0:0:
256,192,71783,1,8,0:0:0:0:
256,192,71858,1,0,0:0:0:0:
256,192,71933,1,0,0:0:0:0:
256,192,72008,1,0,0:0:0:0:
256,192,72083,1,8,0:0:0:0:
256,192,72233,1,0,0:0:0:0:
256,192,72383,1,8,0:0:0:0:
256,192,72608,1,0,0:0:0:0:
256,192,72683,1,8,0:0:0:0:
256,192,72833,1,0,0:0:0:0:
256,192,72983,1,8,0:0:0:0:
256,192,73133,1,0,0:0:0:0:
256,192,73208,1,0,0:0:0:0:
256,192,73283,1,8,0:0:0:0:
256,192,73433,1,0,0:0:0:0:
256,192,73508,1,0,0:0:0:0:
256,192,73583,1,8,0:0:0:0:
256,192,73658,1,0,0:0:0:0:
256,192,73733,1,0,0:0:0:0:
256,192,73808,1,0,0:0:0:0:
256,192,73883,1,8,0:0:0:0:
256,192,73958,1,0,0:0:0:0:
256,192,74033,1,8,0:0:0:0:
256,192,74108,1,8,0:0:0:0:
256,192,74183,1,8,0:0:0:0:
256,192,74258,1,0,0:0:0:0:
256,192,74333,1,0,0:0:0:0:
256,192,74408,1,0,0:0:0:0:
256,192,74483,1,8,0:0:0:0:
256,192,74558,1,8,0:0:0:0:
256,192,74633,1,4,0:0:0:0:
256,192,74783,1,8,0:0:0:0:
256,192,75008,1,0,0:0:0:0:
256,192,75083,1,8,0:0:0:0:
256,192,75233,1,0,0:0:0:0:
256,192,75383,1,8,0:0:0:0:
256,192,75533,1,0,0:0:0:0:
256,192,75608,1,0,0:0:0:0:
256,192,75683,1,8,0:0:0:0:
256,192,75758,1,8,0:0:0:0:
256,192,75833,1,0,0:0:0:0:
256,192,75983,1,8,0:0:0:0:
256,192,76058,1,0,0:0:0:0:
256,192,76208,1,0,0:0:0:0:
256,192,76283,1,8,0:0:0:0:
256,192,76358,1,0,0:0:0:0:
256,192,76433,1,0,0:0:0:0:
256,192,76583,1,8,0:0:0:0:
256,192,76658,1,0,0:0:0:0:
256,192,76733,1,0,0:0:0:0:
256,192,76808,1,0,0:0:0:0:
256,192,76883,1,8,0:0:0:0:
256,192,77033,1,0,0:0:0:0:
256,192,77183,1,8,0:0:0:0:
256,192,77408,1,0,0:0:0:0:
256,192,77483,1,8,0:0:0:0:
256,192,77633,1,0,0:0:0:0:
256,192,77783,1,8,0:0:0:0:
256,192,77933,1,0,0:0:0:0:
256,192,78008,1,0,0:0:0:0:
256,192,78083,1,8,0:0:0:0:
256,192,78233,1,0,0:0:0:0:
256,192,78383,1,8,0:0:0:0:
256,192,78458,1,8,0:0:0:0:
256,192,78533,1,0,0:0:0:0:
256,192,78608,1,0,0:0:0:0:
256,192,78683,1,8,0:0:0:0:
256,192,78833,1,0,0:0:0:0:
256,192,78983,1,8,0:0:0:0:
256,192,79133,1,0,0:0:0:0:
256,192,79208,1,0,0:0:0:0:
256,192,79283,1,8,0:0:0:0:
256,192,79433,1,4,0:0:0:0:
256,192,79583,1,8,0:0:0:0:
256,192,79733,1,0,0:0:0:0:
256,192,79808,1,0,0:0:0:0:
256,192,79883,1,8,0:0:0:0:
256,192,80033,1,0,0:0:0:0:
256,192,80183,1,8,0:0:0:0:
256,192,80333,1,0,0:0:0:0:
256,192,80408,1,0,0:0:0:0:
256,192,80483,1,8,0:0:0:0:
256,192,80558,1,8,0:0:0:0:
256,192,80633,1,0,0:0:0:0:
256,192,80783,1,8,0:0:0:0:
256,192,80858,1,0,0:0:0:0:
256,192,80933,1,0,0:0:0:0:
256,192,81008,1,0,0:0:0:0:
256,192,81083,1,8,0:0:0:0:
256,192,81158,1,8,0:0:0:0:
256,192,81233,1,0,0:0:0:0:
256,192,81383,1,8,0:0:0:0:
256,192,81458,1,0,0:0:0:0:
256,192,81533,1,0,0:0:0:0:
256,192,81608,1,0,0:0:0:0:
256,192,81683,1,8,0:0:0:0:
256,192,81833,1,0,0:0:0:0:
256,192,81983,1,8,0:0:0:0:
256,192,82133,1,0,0:0:0:0:
256,192,82208,1,0,0:0:0:0:
256,192,82283,1,8,0:0:0:0:
256,192,82433,1,0,0:0:0:0:
256,192,82583,1,8,0:0:0:0:
256,192,82733,1,0,0:0:0:0:
256,192,82808,1,0,0:0:0:0:
256,192,82883,1,8,0:0:0:0:
256,192,83033,1,8,0:0:0:0:
256,192,83183,1,8,0:0:0:0:
256,192,83258,1,8,0:0:0:0:
256,192,83333,1,0,0:0:0:0:
256,192,83408,1,0,0:0:0:0:
256,192,83483,1,8,0:0:0:0:
256,192,83633,1,0,0:0:0:0:
256,192,83708,1,0,0:0:0:0:
256,192,83783,1,8,0:0:0:0:
256,192,83858,1,0,0:0:0:0:
256,192,83933,1,8,0:0:0:0:
256,192,84008,1,8,0:0:0:0:
256,192,84083,1,8,0:0:0:0:
256,192,84158,1,8,0:0:0:0:
256,192,84233,1,4,0:0:0:0:
256,192,84533,1,4,0:0:0:0:
256,192,84833,1,4,0:0:0:0:
256,192,85133,1,4,0:0:0:0:
256,192,85433,1,4,0:0:0:0:
256,192,85733,1,4,0:0:0:0:
256,192,86033,1,4,0:0:0:0:
256,192,86333,1,4,0:0:0:0:
256,192,86483,1,0,0:0:0:0:
256,192,86558,1,0,0:0:0:0:
256,192,86633,1,12,0:0:0:0:
256,192,86858,1,8,0:0:0:0:
256,192,86933,1,8,0:0:0:0:
256,192,87083,1,8,0:0:0:0:
256,192,87233,1,8,0:0:0:0:
256,192,87383,1,0,0:0:0:0:
256,192,87533,1,8,0:0:0:0:
256,192,87683,1,0,0:0:0:0:
256,192,87758,1,0,0:0:0:0:
256,192,87833,1,8,0:0:0:0:
256,192,87933,1,8,0:0:0:0:
256,192,88033,1,8,0:0:0:0:
256,192,88133,1,8,0:0:0:0:
256,192,88233,1,0,0:0:0:0:
256,192,88333,1,0,0:0:0:0:
256,192,88433,1,8,0:0:0:0:
256,192,88533,1,0,0:0:0:0:
256,192,88633,1,0,0:0:0:0:
256,192,88733,1,8,0:0:0:0:
256,192,88833,1,0,0:0:0:0:
256,192,88933,1,0,0:0:0:0:
256,192,89033,1,12,0:0:0:0:
256,192,89333,1,0,0:0:0:0:
256,192,89483,1,0,0:0:0:0:
256,192,89633,1,8,0:0:0:0:
256,192,89933,1,0,0:0:0:0:
256,192,90083,1,0,0:0:0:0:
256,192,90233,1,0,0:0:0:0:
256,192,90533,1,0,0:0:0:0:
256,192,90683,1,0,0:0:0:0:
256,192,90833,1,8,0:0:0:0:
256,192,91133,1,0,0:0:0:0:
256,192,91208,1,0,0:0:0:0:
256,192,91283,1,8,0:0:0:0:
256,192,91433,1,0,0:0:0:0:
256,192,91733,1,0,0:0:0:0:
256,192,91883,1,0,0:0:0:0:
256,192,92033,1,8,0:0:0:0:
256,192,92333,1,0,0:0:0:0:
256,192,92483,1,8,0:0:0:0:
256,192,92558,1,8,0:0:0:0:
256,192,92633,1,0,0:0:0:0:
256,192,92933,1,0,0:0:0:0:
256,192,93083,1,0,0:0:0:0:
256,192,93233,1,8,0:0:0:0:
256,192,93533,1,0,0:0:0:0:
256,192,93608,1,0,0:0:0:0:
256,192,93683,1,0,0:0:0:0:
256,192,93758,1,8,0:0:0:0:
256,192,93833,1,4,0:0:0:0:
256,192,94133,1,0,0:0:0:0:
256,192,94283,1,0,0:0:0:0:
256,192,94433,1,8,0:0:0:0:
256,192,94733,1,0,0:0:0:0:
256,192,94883,1,0,0:0:0:0:
256,192,95033,1,8,0:0:0:0:
256,192,95333,1,0,0:0:0:0:
256,192,95483,1,0,0:0:0:0:
256,192,95633,1,8,0:0:0:0:
256,192,95933,1,8,0:0:0:0:
256,192,96083,1,8,0:0:0:0:
256,192,96233,1,0,0:0:0:0:
256,192,96533,1,0,0:0:0:0:
256,192,96683,1,0,0:0:0:0:
256,192,96833,1,8,0:0:0:0:
256,192,97133,1,0,0:0:0:0:
256,192,97283,1,0,0:0:0:0:
256,192,97433,1,0,0:0:0:0:
256,192,97583,1,8,0:0:0:0:
256,192,97733,1,0,0:0:0:0:
256,192,97883,1,0,0:0:0:0:
256,192,98033,1,8,0:0:0:0:
256,192,98070,1,8,0:0:0:0:
256,192,98183,1,8,0:0:0:0:
256,192,98220,1,8,0:0:0:0:
256,192,98333,1,8,0:0:0:0:
256,192,98370,1,8,0:0:0:0:
256,192,98483,1,0,0:0:0:0:
256,192,98633,1,4,0:0:0:0:
256,192,98933,1,0,0:0:0:0:
256,192,99083,1,0,0:0:0:0:
256,192,99233,1,8,0:0:0:0:
256,192,99533,1,0,0:0:0:0:
256,192,99683,1,0,0:0:0:0:
256,192,99833,1,0,0:0:0:0:
256,192,100133,1,0,0:0:0:0:
256,192,100283,1,0,0:0:0:0:
256,192,100433,1,8,0:0:0:0:
256,192,100733,1,0,0:0:0:0:
256,192,100808,1,0,0:0:0:0:
256,192,100883,1,8,0:0:0:0:
256,192,101033,1,0,0:0:0:0:
256,192,101333,1,0,0:0:0:0:
256,192,101483,1,0,0:0:0:0:
256,192,101633,1,8,0:0:0:0:
256,192,101933,1,0,0:0:0:0:
256,192,102083,1,8,0:0:0:0:
256,192,102158,1,8,0:0:0:0:
256,192,102233,1,0,0:0:0:0:
256,192,102533,1,0,0:0:0:0:
256,192,102683,1,0,0:0:0:0:
256,192,102833,1,8,0:0:0:0:
256,192,103133,1,0,0:0:0:0:
256,192,103208,1,0,0:0:0:0:
256,192,103283,1,0,0:0:0:0:
256,192,103358,1,0,0:0:0:0:
256,192,103433,1,12,0:0:0:0:
256,192,103733,1,0,0:0:0:0:
256,192,103883,1,0,0:0:0:0:
256,192,104033,1,8,0:0:0:0:
256,192,104333,1,0,0:0:0:0:
256,192,104483,1,0,0:0:0:0:
256,192,104633,1,8,0:0:0:0:
256,192,104933,1,0,0:0:0:0:
256,192,105083,1,8,0:0:0:0:
256,192,105233,1,8,0:0:0:0:
256,192,105433,1,0,0:0:0:0:
256,192,105533,1,8,0:0:0:0:
256,192,105683,1,0,0:0:0:0:
256,192,105833,1,12,0:0:0:0:
256,192,106033,1,0,0:0:0:0:
256,192,106233,1,0,0:0:0:0:
256,192,106433,1,12,0:0:0:0:
256,192,106633,1,8,0:0:0:0:
256,192,106833,1,0,0:0:0:0:
256,192,107033,1,8,0:0:0:0:
256,192,107108,1,0,0:0:0:0:
256,192,107183,1,0,0:0:0:0:
256,192,107258,1,8,0:0:0:0:
256,192,107333,1,8,0:0:0:0:
256,192,107408,1,0,0:0:0:0:
256,192,107483,1,8,0:0:0:0:
256,192,107558,1,8,0:0:0:0:
256,192,107633,1,8,0:0:0:0:
256,192,107933,1,4,0:0:0:0:
256,192,108083,1,8,0:0:0:0:
256,192,108308,1,0,0:0:0:0:
256,192,108383,1,8,0:0:0:0:
256,192,108533,1,0,0:0:0:0:
256,192,108683,1,8,0:0:0:0:
256,192,108833,1,0,0:0:0:0:
256,192,108908,1,0,0:0:0:0:
256,192,108983,1,8,0:0:0:0:
256,192,109058,1,8,0:0:0:0:
256,192,109133,1,0,0:0:0:0:
256,192,109283,1,8,0:0:0:0:
256,192,109358,1,0,0:0:0:0:
256,192,109508,1,0,0:0:0:0:
256,192,109583,1,8,0:0:0:0:
256,192,109658,1,0,0:0:0:0:
256,192,109733,1,0,0:0:0:0:
256,192,109883,1,8,0:0:0:0:
256,192,109958,1,0,0:0:0:0:
256,192,110033,1,0,0:0:0:0:
256,192,110108,1,0,0:0:0:0:
256,192,110183,1,8,0:0:0:0:
256,192,110333,1,0,0:0:0:0:
256,192,110483,1,8,0:0:0:0:
256,192,110708,1,0,0:0:0:0:
256,192,110783,1,8,0:0:0:0:
256,192,110933,1,0,0:0:0:0:
256,192,111083,1,8,0:0:0:0:
256,192,111233,1,0,0:0:0:0:
256,192,111308,1,0,0:0:0:0:
256,192,111383,1,8,0:0:0:0:
256,192,111533,1,0,0:0:0:0:
256,192,111683,1,8,0:0:0:0:
256,192,111758,1,8,0:0:0:0:
256,192,111833,1,0,0:0:0:0:
256,192,111908,1,0,0:0:0:0:
256,192,111983,1,8,0:0:0:0:
256,192,112133,1,0,0:0:0:0:
256,192,112283,1,8,0:0:0:0:
256,192,112433,1,0,0:0:0:0:
256,192,112508,1,0,0:0:0:0:
256,192,112583,1,8,0:0:0:0:
256,192,112733,1,4,0:0:0:0:
256,192,112883,1,8,0:0:0:0:
256,192,113033,1,0,0:0:0:0:
256,192,113108,1,0,0:0:0:0:
256,192,113183,1,8,0:0:0:0:
256,192,113333,1,0,0:0:0:0:
256,192,113483,1,8,0:0:0:0:
256,192,113633,1,0,0:0:0:0:
256,192,113708,1,0,0:0:0:0:
256,192,113783,1,8,0:0:0:0:
256,192,113858,1,8,0:0:0:0:
256,192,113933,1,0,0:0:0:0:
256,192,114083,1,8,0:0:0:0:
256,192,114158,1,0,0:0:0:0:
256,192,114233,1,0,0:0:0:0:
256,192,114308,1,0,0:0:0:0:
256,192,114383,1,8,0:0:0:0:
256,192,114458,1,8,0:0:0:0:
256,192,114533,1,0,0:0:0:0:
256,192,114683,1,8,0:0:0:0:
256,192,114758,1,0,0:0:0:0:
256,192,114833,1,0,0:0:0:0:
256,192,114908,1,0,0:0:0:0:
256,192,114983,1,8,0:0:0:0:
256,192,115133,1,4,0:0:0:0:
256,192,115283,1,8,0:0:0:0:
256,192,115433,1,0,0:0:0:0:
256,192,115508,1,0,0:0:0:0:
256,192,115583,1,8,0:0:0:0:
256,192,115733,1,0,0:0:0:0:
256,192,115883,1,8,0:0:0:0:
256,192,116033,1,0,0:0:0:0:
256,192,116108,1,0,0:0:0:0:
256,192,116183,1,8,0:0:0:0:
256,192,116333,1,8,0:0:0:0:
256,192,116483,1,0,0:0:0:0:
256,192,116558,1,8,0:0:0:0:
256,192,116633,1,8,0:0:0:0:
256,192,116783,1,0,0:0:0:0:
256,192,116933,1,8,0:0:0:0:
256,192,117083,1,8,0:0:0:0:
256,192,117233,1,0,0:0:0:0:
256,192,117383,1,0,0:0:0:0:
256,192,117533,1,0,0:0:0:0:
256,192,117833,1,0,0:0:0:0:
256,192,117983,1,0,0:0:0:0:
256,192,118133,1,8,0:0:0:0:
256,192,118433,1,8,0:0:0:0:
256,192,118733,1,0,0:0:0:0:
256,192,119033,1,8,0:0:0:0:
256,192,119333,1,8,0:0:0:0:
256,192,119633,1,0,0:0:0:0:
256,192,119783,1,0,0:0:0:0:
256,192,119933,1,0,0:0:0:0:
256,192,120233,1,8,0:0:0:0:
256,192,120533,1,0,0:0:0:0:
256,192,120833,1,0,0:0:0:0:
256,192,121133,1,8,0:0:0:0:
256,192,121433,1,0,0:0:0:0:
256,192,121583,1,0,0:0:0:0:
256,192,121733,1,0,0:0:0:0:
256,192,122033,1,8,0:0:0:0:
256,192,122333,1,0,0:0:0:0:
256,192,122633,1,8,0:0:0:0:
256,192,122933,1,8,0:0:0:0:
256,192,123233,1,0,0:0:0:0:
256,192,123383,1,0,0:0:0:0:
256,192,123533,1,0,0:0:0:0:
256,192,123833,1,8,0:0:0:0:
256,192,123870,1,0,0:0:0:0:
256,192,124733,1,4,0:0:0:0:
256,192,124883,1,0,0:0:0:0:
256,192,125033,1,8,0:0:0:0:
256,192,125333,1,8,0:0:0:0:
256,192,125483,1,0,0:0:0:0:
256,192,125558,1,0,0:0:0:0:
256,192,125633,1,8,0:0:0:0:
256,192,125783,1,0,0:0:0:0:
256,192,125933,1,8,0:0:0:0:
256,192,126233,1,8,0:0:0:0:
256,192,126533,1,0,0:0:0:0:
256,192,126683,1,0,0:0:0:0:
256,192,126833,1,8,0:0:0:0:
256,192,127133,1,8,0:0:0:0:
256,192,127283,1,8,0:0:0:0:
256,192,127433,1,0,0:0:0:0:
256,192,127583,1,0,0:0:0:0:
256,192,127733,1,8,0:0:0:0:
256,192,128033,1,8,0:0:0:0:
256,192,128183,1,0,0:0:0:0:
256,192,128258,1,0,0:0:0:0:
256,192,128333,1,12,0:0:0:0:
256,192,128483,1,0,0:0:0:0:
256,192,128633,1,8,0:0:0:0:
256,192,128933,1,8,0:0:0:0:
256,192,129233,1,0,0:0:0:0:
256,192,129383,1,0,0:0:0:0:
256,192,129533,1,8,0:0:0:0:
256,192,129833,1,8,0:0:0:0:
256,192,129983,1,8,0:0:0:0:
256,192,130133,1,4,0:0:0:0:
256,192,130283,1,0,0:0:0:0:
256,192,130433,1,8,0:0:0:0:
256,192,130583,1,0,0:0:0:0:
256,192,130733,1,8,0:0:0:0:
256,192,130883,1,0,0:0:0:0:
256,192,130958,1,0,0:0:0:0:
256,192,131033,1,12,0:0:0:0:
256,192,131258,1,8,0:0:0:0:
256,192,131333,1,8,0:0:0:0:
256,192,131483,1,8,0:0:0:0:
256,192,131633,1,8,0:0:0:0:
256,192,131783,1,8,0:0:0:0:
256,192,131933,1,4,0:0:0:0:
256,192,132083,1,0,0:0:0:0:
256,192,132233,1,8,0:0:0:0:
256,192,132533,1,0,0:0:0:0:
256,192,132683,1,0,0:0:0:0:
256,192,132833,1,8,0:0:0:0:
256,192,132983,1,0,0:0:0:0:
256,192,133283,1,0,0:0:0:0:
256,192,133433,1,8,0:0:0:0:
256,192,133733,1,0,0:0:0:0:
256,192,133883,1,0,0:0:0:0:
256,192,134033,1,8,0:0:0:0:
256,192,134333,1,0,0:0:0:0:
256,192,134483,1,0,0:0:0:0:
256,192,134633,1,8,0:0:0:0:
256,192,134783,1,0,0:0:0:0:
256,192,135083,1,0,0:0:0:0:
256,192,135233,1,8,0:0:0:0:
256,192,135533,1,4,0:0:0:0:
256,192,135683,1,0,0:0:0:0:
256,192,135833,1,8,0:0:0:0:
256,192,136133,1,0,0:0:0:0:
256,192,136283,1,0,0:0:0:0:
256,192,136433,1,12,0:0:0:0:
256,192,136658,1,8,0:0:0:0:
256,192,136733,1,8,0:0:0:0:
256,192,136883,1,0,0:0:0:0:
256,192,137033,1,8,0:0:0:0:
256,192,137183,1,0,0:0:0:0:
256,192,137333,1,12,0:0:0:0:
256,192,138083,1,0,0:0:0:0:
256,192,138133,1,0,0:0:0:0:
256,192,138183,1,0,0:0:0:0:
256,192,138233,1,12,0:0:0:0:
256,192,138833,1,0,0:0:0:0:
256,192,138983,1,0,0:0:0:0:
256,192,139058,1,0,0:0:0:0:
256,192,139133,1,8,0:0:0:0:
256,192,139208,1,8,0:0:0:0:
256,192,139283,1,0,0:0:0:0:
256,192,139358,1,0,0:0:0:0:
256,192,139433,1,8,0:0:0:0:
256,192,139508,1,0,0:0:0:0:
256,192,139583,1,8,0:0:0:0:
256,192,139658,1,0,0:0:0:0:
256,192,139733,1,0,0:0:0:0:
256,192,139808,1,0,0:0:0:0:
256,192,139883,1,8,0:0:0:0:
256,192,139958,1,0,0:0:0:0:
256,192,140033,1,8,0:0:0:0:
256,192,140108,1,8,0:0:0:0:
256,192,140183,1,0,0:0:0:0:
256,192,140258,1,0,0:0:0:0:
256,192,140333,1,8,0:0:0:0:
256,192,140483,1,0,0:0:0:0:
256,192,140558,1,0,0:0:0:0:
256,192,140633,1,8,0:0:0:0:
256,192,140670,1,8,0:0:0:0:
256,192,140783,1,4,0:0:0:0:
256,192,141083,1,0,0:0:0:0:
256,192,141233,1,12,0:0:0:0:
256,192,141383,1,8,0:0:0:0:
256,192,141533,1,0,0:0:0:0:
256,192,141683,1,0,0:0:0:0:
256,192,141833,1,8,0:0:0:0:
256,192,141983,1,0,0:0:0:0:
256,192,142058,1,8,0:0:0:0:
256,192,142133,1,8,0:0:0:0:
256,192,142283,1,0,0:0:0:0:
256,192,142433,1,8,0:0:0:0:
256,192,142508,1,0,0:0:0:0:
256,192,142583,1,0,0:0:0:0:
256,192,142658,1,8,0:0:0:0:
256,192,142733,1,0,0:0:0:0:
256,192,142883,1,0,0:0:0:0:
256,192,143033,1,8,0:0:0:0:
256,192,143183,1,4,0:0:0:0:
256,192,143483,1,0,0:0:0:0:
256,192,143633,1,12,0:0:0:0:
256,192,143933,1,0,0:0:0:0:
256,192,144083,1,0,0:0:0:0:
256,192,144233,1,8,0:0:0:0:
256,192,144383,1,8,0:0:0:0:
256,192,144683,1,0,0:0:0:0:
256,192,144833,1,8,0:0:0:0:
256,192,144983,1,8,0:0:0:0:
256,192,145133,1,0,0:0:0:0:
256,192,145283,1,8,0:0:0:0:
256,192,145433,1,8,0:0:0:0:
256,192,145583,1,4,0:0:0:0:
256,192,145883,1,0,0:0:0:0:
256,192,146033,1,12,0:0:0:0:
256,192,146183,1,0,0:0:0:0:
256,192,146333,1,8,0:0:0:0:
256,192,146483,1,8,0:0:0:0:
256,192,146633,1,8,0:0:0:0:
256,192,146783,1,0,0:0:0:0:
256,192,146858,1,8,0:0:0:0:
256,192,146933,1,8,0:0:0:0:
256,192,147083,1,0,0:0:0:0:
256,192,147233,1,8,0:0:0:0:
256,192,147308,1,0,0:0:0:0:
256,192,147383,1,0,0:0:0:0:
256,192,147458,1,8,0:0:0:0:
256,192,147533,1,0,0:0:0:0:
256,192,147683,1,0,0:0:0:0:
256,192,147833,1,8,0:0:0:0:
256,192,147983,1,4,0:0:0:0:
256,192,148283,1,0,0:0:0:0:
256,192,148433,1,12,0:0:0:0:
256,192,148733,1,0,0:0:0:0:
256,192,148883,1,0,0:0:0:0:
256,192,149033,1,8,0:0:0:0:
256,192,149183,1,4,0:0:0:0:
256,192,149483,1,8,0:0:0:0:
256,192,149633,1,8,0:0:0:0:
256,192,149858,1,0,0:0:0:0:
256,192,149933,1,0,0:0:0:0:
256,192,150083,1,0,0:0:0:0:
256,192,150233,1,8,0:0:0:0:
256,192,150383,1,4,0:0:0:0:
256,192,150683,1,0,0:0:0:0:
256,192,150833,1,12,0:0:0:0:
256,192,150983,1,8,0:0:0:0:
256,192,151133,1,0,0:0:0:0:
256,192,151283,1,0,0:0:0:0:
256,192,151433,1,8,0:0:0:0:
256,192,151583,1,0,0:0:0:0:
256,192,151658,1,8,0:0:0:0:
256,192,151733,1,8,0:0:0:0:
256,192,151883,1,0,0:0:0:0:
256,192,152033,1,8,0:0:0:0:
256,192,152108,1,0,0:0:0:0:
256,192,152183,1,0,0:0:0:0:
256,192,152258,1,8,0:0:0:0:
256,192,152333,1,0,0:0:0:0:
256,192,152483,1,0,0:0:0:0:
256,192,152633,1,8,0:0:0:0:
256,192,152783,1,4,0:0:0:0:
256,192,153083,1,0,0:0:0:0:
256,192,153233,1,12,0:0:0:0:
256,192,153533,1,0,0:0:0:0:
256,192,153683,1,0,0:0:0:0:
256,192,153833,1,8,0:0:0:0:
256,192,153983,1,8,0:0:0:0:
256,192,154283,1,0,0:0:0:0:
256,192,154433,1,8,0:0:0:0:
256,192,154583,1,8,0:0:0:0:
256,192,154733,1,0,0:0:0:0:
256,192,154883,1,12,0:0:0:0:
256,192,155033,1,8,0:0:0:0:
256,192,155183,1,4,0:0:0:0:
256,192,155483,1,0,0:0:0:0:
256,192,155633,1,12,0:0:0:0:
256,192,155783,1,0,0:0:0:0:
256,192,155933,1,8,0:0:0:0:
256,192,156083,1,8,0:0:0:0:
256,192,156233,1,8,0:0:0:0:
256,192,156383,1,0,0:0:0:0:
256,192,156458,1,8,0:0:0:0:
256,192,156533,1,8,0:0:0:0:
256,192,156683,1,0,0:0:0:0:
256,192,156833,1,8,0:0:0:0:
256,192,156908,1,0,0:0:0:0:
256,192,156983,1,0,0:0:0:0:
256,192,157058,1,8,0:0:0:0:
256,192,157133,1,8,0:0:0:0:
256,192,157283,1,4,0:0:0:0:
256,192,157433,1,8,0:0:0:0:
256,192,157583,1,4,0:0:0:0:
256,192,157883,1,0,0:0:0:0:
256,192,158033,1,12,0:0:0:0:
256,192,158333,1,0,0:0:0:0:
256,192,158483,1,0,0:0:0:0:
256,192,158633,1,8,0:0:0:0:
256,192,158783,1,4,0:0:0:0:
256,192,159083,1,0,0:0:0:0:
256,192,159233,1,8,0:0:0:0:
256,192,159383,1,0,0:0:0:0:
256,192,159458,1,0,0:0:0:0:
256,192,159533,1,0,0:0:0:0:
256,192,159758,1,0,0:0:0:0:
256,192,159983,1,0,0:0:0:0:
256,192,160133,1,12,0:0:0:0:
256,192,160733,1,4,0:0:0:0:
256,192,161333,1,12,0:0:0:0:
256,192,161933,1,0,0:0:0:0:
256,192,162383,1,0,0:0:0:0:
256,192,162458,1,0,0:0:0:0:
256,192,162533,1,8,0:0:0:0:
256,192,162633,1,8,0:0:0:0:
256,192,162733,1,8,0:0:0:0:
256,192,162833,1,0,0:0:0:0:
256,192,162933,1,0,0:0:0:0:
256,192,163033,1,0,0:0:0:0:
256,192,163133,1,8,0:0:0:0:
256,192,163233,1,8,0:0:0:0:
256,192,163333,1,8,0:0:0:0:
256,192,163433,1,0,0:0:0:0:
256,192,163533,1,0,0:0:0:0:
256,192,163633,1,0,0:0:0:0:
256,192,163733,1,8,0:0:0:0:
256,192,163833,1,0,0:0:0:0:
256,192,163933,1,0,0:0:0:0:
256,192,164033,1,8,0:0:0:0:
256,192,164133,1,0,0:0:0:0:
256,192,164233,1,0,0:0:0:0:
256,192,164333,1,8,0:0:0:0:
256,192,164408,1,0,0:0:0:0:
256,192,164483,1,8,0:0:0:0:
256,192,164558,1,8,0:0:0:0:
256,192,164633,1,0,0:0:0:0:
256,192,164708,1,8,0:0:0:0:
256,192,164783,1,0,0:0:0:0:
256,192,164858,1,0,0:0:0:0:
256,192,164933,1,12,0:0:0:0:
256,192,165083,1,8,0:0:0:0:
256,192,165308,1,0,0:0:0:0:
256,192,165383,1,8,0:0:0:0:
256,192,165458,1,8,0:0:0:0:
256,192,165533,1,0,0:0:0:0:
256,192,165683,1,8,0:0:0:0:
256,192,165833,1,0,0:0:0:0:
256,192,165908,1,0,0:0:0:0:
256,192,165983,1,8,0:0:0:0:
256,192,166058,1,8,0:0:0:0:
256,192,166133,1,8,0:0:0:0:
256,192,166283,1,8,0:0:0:0:
256,192,166433,1,8,0:0:0:0:
256,192,166508,1,0,0:0:0:0:
256,192,166583,1,8,0:0:0:0:
256,192,166658,1,8,0:0:0:0:
256,192,166733,1,0,0:0:0:0:
256,192,166808,1,0,0:0:0:0:
256,192,166883,1,8,0:0:0:0:
256,192,167033,1,0,0:0:0:0:
256,192,167108,1,0,0:0:0:0:
256,192,167183,1,8,0:0:0:0:
256,192,167333,1,0,0:0:0:0:
256,192,167483,1,8,0:0:0:0:
256,192,167708,1,0,0:0:0:0:
256,192,167783,1,8,0:0:0:0:
256,192,167933,1,0,0:0:0:0:
256,192,168083,1,8,0:0:0:0:
256,192,168233,1,0,0:0:0:0:
256,192,168308,1,0,0:0:0:0:
256,192,168383,1,8,0:0:0:0:
256,192,168533,1,8,0:0:0:0:
256,192,168683,1,8,0:0:0:0:
256,192,168833,1,0,0:0:0:0:
256,192,168908,1,0,0:0:0:0:
256,192,168983,1,8,0:0:0:0:
256,192,169058,1,8,0:0:0:0:
256,192,169133,1,0,0:0:0:0:
256,192,169283,1,8,0:0:0:0:
256,192,169433,1,0,0:0:0:0:
256,192,169508,1,0,0:0:0:0:
256,192,169583,1,8,0:0:0:0:
256,192,169733,1,4,0:0:0:0:
256,192,169883,1,8,0:0:0:0:
256,192,170108,1,0,0:0:0:0:
256,192,170183,1,8,0:0:0:0:
256,192,170258,1,0,0:0:0:0:
256,192,170333,1,0,0:0:0:0:
256,192,170483,1,8,0:0:0:0:
256,192,170633,1,0,0:0:0:0:
256,192,170708,1,0,0:0:0:0:
256,192,170783,1,8,0:0:0:0:
256,192,170858,1,0,0:0:0:0:
256,192,170933,1,8,0:0:0:0:
256,192,171083,1,8,0:0:0:0:
256,192,171233,1,8,0:0:0:0:
256,192,171308,1,0,0:0:0:0:
256,192,171383,1,8,0:0:0:0:
256,192,171458,1,0,0:0:0:0:
256,192,171533,1,8,0:0:0:0:
256,192,171683,1,8,0:0:0:0:
256,192,171833,1,0,0:0:0:0:
256,192,171908,1,0,0:0:0:0:
256,192,171983,1,8,0:0:0:0:
256,192,172133,1,4,0:0:0:0:
256,192,172283,1,8,0:0:0:0:
256,192,172358,1,8,0:0:0:0:
256,192,172433,1,0,0:0:0:0:
256,192,172508,1,0,0:0:0:0:
256,192,172583,1,8,0:0:0:0:
256,192,172658,1,0,0:0:0:0:
256,192,172733,1,0,0:0:0:0:
256,192,172808,1,0,0:0:0:0:
256,192,172883,1,8,0:0:0:0:
256,192,172958,1,8,0:0:0:0:
256,192,173033,1,0,0:0:0:0:
256,192,173108,1,0,0:0:0:0:
256,192,173183,1,8,0:0:0:0:
256,192,173258,1,0,0:0:0:0:
256,192,173333,1,12,0:0:0:0:
256,192,173483,1,8,0:0:0:0:
256,192,173558,1,0,0:0:0:0:
256,192,173633,1,0,0:0:0:0:
256,192,173708,1,0,0:0:0:0:
256,192,173783,1,8,0:0:0:0:
256,192,173858,1,0,0:0:0:0:
256,192,173933,1,0,0:0:0:0:
256,192,174008,1,0,0:0:0:0:
256,192,174083,1,8,0:0:0:0:
256,192,174158,1,0,0:0:0:0:
256,192,174233,1,8,0:0:0:0:
256,192,174308,1,0,0:0:0:0:
256,192,174383,1,8,0:0:0:0:
256,192,174458,1,8,0:0:0:0:
256,192,174533,1,4,0:0:0:0:
256,192,174683,1,8,0:0:0:0:
256,192,174833,1,8,0:0:0:0:
256,192,174908,1,0,0:0:0:0:
256,192,174983,1,8,0:0:0:0:
256,192,175133,1,0,0:0:0:0:
256,192,175283,1,8,0:0:0:0:
256,192,175433,1,0,0:0:0:0:
256,192,175508,1,8,0:0:0:0:
256,192,175583,1,8,0:0:0:0:
256,192,175733,1,0,0:0:0:0:
256,192,175883,1,8,0:0:0:0:
256,192,176033,1,8,0:0:0:0:
256,192,176108,1,0,0:0:0:0:
256,192,176183,1,8,0:0:0:0:
256,192,176333,1,0,0:0:0:0:
256,192,176483,1,8,0:0:0:0:
256,192,176633,1,0,0:0:0:0:
256,192,176708,1,8,0:0:0:0:
256,192,176783,1,8,0:0:0:0:
256,192,176933,1,0,0:0:0:0:
256,192,177083,1,8,0:0:0:0:
256,192,177233,1,8,0:0:0:0:
256,192,177308,1,0,0:0:0:0:
256,192,177383,1,8,0:0:0:0:
256,192,177533,1,0,0:0:0:0:
256,192,177683,1,8,0:0:0:0:
256,192,177833,1,0,0:0:0:0:
256,192,177908,1,0,0:0:0:0:
256,192,177983,1,8,0:0:0:0:
256,192,178133,1,8,0:0:0:0:
256,192,178283,1,8,0:0:0:0:
256,192,178358,1,8,0:0:0:0:
256,192,178433,1,0,0:0:0:0:
256,192,178508,1,0,0:0:0:0:
256,192,178583,1,8,0:0:0:0:
256,192,178658,1,0,0:0:0:0:
256,192,178733,1,0,0:0:0:0:
256,192,178883,1,8,0:0:0:0:
256,192,179033,1,0,0:0:0:0:
256,192,179108,1,0,0:0:0:0:
256,192,179183,1,8,0:0:0:0:
256,192,179258,1,0,0:0:0:0:
256,192,179333,1,12,0:0:0:0:
256,192,179483,1,8,0:0:0:0:
256,192,179633,1,8,0:0:0:0:
256,192,179708,1,0,0:0:0:0:
256,192,179783,1,8,0:0:0:0:
256,192,179933,1,0,0:0:0:0:
256,192,180083,1,8,0:0:0:0:
256,192,180233,1,0,0:0:0:0:
256,192,180308,1,8,0:0:0:0:
256,192,180383,1,8,0:0:0:0:
256,192,180458,1,0,0:0:0:0:
256,192,180533,1,8,0:0:0:0:
256,192,180683,1,8,0:0:0:0:
256,192,180833,1,8,0:0:0:0:
256,192,180908,1,0,0:0:0:0:
256,192,180983,1,8,0:0:0:0:
256,192,181133,1,0,0:0:0:0:
256,192,181283,1,8,0:0:0:0:
256,192,181433,1,8,0:0:0:0:
256,192,181508,1,0,0:0:0:0:
256,192,181583,1,8,0:0:0:0:
256,192,181658,1,8,0:0:0:0:
256,192,181733,1,4,0:0:0:0:
256,192,181883,1,8,0:0:0:0:
256,192,182033,1,0,0:0:0:0:
256,192,182108,1,0,0:0:0:0:
256,192,182183,1,8,0:0:0:0:
256,192,182258,1,0,0:0:0:0:
256,192,182333,1,0,0:0:0:0:
256,192,182483,1,8,0:0:0:0:
256,192,182633,1,0,0:0:0:0:
256,192,182708,1,0,0:0:0:0:
256,192,182783,1,8,0:0:0:0:
256,192,182933,1,0,0:0:0:0:
256,192,183008,1,8,0:0:0:0:
256,192,183083,1,8,0:0:0:0:
256,192,183158,1,8,0:0:0:0:
256,192,183233,1,8,0:0:0:0:
256,192,183308,1,8,0:0:0:0:
256,192,183383,1,8,0:0:0:0:
256,192,183458,1,8,0:0:0:0:
256,192,183533,1,8,0:0:0:0:
256,192,183683,1,0,0:0:0:0:
256,192,183833,1,0,0:0:0:0:
256,192,183983,1,0,0:0:0:0:
256,192,184133,1,4,0:0:0:0:
256,192,184433,1,0,0:0:0:0:
256,192,184583,1,0,0:0:0:0:
256,192,184733,1,8,0:0:0:0:
256,192,185033,1,0,0:0:0:0:
256,192,185183,1,8,0:0:0:0:
256,192,185220,1,8,0:0:0:0:
256,192,185333,1,0,0:0:0:0:
256,192,185483,1,0,0:0:0:0:
256,192,185633,1,0,0:0:0:0:
256,192,185783,1,0,0:0:0:0:
256,192,185933,1,8,0:0:0:0:
256,192,186083,1,8,0:0:0:0:
256,192,186233,1,0,0:0:0:0:
256,192,186383,1,0,0:0:0:0:
256,192,186533,1,4,0:0:0:0:
256,192,186833,1,0,0:0:0:0:
256,192,186983,1,0,0:0:0:0:
256,192,187133,1,8,0:0:0:0:
256,192,187433,1,0,0:0:0:0:
256,192,187583,1,8,0:0:0:0:
256,192,187620,1,8,0:0:0:0:
256,192,187733,1,0,0:0:0:0:
256,192,187883,1,0,0:0:0:0:
256,192,188033,1,0,0:0:0:0:
256,192,188183,1,0,0:0:0:0:
256,192,188258,1,0,0:0:0:0:
256,192,188333,1,8,0:0:0:0:
256,192,188483,1,8,0:0:0:0:
256,192,188633,1,8,0:0:0:0:
256,192,188783,1,8,0:0:0:0:
256,192,188933,1,12,0:0:0:0:
256,192,189233,1,0,0:0:0:0:
256,192,189383,1,0,0:0:0:0:
256,192,189533,1,8,0:0:0:0:
256,192,189833,1,0,0:0:0:0:
256,192,189983,1,8,0:0:0:0:
256,192,190020,1,8,0:0:0:0:
256,192,190133,1,0,0:0:0:0:
256,192,190283,1,0,0:0:0:0:
256,192,190433,1,0,0:0:0:0:
256,192,190583,1,0,0:0:0:0:
256,192,190733,1,8,0:0:0:0:
256,192,190883,1,8,0:0:0:0:
256,192,191033,1,0,0:0:0:0:
256,192,191183,1,0,0:0:0:0:
256,192,191333,1,4,0:0:0:0:
256,192,191633,1,0,0:0:0:0:
256,192,191783,1,0,0:0:0:0:
256,192,191933,1,8,0:0:0:0:
256,192,192233,1,0,0:0:0:0:
256,192,192383,1,0,0:0:0:0:
256,192,192533,1,12,0:0:0:0:
256,192,192683,1,0,0:0:0:0:
256,192,192833,1,8,0:0:0:0:
256,192,192983,1,4,0:0:0:0:
256,192,193133,1,8,0:0:0:0:
256,192,193283,1,8,0:0:0:0:
256,192,193433,1,4,0:0:0:0:
256,192,193583,1,8,0:0:0:0:
256,192,193733,1,8,0:0:0:0:
256,192,193883,1,4,0:0:0:0:
256,192,194033,1,8,0:0:0:0:
256,192,194183,1,0,0:0:0:0:
256,192,194333,1,12,0:0:0:0:
256,192,194483,1,8,0:0:0:0:
256,192,194633,1,0,0:0:0:0:
256,192,194708,1,0,0:0:0:0:
256,192,194783,1,8,0:0:0:0:
256,192,194933,1,0,0:0:0:0:
256,192,195008,1,0,0:0:0:0:
256,192,195083,1,8,0:0:0:0:
256,192,195233,1,0,0:0:0:0:
256,192,195308,1,0,0:0:0:0:
256,192,195383,1,8,0:0:0:0:
256,192,195458,1,8,0:0:0:0:
256,192,195533,1,0,0:0:0:0:
256,192,195683,1,8,0:0:0:0:
256,192,195758,1,0,0:0:0:0:
256,192,195833,1,0,0:0:0:0:
256,192,195983,1,8,0:0:0:0:
256,192,196058,1,8,0:0:0:0:
256,192,196133,1,0,0:0:0:0:
256,192,196283,1,8,0:0:0:0:
256,192,196358,1,8,0:0:0:0:
256,192,196433,1,0,0:0:0:0:
256,192,196508,1,0,0:0:0:0:
256,192,196583,1,8,0:0:0:0:
256,192,196733,1,0,0:0:0:0:
256,192,196883,1,8,0:0:0:0:
256,192,196958,1,0,0:0:0:0:
256,192,197033,1,0,0:0:0:0:
256,192,197108,1,0,0:0:0:0:
256,192,197183,1,8,0:0:0:0:
256,192,197333,1,0,0:0:0:0:
256,192,197483,1,8,0:0:0:0:
256,192,197558,1,0,0:0:0:0:
256,192,197633,1,0,0:0:0:0:
256,192,197708,1,0,0:0:0:0:
256,192,197783,1,8,0:0:0:0:
256,192,197933,1,0,0:0:0:0:
256,192,198083,1,8,0:0:0:0:
256,192,198158,1,8,0:0:0:0:
256,192,198233,1,0,0:0:0:0:
256,192,198383,1,8,0:0:0:0:
256,192,198458,1,0,0:0:0:0:
256,192,198533,1,0,0:0:0:0:
256,192,198683,1,8,0:0:0:0:
256,192,198758,1,8,0:0:0:0:
256,192,198833,1,8,0:0:0:0:
256,192,198908,1,0,0:0:0:0:
256,192,198983,1,8,0:0:0:0:
256,192,199133,1,4,0:0:0:0:
256,192,199283,1,8,0:0:0:0:
256,192,199358,1,8,0:0:0:0:
256,192,199433,1,0,0:0:0:0:
256,192,199508,1,0,0:0:0:0:
256,192,199583,1,8,0:0:0:0:
256,192,199658,1,8,0:0:0:0:
256,192,199733,1,0,0:0:0:0:
256,192,199808,1,8,0:0:0:0:
256,192,199883,1,8,0:0:0:0:
256,192,199958,1,8,0:0:0:0:
256,192,200033,1,0,0:0:0:0:
256,192,200108,1,0,0:0:0:0:
256,192,200183,1,8,0:0:0:0:
256,192,200258,1,0,0:0:0:0:
256,192,200333,1,8,0:0:0:0:
256,192,200408,1,0,0:0:0:0:
256,192,200483,1,8,0:0:0:0:
256,192,200558,1,8,0:0:0:0:
256,192,200633,1,0,0:0:0:0:
256,192,200708,1,8,0:0:0:0:
256,192,200783,1,8,0:0:0:0:
256,192,200858,1,0,0:0:0:0:
256,192,200933,1,0,0:0:0:0:
256,192,201008,1,0,0:0:0:0:
256,192,201083,1,8,0:0:0:0:
256,192,201233,1,0,0:0:0:0:
256,192,201308,1,8,0:0:0:0:
256,192,201383,1,8,0:0:0:0:
256,192,201533,1,0,0:0:0:0:
256,192,201683,1,8,0:0:0:0:
256,192,201758,1,0,0:0:0:0:
256,192,201833,1,0,0:0:0:0:
256,192,201908,1,0,0:0:0:0:
256,192,201983,1,8,0:0:0:0:
256,192,202058,1,0,0:0:0:0:
256,192,202133,1,0,0:0:0:0:
256,192,202208,1,0,0:0:0:0:
256,192,202283,1,8,0:0:0:0:
256,192,202358,1,8,0:0:0:0:
256,192,202433,1,0,0:0:0:0:
256,192,202508,1,0,0:0:0:0:
256,192,202583,1,8,0:0:0:0:
256,192,202658,1,8,0:0:0:0:
256,192,202733,1,4,0:0:0:0:
256,192,202883,1,8,0:0:0:0:
256,192,202958,1,0,0:0:0:0:
256,192,203033,1,0,0:0:0:0:
256,192,203108,1,8,0:0:0:0:
256,192,203183,1,8,0:0:0:0:
256,192,203258,1,8,0:0:0:0:
256,192,203333,1,0,0:0:0:0:
256,192,203408,1,0,0:0:0:0:
256,192,203483,1,8,0:0:0:0:
256,192,203558,1,0,0:0:0:0:
256,192,203633,1,8,0:0:0:0:
256,192,203708,1,8,0:0:0:0:
256,192,203783,1,8,0:0:0:0:
256,192,203858,1,8,0:0:0:0:
256,192,203933,1,4,0:0:0:0:
256,192,204083,1,8,0:0:0:0:
256,192,204308,1,0,0:0:0:0:
256,192,204383,1,8,0:0:0:0:
256,192,204533,1,8,0:0:0:0:
256,192,204683,1,8,0:0:0:0:
256,192,204833,1,0,0:0:0:0:
256,192,204908,1,0,0:0:0:0:
256,192,204983,1,8,0:0:0:0:
256,192,205133,1,0,0:0:0:0:
256,192,205283,1,8,0:0:0:0:
256,192,205508,1,0,0:0:0:0:
256,192,205583,1,8,0:0:0:0:
256,192,205733,1,8,0:0:0:0:
256,192,205883,1,8,0:0:0:0:
256,192,206033,1,0,0:0:0:0:
256,192,206108,1,0,0:0:0:0:
256,192,206183,1,0,0:0:0:0:
256,192,206258,1,8,0:0:0:0:
256,192,206333,1,0,0:0:0:0:
256,192,206483,1,8,0:0:0:0:
256,192,206708,1,0,0:0:0:0:
256,192,206783,1,8,0:0:0:0:
256,192,206933,1,8,0:0:0:0:
256,192,207083,1,8,0:0:0:0:
256,192,207233,1,0,0:0:0:0:
256,192,207308,1,0,0:0:0:0:
256,192,207383,1,8,0:0:0:0:
256,192,207533,1,0,0:0:0:0:
256,192,207683,1,8,0:0:0:0:
256,192,207833,1,0,0:0:0:0:
256,192,207908,1,0,0:0:0:0:
256,192,207983,1,8,0:0:0:0:
256,192,208133,1,8,0:0:0:0:
256,192,208283,1,8,0:0:0:0:
256,192,208433,1,0,0:0:0:0:
256,192,208508,1,8,0:0:0:0:
256,192,208583,1,8,0:0:0:0:
256,192,208658,1,8,0:0:0:0:
256,192,208733,1,4,0:0:0:0:
256,192,208883,1,8,0:0:0:0:
256,192,208958,1,8,0:0:0:0:
256,192,209033,1,0,0:0:0:0:
256,192,209108,1,0,0:0:0:0:
256,192,209183,1,8,0:0:0:0:
256,192,209258,1,0,0:0:0:0:
256,192,209333,1,8,0:0:0:0:
256,192,209483,1,8,0:0:0:0:
256,192,209633,1,0,0:0:0:0:
256,192,209708,1,0,0:0:0:0:
256,192,209783,1,8,0:0:0:0:
256,192,209858,1,8,0:0:0:0:
256,192,209933,1,0,0:0:0:0:
256,192,210008,1,8,0:0:0:0:
256,192,210083,1,8,0:0:0:0:
256,192,210158,1,0,0:0:0:0:
256,192,210233,1,0,0:0:0:0:
256,192,210308,1,8,0:0:0:0:
256,192,210383,1,8,0:0:0:0:
256,192,210458,1,8,0:0:0:0:
256,192,210533,1,0,0:0:0:0:
256,192,210608,1,0,0:0:0:0:
256,192,210683,1,8,0:0:0:0:
256,192,210758,1,8,0:0:0:0:
256,192,210833,1,0,0:0:0:0:
256,192,210908,1,8,0:0:0:0:
256,192,210983,1,8,0:0:0:0:
256,192,211058,1,8,0:0:0:0:
256,192,211133,1,4,0:0:0:0:
256,192,211283,1,8,0:0:0:0:
256,192,211358,1,8,0:0:0:0:
256,192,211433,1,0,0:0:0:0:
256,192,211508,1,0,0:0:0:0:
256,192,211583,1,8,0:0:0:0:
256,192,211658,1,8,0:0:0:0:
256,192,211733,1,8,0:0:0:0:
256,192,211808,1,0,0:0:0:0:
256,192,211883,1,8,0:0:0:0:
256,192,211958,1,8,0:0:0:0:
256,192,212033,1,0,0:0:0:0:
256,192,212108,1,0,0:0:0:0:
256,192,212183,1,8,0:0:0:0:
256,192,212258,1,0,0:0:0:0:
256,192,212333,1,8,0:0:0:0:
256,192,212433,1,0,0:0:0:0:
256,192,212533,1,8,0:0:0:0:
256,192,212633,1,8,0:0:0:0:
256,192,212733,1,8,0:0:0:0:
256,192,212833,1,8,0:0:0:0:
256,192,212933,1,0,0:0:0:0:
256,192,213033,1,0,0:0:0:0:
256,192,213133,1,0,0:0:0:0:
256,192,213233,1,0,0:0:0:0:
256,192,213333,1,0,0:0:0:0:
256,192,213433,1,0,0:0:0:0:
256,192,213533,1,4,0:0:0:0:
256,192,213683,1,0,0:0:0:0:
256,192,213833,1,0,0:0:0:0:
256,192,213983,1,0,0:0:0:0:
256,192,214133,1,12,0:0:0:0:
256,192,214283,1,0,0:0:0:0:
256,192,214433,1,0,0:0:0:0:
256,192,214583,1,8,0:0:0:0:
256,192,214733,1,12,0:0:0:0:
256,192,214883,1,0,0:0:0:0:
256,192,215033,1,0,0:0:0:0:
256,192,215183,1,0,0:0:0:0:
256,192,215333,1,12,0:0:0:0:
256,192,215483,1,0,0:0:0:0:
256,192,215633,1,0,0:0:0:0:
256,192,215783,1,8,0:0:0:0:
256,192,215933,1,12,0:0:0:0:
256,192,216083,1,0,0:0:0:0:
256,192,216233,1,0,0:0:0:0:
256,192,216383,1,0,0:0:0:0:
256,192,216533,1,12,0:0:0:0:
256,192,216683,1,0,0:0:0:0:
256,192,216833,1,0,0:0:0:0:
256,192,216983,1,8,0:0:0:0:
256,192,217133,1,12,0:0:0:0:
256,192,217283,1,0,0:0:0:0:
256,192,217433,1,0,0:0:0:0:
256,192,217583,1,0,0:0:0:0:
256,192,217733,1,12,0:0:0:0:
256,192,217883,1,0,0:0:0:0:
256,192,218033,1,0,0:0:0:0:
256,192,218183,1,8,0:0:0:0:
256,192,218333,1,12,0:0:0:0:
256,192,218483,1,0,0:0:0:0:
256,192,218558,1,0,0:0:0:0:
256,192,218633,1,8,0:0:0:0:
256,192,218783,1,0,0:0:0:0:
256,192,218858,1,0,0:0:0:0:
256,192,218933,1,12,0:0:0:0:
256,192,219083,1,8,0:0:0:0:
256,192,219158,1,0,0:0:0:0:
256,192,219233,1,8,0:0:0:0:
256,192,219308,1,0,0:0:0:0:
256,192,219383,1,0,0:0:0:0:
256,192,219533,1,12,0:0:0:0:
256,192,219683,1,0,0:0:0:0:
256,192,219758,1,0,0:0:0:0:
256,192,219833,1,8,0:0:0:0:
256,192,219983,1,0,0:0:0:0:
256,192,220058,1,0,0:0:0:0:
256,192,220133,1,12,0:0:0:0:
256,192,220283,1,8,0:0:0:0:
256,192,220358,1,0,0:0:0:0:
256,192,220433,1,8,0:0:0:0:
256,192,220508,1,0,0:0:0:0:
256,192,220583,1,0,0:0:0:0:
256,192,220733,1,12,0:0:0:0:
256,192,220883,1,0,0:0:0:0:
256,192,220958,1,0,0:0:0:0:
256,192,221033,1,0,0:0:0:0:
256,192,221183,1,0,0:0:0:0:
256,192,221258,1,0,0:0:0:0:
256,192,221333,1,12,0:0:0:0:
256,192,221483,1,0,0:0:0:0:
256,192,221558,1,0,0:0:0:0:
256,192,221633,1,0,0:0:0:0:
256,192,221783,1,0,0:0:0:0:
256,192,221933,1,12,0:0:0:0:
256,192,222083,1,0,0:0:0:0:
256,192,222158,1,0,0:0:0:0:
256,192,222233,1,12,0:0:0:0:
256,192,222383,1,0,0:0:0:0:
256,192,222458,1,0,0:0:0:0:
256,192,222533,1,8,0:0:0:0:
256,192,222608,1,8,0:0:0:0:
256,192,222683,1,0,0:0:0:0:
256,192,222758,1,8,0:0:0:0:
256,192,222833,1,8,0:0:0:0:
256,192,222908,1,8,0:0:0:0:
256,192,222983,1,8,0:0:0:0:
256,192,223058,1,8,0:0:0:0:
256,192,223133,1,4,0:0:0:0:
256,192,223283,1,0,0:0:0:0:
256,192,223433,1,12,0:0:0:0:
256,192,223583,1,0,0:0:0:0:
256,192,223733,1,8,0:0:0:0:
256,192,223883,1,0,0:0:0:0:
256,192,224033,1,12,0:0:0:0:
256,192,224183,1,8,0:0:0:0:
256,192,224258,1,8,0:0:0:0:
256,192,224333,1,0,0:0:0:0:
256,192,224483,1,0,0:0:0:0:
256,192,224633,1,12,0:0:0:0:
256,192,224783,1,0,0:0:0:0:
256,192,224933,1,8,0:0:0:0:
256,192,225083,1,0,0:0:0:0:
256,192,225233,1,12,0:0:0:0:
256,192,225383,1,8,0:0:0:0:
256,192,225458,1,8,0:0:0:0:
256,192,225533,1,0,0:0:0:0:
256,192,225683,1,0,0:0:0:0:
256,192,225833,1,12,0:0:0:0:
256,192,225983,1,0,0:0:0:0:
256,192,226133,1,8,0:0:0:0:
256,192,226283,1,0,0:0:0:0:
256,192,226433,1,12,0:0:0:0:
256,192,226583,1,8,0:0:0:0:
256,192,226658,1,8,0:0:0:0:
256,192,226733,1,0,0:0:0:0:
256,192,226883,1,0,0:0:0:0:
256,192,227033,1,12,0:0:0:0:
256,192,227183,1,0,0:0:0:0:
256,192,227333,1,8,0:0:0:0:
256,192,227483,1,0,0:0:0:0:
256,192,227633,1,12,0:0:0:0:
256,192,227783,1,8,0:0:0:0:
256,192,227858,1,8,0:0:0:0:
256,192,227933,1,4,0:0:0:0:
256,192,228083,1,0,0:0:0:0:
256,192,228158,1,0,0:0:0:0:
256,192,228233,1,12,0:0:0:0:
256,192,228383,1,0,0:0:0:0:
256,192,228458,1,0,0:0:0:0:
256,192,228533,1,8,0:0:0:0:
256,192,228683,1,8,0:0:0:0:
256,192,228833,1,12,0:0:0:0:
256,192,228983,1,8,0:0:0:0:
256,192,229133,1,0,0:0:0:0:
256,192,229283,1,0,0:0:0:0:
256,192,229358,1,0,0:0:0:0:
256,192,229433,1,12,0:0:0:0:
256,192,229583,1,0,0:0:0:0:
256,192,229658,1,0,0:0:0:0:
256,192,229733,1,8,0:0:0:0:
256,192,229883,1,8,0:0:0:0:
256,192,230033,1,8,0:0:0:0:
256,192,230183,1,8,0:0:0:0:
256,192,230333,1,4,0:0:0:0:
256,192,230483,1,0,0:0:0:0:
256,192,230558,1,0,0:0:0:0:
256,192,230633,1,12,0:0:0:0:
256,192,230783,1,0,0:0:0:0:
256,192,230858,1,8,0:0:0:0:
256,192,230933,1,0,0:0:0:0:
256,192,231083,1,0,0:0:0:0:
256,192,231158,1,0,0:0:0:0:
256,192,231233,1,12,0:0:0:0:
256,192,231383,1,0,0:0:0:0:
256,192,231533,1,4,0:0:0:0:
256,192,231683,1,8,0:0:0:0:
256,192,231833,1,8,0:0:0:0:
256,192,231983,1,8,0:0:0:0:
256,192,232133,1,0,0:0:0:0:
256,192,232283,1,0,0:0:0:0:
256,192,232433,1,0,0:0:0:0:
256,192,232583,1,0,0:0:0:0:
256,192,232733,1,4,0:0:0:0:
256,192,232883,1,0,0:0:0:0:
256,192,233033,1,0,0:0:0:0:
256,192,233183,1,0,0:0:0:0:
256,192,233333,1,8,0:0:0:0:
256,192,233483,1,0,0:0:0:0:
256,192,233783,1,0,0:0:0:0:
256,192,234083,1,0,0:0:0:0:
256,192,234383,1,0,0:0:0:0:
256,192,234533,1,8,0:0:0:0:
256,192,234683,1,0,0:0:0:0:
256,192,234833,1,0,0:0:0:0:
256,192,235133,1,4,0:0:0:0:
256,192,235283,1,0,0:0:0:0:
256,192,235433,1,0,0:0:0:0:
256,192,235583,1,0,0:0:0:0:
256,192,235733,1,8,0:0:0:0:
256,192,235883,1,0,0:0:0:0:
256,192,236183,1,0,0:0:0:0:
256,192,236483,1,0,0:0:0:0:
256,192,236783,1,0,0:0:0:0:
256,192,236933,1,8,0:0:0:0:
256,192,237083,1,8,0:0:0:0:
256,192,237233,1,0,0:0:0:0:
256,192,237383,1,0,0:0:0:0:
256,192,237533,1,12,0:0:0:0:
256,192,238583,1,0,0:0:0:0:
256,192,238633,1,0,0:0:0:0:
256,192,238683,1,0,0:0:0:0:
256,192,238733,1,12,0:0:0:0:
256,192,239333,1,0,0:0:0:0:
256,192,239633,1,8,0:0:0:0:
256,192,239783,1,0,0:0:0:0:
256,192,239858,1,0,0:0:0:0:
256,192,239933,1,8,0:0:0:0:
256,192,240008,1,8,0:0:0:0:
256,192,240083,1,0,0:0:0:0:
256,192,240158,1,0,0:0:0:0:
256,192,240233,1,8,0:0:0:0:
256,192,240308,1,8,0:0:0:0:
256,192,240383,1,0,0:0:0:0:
256,192,240458,1,8,0:0:0:0:
256,192,240533,1,0,0:0:0:0:
256,192,240608,1,0,0:0:0:0:
256,192,240683,1,8,0:0:0:0:
256,192,240758,1,8,0:0:0:0:
256,192,240833,1,0,0:0:0:0:
256,192,240908,1,8,0:0:0:0:
256,192,240983,1,0,0:0:0:0:
256,192,241058,1,0,0:0:0:0:
256,192,241133,1,8,0:0:0:0:
256,192,241208,1,0,0:0:0:0:
256,192,241283,1,0,0:0:0:0:
256,192,241358,1,0,0:0:0:0:
256,192,241433,1,0,0:0:0:0:
256,192,241508,1,8,0:0:0:0:
256,192,241583,1,8,0:0:0:0:
256,192,241658,1,0,0:0:0:0:
256,192,241733,1,0,0:0:0:0:
256,192,241933,1,0,0:0:0:0:
256,192,242133,1,0,0:0:0:0:
256,192,242333,1,12,0:0:0:0:
256,192,242833,1,8,0:0:0:0:
256,192,242933,1,4,0:0:0:0:
256,192,243433,1,0,0:0:0:0:
256,192,243533,1,12,0:0:0:0:
256,192,244133,1,4,0:0:0:0:
256,192,244733,1,0,0:0:0:0:
256,192,244833,1,0,0:0:0:0:
256,192,244933,1,0,0:0:0:0:
256,192,245033,1,8,0:0:0:0:
256,192,245133,1,8,0:0:0:0:
256,192,245233,1,8,0:0:0:0:
256,192,245333,1,0,0:0:0:0:
256,192,245433,1,0,0:0:0:0:
256,192,245533,1,0,0:0:0:0:
256,192,245633,1,8,0:0:0:0:
256,192,245733,1,8,0:0:0:0:
256,192,245833,1,8,0:0:0:0:
256,192,245933,1,8,0:0:0:0:
256,192,246033,1,0,0:0:0:0:
256,192,246133,1,0,0:0:0:0:
256,192,246233,1,8,0:0:0:0:
256,192,246333,1,0,0:0:0:0:
256,192,246433,1,0,0:0:0:0:
256,192,246533,1,8,0:0:0:0:
256,192,246608,1,0,0:0:0:0:
256,192,246683,1,8,0:0:0:0:
256,192,246758,1,8,0:0:0:0:
256,192,246833,1,0,0:0:0:0:
256,192,246908,1,8,0:0:0:0:
256,192,246983,1,0,0:0:0:0:
256,192,247058,1,0,0:0:0:0:
256,192,247133,1,12,0:0:0:0:
256,192,247283,1,8,0:0:0:0:
256,192,247508,1,0,0:0:0:0:
256,192,247583,1,8,0:0:0:0:
256,192,247658,1,8,0:0:0:0:
256,192,247733,1,0,0:0:0:0:
256,192,247883,1,8,0:0:0:0:
256,192,248033,1,0,0:0:0:0:
256,192,248108,1,0,0:0:0:0:
256,192,248183,1,8,0:0:0:0:
256,192,248258,1,8,0:0:0:0:
256,192,248333,1,8,0:0:0:0:
256,192,248483,1,8,0:0:0:0:
256,192,248633,1,8,0:0:0:0:
256,192,248708,1,0,0:0:0:0:
256,192,248783,1,8,0:0:0:0:
256,192,248858,1,8,0:0:0:0:
256,192,248933,1,0,0:0:0:0:
256,192,249008,1,0,0:0:0:0:
256,192,249083,1,8,0:0:0:0:
256,192,249233,1,0,0:0:0:0:
256,192,249308,1,0,0:0:0:0:
256,192,249383,1,8,0:0:0:0:
256,192,249533,1,0,0:0:0:0:
256,192,249683,1,8,0:0:0:0:
256,192,249908,1,0,0:0:0:0:
256,192,249983,1,8,0:0:0:0:
256,192,250133,1,0,0:0:0:0:
256,192,250283,1,8,0:0:0:0:
256,192,250433,1,0,0:0:0:0:
256,192,250508,1,0,0:0:0:0:
256,192,250583,1,8,0:0:0:0:
256,192,250733,1,8,0:0:0:0:
256,192,250883,1,8,0:0:0:0:
256,192,251033,1,0,0:0:0:0:
256,192,251108,1,0,0:0:0:0:
256,192,251183,1,8,0:0:0:0:
256,192,251258,1,8,0:0:0:0:
256,192,251333,1,0,0:0:0:0:
256,192,251483,1,8,0:0:0:0:
256,192,251633,1,0,0:0:0:0:
256,192,251708,1,0,0:0:0:0:
256,192,251783,1,8,0:0:0:0:
256,192,251933,1,4,0:0:0:0:
256,192,252083,1,8,0:0:0:0:
256,192,252308,1,0,0:0:0:0:
256,192,252383,1,8,0:0:0:0:
256,192,252458,1,0,0:0:0:0:
256,192,252533,1,0,0:0:0:0:
256,192,252683,1,8,0:0:0:0:
256,192,252833,1,0,0:0:0:0:
256,192,252908,1,0,0:0:0:0:
256,192,252983,1,8,0:0:0:0:
256,192,253058,1,0,0:0:0:0:
256,192,253133,1,8,0:0:0:0:
256,192,253283,1,8,0:0:0:0:
256,192,253433,1,8,0:0:0:0:
256,192,253508,1,0,0:0:0:0:
256,192,253583,1,8,0:0:0:0:
256,192,253658,1,0,0:0:0:0:
256,192,253733,1,8,0:0:0:0:
256,192,253883,1,8,0:0:0:0:
256,192,254033,1,0,0:0:0:0:
256,192,254108,1,0,0:0:0:0:
256,192,254183,1,8,0:0:0:0:
256,192,254333,1,4,0:0:0:0:
256,192,254483,1,8,0:0:0:0:
256,192,254558,1,8,0:0:0:0:
256,192,254633,1,0,0:0:0:0:
256,192,254708,1,0,0:0:0:0:
256,192,254783,1,8,0:0:0:0:
256,192,254858,1,0,0:0:0:0:
256,192,254933,1,0,0:0:0:0:
256,192,255008,1,0,0:0:0:0:
256,192,255083,1,8,0:0:0:0:
256,192,255158,1,8,0:0:0:0:
256,192,255233,1,0,0:0:0:0:
256,192,255308,1,0,0:0:0:0:
256,192,255383,1,8,0:0:0:0:
256,192,255458,1,0,0:0:0:0:
256,192,255533,1,12,0:0:0:0:
256,192,255683,1,8,0:0:0:0:
256,192,255758,1,0,0:0:0:0:
256,192,255833,1,0,0:0:0:0:
256,192,255908,1,0,0:0:0:0:
256,192,255983,1,8,0:0:0:0:
256,192,256058,1,0,0:0:0:0:
256,192,256133,1,0,0:0:0:0:
256,192,256208,1,0,0:0:0:0:
256,192,256283,1,8,0:0:0:0:
256,192,256358,1,0,0:0:0:0:
256,192,256433,1,8,0:0:0:0:
256,192,256508,1,0,0:0:0:0:
256,192,256583,1,8,0:0:0:0:
256,192,256658,1,8,0:0:0:0:
256,192,256733,1,4,0:0:0:0:
256,192,256883,1,8,0:0:0:0:
256,192,257033,1,8,0:0:0:0:
256,192,257108,1,0,0:0:0:0:
256,192,257183,1,8,0:0:0:0:
256,192,257333,1,0,0:0:0:0:
256,192,257483,1,8,0:0:0:0:
256,192,257633,1,0,0:0:0:0:
256,192,257708,1,8,0:0:0:0:
256,192,257783,1,8,0:0:0:0:
256,192,257933,1,0,0:0:0:0:
256,192,258083,1,8,0:0:0:0:
256,192,258233,1,8,0:0:0:0:
256,192,258308,1,0,0:0:0:0:
256,192,258383,1,8,0:0:0:0:
256,192,258533,1,0,0:0:0:0:
256,192,258683,1,8,0:0:0:0:
256,192,258833,1,0,0:0:0:0:
256,192,258908,1,8,0:0:0:0:
256,192,258983,1,8,0:0:0:0:
256,192,259133,1,0,0:0:0:0:
256,192,259283,1,8,0:0:0:0:
256,192,259433,1,8,0:0:0:0:
256,192,259508,1,0,0:0:0:0:
256,192,259583,1,8,0:0:0:0:
256,192,259733,1,0,0:0:0:0:
256,192,259883,1,8,0:0:0:0:
256,192,260033,1,0,0:0:0:0:
256,192,260108,1,0,0:0:0:0:
256,192,260183,1,8,0:0:0:0:
256,192,260333,1,8,0:0:0:0:
256,192,260483,1,8,0:0:0:0:
256,192,260558,1,8,0:0:0:0:
256,192,260633,1,0,0:0:0:0:
256,192,260708,1,0,0:0:0:0:
256,192,260783,1,8,0:0:0:0:
256,192,260858,1,0,0:0:0:0:
256,192,260933,1,0,0:0:0:0:
256,192,261083,1,8,0:0:0:0:
256,192,261233,1,0,0:0:0:0:
256,192,261308,1,0,0:0:0:0:
256,192,261383,1,8,0:0:0:0:
256,192,261458,1,0,0:0:0:0:
256,192,261533,1,12,0:0:0:0:
256,192,261683,1,8,0:0:0:0:
256,192,261833,1,8,0:0:0:0:
256,192,261908,1,0,0:0:0:0:
256,192,261983,1,8,0:0:0:0:
256,192,262133,1,0,0:0:0:0:
256,192,262283,1,8,0:0:0:0:
256,192,262433,1,0,0:0:0:0:
256,192,262508,1,8,0:0:0:0:
256,192,262583,1,8,0:0:0:0:
256,192,262658,1,0,0:0:0:0:
256,192,262733,1,8,0:0:0:0:
256,192,262883,1,8,0:0:0:0:
256,192,263033,1,8,0:0:0:0:
256,192,263108,1,0,0:0:0:0:
256,192,263183,1,8,0:0:0:0:
256,192,263333,1,0,0:0:0:0:
256,192,263483,1,8,0:0:0:0:
256,192,263633,1,8,0:0:0:0:
256,192,263708,1,0,0:0:0:0:
256,192,263783,1,8,0:0:0:0:
256,192,263858,1,8,0:0:0:0:
256,192,263933,1,4,0:0:0:0:
256,192,264083,1,8,0:0:0:0:
256,192,264233,1,0,0:0:0:0:
256,192,264308,1,0,0:0:0:0:
256,192,264383,1,8,0:0:0:0:
256,192,264458,1,0,0:0:0:0:
256,192,264533,1,0,0:0:0:0:
256,192,264683,1,8,0:0:0:0:
256,192,264833,1,0,0:0:0:0:
256,192,264908,1,0,0:0:0:0:
256,192,264983,1,8,0:0:0:0:
256,192,265133,1,8,0:0:0:0:
256,192,265208,1,8,0:0:0:0:
256,192,265283,1,8,0:0:0:0:
256,192,265358,1,8,0:0:0:0:
256,192,265433,1,8,0:0:0:0:
256,192,265508,1,8,0:0:0:0:
256,192,265583,1,8,0:0:0:0:
256,192,265658,1,8,0:0:0:0:
256,192,265733,1,0,0:0:0:0:
256,192,265808,1,0,0:0:0:0:
256,192,265883,1,0,0:0:0:0:
256,192,265958,1,0,0:0:0:0:
256,192,266033,1,0,0:0:0:0:
256,192,266108,1,0,0:0:0:0:
256,192,266183,1,0,0:0:0:0:
256,192,266258,1,0,0:0:0:0:
256,192,266333,1,12,0:0:0:0:
256,192,266483,1,0,0:0:0:0:
256,192,266558,1,0,0:0:0:0:
256,192,266633,1,8,0:0:0:0:
256,192,266708,1,0,0:0:0:0:
256,192,266783,1,0,0:0:0:0:
256,192,266858,1,0,0:0:0:0:
256,192,266933,1,8,0:0:0:0:
256,192,267008,1,8,0:0:0:0:
256,192,267083,1,0,0:0:0:0:
256,192,267158,1,0,0:0:0:0:
256,192,267233,1,8,0:0:0:0:
256,192,267308,1,0,0:0:0:0:
256,192,267383,1,0,0:0:0:0:
256,192,267458,1,8,0:0:0:0:
256,192,267533,1,8,0:0:0:0:
256,192,267608,1,8,0:0:0:0:
256,192,267683,1,0,0:0:0:0:
256,192,267758,1,0,0:0:0:0:
256,192,267833,1,8,0:0:0:0:
256,192,267908,1,8,0:0:0:0:
256,192,267983,1,0,0:0:0:0:
256,192,268058,1,0,0:0:0:0:
256,192,268133,1,8,0:0:0:0:
256,192,268208,1,8,0:0:0:0:
256,192,268283,1,0,0:0:0:0:
256,192,268358,1,0,0:0:0:0:
256,192,268433,1,8,0:0:0:0:
256,192,268508,1,8,0:0:0:0:
256,192,268583,1,0,0:0:0:0:
256,192,268658,1,0,0:0:0:0:
256,192,268733,1,8,0:0:0:0:
256,192,268808,1,8,0:0:0:0:
256,192,268883,1,8,0:0:0:0:
256,192,268958,1,8,0:0:0:0:
256,192,269033,1,8,0:0:0:0:
256,192,269108,1,0,0:0:0:0:
256,192,269183,1,8,0:0:0:0:
256,192,269258,1,0,0:0:0:0:
256,192,269333,1,8,0:0:0:0:
256,192,269408,1,0,0:0:0:0:
256,192,269483,1,8,0:0:0:0:
256,192,269558,1,0,0:0:0:0:
256,192,269633,1,8,0:0:0:0:
256,192,269708,1,0,0:0:0:0:
256,192,269783,1,0,0:0:0:0:
256,192,269858,1,0,0:0:0:0:
256,192,269933,1,8,0:0:0:0:
256,192,270008,1,8,0:0:0:0:
256,192,270083,1,8,0:0:0:0:
256,192,270158,1,0,0:0:0:0:
256,192,270233,1,8,0:0:0:0:
256,192,270308,1,8,0:0:0:0:
256,192,270383,1,0,0:0:0:0:
256,192,270458,1,0,0:0:0:0:
256,192,270533,1,8,0:0:0:0:
256,192,270608,1,8,0:0:0:0:
256,192,270683,1,0,0:0:0:0:
256,192,270758,1,8,0:0:0:0:
256,192,270833,1,8,0:0:0:0:
256,192,270908,1,8,0:0:0:0:
256,192,270983,1,0,0:0:0:0:
256,192,271058,1,0,0:0:0:0:
256,192,271133,1,12,0:0:0:0:
256,192,271283,1,0,0:0:0:0:
256,192,271358,1,0,0:0:0:0:
256,192,271433,1,8,0:0:0:0:
256,192,271508,1,0,0:0:0:0:
256,192,271583,1,8,0:0:0:0:
256,192,271658,1,0,0:0:0:0:
256,192,271733,1,8,0:0:0:0:
256,192,271808,1,0,0:0:0:0:
256,192,271883,1,0,0:0:0:0:
256,192,271958,1,0,0:0:0:0:
256,192,272033,1,8,0:0:0:0:
256,192,272108,1,0,0:0:0:0:
256,192,272183,1,0,0:0:0:0:
256,192,272258,1,8,0:0:0:0:
256,192,272333,1,8,0:0:0:0:
256,192,272408,1,0,0:0:0:0:
256,192,272483,1,8,0:0:0:0:
256,192,272558,1,8,0:0:0:0:
256,192,272633,1,8,0:0:0:0:
256,192,272708,1,0,0:0:0:0:
256,192,272783,1,8,0:0:0:0:
256,192,272858,1,0,0:0:0:0:
256,192,272933,1,8,0:0:0:0:
256,192,273008,1,0,0:0:0:0:
256,192,273083,1,0,0:0:0:0:
256,192,273158,1,0,0:0:0:0:
256,192,273233,1,8,0:0:0:0:
256,192,273308,1,8,0:0:0:0:
256,192,273383,1,0,0:0:0:0:
256,192,273458,1,0,0:0:0:0:
256,192,273533,1,12,0:0:0:0:
256,192,273683,1,0,0:0:0:0:
256,192,273758,1,8,0:0:0:0:
256,192,273833,1,8,0:0:0:0:
256,192,273908,1,0,0:0:0:0:
256,192,273983,1,8,0:0:0:0:
256,192,274058,1,0,0:0:0:0:
256,192,274133,1,8,0:0:0:0:
256,192,274208,1,0,0:0:0:0:
256,192,274283,1,0,0:0:0:0:
256,192,274358,1,8,0:0:0:0:
256,192,274433,1,8,0:0:0:0:
256,192,274508,1,0,0:0:0:0:
256,192,274583,1,8,0:0:0:0:
256,192,274658,1,0,0:0:0:0:
256,192,274733,1,12,0:0:0:0:
256,192,274883,1,0,0:0:0:0:
256,192,274958,1,0,0:0:0:0:
256,192,275033,1,8,0:0:0:0:
256,192,275108,1,0,0:0:0:0:
256,192,275183,1,0,0:0:0:0:
256,192,275258,1,0,0:0:0:0:
256,192,275333,1,12,0:0:0:0:
256,192,275483,1,8,0:0:0:0:
256,192,275558,1,0,0:0:0:0:
256,192,275633,1,12,0:0:0:0:
256,192,275783,1,0,0:0:0:0:
256,192,275858,1,0,0:0:0:0:
256,192,275933,1,12,0:0:0:0:
256,192,276083,1,0,0:0:0:0:
256,192,276158,1,0,0:0:0:0:
256,192,276233,1,8,0:0:0:0:
256,192,276308,1,0,0:0:0:0:
256,192,276383,1,8,0:0:0:0:
256,192,276458,1,0,0:0:0:0:
256,192,276533,1,8,0:0:0:0:
256,192,276608,1,0,0:0:0:0:
256,192,276683,1,0,0:0:0:0:
256,192,276758,1,0,0:0:0:0:
256,192,276833,1,8,0:0:0:0:
256,192,276908,1,0,0:0:0:0:
256,192,276983,1,8,0:0:0:0:
256,192,277058,1,8,0:0:0:0:
256,192,277133,1,8,0:0:0:0:
256,192,277208,1,0,0:0:0:0:
256,192,277283,1,0,0:0:0:0:
256,192,277358,1,0,0:0:0:0:
256,192,277433,1,8,0:0:0:0:
256,192,277508,1,0,0:0:0:0:
256,192,277583,1,8,0:0:0:0:
256,192,277658,1,0,0:0:0:0:
256,192,277733,1,8,0:0:0:0:
256,192,277808,1,0,0:0:0:0:
256,192,277883,1,0,0:0:0:0:
256,192,277958,1,0,0:0:0:0:
256,192,278033,1,8,0:0:0:0:
256,192,278108,1,8,0:0:0:0:
256,192,278183,1,8,0:0:0:0:
256,192,278258,1,0,0:0:0:0:
256,192,278333,1,8,0:0:0:0:
256,192,278408,1,0,0:0:0:0:
256,192,278483,1,0,0:0:0:0:
256,192,278558,1,0,0:0:0:0:
256,192,278633,1,8,0:0:0:0:
256,192,278708,1,0,0:0:0:0:
256,192,278783,1,8,0:0:0:0:
256,192,278858,1,0,0:0:0:0:
256,192,278933,1,8,0:0:0:0:
256,192,279008,1,8,0:0:0:0:
256,192,279083,1,0,0:0:0:0:
256,192,279158,1,0,0:0:0:0:
256,192,279233,1,8,0:0:0:0:
256,192,279308,1,0,0:0:0:0:
256,192,279383,1,8,0:0:0:0:
256,192,279458,1,0,0:0:0:0:
256,192,279533,1,8,0:0:0:0:
256,192,279608,1,0,0:0:0:0:
256,192,279683,1,0,0:0:0:0:
256,192,279758,1,8,0:0:0:0:
256,192,279833,1,8,0:0:0:0:
256,192,279908,1,0,0:0:0:0:
256,192,279983,1,8,0:0:0:0:
256,192,280058,1,0,0:0:0:0:
256,192,280133,1,8,0:0:0:0:
256,192,280208,1,8,0:0:0:0:
256,192,280283,1,0,0:0:0:0:
256,192,280358,1,8,0:0:0:0:
256,192,280433,1,8,0:0:0:0:
256,192,280508,1,0,0:0:0:0:
256,192,280583,1,0,0:0:0:0:
256,192,280658,1,0,0:0:0:0:
256,192,280733,1,12,0:0:0:0:
256,192,280883,1,0,0:0:0:0:
256,192,280958,1,0,0:0:0:0:
256,192,281033,1,8,0:0:0:0:
256,192,281108,1,8,0:0:0:0:
256,192,281183,1,8,0:0:0:0:
256,192,281258,1,0,0:0:0:0:
256,192,281333,1,8,0:0:0:0:
256,192,281408,1,0,0:0:0:0:
256,192,281483,1,0,0:0:0:0:
256,192,281558,1,0,0:0:0:0:
256,192,281633,1,8,0:0:0:0:
256,192,281708,1,8,0:0:0:0:
256,192,281783,1,0,0:0:0:0:
256,192,281858,1,0,0:0:0:0:
256,192,281933,1,12,0:0:0:0:
256,192,282083,1,0,0:0:0:0:
256,192,282158,1,0,0:0:0:0:
256,192,282233,1,8,0:0:0:0:
256,192,282308,1,8,0:0:0:0:
256,192,282383,1,8,0:0:0:0:
256,192,282458,1,0,0:0:0:0:
256,192,282533,1,8,0:0:0:0:
256,192,282608,1,0,0:0:0:0:
256,192,282683,1,0,0:0:0:0:
256,192,282758,1,0,0:0:0:0:
256,192,282833,1,8,0:0:0:0:
256,192,282908,1,8,0:0:0:0:
256,192,282983,1,0,0:0:0:0:
256,192,283058,1,0,0:0:0:0:
256,192,283133,1,12,0:0:0:0:
256,192,283283,1,0,0:0:0:0:
256,192,283358,1,0,0:0:0:0:
256,192,283433,1,0,0:0:0:0:
256,192,283508,1,0,0:0:0:0:
256,192,283583,1,12,0:0:0:0:
256,192,283733,1,0,0:0:0:0:
256,192,283808,1,0,0:0:0:0:
256,192,283883,1,0,0:0:0:0:
256,192,283958,1,0,0:0:0:0:
256,192,284033,1,12,0:0:0:0:
256,192,284183,1,0,0:0:0:0:
256,192,284258,1,0,0:0:0:0:
256,192,284333,1,12,0:0:0:0:
256,192,284633,1,0,0:0:0:0:
256,192,284708,1,0,0:0:0:0:
256,192,284783,1,8,0:0:0:0:
256,192,284858,1,8,0:0:0:0:
256,192,284933,1,0,0:0:0:0:
256,192,285008,1,8,0:0:0:0:
256,192,285083,1,8,0:0:0:0:
256,192,285158,1,8,0:0:0:0:
256,192,285233,1,0,0:0:0:0:
256,192,285308,1,0,0:0:0:0:
256,192,285383,1,0,0:0:0:0:
256,192,285533,1,4,0:0:0:0:
256,192,285683,1,8,0:0:0:0:
256,192,285758,1,0,0:0:0:0:
256,192,285833,1,0,0:0:0:0:
256,192,285908,1,0,0:0:0:0:
256,192,285983,1,8,0:0:0:0:
256,192,286058,1,0,0:0:0:0:
256,192,286133,1,0,0:0:0:0:
256,192,286208,1,0,0:0:0:0:
256,192,286283,1,8,0:0:0:0:
256,192,286358,1,0,0:0:0:0:
256,192,286433,1,8,0:0:0:0:
256,192,286508,1,8,0:0:0:0:
256,192,286583,1,8,0:0:0:0:
256,192,286733,1,0,0:0:0:0:
256,192,286883,1,8,0:0:0:0:
256,192,286958,1,0,0:0:0:0:
256,192,287108,1,0,0:0:0:0:
256,192,287183,1,8,0:0:0:0:
256,192,287258,1,0,0:0:0:0:
256,192,287333,1,0,0:0:0:0:
256,192,287408,1,0,0:0:0:0:
256,192,287483,1,8,0:0:0:0:
256,192,287558,1,0,0:0:0:0:
256,192,287633,1,0,0:0:0:0:
256,192,287708,1,0,0:0:0:0:
256,192,287783,1,8,0:0:0:0:
256,192,287858,1,0,0:0:0:0:
256,192,287933,1,8,0:0:0:0:
256,192,288083,1,8,0:0:0:0:
256,192,288158,1,8,0:0:0:0:
256,192,288233,1,0,0:0:0:0:
256,192,288308,1,0,0:0:0:0:
256,192,288383,1,8,0:0:0:0:
256,192,288458,1,0,0:0:0:0:
256,192,288533,1,0,0:0:0:0:
256,192,288608,1,0,0:0:0:0:
256,192,288683,1,8,0:0:0:0:
256,192,288758,1,0,0:0:0:0:
256,192,288833,1,8,0:0:0:0:
256,192,288908,1,8,0:0:0:0:
256,192,288983,1,8,0:0:0:0:
256,192,289133,1,0,0:0:0:0:
256,192,289283,1,8,0:0:0:0:
256,192,289358,1,0,0:0:0:0:
256,192,289433,1,0,0:0:0:0:
256,192,289508,1,0,0:0:0:0:
256,192,289583,1,8,0:0:0:0:
256,192,289658,1,0,0:0:0:0:
256,192,289733,1,8,0:0:0:0:
256,192,289883,1,8,0:0:0:0:
256,192,289958,1,0,0:0:0:0:
256,192,290033,1,0,0:0:0:0:
256,192,290108,1,0,0:0:0:0:
256,192,290183,1,8,0:0:0:0:
256,192,290258,1,8,0:0:0:0:
256,192,290333,1,4,0:0:0:0:
256,192,290483,1,8,0:0:0:0:
256,192,290558,1,0,0:0:0:0:
256,192,290633,1,0,0:0:0:0:
256,192,290708,1,0,0:0:0:0:
256,192,290783,1,8,0:0:0:0:
256,192,290858,1,0,0:0:0:0:
256,192,290933,1,0,0:0:0:0:
256,192,291008,1,0,0:0:0:0:
256,192,291083,1,8,0:0:0:0:
256,192,291158,1,0,0:0:0:0:
256,192,291233,1,8,0:0:0:0:
256,192,291308,1,8,0:0:0:0:
256,192,291383,1,8,0:0:0:0:
256,192,291533,1,0,0:0:0:0:
256,192,291683,1,8,0:0:0:0:
256,192,291758,1,0,0:0:0:0:
256,192,291908,1,0,0:0:0:0:
256,192,291983,1,8,0:0:0:0:
256,192,292058,1,0,0:0:0:0:
256,192,292133,1,0,0:0:0:0:
256,192,292208,1,0,0:0:0:0:
256,192,292283,1,8,0:0:0:0:
256,192,292358,1,0,0:0:0:0:
256,192,292433,1,0,0:0:0:0:
256,192,292508,1,0,0:0:0:0:
256,192,292583,1,8,0:0:0:0:
256,192,292658,1,0,0:0:0:0:
256,192,292733,1,8,0:0:0:0:
256,192,292883,1,8,0:0:0:0:
256,192,292958,1,8,0:0:0:0:
256,192,293033,1,0,0:0:0:0:
256,192,293108,1,0,0:0:0:0:
256,192,293183,1,8,0:0:0:0:
256,192,293258,1,0,0:0:0:0:
256,192,293333,1,0,0:0:0:0:
256,192,293408,1,0,0:0:0:0:
256,192,293483,1,8,0:0:0:0:
256,192,293558,1,0,0:0:0:0:
256,192,293633,1,8,0:0:0:0:
256,192,293708,1,8,0:0:0:0:
256,192,293783,1,8,0:0:0:0:
256,192,293933,1,0,0:0:0:0:
256,192,294008,1,0,0:0:0:0:
256,192,294083,1,8,0:0:0:0:
256,192,294158,1,0,0:0:0:0:
256,192,294233,1,0,0:0:0:0:
256,192,294308,1,0,0:0:0:0:
256,192,294383,1,8,0:0:0:0:
256,192,294458,1,8,0:0:0:0:
256,192,294533,1,0,0:0:0:0:
256,192,294608,1,8,0:0:0:0:
256,192,294683,1,8,0:0:0:0:
256,192,294758,1,8,0:0:0:0:
256,192,294833,1,0,0:0:0:0:
256,192,294908,1,0,0:0:0:0:
256,192,294983,1,8,0:0:0:0:
256,192,295058,1,8,0:0:0:0:
256,192,295133,1,4,0:0:0:0:
256,192,295283,1,8,0:0:0:0:
256,192,295358,1,0,0:0:0:0:
256,192,295433,1,0,0:0:0:0:
256,192,295508,1,0,0:0:0:0:
256,192,295583,1,8,0:0:0:0:
256,192,295658,1,0,0:0:0:0:
256,192,295733,1,0,0:0:0:0:
256,192,295808,1,0,0:0:0:0:
256,192,295883,1,8,0:0:0:0:
256,192,295958,1,0,0:0:0:0:
256,192,296033,1,8,0:0:0:0:
256,192,296108,1,8,0:0:0:0:
256,192,296183,1,8,0:0:0:0:
256,192,296333,1,0,0:0:0:0:
256,192,296483,1,8,0:0:0:0:
256,192,296558,1,0,0:0:0:0:
256,192,296708,1,0,0:0:0:0:
256,192,296783,1,8,0:0:0:0:
256,192,296858,1,0,0:0:0:0:
256,192,296933,1,0,0:0:0:0:
256,192,297008,1,0,0:0:0:0:
256,192,297083,1,8,0:0:0:0:
256,192,297158,1,0,0:0:0:0:
256,192,297233,1,0,0:0:0:0:
256,192,297308,1,0,0:0:0:0:
256,192,297383,1,8,0:0:0:0:
256,192,297458,1,0,0:0:0:0:
256,192,297533,1,8,0:0:0:0:
256,192,297683,1,8,0:0:0:0:
256,192,297758,1,8,0:0:0:0:
256,192,297833,1,0,0:0:0:0:
256,192,297908,1,0,0:0:0:0:
256,192,297983,1,8,0:0:0:0:
256,192,298058,1,0,0:0:0:0:
256,192,298133,1,0,0:0:0:0:
256,192,298208,1,0,0:0:0:0:
256,192,298283,1,8,0:0:0:0:
256,192,298358,1,0,0:0:0:0:
256,192,298433,1,8,0:0:0:0:
256,192,298508,1,8,0:0:0:0:
256,192,298583,1,8,0:0:0:0:
256,192,298733,1,0,0:0:0:0:
256,192,298883,1,8,0:0:0:0:
256,192,298958,1,0,0:0:0:0:
256,192,299033,1,0,0:0:0:0:
256,192,299108,1,0,0:0:0:0:
256,192,299183,1,8,0:0:0:0:
256,192,299258,1,0,0:0:0:0:
256,192,299333,1,8,0:0:0:0:
256,192,299483,1,8,0:0:0:0:
256,192,299558,1,0,0:0:0:0:
256,192,299633,1,0,0:0:0:0:
256,192,299708,1,0,0:0:0:0:
256,192,299783,1,8,0:0:0:0:
256,192,299858,1,8,0:0:0:0:
256,192,299933,1,4,0:0:0:0:
256,192,300083,1,8,0:0:0:0:
256,192,300158,1,0,0:0:0:0:
256,192,300233,1,0,0:0:0:0:
256,192,300308,1,0,0:0:0:0:
256,192,300383,1,8,0:0:0:0:
256,192,300458,1,0,0:0:0:0:
256,192,300533,1,0,0:0:0:0:
256,192,300608,1,0,0:0:0:0:
256,192,300683,1,8,0:0:0:0:
256,192,300758,1,0,0:0:0:0:
256,192,300833,1,8,0:0:0:0:
256,192,300908,1,8,0:0:0:0:
256,192,300983,1,8,0:0:0:0:
256,192,301133,1,0,0:0:0:0:
256,192,301283,1,8,0:0:0:0:
256,192,301358,1,0,0:0:0:0:
256,192,301433,1,0,0:0:0:0:
256,192,301508,1,0,0:0:0:0:
256,192,301583,1,8,0:0:0:0:
256,192,301658,1,0,0:0:0:0:
256,192,301733,1,0,0:0:0:0:
256,192,301808,1,0,0:0:0:0:
256,192,301883,1,8,0:0:0:0:
256,192,301958,1,0,0:0:0:0:
256,192,302033,1,0,0:0:0:0:
256,192,302108,1,0,0:0:0:0:
256,192,302183,1,8,0:0:0:0:
256,192,302258,1,0,0:0:0:0:
256,192,302333,1,12,0:0:0:0:
256,192,302483,1,8,0:0:0:0:
256,192,302558,1,8,0:0:0:0:
256,192,302633,1,0,0:0:0:0:
256,192,302708,1,0,0:0:0:0:
256,192,302783,1,8,0:0:0:0:
256,192,302858,1,0,0:0:0:0:
256,192,302933,1,0,0:0:0:0:
256,192,303008,1,0,0:0:0:0:
256,192,303083,1,8,0:0:0:0:
256,192,303233,1,8,0:0:0:0:
256,192,303308,1,0,0:0:0:0:
256,192,303383,1,12,0:0:0:0:
256,192,303533,1,0,0:0:0:0:
256,192,303608,1,0,0:0:0:0:
256,192,303683,1,12,0:0:0:0:
256,192,303833,1,12,0:0:0:0:
256,192,303983,1,0,0:0:0:0:
256,192,304133,1,8,0:0:0:0:
256,192,304208,1,0,0:0:0:0:
256,192,304283,1,8,0:0:0:0:
256,192,304358,1,0,0:0:0:0:
256,192,304433,1,8,0:0:0:0:
256,192,304508,1,8,0:0:0:0:
256,192,304583,1,8,0:0:0:0:
256,192,304658,1,8,0:0:0:0:
256,192,304733,1,4,0:0:0:0:
256,192,305033,1,4,0:0:0:0:
256,192,305333,1,4,0:0:0:0:
256,192,305633,1,4,0:0:0:0:
256,192,305933,1,4,0:0:0:0:
256,192,306233,1,4,0:0:0:0:
256,192,306533,1,8,0:0:0:0:
256,192,306633,1,8,0:0:0:0:
256,192,306733,1,0,0:0:0:0:
256,192,306833,1,8,0:0:0:0:
256,192,306933,1,8,0:0:0:0:
256,192,307033,1,0,0:0:0:0:
256,192,307133,1,8,0:0:0:0:
256,192,307170,1,8,0:0:0:0:
