osu file format v14

[General]
AudioFilename: Demetori - Furuki Yuanxian.mp3
AudioLeadIn: 0
PreviewTime: 247133
Countdown: 0
SampleSet: None
StackLeniency: 0.2
Mode: 0
LetterboxInBreaks: 0
EpilepsyWarning: 1
WidescreenStoryboard: 1

[Editor]
Bookmarks: 17786,25921,34057,47531,51091,54608
DistanceSpacing: 1
BeatDivisor: 4
GridSize: 4
TimelineZoom: 2.1

[Metadata]
Title:Furuki Yuanxian
TitleUnicode:古きユアンシェン
Artist:Demetori
ArtistUnicode:Demetori
Creator:GoldenWolf
Version:Extra Stage
Source:東方神霊廟 ~ Ten Desires.
Tags:Kaku Seiga Death Echo Old Yuanshen Tendre est la mort Introduction le Grimoire De reve C83 C85 power speed metal arrangement touhou shinreibyou th13 ZUN woof
BeatmapID:929660
BeatmapSetID:430959

[Difficulty]
HPDrainRate:5.5
CircleSize:4.5
OverallDifficulty:9
ApproachRate:9.5
SliderMultiplier:2
SliderTickRate:1

[Events]
//Background and Video events
0,0,"orz146.jpg",0,0
//Break Periods
//Storyboard Layer 0 (Background)
//Storyboard Layer 1 (Fail)
//Storyboard Layer 2 (Pass)
//Storyboard Layer 3 (Foreground)
//Storyboard Sound Samples

[TimingPoints]
1515,508.474576271186,4,2,69,5,1,0
1515,-200,4,2,69,5,0,0
3548,-200,4,2,69,7,0,0
5582,-200,4,2,69,9,0,0
7616,-200,4,2,69,11,0,0
9650,-200,4,2,69,15,0,0
25921,-133.333333333333,4,2,69,15,0,0
42192,-200,4,2,69,18,0,0
44226,-300,4,2,69,21,0,0
46260,-400,4,2,69,24,0,0
47531,-100,4,2,69,5,0,0
55433,300,4,3,3,100,1,0
55583,-100,4,3,4,70,0,0
56483,-100,4,3,2,85,0,0
56783,-100,4,3,4,70,0,0
57833,-100,4,3,1,100,0,0
57983,-100,4,3,4,70,0,0
58883,-100,4,3,2,85,0,0
59183,-100,4,3,10,85,0,0
59220,-100,4,3,11,85,0,0
59333,-100,4,3,10,85,0,0
59483,-100,4,3,10,55,0,0
59633,-100,4,3,10,85,0,0
59670,-100,4,3,12,85,0,0
59933,-100,4,3,11,85,0,0
60083,-100,4,3,10,85,0,0
60120,-100,4,3,11,85,0,0
60233,-100,4,3,3,100,0,0
60383,-100,4,3,4,70,0,0
61283,-100,4,3,2,85,0,0
61433,-100,4,3,4,70,0,0
62633,-100,4,3,1,100,0,0
62783,-100,4,3,1,50,0,0
62933,-100,4,3,1,55,0,0
63083,-100,4,3,1,60,0,0
63233,-100,4,3,1,65,0,0
63383,-100,4,3,1,70,0,0
63533,-100,4,3,1,75,0,0
63683,-100,4,3,1,80,0,0
63833,-100,4,3,1,85,0,0
63983,-100,4,3,12,85,0,0
64133,-100,4,3,1,85,0,0
65033,-100,4,3,1,100,0,0
65183,-100,4,3,4,70,0,0
69833,-100,4,3,2,100,0,0
69983,-100,4,3,4,70,0,0
74633,-100,4,3,3,100,0,0
74783,-100,4,3,4,70,0,0
79433,-100,4,3,2,100,0,0
79583,-100,4,3,4,70,0,0
83708,-100,4,3,4,40,0,0
83783,-100,4,3,4,55,0,0
83858,-100,4,3,4,70,0,0
83933,-100,4,3,4,85,0,0
84233,-100,4,3,9,85,0,0
84383,-100,4,3,8,5,0,0
84533,-100,4,3,8,85,0,0
84683,-100,4,3,8,5,0,0
84833,-100,4,3,8,85,0,0
84983,-100,4,3,8,5,0,0
85133,-100,4,3,8,85,0,0
85283,-100,4,3,8,5,0,0
85433,-100,4,3,8,85,0,0
85583,-100,4,3,8,5,0,0
85733,-100,4,3,8,85,0,0
85883,-100,4,3,8,5,0,0
86033,-100,4,3,8,85,0,0
86183,-100,4,3,8,5,0,0
86333,-100,4,3,2,100,0,0
86633,-100,4,3,3,85,0,0
87383,-100,4,3,12,100,0,0
87533,-100,4,3,10,100,0,0
87683,-100,4,3,1,85,0,0
88233,-100,4,3,12,100,0,0
88433,-100,4,3,1,85,0,0
88533,-100,4,3,11,100,0,0
88733,-100,4,3,1,85,0,0
88833,-100,4,3,10,100,0,0
89033,-200,4,3,3,100,0,0
89183,-200,4,3,7,70,0,0
93833,-200,4,3,2,85,0,0
93983,-200,4,3,7,70,0,0
98033,-100,4,3,7,70,0,0
98183,-100,4,3,11,85,0,0
98333,-100,4,3,11,70,0,0
98483,-100,4,3,10,100,0,0
98633,-200,4,3,3,100,0,0
98783,-200,4,3,7,70,0,0
103433,-200,4,3,2,100,0,0
103583,-200,4,3,7,70,0,0
105833,-200,4,3,3,85,0,0
106033,-200,4,3,11,100,0,0
106433,-200,4,3,2,85,0,0
106633,-200,4,3,10,100,0,0
107033,-200,4,3,1,85,0,0
107108,-200,4,3,1,40,0,0
107183,-200,4,3,1,55,0,0
107258,-200,4,3,1,70,0,0
107333,-200,4,3,1,85,0,0
107933,300,4,3,3,100,1,0
108083,-100,4,3,4,70,0,0
112733,-100,4,3,2,100,0,0
112883,-100,4,3,4,70,0,0
115133,-100,4,3,1,70,0,0
115283,-100,4,3,4,70,0,0
116483,-100,4,3,1,55,0,0
116558,-100,4,3,1,70,0,0
116633,-100,4,3,1,85,0,0
116783,-100,4,3,12,85,0,0
116933,-100,4,3,11,100,0,0
117083,-100,4,3,11,70,0,0
117233,-100,4,3,10,100,0,0
117383,-100,4,3,10,70,0,0
117533,300,3,2,1,40,1,0
117533,-300,4,2,1,40,0,0
117608,-300,4,2,1,15,0,0
118133,-300,4,2,1,30,0,0
118208,-300,4,2,1,15,0,0
118433,-300,4,2,1,30,0,0
118508,-300,4,2,1,15,0,0
119033,-300,4,2,1,30,0,0
119108,-300,4,2,1,15,0,0
119333,-300,4,2,1,30,0,0
119408,-300,4,2,1,15,0,0
120233,-300,4,2,1,30,0,0
120308,-300,4,2,1,15,0,0
121133,-300,4,2,1,30,0,0
121208,-300,4,2,1,15,0,0
122033,-300,4,2,1,30,0,0
122108,-300,4,2,1,15,0,0
122633,-300,4,2,1,30,0,0
122708,-300,4,2,1,15,0,0
122933,-300,4,2,1,30,0,0
123008,-300,4,2,1,15,0,0
123833,-300,4,2,1,30,0,0
123908,-300,4,2,1,15,0,0
124733,-133.333333333333,3,3,1,100,0,0
124883,-133.333333333333,3,3,4,70,0,0
128333,-133.333333333333,3,3,2,70,0,0
128483,-133.333333333333,3,3,4,70,0,0
130133,-133.333333333333,3,3,1,70,0,0
130283,-133.333333333333,3,3,4,70,0,0
131033,-133.333333333333,3,3,3,70,0,0
131258,-133.333333333333,3,3,3,55,0,0
131333,-133.333333333333,3,3,3,70,0,0
131483,-133.333333333333,3,3,3,85,0,0
131933,-133.333333333333,3,3,1,85,0,0
132083,-133.333333333333,3,3,4,70,0,0
135533,-133.333333333333,3,3,1,70,0,0
135683,-133.333333333333,3,3,4,70,0,0
136433,-133.333333333333,3,3,1,85,0,0
136508,-133.333333333333,3,3,1,25,0,0
136583,-133.333333333333,3,3,1,40,0,0
136658,-133.333333333333,3,3,1,70,0,0
136733,-133.333333333333,3,3,1,85,0,0
136883,-133.333333333333,3,3,12,100,0,0
137033,-133.333333333333,3,3,11,85,0,0
137183,-133.333333333333,3,3,10,100,0,0
137333,-100,3,3,3,100,0,0
137933,-100,3,3,3,70,0,0
138233,-100,3,3,2,100,0,0
138983,-100,3,3,1,85,0,0
139208,-100,3,3,11,85,0,0
139283,-100,3,3,1,85,0,0
139508,-100,3,3,11,85,0,0
139583,-100,3,3,1,85,0,0
139658,-100,3,3,11,85,0,0
139733,-100,3,3,1,85,0,0
139958,-100,3,3,11,85,0,0
140033,-100,3,3,1,85,0,0
140108,-100,3,3,11,85,0,0
140183,-100,3,3,1,85,0,0
140783,-86.9565217391304,3,3,1,100,0,0
140933,300,4,3,1,70,1,0
145583,-100,4,3,3,100,0,0
145733,-100,4,3,1,70,0,0
147833,-100,4,3,2,85,0,0
148133,-100,4,3,1,70,0,0
149183,-86.9565217391304,4,3,1,85,0,0
149633,-100,4,3,7,85,0,0
149783,-100,4,3,12,55,0,0
149858,-100,4,3,12,70,0,0
149933,-100,4,3,11,100,0,0
150083,-100,4,3,11,85,0,0
150233,-100,4,3,1,85,0,0
150383,-86.9565217391304,4,3,3,100,0,0
150533,-100,4,3,1,70,0,0
154733,-100,4,3,7,70,0,0
154883,-100,4,3,8,70,0,0
155033,-100,4,3,1,100,0,0
155333,-100,4,3,1,70,0,0
157583,-100,4,3,2,85,0,0
157733,-100,4,3,1,70,0,0
158783,-100,4,3,3,85,0,0
159533,-100,4,3,12,85,0,0
159758,-100,4,3,11,85,0,0
159983,-100,4,3,10,85,0,0
160133,-100,4,3,3,100,0,0
160733,-100,4,3,1,100,0,0
161333,-100,4,3,3,100,0,0
161933,-100,4,3,7,100,0,0
162383,-100,4,3,1,85,0,0
162833,-100,4,3,7,85,0,0
163433,-100,4,3,4,85,0,0
163933,-100,4,3,10,100,0,0
164033,-100,4,3,4,85,0,0
164133,-100,4,3,11,100,0,0
164333,-100,4,3,1,85,0,0
164633,-100,4,3,12,100,0,0
164708,-100,4,3,11,85,0,0
164783,-100,4,3,10,85,0,0
164933,-90.9090909090909,4,3,1,100,0,1
165083,-90.9090909090909,4,3,4,70,0,1
169733,-90.9090909090909,4,3,2,100,0,1
169883,-90.9090909090909,4,3,4,70,0,1
172133,-90.9090909090909,4,3,3,100,0,1
172208,-90.9090909090909,4,3,5,70,0,1
173333,-90.9090909090909,4,3,3,100,0,1
173408,-90.9090909090909,4,3,6,70,0,1
174533,-90.9090909090909,4,3,1,100,0,1
174683,-90.9090909090909,4,3,4,70,0,1
179333,-90.9090909090909,4,3,2,100,0,1
179483,-90.9090909090909,4,3,4,70,0,1
181733,-90.9090909090909,4,3,3,100,0,1
181883,-90.9090909090909,4,3,4,70,0,1
183008,-90.9090909090909,4,3,4,25,0,1
183083,-90.9090909090909,4,3,4,40,0,1
183158,-90.9090909090909,4,3,4,55,0,1
183233,-90.9090909090909,4,3,4,70,0,1
183308,-90.9090909090909,4,3,4,85,0,1
183533,-90.9090909090909,4,3,1,100,0,1
183683,-90.9090909090909,4,3,12,100,0,1
183833,-90.9090909090909,4,3,11,100,0,1
183983,-90.9090909090909,4,3,10,100,0,1
184133,-100,4,3,1,100,0,0
184283,-100,4,3,1,85,0,0
185183,-100,4,3,11,100,0,0
185233,-100,4,3,10,100,0,0
185483,-100,4,3,11,85,0,0
185633,-100,4,3,10,85,0,0
185783,-100,4,3,11,70,0,0
185933,-100,4,3,1,100,0,0
186083,-100,4,3,11,55,0,0
186233,-100,4,3,1,85,0,0
186383,-100,4,3,10,100,0,0
186533,-100,4,3,1,100,0,0
186833,-100,4,3,10,85,0,0
187133,-100,4,3,1,100,0,0
187433,-100,4,3,10,85,0,0
187583,-100,4,3,11,100,0,0
187633,-100,4,3,10,85,0,0
187883,-100,4,3,11,85,0,0
188033,-100,4,3,10,85,0,0
188183,-100,4,3,11,70,0,0
188333,-100,4,3,11,100,0,0
188633,-100,4,3,10,100,0,0
188933,-100,4,3,3,100,0,0
189233,-100,4,3,10,85,0,0
189533,-100,4,3,1,100,0,0
189833,-100,4,3,10,85,0,0
189983,-100,4,3,11,100,0,0
190033,-100,4,3,10,85,0,0
190283,-100,4,3,11,85,0,0
190433,-100,4,3,10,100,0,0
190583,-100,4,3,11,70,0,0
190733,-100,4,3,1,100,0,0
190883,-100,4,3,11,55,0,0
191033,-100,4,3,1,85,0,0
191183,-100,4,3,10,70,0,0
191333,-100,4,3,2,100,0,0
191633,-100,4,3,10,85,0,0
191933,-100,4,3,1,85,0,0
192233,-100,4,3,10,100,0,0
192533,-200,4,3,8,100,0,0
192683,-200,4,3,8,50,0,0
192983,-200,4,3,9,100,0,0
193133,-200,4,3,9,50,0,0
193433,-200,4,3,9,100,0,0
193583,-200,4,3,9,50,0,0
193883,-200,4,3,9,100,0,0
194033,-200,4,3,9,50,0,0
194333,300,4,3,1,100,1,0
194483,-100,4,3,4,70,0,0
199133,-100,4,3,1,100,0,0
199208,-100,4,3,4,70,0,0
202733,-100,4,3,2,100,0,0
202808,-100,4,3,4,70,0,0
203708,-100,4,3,4,55,0,0
203783,-100,4,3,4,70,0,0
203858,-100,4,3,4,85,0,0
203933,-100,4,3,2,100,0,0
204008,-100,4,3,6,70,0,0
206033,-100,4,3,5,70,0,0
206483,-100,4,3,6,70,0,0
208733,-100,4,3,3,100,0,0
208808,-100,4,3,4,70,0,0
209933,-83.3333333333333,4,3,4,70,0,0
211133,-83.3333333333333,4,3,2,100,0,0
211208,-83.3333333333333,4,3,4,70,0,0
212333,-83.3333333333333,4,3,7,85,0,0
213033,-100,4,3,12,100,0,0
213233,-100,4,3,11,100,0,0
213333,-100,4,3,10,100,0,0
213533,-200,4,3,1,100,0,0
213683,-200,4,3,1,70,0,0
218333,-200,4,3,2,100,0,0
218483,-200,4,3,1,70,0,0
220733,-200,4,3,3,100,0,0
220883,-200,4,3,1,70,0,0
221933,-200,4,3,2,100,0,0
222683,-200,4,3,2,40,0,0
222758,-200,4,3,2,55,0,0
222833,-200,4,3,2,70,0,0
222908,-200,4,3,2,85,0,0
223133,-100,4,3,3,100,0,0
223283,-100,4,3,7,70,0,0
227933,-100,4,3,3,100,0,0
228083,-100,4,3,7,70,0,0
230333,-100,4,3,2,85,0,0
231233,-100,4,3,3,100,0,0
231533,-100,4,3,2,100,0,0
232133,-100,4,3,12,100,0,0
232283,-100,4,3,11,100,0,0
232433,-100,4,3,10,100,0,0
232733,-100,4,3,1,100,0,0
232883,-100,4,3,3,70,0,0
235133,-100,4,3,2,100,0,0
235283,-100,4,3,3,70,0,0
237233,-100,4,3,10,85,0,0
237533,-100,4,3,3,100,0,0
238733,-100,4,3,2,100,0,0
239333,-100,4,3,2,70,0,0
239783,-100,4,3,1,85,0,0
241133,-100,4,3,12,100,0,0
241283,-100,4,3,1,85,0,0
241433,-100,4,3,11,100,0,0
241583,-100,4,3,1,85,0,0
241733,-100,4,3,12,100,0,0
241933,-100,4,3,11,100,0,0
242133,-100,4,3,10,100,0,0
242333,-100,4,3,1,100,0,0
242933,-100,4,3,2,100,0,0
243533,-100,4,3,3,100,0,0
244133,-100,4,3,1,100,0,0
244733,-100,4,3,7,85,0,0
245333,-100,4,3,5,85,0,0
246133,-100,4,3,12,85,0,0
246333,-100,4,3,11,85,0,0
246533,-100,4,3,1,85,0,0
246833,-100,4,3,12,100,0,0
246908,-100,4,3,11,100,0,0
246983,-100,4,3,10,100,0,0
247133,-90.9090909090909,4,3,1,100,0,1
247283,-90.9090909090909,4,3,4,70,0,1
251933,-90.9090909090909,4,3,2,100,0,1
252083,-90.9090909090909,4,3,4,70,0,1
254333,-90.9090909090909,4,3,2,100,0,1
254408,-90.9090909090909,4,3,5,70,0,1
255533,-90.9090909090909,4,3,3,100,0,1
255608,-90.9090909090909,4,3,6,70,0,1
256733,-90.9090909090909,4,3,3,100,0,1
256883,-90.9090909090909,4,3,4,70,0,1
261533,-90.9090909090909,4,3,2,100,0,1
261683,-90.9090909090909,4,3,4,70,0,1
263933,-90.9090909090909,4,3,3,100,0,1
264008,-90.9090909090909,4,3,4,70,0,1
265133,-90.9090909090909,4,3,2,85,0,1
265208,-90.9090909090909,4,3,1,40,0,1
265283,-90.9090909090909,4,3,1,55,0,1
265358,-90.9090909090909,4,3,1,70,0,1
265433,-90.9090909090909,4,3,1,85,0,1
265808,-90.9090909090909,4,3,12,100,0,1
265883,-90.9090909090909,4,3,11,100,0,1
265958,-90.9090909090909,4,3,10,100,0,1
266183,-90.9090909090909,4,3,1,85,0,1
266258,-90.9090909090909,4,3,1,85,0,0
266333,-83.3333333333333,4,3,1,100,0,1
266483,-83.3333333333333,4,3,4,70,0,1
271133,-83.3333333333333,4,3,3,100,0,1
271283,-83.3333333333333,4,3,4,70,0,1
273533,-83.3333333333333,4,3,1,100,0,1
273608,-83.3333333333333,4,3,4,70,0,1
274733,-83.3333333333333,4,3,2,100,0,1
274808,-83.3333333333333,4,3,4,70,0,1
275333,-83.3333333333333,4,3,3,100,0,1
275408,-83.3333333333333,4,3,4,70,0,1
275933,-83.3333333333333,4,3,1,100,0,1
276008,-83.3333333333333,4,3,4,70,0,1
280733,-83.3333333333333,4,3,3,100,0,1
280808,-83.3333333333333,4,3,4,70,0,1
281933,-83.3333333333333,4,3,2,100,0,1
282008,-83.3333333333333,4,3,4,70,0,1
283133,-83.3333333333333,4,3,2,100,0,1
283208,-83.3333333333333,4,3,4,70,0,1
283583,-83.3333333333333,4,3,1,100,0,1
283658,-83.3333333333333,4,3,4,70,0,1
284033,-83.3333333333333,4,3,1,100,0,1
284108,-83.3333333333333,4,3,4,70,0,1
284333,-83.3333333333333,4,3,3,100,0,1
284483,-83.3333333333333,4,3,1,40,0,1
284558,-83.3333333333333,4,3,1,55,0,1
284633,-83.3333333333333,4,3,1,70,0,1
284933,-83.3333333333333,4,3,1,85,0,1
285233,-83.3333333333333,4,3,11,100,0,1
285383,-83.3333333333333,4,3,10,100,0,1
285533,-100,4,3,1,100,0,0
285683,-100,4,3,4,70,0,0
290333,-100,4,3,2,100,0,0
290408,-100,4,3,4,70,0,0
295133,-100,4,3,3,100,0,0
295208,-100,4,3,4,70,0,0
299933,-100,4,3,2,100,0,0
300008,-100,4,3,4,70,0,0
302333,-100,4,3,2,100,0,0
302408,-100,4,3,4,70,0,0
303383,-100,4,3,3,100,0,0
303533,-100,4,3,1,70,0,0
303683,-100,4,3,2,100,0,0
304133,-100,4,3,1,100,0,0
304208,-100,4,3,1,70,0,0
304433,-100,4,3,1,100,0,0
304508,-100,4,3,1,85,0,0
304733,-100,4,3,8,100,0,0
304883,-100,4,3,8,40,0,0
305033,-100,4,3,8,100,0,0
305183,-100,4,3,8,40,0,0
305333,-100,4,3,8,100,0,0
305483,-100,4,3,8,40,0,0
305633,-100,4,3,8,100,0,0
305783,-100,4,3,8,40,0,0
305933,-100,4,3,8,100,0,0
306083,-100,4,3,8,40,0,0
306233,-100,4,3,2,100,0,0
306383,-100,4,3,2,40,0,0
306533,-100,4,3,2,100,0,0
306633,-100,4,3,12,100,0,0
306733,-100,4,3,10,70,0,0
306833,-100,4,3,11,85,0,0
306933,-100,4,3,10,100,0,0
307033,-100,4,3,1,85,0,0
307133,-100,4,3,1,100,0,0

[Colours]
Combo1 : 96,28,164
Combo2 : 73,147,171
Combo3 : 98,73,171
Combo4 : 30,102,174

[HitObjects]
152,264,1515,6,0,B|172:272|196:268|196:268|208:288|208:288|236:268|236:268|284:280,1,150
282,279,3548,2,0,B|307:283|307:283|327:299|327:299|347:255|347:255|370:247|418:243,1,150
397,245,5582,2,0,B|367:254|345:274|345:274|336:296|336:296|303:305|264:293,1,150
271,295,7616,2,0,B|275:262|260:235|260:235|232:237|232:237|218:211|230:177,1,150
229,178,9650,6,0,B|200:184|200:184|176:168|176:168|132:164|88:192,1,150
320,232,11684,2,0,B|368:252|368:252|392:296|392:296|440:296,1,150
152,244,13718,2,0,B|164:200|164:200|156:156|156:156|180:132|180:132|188:108,1,150
312,264,15752,2,0,B|356:260|356:260|388:244|408:216|408:216|444:212,1,150
120,272,17786,6,0,B|92:220|124:168|124:168|136:184|136:184|124:204,1,150
404,152,19820,2,0,B|400:184|400:184|376:216|376:216|384:244|384:244|408:244|408:244|412:220,1,150
176,188,21853,2,0,B|160:200|164:232|196:244|228:220|228:220|220:168,1,150
432,136,23887,2,0,B|456:172|448:204|448:204|408:216|408:216|364:252,1,150
104,264,25921,6,0,B|96:220|68:192|68:192|112:200|112:200|156:160|204:164,1,225.000008583069
460,128,27955,2,0,B|452:168|452:168|468:200|472:240|472:240|448:264|424:288|416:340,1,225.000008583069
184,264,29989,2,0,B|128:252|128:252|88:212|88:212|108:280|72:320,1,225.000008583069
416,256,32023,2,0,B|424:220|424:220|412:184|412:184|444:160|444:160|416:140|416:140|448:112|448:72,1,225.000008583069
136,260,34057,6,0,B|156:228|156:228|192:216|192:216|172:184|172:184|192:128|152:80,1,225.000008583069
308,304,36091,2,0,B|376:344|428:304|428:304|448:264|448:264|504:252,1,225.000008583069
168,104,38125,2,0,B|184:160|184:160|160:192|152:232|152:232|168:284|228:296,1,225.000008583069
440,96,40159,2,0,B|424:136|424:136|436:184|436:184|392:184|360:216|360:216|348:268,1,225.000008583069
268,124,42192,6,0,B|278:198|278:198|256:272,1,150
240,152,44226,6,0,B|228:200|228:200|244:248,1,100
256,164,46260,6,0,B|268:200|268:200|256:236,1,75
256,192,47531,12,0,54608,0:0:0:0:
216,300,55433,6,0,B|148:292|148:292|96:252|96:252|28:244,1,200,2|6,0:0|0:0,0:0:0:0:
320,116,56033,2,0,B|388:108|388:108|440:68|440:68|508:60,1,200,6|6,0:0|0:0,0:0:0:0:
308,296,56483,5,10,0:0:0:0:
68,108,56633,1,2,0:0:0:0:
68,108,56933,1,6,0:0:0:0:
68,108,57233,1,6,0:0:0:0:
68,108,57533,1,6,0:0:0:0:
68,108,57833,6,0,B|132:124|132:124|264:100,1,200,2|6,0:0|0:0,0:0:0:0:
444,264,58433,2,0,B|380:248|380:248|248:272,1,200,6|6,0:0|0:0,0:0:0:0:
68,108,58883,5,10,0:0:0:0:
368,52,59033,1,4,0:0:0:0:
268,340,59183,2,0,L|244:344,1,25,8|8,0:0|0:0,0:0:0:0:
128,180,59333,5,8,0:0:0:0:
336,140,59483,1,4,0:0:0:0:
268,340,59633,2,0,L|244:340,1,25,8|8,0:0|0:0,0:0:0:0:
152,100,59783,5,4,0:0:0:0:
416,120,59933,1,4,0:0:0:0:
268,340,60083,2,0,L|236:336,1,25,4|8,0:0|0:0,0:0:0:0:
152,100,60233,6,0,B|240:84|240:84|264:92|264:92|348:76,1,200,6|6,0:0|0:0,0:0:0:0:
268,340,60833,2,0,B|180:324|180:324|156:332|156:332|72:316,1,200,6|6,0:0|0:0,0:0:0:0:
72,32,61283,5,10,0:0:0:0:
416,120,61433,1,6,0:0:0:0:
416,120,61733,1,6,0:0:0:0:
416,120,62033,1,6,0:0:0:0:
416,120,62333,1,6,0:0:0:0:
360,204,62483,6,0,L|364:240,2,33.3333333333333,4|4|4,0:0|0:0|0:0,0:0:0:0:
360,204,62633,2,0,B|324:200|324:200|300:184|300:184|264:180,1,100,2|0,0:0|0:0,0:0:0:0:
96,168,62933,1,8,0:0:0:0:
86,166,63083,1,8,0:0:0:0:
224,296,63233,1,8,0:0:0:0:
292,76,63383,1,8,0:0:0:0:
4,164,63533,1,8,0:0:0:0:
300,332,63683,1,8,0:0:0:0:
216,16,63833,5,8,0:0:0:0:
216,16,63908,1,8,0:0:0:0:
216,16,63983,1,8,0:0:0:0:
216,16,64058,1,4,0:0:0:0:
216,16,64133,1,4,0:0:0:0:
212,64,64208,1,4,0:0:0:0:
208,112,64283,1,4,0:0:0:0:
204,160,64358,1,4,0:0:0:0:
200,208,64433,5,8,0:0:0:0:
200,208,65033,5,6,0:0:0:0:
352,128,65183,2,0,P|368:80|348:32,1,100,10|4,0:0|0:0,0:0:0:0:
136,164,65483,2,0,P|120:212|140:260,1,100,10|4,0:0|0:0,0:0:0:0:
423,225,65783,1,10,0:0:0:0:
416,220,65933,2,0,P|368:204|320:212,1,100,4|10,0:0|0:0,0:0:0:0:
120,343,66233,5,4,0:0:0:0:
112,340,66383,2,0,B|72:332|72:332|12:340,1,100,10|4,0:0|0:0,0:0:0:0:
140,72,66683,2,0,B|180:80|180:80|240:72,1,100,10|4,0:0|0:0,0:0:0:0:
492,304,66983,2,0,B|452:296|452:296|392:304,1,100,10|4,0:0|0:0,0:0:0:0:
72,116,67283,5,10,0:0:0:0:
168,188,67433,1,4,0:0:0:0:
264,116,67583,2,0,P|272:68|248:24,1,100,10|4,0:0|0:0,0:0:0:0:
440,248,67883,2,0,P|416:291|424:339,1,100,10|4,0:0|0:0,0:0:0:0:
173,358,68183,1,10,0:0:0:0:
180,352,68333,2,0,P|203:308|195:260,1,100,4|10,0:0|0:0,0:0:0:0:
2,69,68633,5,4,0:0:0:0:
12,72,68783,2,0,B|60:84|60:84|112:72,1,100,10|4,0:0|0:0,0:0:0:0:
440,248,69083,2,0,B|392:236|392:236|340:248,1,100,10|4,0:0|0:0,0:0:0:0:
0,372,69383,2,0,B|48:384|48:384|100:372,1,100,10|4,0:0|0:0,0:0:0:0:
97,372,69608,1,4,0:0:0:0:
97,372,69683,1,10,0:0:0:0:
236,176,69833,5,6,0:0:0:0:
168,24,69983,2,0,P|124:8|72:20,1,100,10|4,0:0|0:0,0:0:0:0:
184,248,70283,2,0,P|228:264|280:252,1,100,10|4,0:0|0:0,0:0:0:0:
426,36,70583,1,10,0:0:0:0:
420,44,70733,2,0,P|412:96|444:136,1,100,4|10,0:0|0:0,0:0:0:0:
280,364,71033,5,4,0:0:0:0:
272,360,71183,2,0,P|236:348|172:336,1,100,10|4,0:0|0:0,0:0:0:0:
0,88,71483,2,0,P|36:76|100:64,1,100,10|4,0:0|0:0,0:0:0:0:
424,280,71783,2,0,P|388:292|324:304,1,100,10|4,0:0|0:0,0:0:0:0:
208,68,72083,5,10,0:0:0:0:
152,176,72233,1,4,0:0:0:0:
36,152,72383,2,0,P|8:108|16:64,1,100,10|4,0:0|0:0,0:0:0:0:
320,88,72683,2,0,P|348:132|340:176,1,100,10|4,0:0|0:0,0:0:0:0:
120,248,72983,1,10,0:0:0:0:
80,20,73133,1,4,0:0:0:0:
80,20,73208,1,4,0:0:0:0:
80,20,73283,1,10,0:0:0:0:
276,144,73433,5,4,0:0:0:0:
274,148,73508,1,4,0:0:0:0:
273,152,73583,1,10,0:0:0:0:
272,156,73658,1,4,0:0:0:0:
271,160,73733,1,4,0:0:0:0:
270,164,73808,1,4,0:0:0:0:
269,168,73883,1,10,0:0:0:0:
268,172,73958,1,4,0:0:0:0:
267,176,74033,1,4,0:0:0:0:
266,180,74108,1,4,0:0:0:0:
265,184,74183,1,10,0:0:0:0:
264,188,74258,1,4,0:0:0:0:
263,192,74333,1,4,0:0:0:0:
262,196,74408,1,4,0:0:0:0:
261,200,74483,1,10,0:0:0:0:
260,204,74558,1,4,0:0:0:0:
259,208,74633,5,6,0:0:0:0:
88,128,74783,2,0,P|80:80|108:40,1,100,10|4,0:0|0:0,0:0:0:0:
304,272,75083,2,0,P|312:320|284:360,1,100,10|4,0:0|0:0,0:0:0:0:
14,230,75383,1,10,0:0:0:0:
20,224,75533,2,0,P|68:204|112:216,1,100,4|10,0:0|0:0,0:0:0:0:
372,355,75833,5,4,0:0:0:0:
380,352,75983,2,0,P|428:340|480:332,1,100,10|4,0:0|0:0,0:0:0:0:
308,92,76283,2,0,P|260:80|208:72,1,100,10|4,0:0|0:0,0:0:0:0:
36,328,76583,2,0,P|84:340|136:348,1,100,10|4,0:0|0:0,0:0:0:0:
133,347,76808,1,4,0:0:0:0:
133,347,76883,1,10,0:0:0:0:
276,208,77033,5,4,0:0:0:0:
164,44,77183,2,0,P|112:36|68:56,1,100,10|4,0:0|0:0,0:0:0:0:
236,276,77483,2,0,P|288:284|332:264,1,100,10|4,0:0|0:0,0:0:0:0:
466,53,77783,1,10,0:0:0:0:
460,60,77933,2,0,P|444:108|464:152,1,100,4|10,0:0|0:0,0:0:0:0:
313,341,78233,5,4,0:0:0:0:
304,344,78383,2,0,B|264:352|264:352|248:348|248:348|204:356,1,100,10|4,0:0|0:0,0:0:0:0:
16,116,78683,2,0,B|56:108|56:108|72:112|72:112|116:104,1,100,10|4,0:0|0:0,0:0:0:0:
428,277,78983,2,0,B|388:269|388:269|372:273|372:273|328:265,1,100,10|4,0:0|0:0,0:0:0:0:
329,265,79208,1,4,0:0:0:0:
329,265,79283,1,10,0:0:0:0:
248,80,79433,5,6,0:0:0:0:
436,12,79583,2,0,P|468:48|472:100,1,100,10|4,0:0|0:0,0:0:0:0:
168,96,79883,2,0,P|172:46|204:10,1,100,10|4,0:0|0:0,0:0:0:0:
329,265,80183,1,10,0:0:0:0:
148,320,80333,1,4,0:0:0:0:
148,320,80408,1,4,0:0:0:0:
148,320,80483,1,10,0:0:0:0:
20,180,80633,5,4,0:0:0:0:
132,28,80783,2,0,B|176:20|176:20|187:24|187:24|232:16,1,100,10|4,0:0|0:0,0:0:0:0:
500,164,81083,2,0,B|456:156|456:156|444:160|444:160|400:152,1,100,10|4,0:0|0:0,0:0:0:0:
84,240,81383,2,0,B|128:248|128:248|139:244|139:244|184:252,1,100,10|4,0:0|0:0,0:0:0:0:
181,251,81608,1,4,0:0:0:0:
181,251,81683,1,10,0:0:0:0:
292,112,81833,5,4,0:0:0:0:
132,28,81983,2,0,P|80:24|40:48,1,100,10|4,0:0|0:0,0:0:0:0:
260,184,82283,2,0,P|312:188|352:164,1,100,10|4,0:0|0:0,0:0:0:0:
100,96,82583,1,10,0:0:0:0:
181,251,82733,1,4,0:0:0:0:
181,251,82808,1,4,0:0:0:0:
181,251,82883,1,10,0:0:0:0:
236,8,83033,5,4,0:0:0:0:
12,120,83183,2,0,B|17:144|17:144|32:163|32:163|42:213,1,100,10|4,0:0|0:0,0:0:0:0:
42,212,83408,1,4,0:0:0:0:
42,212,83483,1,10,0:0:0:0:
296,352,83633,1,6,0:0:0:0:
296,352,83708,1,8,0:0:0:0:
296,352,83783,1,8,0:0:0:0:
296,352,83858,1,8,0:0:0:0:
296,352,83933,2,0,L|348:344,1,50,8|8,0:0|0:0,0:0:0:0:
180,140,84083,2,0,L|128:148,1,50,8|8,0:0|0:0,0:0:0:0:
8,368,84233,6,0,B|46:375|46:375|70:371|70:371|106:379,1,100,2|0,0:0|2:0,0:0:0:0:
504,316,84533,2,0,B|465:323|465:323|441:319|441:319|405:327,1,100,2|0,0:0|2:0,0:0:0:0:
8,264,84833,2,0,B|46:271|46:271|70:267|70:267|106:275,1,100,2|0,0:0|2:0,0:0:0:0:
504,212,85133,2,0,B|465:219|465:219|441:215|441:215|405:223,1,100,2|0,0:0|2:0,0:0:0:0:
8,160,85433,2,0,B|46:167|46:167|70:163|70:163|106:171,1,100,2|0,0:0|2:0,0:0:0:0:
504,108,85733,2,0,B|465:115|465:115|441:111|441:111|405:119,1,100,2|0,0:0|2:0,0:0:0:0:
8,56,86033,2,0,B|46:63|46:63|70:59|70:59|106:67,1,100,2|0,0:0|2:0,0:0:0:0:
504,4,86333,2,0,B|465:11|465:11|441:7|441:7|405:15,1,100,2|4,0:0|0:0,0:0:0:0:
328,52,86558,1,4,0:0:0:0:
324,56,86633,6,0,P|312:104|388:152,1,150,10|8,0:0|0:0,0:0:0:0:
464,120,86933,2,0,L|452:220,1,100,8|8,0:0|0:0,0:0:0:0:
240,304,87233,1,8,0:0:0:0:
120,64,87383,5,4,0:0:0:0:
380,168,87533,1,8,0:0:0:0:
80,264,87683,1,4,0:0:0:0:
72,268,87758,1,4,0:0:0:0:
64,272,87833,6,0,P|32:260|0:252,1,66.6666666666667,8|8,0:0|0:0,0:0:0:0:
168,128,88033,2,0,P|200:116|232:108,1,66.6666666666667,8|8,0:0|0:0,0:0:0:0:
240,304,88233,1,8,0:0:0:0:
176,352,88333,2,0,P|144:340|112:332,1,66.6666666666667,8|4,0:0|0:0,0:0:0:0:
252,196,88533,1,8,0:0:0:0:
316,148,88633,2,0,P|348:160|380:168,1,66.6666666666667,8|4,0:0|0:0,0:0:0:0:
460,300,88833,1,8,0:0:0:0:
396,348,88933,1,4,0:0:0:0:
324,312,89033,6,0,P|284:296|228:280,1,100,6|4,0:0|0:0,0:0:0:0:
229,280,89483,1,4,0:0:0:0:
157,227,89633,2,0,P|197:211|253:195,1,100,10|0,0:0|0:0,0:0:0:0:
251,195,90083,1,4,0:0:0:0:
324,142,90233,2,0,P|284:126|228:110,1,100,2|0,0:0|0:0,0:0:0:0:
229,110,90683,1,4,0:0:0:0:
120,56,90833,6,0,P|168:60|208:28,1,100,10|4,0:0|0:0,0:0:0:0:
207,29,91283,1,4,0:0:0:0:
40,8,91433,2,0,L|48:112,1,100,2|4,0:0|0:0,0:0:0:0:
47,107,91883,1,4,0:0:0:0:
164,127,92033,2,0,L|156:231,1,100,10|4,0:0|0:0,0:0:0:0:
156,226,92483,1,4,0:0:0:0:
104,332,92633,6,0,P|152:324|204:320,1,100,2|4,0:0|0:0,0:0:0:0:
203,320,93083,1,4,0:0:0:0:
320,360,93233,2,0,P|368:368|420:372,1,100,10|4,0:0|0:0,0:0:0:0:
419,371,93608,1,0,0:0:0:0:
419,371,93683,1,4,0:0:0:0:
440,248,93833,6,0,P|392:228|344:232,1,100,6|4,0:0|0:0,0:0:0:0:
345,231,94283,1,4,0:0:0:0:
176,240,94433,2,0,P|224:260|272:256,1,100,10|4,0:0|0:0,0:0:0:0:
270,256,94883,1,4,0:0:0:0:
248,112,95033,6,0,L|148:120,1,100,2|4,0:0|0:0,0:0:0:0:
148,119,95483,1,4,0:0:0:0:
160,320,95633,2,0,L|260:312,1,100,10|4,0:0|0:0,0:0:0:0:
259,312,96008,1,0,0:0:0:0:
259,312,96083,1,4,0:0:0:0:
412,348,96233,6,0,P|424:300|408:248,1,100,2|4,0:0|0:0,0:0:0:0:
410,252,96683,1,4,0:0:0:0:
360,160,96833,2,0,P|348:112|364:60,1,100,10|4,0:0|0:0,0:0:0:0:
456,112,97283,1,4,0:0:0:0:
465,115,97433,5,2,0:0:0:0:
360,160,97583,1,8,0:0:0:0:
280,88,97733,1,4,0:0:0:0:
270,85,97883,1,4,0:0:0:0:
465,115,98033,6,0,B|473:131|473:131|465:151|465:151|489:171|497:207,1,100,10|8,0:0|0:0,0:0:0:0:
164,124,98333,2,0,B|169:107|169:107|189:98|189:98|186:67|206:36,1,100,4|8,0:0|0:0,0:0:0:0:
308,296,98633,6,0,L|208:304,1,100,6|4,0:0|0:0,0:0:0:0:
208,303,99083,1,4,0:0:0:0:
100,200,99233,2,0,L|200:208,1,100,10|4,0:0|0:0,0:0:0:0:
199,207,99683,1,4,0:0:0:0:
308,104,99833,2,0,L|208:112,1,100,2|4,0:0|0:0,0:0:0:0:
208,111,100283,1,4,0:0:0:0:
268,200,100433,6,0,P|320:208|364:192,1,100,10|4,0:0|0:0,0:0:0:0:
363,192,100883,1,4,0:0:0:0:
348,12,101033,2,0,P|296:4|252:20,1,100,2|4,0:0|0:0,0:0:0:0:
252,19,101483,1,4,0:0:0:0:
152,184,101633,2,0,P|100:192|56:176,1,100,10|4,0:0|0:0,0:0:0:0:
56,176,102083,1,4,0:0:0:0:
120,0,102233,6,0,L|112:100,1,100,2|4,0:0|0:0,0:0:0:0:
112,99,102683,1,4,0:0:0:0:
363,192,102833,2,0,L|355:92,1,100,10|4,0:0|0:0,0:0:0:0:
340,72,103208,1,4,0:0:0:0:
316,80,103283,1,4,0:0:0:0:
316,105,103358,1,4,0:0:0:0:
340,113,103433,6,0,L|439:96,1,100,6|4,0:0|0:0,0:0:0:0:
438,96,103883,1,4,0:0:0:0:
408,248,104033,2,0,L|309:231,1,100,10|4,0:0|0:0,0:0:0:0:
309,231,104483,1,4,0:0:0:0:
144,316,104633,6,0,P|192:328|240:312,1,100,2|4,0:0|0:0,0:0:0:0:
238,312,105083,1,4,0:0:0:0:
236,136,105233,2,0,P|188:124|140:140,1,100,10|4,0:0|0:0,0:0:0:0:
141,139,105608,1,0,0:0:0:0:
141,139,105683,1,4,0:0:0:0:
309,231,105833,5,10,0:0:0:0:
8,280,106033,1,8,0:0:0:0:
404,320,106233,1,4,0:0:0:0:
8,72,106433,5,10,0:0:0:0:
496,184,106633,1,8,0:0:0:0:
40,360,106833,1,4,0:0:0:0:
452,20,107033,5,8,0:0:0:0:
452,20,107108,1,8,0:0:0:0:
452,20,107183,1,8,0:0:0:0:
452,20,107258,1,8,0:0:0:0:
452,20,107333,1,8,0:0:0:0:
444,68,107408,1,8,0:0:0:0:
407,100,107483,1,8,0:0:0:0:
358,101,107558,1,8,0:0:0:0:
321,69,107633,5,8,0:0:0:0:
321,69,107933,5,6,0:0:0:0:
440,172,108083,2,0,P|448:220|412:252,1,100,10|4,0:0|0:0,0:0:0:0:
208,100,108383,2,0,P|200:52|236:20,1,100,10|4,0:0|0:0,0:0:0:0:
328,264,108683,1,10,0:0:0:0:
172,176,108833,1,4,0:0:0:0:
172,176,108908,1,4,0:0:0:0:
172,176,108983,1,10,0:0:0:0:
407,100,109133,5,4,0:0:0:0:
464,340,109283,2,0,B|432:348|432:348|412:344|412:344|364:356,1,100,10|4,0:0|0:0,0:0:0:0:
20,216,109583,2,0,B|52:224|52:224|72:220|72:220|120:232,1,100,10|4,0:0|0:0,0:0:0:0:
407,100,109883,2,0,B|375:92|375:92|355:96|355:96|307:84,1,100,10|4,0:0|0:0,0:0:0:0:
309,84,110108,1,4,0:0:0:0:
309,84,110183,1,10,0:0:0:0:
172,176,110333,5,4,0:0:0:0:
252,320,110483,2,0,P|296:332|348:308,1,100,10|4,0:0|0:0,0:0:0:0:
212,112,110783,2,0,P|168:100|116:124,1,100,10|4,0:0|0:0,0:0:0:0:
372,248,111083,1,10,0:0:0:0:
476,64,111233,1,4,0:0:0:0:
476,64,111308,1,4,0:0:0:0:
476,64,111383,1,10,0:0:0:0:
380,272,111533,5,4,0:0:0:0:
212,112,111683,2,0,B|216:76|216:76|228:64|228:64|232:16,1,100,10|4,0:0|0:0,0:0:0:0:
48,232,111983,2,0,B|52:268|52:268|64:280|64:280|68:328,1,100,10|4,0:0|0:0,0:0:0:0:
380,272,112283,2,0,B|376:236|376:236|364:224|364:224|360:176,1,100,10|4,0:0|0:0,0:0:0:0:
360,177,112508,1,4,0:0:0:0:
360,177,112583,1,10,0:0:0:0:
156,264,112733,5,6,0:0:0:0:
32,80,112883,2,0,P|36:32|76:0,1,100,10|4,0:0|0:0,0:0:0:0:
280,192,113183,2,0,P|276:240|236:272,1,100,10|4,0:0|0:0,0:0:0:0:
100,64,113483,1,10,0:0:0:0:
304,12,113633,1,4,0:0:0:0:
304,12,113708,1,4,0:0:0:0:
304,12,113783,1,10,0:0:0:0:
72,68,113933,5,4,0:0:0:0:
340,144,114083,2,0,B|376:136|376:136|440:144,1,100,10|4,0:0|0:0,0:0:0:0:
112,220,114383,2,0,B|76:212|76:212|12:220,1,100,10|4,0:0|0:0,0:0:0:0:
312,340,114683,2,0,B|348:348|348:348|412:340,1,100,10|4,0:0|0:0,0:0:0:0:
410,340,114908,1,4,0:0:0:0:
410,340,114983,1,10,0:0:0:0:
340,144,115133,5,6,0:0:0:0:
200,248,115283,2,0,P|188:296|216:336,1,100,10|4,0:0|0:0,0:0:0:0:
432,172,115583,2,0,P|444:124|416:84,1,100,10|4,0:0|0:0,0:0:0:0:
220,48,115883,1,10,0:0:0:0:
80,192,116033,1,4,0:0:0:0:
80,192,116108,1,4,0:0:0:0:
80,192,116183,1,10,0:0:0:0:
340,144,116333,5,6,0:0:0:0:
312,340,116483,1,8,0:0:0:0:
308,352,116558,1,8,0:0:0:0:
304,364,116633,1,8,0:0:0:0:
120,284,116783,1,8,0:0:0:0:
248,132,116933,1,8,0:0:0:0:
244,124,117083,1,4,0:0:0:0:
396,256,117233,1,8,0:0:0:0:
392,264,117383,1,4,0:0:0:0:
456,200,117533,6,0,P|464:172|440:104,1,100
392,160,118133,2,0,L|356:156,1,33.3333333333333
280,164,118433,6,0,B|244:168|244:168|216:156|216:156|180:160,1,100
68,180,119033,2,0,L|112:172,1,33.3333333333333
156,232,119333,6,0,P|168:280|128:352,1,133.333333333333
100,152,120233,6,0,L|232:164,1,133.333333333333
408,232,121133,6,0,P|348:256|292:224,1,133.333333333333
364,80,122033,6,0,B|376:128|376:128|356:176,1,100
260,124,122633,2,0,L|296:120,1,33.3333333333333
356,175,122933,6,0,P|412:187|468:143,1,133.333333333333
399,111,123833,6,0,L|395:247,1,133.333333333333
395,244,124733,5,6,0:0:0:0:
232,265,124883,1,4,0:0:0:0:
412,241,125033,2,0,L|416:165,1,75.0000028610231,10|0,0:0|0:0,0:0:0:0:
192,141,125333,2,0,L|188:65,1,75.0000028610231,10|0,0:0|0:0,0:0:0:0:
408,48,125633,5,4,0:0:0:0:
392,152,125783,1,4,0:0:0:0:
412,24,125933,2,0,L|488:16,1,75.0000028610231,10|0,0:0|0:0,0:0:0:0:
388,176,126233,2,0,L|312:168,1,75.0000028610231,10|0,0:0|0:0,0:0:0:0:
68,92,126533,5,4,0:0:0:0:
156,60,126683,1,4,0:0:0:0:
140,152,126833,2,0,L|124:228,1,75.0000028610231,10|0,0:0|0:0,0:0:0:0:
292,96,127133,2,0,L|308:20,1,75.0000028610231,10|0,0:0|0:0,0:0:0:0:
172,292,127433,5,4,0:0:0:0:
288,324,127583,1,4,0:0:0:0:
144,280,127733,2,0,L|68:288,1,75.0000028610231,10|0,0:0|0:0,0:0:0:0:
312,336,128033,2,0,L|388:328,1,75.0000028610231,10|0,0:0|0:0,0:0:0:0:
140,152,128333,5,6,0:0:0:0:
208,224,128483,1,4,0:0:0:0:
304,200,128633,2,0,L|380:220,1,75.0000028610231,10|0,0:0|0:0,0:0:0:0:
204,68,128933,2,0,L|128:48,1,75.0000028610231,10|0,0:0|0:0,0:0:0:0:
136,348,129233,5,4,0:0:0:0:
219,299,129383,1,4,0:0:0:0:
136,251,129533,2,0,L|60:264,1,75.0000028610231,10|0,0:0|0:0,0:0:0:0:
302,347,129833,2,0,L|378:334,1,75.0000028610231,10|4,0:0|0:0,0:0:0:0:
404,112,130133,5,6,0:0:0:0:
264,80,130283,1,4,0:0:0:0:
436,124,130433,2,0,L|512:116,1,75.0000028610231,10|4,0:0|0:0,0:0:0:0:
232,68,130733,2,0,L|156:76,1,75.0000028610231,10|4,0:0|0:0,0:0:0:0:
152,84,130958,1,4,0:0:0:0:
148,92,131033,6,0,P|159:129|167:169,1,75.0000028610231,10|4,0:0|0:0,0:0:0:0:
172,236,131258,1,8,0:0:0:0:
171,245,131333,1,8,0:0:0:0:
304,168,131483,1,8,0:0:0:0:
280,300,131633,1,8,0:0:0:0:
312,136,131783,1,8,0:0:0:0:
412,304,131933,6,0,P|452:312|484:304,1,75.0000028610231,6|4,0:0|0:0,0:0:0:0:
448,208,132233,1,10,0:0:0:0:
446,200,132383,1,0,0:0:0:0:
280,300,132533,2,0,L|284:376,1,75.0000028610231,6|4,0:0|0:0,0:0:0:0:
120,208,132833,6,0,L|124:132,1,75.0000028610231,10|4,0:0|0:0,0:0:0:0:
312,136,133133,1,2,0:0:0:0:
314,128,133283,1,4,0:0:0:0:
280,300,133433,2,0,P|244:312|208:308,1,75.0000028610231,10|0,0:0|0:0,0:0:0:0:
312,136,133733,6,0,L|388:128,1,75.0000028610231,6|4,0:0|0:0,0:0:0:0:
504,256,134033,1,10,0:0:0:0:
507,262,134183,1,0,0:0:0:0:
364,356,134333,1,6,0:0:0:0:
362,363,134483,1,4,0:0:0:0:
236,240,134633,6,0,L|160:232,1,75.0000028610231,10|4,0:0|0:0,0:0:0:0:
376,140,134933,1,2,0:0:0:0:
383,138,135083,1,4,0:0:0:0:
364,356,135233,1,10,0:0:0:0:
371,358,135383,1,0,0:0:0:0:
216,96,135533,5,6,0:0:0:0:
316,64,135683,1,4,0:0:0:0:
292,168,135833,2,0,P|284:204|280:244,1,75.0000028610231,10|0,0:0|0:0,0:0:0:0:
140,76,136133,2,0,P|148:40|152:0,1,75.0000028610231,6|4,0:0|0:0,0:0:0:0:
40,256,136433,6,0,L|44:296,2,37.5000014305115,8|8|8,0:0|0:0|0:0,0:0:0:0:
48,232,136658,1,8,0:0:0:0:
48,232,136733,1,8,0:0:0:0:
12,48,136883,1,8,0:0:0:0:
204,184,137033,1,4,0:0:0:0:
428,108,137183,1,4,0:0:0:0:
216,8,137333,5,6,0:0:0:0:
328,144,138083,6,0,L|324:180,3,33.3333333333333,4|4|4|10,0:0|0:0|0:0|0:0,0:0:0:0:
204,256,138983,5,4,0:0:0:0:
204,256,139058,1,4,0:0:0:0:
204,256,139133,2,0,L|208:308,1,50,8|8,0:0|0:0,0:0:0:0:
60,168,139283,1,4,0:0:0:0:
60,168,139358,1,4,0:0:0:0:
60,168,139433,2,0,L|56:116,1,50,8|8,0:0|0:0,0:0:0:0:
212,128,139583,2,0,L|208:180,1,50,8|8,0:0|0:0,0:0:0:0:
432,260,139733,1,4,0:0:0:0:
432,260,139808,1,4,0:0:0:0:
432,260,139883,2,0,L|436:208,1,50,8|8,0:0|0:0,0:0:0:0:
280,220,140033,2,0,L|284:272,1,50,8|8,0:0|0:0,0:0:0:0:
380,120,140183,5,4,0:0:0:0:
376,76,140258,1,4,0:0:0:0:
372,32,140333,1,8,0:0:0:0:
140,104,140483,1,4,0:0:0:0:
136,148,140558,1,4,0:0:0:0:
132,192,140633,1,8,0:0:0:0:
488,344,140783,6,0,P|528:236|456:160,1,230.000004386902,6|4,0:0|0:0,0:0:0:0:
268,312,141233,1,10,0:0:0:0:
432,260,141383,1,0,0:0:0:0:
196,200,141533,2,0,B|130:193|130:193|71:217|71:217|2:210,1,200,4|10,0:0|0:0,0:0:0:0:
128,32,141983,5,0,0:0:0:0:
176,24,142058,1,0,0:0:0:0:
224,16,142133,2,0,P|245:59|256:112,1,100,4|4,0:0|0:0,0:0:0:0:
52,328,142433,2,0,P|78:287|119:252,1,100,10|0,0:0|0:0,0:0:0:0:
408,308,142733,2,0,P|359:305|308:287,1,100,0|4,0:0|0:0,0:0:0:0:
384,168,143033,1,10,0:0:0:0:
432,376,143183,6,0,P|332:384|252:328,1,200,4|4,0:0|0:0,0:0:0:0:
320,28,143633,2,0,P|420:20|500:76,1,200,10|4,0:0|0:0,0:0:0:0:
372,244,144083,1,4,0:0:0:0:
372,244,144158,1,4,0:0:0:0:
372,244,144233,1,10,0:0:0:0:
128,188,144383,6,0,B|136:120|136:120|172:68|172:68|180:-4,1,200,4|4,0:0|0:0,0:0:0:0:
252,180,144833,1,10,0:0:0:0:
40,244,144983,1,0,0:0:0:0:
92,32,145133,1,6,0:0:0:0:
168,276,145283,1,4,0:0:0:0:
164,288,145433,1,8,0:0:0:0:
424,238,145583,6,0,P|444:150|372:78,1,200,6|4,0:0|0:0,0:0:0:0:
252,180,146033,2,0,L|352:172,1,100,10|0,0:0|0:0,0:0:0:0:
264,368,146333,2,0,L|164:360,1,100,6|4,0:0|0:0,0:0:0:0:
52,228,146633,1,10,0:0:0:0:
160,96,146783,5,4,0:0:0:0:
208,88,146858,1,0,0:0:0:0:
256,80,146933,2,0,P|304:80|356:88,1,100,0|4,0:0|0:0,0:0:0:0:
339,347,147233,2,0,P|291:347|239:339,1,100,10|0,0:0|0:0,0:0:0:0:
56,112,147533,2,0,L|48:12,1,100,4|4,0:0|0:0,0:0:0:0:
196,160,147833,1,8,0:0:0:0:
12,200,147983,6,0,P|0:300|76:352,1,200,6|4,0:0|0:0,0:0:0:0:
287,236,148433,2,0,L|87:256,1,200,10|4,0:0|0:0,0:0:0:0:
284,360,148883,1,0,0:0:0:0:
412,232,149033,1,8,0:0:0:0:
240,88,149183,6,0,B|200:76|160:80|160:80|139:101|116:116|116:116|76:104|20:104,1,230.000004386902,6|4,0:0|0:0,0:0:0:0:
64,312,149633,1,10,0:0:0:0:
196,160,149783,1,4,0:0:0:0:
196,160,149858,1,8,0:0:0:0:
196,160,149933,1,8,0:0:0:0:
36,164,150083,1,4,0:0:0:0:
184,284,150233,1,8,0:0:0:0:
412,232,150383,6,0,P|436:128|352:52,1,230.000004386902,6|4,0:0|0:0,0:0:0:0:
92,104,150833,1,10,0:0:0:0:
332,160,150983,1,0,0:0:0:0:
24,240,151133,2,0,L|4:40,1,200,4|10,0:0|0:0,0:0:0:0:
268,216,151583,5,0,0:0:0:0:
260,264,151658,1,0,0:0:0:0:
252,312,151733,2,0,P|200:320|152:316,1,100,4|4,0:0|0:0,0:0:0:0:
340,40,152033,2,0,P|392:32|440:36,1,100,10|0,0:0|0:0,0:0:0:0:
123,244,152333,2,0,P|73:247|23:239,1,100,4|4,0:0|0:0,0:0:0:0:
208,68,152633,1,10,0:0:0:0:
252,312,152783,6,0,P|160:352|68:328,1,200,4|4,0:0|0:0,0:0:0:0:
260,168,153233,2,0,L|460:188,1,200,10|4,0:0|0:0,0:0:0:0:
152,228,153683,1,4,0:0:0:0:
152,228,153758,1,4,0:0:0:0:
152,228,153833,1,10,0:0:0:0:
404,88,153983,6,0,P|456:160|428:264,1,200,4|4,0:0|0:0,0:0:0:0:
152,152,154433,1,10,0:0:0:0:
344,44,154583,1,0,0:0:0:0:
300,300,154733,1,6,0:0:0:0:
296,312,154883,1,2,0:0:0:0:
352,16,155033,1,8,0:0:0:0:
20,248,155183,6,0,P|24:344|112:372,1,200,6|4,0:0|0:0,0:0:0:0:
192,280,155633,2,0,L|92:292,1,100,10|0,0:0|0:0,0:0:0:0:
276,152,155933,2,0,L|376:164,1,100,6|4,0:0|0:0,0:0:0:0:
184,16,156233,1,10,0:0:0:0:
31,103,156383,5,0,0:0:0:0:
23,151,156458,1,0,0:0:0:0:
15,199,156533,2,0,P|59:219|111:223,1,100,4|0,0:0|0:0,0:0:0:0:
259,19,156833,2,0,P|219:47|190:90,1,100,10|0,0:0|0:0,0:0:0:0:
292,320,157133,2,0,P|287:271|264:224,1,100,6|0,0:0|0:0,0:0:0:0:
15,199,157433,1,8,0:0:0:0:
200,376,157583,6,0,L|400:348,1,200,6|4,0:0|0:0,0:0:0:0:
360,60,158033,2,0,P|260:40|172:76,1,200,10|4,0:0|0:0,0:0:0:0:
292,320,158483,1,4,0:0:0:0:
388,128,158633,1,8,0:0:0:0:
120,200,158783,6,0,B|92:176|56:172|56:172|48:140|48:140|16:116|4:56,1,200,6|0,0:0|0:0,0:0:0:0:
156,40,159233,1,8,0:0:0:0:
48,272,159383,1,0,0:0:0:0:
48,272,159458,1,0,0:0:0:0:
48,272,159533,5,8,0:0:0:0:
284,0,159758,1,8,0:0:0:0:
356,352,159983,1,8,0:0:0:0:
496,224,160133,5,2,0:0:0:0:
184,160,160733,1,2,0:0:0:0:
460,40,161333,1,2,0:0:0:0:
192,280,161933,1,2,0:0:0:0:
104,56,162383,1,0,0:0:0:0:
104,56,162458,1,0,0:0:0:0:
104,56,162533,6,0,P|136:64|172:68,2,66.6666666666667,8|8|8,0:0|0:0|0:0,0:0:0:0:
300,140,162833,2,0,P|332:132|368:128,2,66.6666666666667,6|4|6,0:0|0:0|0:0,0:0:0:0:
140,220,163133,2,0,P|108:228|72:232,2,66.6666666666667,8|8|8,0:0|0:0|0:0,0:0:0:0:
316,304,163433,2,0,P|349:307|381:315,2,66.6666666666667,4|4|4,0:0|0:0|0:0,0:0:0:0:
180,152,163733,6,0,P|168:120|164:88,1,66.6666666666667,10|4,0:0|0:0,0:0:0:0:
388,128,163933,2,0,P|383:160|371:192,1,66.6666666666667,8|4,0:0|0:0,0:0:0:0:
123,284,164133,2,0,P|127:251|139:219,1,66.6666666666667,8|4,0:0|0:0,0:0:0:0:
384,336,164333,5,8,0:0:0:0:
405,347,164408,1,8,0:0:0:0:
430,349,164483,1,8,0:0:0:0:
454,342,164558,1,8,0:0:0:0:
473,326,164633,1,8,0:0:0:0:
485,305,164708,1,8,0:0:0:0:
487,280,164783,1,8,0:0:0:0:
480,256,164858,1,4,0:0:0:0:
465,237,164933,6,0,B|424:236|396:220|396:220|368:248|368:248|320:228|260:236,1,220.000006713867,6|4,0:0|0:0,0:0:0:0:
300,384,165383,1,10,0:0:0:0:
388,128,165533,2,0,P|340:112|280:112,1,110.000003356934,4|10,0:0|0:0,0:0:0:0:
36,172,165833,1,4,0:0:0:0:
36,172,165908,1,4,0:0:0:0:
36,172,165983,2,0,L|32:116,1,55.0000016784668,10|0,0:0|0:0,0:0:0:0:
208,68,166133,6,0,P|232:116|208:164,1,110.000003356934,4|10,0:0|0:0,0:0:0:0:
300,384,166433,2,0,P|276:336|300:288,1,110.000003356934,4|10,0:0|0:0,0:0:0:0:
464,141,166733,2,0,P|488:189|464:237,1,110.000003356934,4|10,0:0|0:0,0:0:0:0:
104,312,167033,2,0,P|80:264|104:216,1,110.000003356934,4|10,0:0|0:0,0:0:0:0:
464,141,167333,6,0,B|420:145|388:168|388:168|364:152|364:152|312:172|260:136,1,220.000006713867,4|4,0:0|0:0,0:0:0:0:
328,68,167708,1,4,0:0:0:0:
328,68,167783,2,0,B|356:136|356:136|336:208|336:208|364:276,1,220.000006713867,10|10,0:0|0:0,0:0:0:0:
512,200,168233,1,4,0:0:0:0:
512,200,168308,1,4,0:0:0:0:
512,200,168383,5,10,0:0:0:0:
356,136,168533,1,4,0:0:0:0:
236,252,168683,1,10,0:0:0:0:
80,188,168833,1,4,0:0:0:0:
260,100,168983,1,10,0:0:0:0:
220,328,169133,2,0,P|116:348|48:268,1,220.000006713867,4|4,0:0|0:0,0:0:0:0:
48,268,169508,1,4,0:0:0:0:
48,268,169583,1,10,0:0:0:0:
296,356,169733,6,0,P|348:344|404:336,1,110.000003356934,6|10,0:0|0:0,0:0:0:0:
512,240,170033,2,0,P|472:272|416:264,1,110.000003356934,4|10,0:0|0:0,0:0:0:0:
484,72,170333,1,4,0:0:0:0:
486,61,170483,1,10,0:0:0:0:
308,224,170633,1,4,0:0:0:0:
311,234,170783,1,10,0:0:0:0:
56,92,170933,5,4,0:0:0:0:
208,68,171083,1,10,0:0:0:0:
40,112,171233,1,4,0:0:0:0:
224,52,171383,1,10,0:0:0:0:
4,36,171533,5,4,0:0:0:0:
220,140,171683,1,10,0:0:0:0:
28,188,171833,1,4,0:0:0:0:
168,4,171983,1,10,0:0:0:0:
240,264,172133,6,0,L|236:320,2,55.0000016784668,2|0|10,0:0|0:0|0:0,0:0:0:0:
128,188,172358,2,0,L|132:132,2,55.0000016784668,0|2|0,0:0|0:0|0:0,0:0:0:0:
284,172,172583,2,0,P|292:144|288:116,1,55.0000016784668,8|0,0:0|0:0,0:0:0:0:
176,40,172733,6,0,L|120:32,2,55.0000016784668,2|0|10,0:0|0:0|0:0,0:0:0:0:
312,20,172958,2,0,L|368:28,2,55.0000016784668
220,140,173183,2,0,P|192:150|164:148,1,55.0000016784668,10|0,0:0|0:0,0:0:0:0:
176,40,173333,5,6,0:0:0:0:
223,12,173408,1,4,0:0:0:0:
277,13,173483,1,10,0:0:0:0:
322,45,173558,1,4,0:0:0:0:
344,94,173633,1,2,0:0:0:0:
335,148,173708,1,4,0:0:0:0:
297,187,173783,1,8,0:0:0:0:
245,201,173858,1,4,0:0:0:0:
193,184,173933,1,2,0:0:0:0:
143,167,174008,1,4,0:0:0:0:
90,180,174083,1,10,0:0:0:0:
53,220,174158,1,4,0:0:0:0:
44,274,174233,1,4,0:0:0:0:
65,324,174308,1,4,0:0:0:0:
110,354,174383,1,10,0:0:0:0:
164,355,174458,1,4,0:0:0:0:
210,328,174533,6,0,B|252:328|284:344|284:344|312:316|312:316|356:336|416:336,1,220.000006713867,6|4,0:0|0:0,0:0:0:0:
335,148,174983,1,10,0:0:0:0:
272,228,175133,2,0,P|320:248|380:240,1,110.000003356934,4|10,0:0|0:0,0:0:0:0:
208,68,175433,1,4,0:0:0:0:
152,76,175508,1,4,0:0:0:0:
96,84,175583,6,0,P|56:184|124:260,1,220.000006713867,10|10,0:0|0:0,0:0:0:0:
335,148,176033,1,4,0:0:0:0:
156,164,176183,1,10,0:0:0:0:
260,312,176333,2,0,L|372:324,1,110.000003356934,4|10,0:0|0:0,0:0:0:0:
448,96,176633,1,4,0:0:0:0:
448,96,176708,1,4,0:0:0:0:
448,96,176783,6,0,P|364:32|256:48,1,220.000006713867,10|10,0:0|0:0,0:0:0:0:
196,140,177233,1,4,0:0:0:0:
276,216,177383,1,10,0:0:0:0:
196,292,177533,1,4,0:0:0:0:
194,302,177683,1,10,0:0:0:0:
356,140,177833,1,4,0:0:0:0:
145,78,177983,1,10,0:0:0:0:
128,340,178133,6,0,P|168:372|224:372,1,110.000003356934,4|10,0:0|0:0,0:0:0:0:
196,292,178358,2,0,B|144:268|144:268|92:260,1,110.000003356934
160,200,178583,2,0,L|216:196,1,55.0000016784668,10|0,0:0|0:0,0:0:0:0:
412,188,178733,2,0,P|432:136|408:88,1,110.000003356934,4|10,0:0|0:0,0:0:0:0:
404,88,178958,1,4,0:0:0:0:
398,87,179033,1,4,0:0:0:0:
392,86,179108,1,4,0:0:0:0:
386,85,179183,2,0,B|360:92|360:92|332:88,1,55.0000016784668,10|0,0:0|0:0,0:0:0:0:
176,0,179333,6,0,P|232:4|276:36,1,110.000003356934,6|10,0:0|0:0,0:0:0:0:
200,88,179633,1,4,0:0:0:0:
189,91,179783,1,10,0:0:0:0:
344,40,179933,1,4,0:0:0:0:
328,180,180083,1,10,0:0:0:0:
140,160,180233,1,4,0:0:0:0:
156,300,180383,6,0,P|260:336|332:268,1,220.000006713867,10|10,0:0|0:0,0:0:0:0:
236,240,180833,1,4,0:0:0:0:
225,236,180983,1,10,0:0:0:0:
436,296,181133,1,4,0:0:0:0:
446,299,181283,1,10,0:0:0:0:
344,136,181433,1,4,0:0:0:0:
148,260,181583,1,10,0:0:0:0:
496,356,181733,6,0,P|520:308|508:256,1,110.000003356934,6|10,0:0|0:0,0:0:0:0:
468,224,181958,1,0,0:0:0:0:
456,209,182033,1,0,0:0:0:0:
449,192,182108,1,0,0:0:0:0:
447,174,182183,2,0,P|399:198|347:186,1,110.000003356934,10|4,0:0|0:0,0:0:0:0:
315,146,182408,1,0,0:0:0:0:
300,134,182483,1,10,0:0:0:0:
283,127,182558,1,0,0:0:0:0:
265,125,182633,2,0,P|240:144|212:148,2,55.0000016784668,0|0|10,0:0|0:0|0:0,0:0:0:0:
72,36,182933,5,6,0:0:0:0:
72,36,183008,1,8,0:0:0:0:
72,36,183083,1,8,0:0:0:0:
72,36,183158,1,8,0:0:0:0:
72,36,183233,1,8,0:0:0:0:
68,92,183308,1,8,0:0:0:0:
64,148,183383,1,8,0:0:0:0:
60,204,183458,1,8,0:0:0:0:
56,260,183533,5,8,0:0:0:0:
208,68,183683,1,8,0:0:0:0:
256,196,183833,1,8,0:0:0:0:
372,268,183983,1,8,0:0:0:0:
424,60,184133,5,6,0:0:0:0:
424,60,184433,1,4,0:0:0:0:
424,60,184733,1,8,0:0:0:0:
344,344,185033,5,4,0:0:0:0:
184,224,185183,2,0,L|180:188,1,33.3333333333333,8|4,0:0|0:0,0:0:0:0:
304,200,185333,1,8,0:0:0:0:
188,296,185483,1,4,0:0:0:0:
60,216,185633,1,4,0:0:0:0:
176,120,185783,1,4,0:0:0:0:
304,200,185933,6,0,P|352:188|404:180,1,100,8|4,0:0|0:0,0:0:0:0:
380,348,186233,1,4,0:0:0:0:
382,357,186383,1,8,0:0:0:0:
244,136,186533,6,0,P|324:84|424:96,1,200,6|8,0:0|0:0,0:0:0:0:
362,263,186983,1,4,0:0:0:0:
364,272,187133,1,8,0:0:0:0:
364,272,187433,5,8,0:0:0:0:
136,192,187583,2,0,L|100:196,1,33.3333333333333,8|4,0:0|0:0,0:0:0:0:
32,255,187733,1,8,0:0:0:0:
197,298,187883,1,4,0:0:0:0:
244,136,188033,1,4,0:0:0:0:
80,84,188183,1,4,0:0:0:0:
78,79,188258,1,4,0:0:0:0:
76,74,188333,5,8,0:0:0:0:
72,62,188483,1,8,0:0:0:0:
68,50,188633,1,8,0:0:0:0:
64,38,188783,1,8,0:0:0:0:
332,244,188933,6,0,P|388:160|364:68,1,200,6|8,0:0|0:0,0:0:0:0:
254,138,189383,1,4,0:0:0:0:
244,136,189533,1,8,0:0:0:0:
244,136,189833,5,8,0:0:0:0:
260,324,189983,2,0,L|256:360,1,33.3333333333333,8|4,0:0|0:0,0:0:0:0:
332,244,190133,1,8,0:0:0:0:
140,268,190283,1,8,0:0:0:0:
348,252,190433,1,8,0:0:0:0:
124,260,190583,1,4,0:0:0:0:
276,340,190733,6,0,P|316:332|376:324,1,100,8|4,0:0|0:0,0:0:0:0:
504,312,191033,1,8,0:0:0:0:
512,312,191183,1,4,0:0:0:0:
160,204,191333,6,0,P|132:116|196:40,1,200,6|8,0:0|0:0,0:0:0:0:
244,136,191783,1,4,0:0:0:0:
192,352,191933,1,8,0:0:0:0:
192,352,192233,1,8,0:0:0:0:
352,328,192383,1,4,0:0:0:0:
512,304,192533,5,2,0:0:0:0:
420,288,192683,2,0,L|424:340,1,50,0|0,2:0|2:0,0:0:0:0:
68,220,192983,1,2,0:0:0:0:
160,204,193133,2,0,L|156:256,1,50,0|0,2:0|2:0,0:0:0:0:
432,126,193433,1,2,0:0:0:0:
340,110,193583,2,0,L|344:162,1,50,0|0,2:0|2:0,0:0:0:0:
120,52,193883,1,2,0:0:0:0:
212,36,194033,2,0,L|208:88,1,50,0|0,2:0|2:0,0:0:0:0:
344,160,194333,6,0,B|348:196|348:196|340:220|340:220|344:260,1,100,6|10,0:0|0:0,0:0:0:0:
160,204,194633,2,0,B|156:240|156:240|164:264|164:264|160:304,1,100,4|10,0:0|0:0,0:0:0:0:
416,232,194933,2,0,B|420:268|420:268|412:292|412:292|416:332,1,100,4|10,0:0|0:0,0:0:0:0:
88,276,195233,2,0,B|84:312|84:312|92:336|92:336|88:376,1,100,4|10,0:0|0:0,0:0:0:0:
344,160,195533,6,0,B|364:124|364:124|356:64,1,100,4|10,0:0|0:0,0:0:0:0:
160,204,195833,2,0,B|140:168|140:168|148:108,1,100,4|10,0:0|0:0,0:0:0:0:
416,232,196133,2,0,B|436:196|436:196|428:136,1,100,4|10,0:0|0:0,0:0:0:0:
88,276,196433,2,0,B|68:240|68:240|76:180,1,100,4|10,0:0|0:0,0:0:0:0:
324,336,196733,6,0,B|352:344|352:344|380:336|424:332,1,100,4|10,0:0|0:0,0:0:0:0:
186,280,197033,2,0,B|158:288|158:288|130:280|86:276,1,100,4|10,0:0|0:0,0:0:0:0:
352,144,197333,2,0,B|380:152|380:152|408:144|452:140,1,100,4|10,0:0|0:0,0:0:0:0:
160,80,197633,2,0,B|132:88|132:88|104:80|60:76,1,100,4|10,0:0|0:0,0:0:0:0:
96,283,197933,5,4,0:0:0:0:
96,283,198008,1,4,0:0:0:0:
96,283,198083,1,10,0:0:0:0:
364,359,198233,1,4,0:0:0:0:
364,359,198308,1,4,0:0:0:0:
364,359,198383,1,10,0:0:0:0:
440,91,198533,1,4,0:0:0:0:
440,91,198608,1,4,0:0:0:0:
440,91,198683,1,10,0:0:0:0:
172,15,198833,1,4,0:0:0:0:
172,15,198908,1,4,0:0:0:0:
172,15,198983,1,10,0:0:0:0:
172,15,199058,1,4,0:0:0:0:
172,15,199133,5,2,0:0:0:0:
206,66,199208,1,0,0:0:0:0:
261,94,199283,1,10,0:0:0:0:
323,93,199358,1,0,0:0:0:0:
376,62,199433,1,0,0:0:0:0:
422,45,199508,1,0,0:0:0:0:
466,65,199583,1,10,0:0:0:0:
483,110,199658,1,0,0:0:0:0:
428,156,199733,5,0,0:0:0:0:
428,156,199808,1,0,0:0:0:0:
428,156,199883,1,10,0:0:0:0:
432,204,199958,1,0,0:0:0:0:
436,252,200033,1,0,0:0:0:0:
392,276,200108,1,0,0:0:0:0:
396,324,200183,1,10,0:0:0:0:
400,372,200258,1,0,0:0:0:0:
448,384,200333,5,0,0:0:0:0:
470,339,200408,1,0,0:0:0:0:
475,290,200483,1,10,0:0:0:0:
461,242,200558,1,0,0:0:0:0:
432,204,200633,1,0,0:0:0:0:
393,172,200708,1,0,0:0:0:0:
376,126,200783,1,10,0:0:0:0:
383,77,200858,1,0,0:0:0:0:
414,38,200933,5,0,0:0:0:0:
384,60,201008,1,0,0:0:0:0:
348,71,201083,1,10,0:0:0:0:
311,70,201158,1,0,0:0:0:0:
276,56,201233,1,0,0:0:0:0:
241,42,201308,1,0,0:0:0:0:
203,40,201383,1,10,0:0:0:0:
168,52,201458,1,0,0:0:0:0:
138,74,201533,6,0,P|132:120|172:148,1,100,4|10,0:0|0:0,0:0:0:0:
392,220,201833,2,0,P|398:174|358:146,1,100,4|10,0:0|0:0,0:0:0:0:
264,308,202133,2,0,P|257:353|297:381,1,100,4|10,0:0|0:0,0:0:0:0:
475,290,202433,1,4,0:0:0:0:
475,290,202508,1,4,0:0:0:0:
475,290,202583,1,10,0:0:0:0:
308,128,202733,5,6,0:0:0:0:
308,128,202808,1,0,0:0:0:0:
308,128,202883,1,10,0:0:0:0:
308,128,202958,1,0,0:0:0:0:
308,128,203033,1,0,0:0:0:0:
308,128,203108,1,0,0:0:0:0:
308,128,203183,5,10,0:0:0:0:
357,169,203258,1,0,0:0:0:0:
421,159,203333,1,0,0:0:0:0:
457,105,203408,1,0,0:0:0:0:
440,42,203483,1,10,0:0:0:0:
382,13,203558,1,0,0:0:0:0:
322,37,203633,2,0,L|272:48,1,50,4|8,0:0|0:0,0:0:0:0:
184,152,203783,2,0,L|133:162,1,50,8|8,0:0|0:0,0:0:0:0:
44,264,203933,6,0,B|56:296|64:328|64:328|132:340|192:364,1,200,6|6,0:0|0:0,0:0:0:0:
352,280,204383,1,8,0:0:0:0:
308,128,204533,1,4,0:0:0:0:
344,304,204683,1,10,0:0:0:0:
316,104,204833,1,4,0:0:0:0:
416,228,204983,5,8,0:0:0:0:
264,324,205133,1,6,0:0:0:0:
324,80,205283,1,8,0:0:0:0:
336,324,205433,1,4,0:0:0:0:
120,160,205583,5,10,0:0:0:0:
416,228,205733,1,4,0:0:0:0:
104,144,205883,1,8,0:0:0:0:
428,244,206033,1,6,0:0:0:0:
244,332,206183,5,6,0:0:0:0:
332,60,206333,1,6,0:0:0:0:
440,260,206483,1,8,0:0:0:0:
88,128,206633,1,6,0:0:0:0:
352,340,206783,5,8,0:0:0:0:
340,40,206933,1,4,0:0:0:0:
224,340,207083,1,10,0:0:0:0:
488,200,207233,1,4,0:0:0:0:
88,128,207383,5,8,0:0:0:0:
204,348,207533,1,6,0:0:0:0:
92,104,207683,1,8,0:0:0:0:
184,356,207833,1,4,0:0:0:0:
96,84,207983,5,10,0:0:0:0:
260,200,208133,1,4,0:0:0:0:
52,276,208283,1,8,0:0:0:0:
100,60,208433,1,6,0:0:0:0:
104,68,208508,1,6,0:0:0:0:
108,76,208583,1,8,0:0:0:0:
112,84,208658,1,6,0:0:0:0:
116,92,208733,6,0,B|164:104|164:104|196:144,1,100,6|8,0:0|0:0,0:0:0:0:
246,203,208958,1,0,0:0:0:0:
260,200,209033,2,0,B|312:192|312:192|352:168,1,100,4|10,0:0|0:0,0:0:0:0:
353,64,209258,1,0,0:0:0:0:
339,62,209333,2,0,P|291:66|243:90,1,100,4|10,0:0|0:0,0:0:0:0:
392,272,209633,5,4,0:0:0:0:
392,272,209708,1,4,0:0:0:0:
392,272,209783,1,10,0:0:0:0:
392,272,209858,1,4,0:0:0:0:
392,272,209933,5,0,0:0:0:0:
357,319,210008,1,0,0:0:0:0:
300,328,210083,1,10,0:0:0:0:
253,293,210158,1,0,0:0:0:0:
245,235,210233,1,0,0:0:0:0:
281,189,210308,1,0,0:0:0:0:
339,179,210383,5,10,0:0:0:0:
282,198,210458,1,0,0:0:0:0:
224,180,210533,1,0,0:0:0:0:
187,134,210608,1,0,0:0:0:0:
151,87,210683,1,10,0:0:0:0:
94,70,210758,1,0,0:0:0:0:
35,82,210833,5,0,0:0:0:0:
92,79,210908,1,0,0:0:0:0:
152,77,210983,1,10,0:0:0:0:
212,76,211058,1,0,0:0:0:0:
263,42,211133,1,2,0:0:0:0:
325,40,211208,1,0,0:0:0:0:
383,40,211283,5,10,0:0:0:0:
323,32,211358,1,0,0:0:0:0:
269,58,211433,1,0,0:0:0:0:
244,110,211508,1,0,0:0:0:0:
255,170,211583,1,10,0:0:0:0:
297,209,211658,1,0,0:0:0:0:
356,214,211733,5,0,0:0:0:0:
297,202,211808,1,0,0:0:0:0:
236,205,211883,1,10,0:0:0:0:
179,223,211958,1,0,0:0:0:0:
138,179,212033,1,0,0:0:0:0:
89,144,212108,1,0,0:0:0:0:
34,121,212183,2,0,L|29:61,1,59.9999981689454,10|0,0:0|0:0,0:0:0:0:
424,92,212333,6,0,B|412:108|391:115|391:115|383:131|383:131|339:119|279:143,1,159.999995117188,0|8,0:0|0:0,0:0:0:0:
220,196,212633,2,0,B|188:204|188:204|140:196,1,79.9999975585938,8|8,0:0|0:0,0:0:0:0:
148,80,212833,2,0,B|180:72|180:72|228:80,1,79.9999975585938,8|8,0:0|0:0,0:0:0:0:
52,228,213033,1,8,0:0:0:0:
0,160,213133,2,0,P|0:128|20:100,1,66.6666666666667,4|8,0:0|0:0,0:0:0:0:
120,272,213333,2,0,P|120:304|100:332,1,66.6666666666667,4|8,0:0|0:0,0:0:0:0:
92,48,213533,6,0,B|160:44|160:44|224:56|224:56|292:52,2,200,10|10|10,0:0|0:0|0:0,0:0:0:0:
132,284,215333,1,10,0:0:0:0:
220,60,215933,6,0,P|120:40|28:68,2,200,10|10|10,0:0|0:0|0:0,0:0:0:0:
352,264,217733,1,10,0:0:0:0:
60,320,218333,6,0,B|16:268|16:268|32:136,2,200,10|10|10,0:0|0:0|0:0,0:0:0:0:
208,68,220133,1,10,0:0:0:0:
280,252,220733,6,0,P|376:280|460:232,1,200,10|10,0:0|0:0,0:0:0:0:
208,68,221933,2,0,P|200:92|192:120,1,50,10|0,0:0|0:0,0:0:0:0:
352,136,222233,2,0,P|360:160|368:188,1,50,10|0,0:0|0:0,0:0:0:0:
216,288,222533,1,8,0:0:0:0:
100,152,222683,5,8,0:0:0:0:
100,152,222758,1,8,0:0:0:0:
100,152,222833,1,8,0:0:0:0:
144,160,222908,1,8,0:0:0:0:
188,168,222983,1,8,0:0:0:0:
232,176,223058,1,8,0:0:0:0:
276,184,223133,5,6,0:0:0:0:
352,136,223283,1,4,0:0:0:0:
273,95,223433,1,10,0:0:0:0:
288,196,223583,1,4,0:0:0:0:
364,148,223733,1,4,0:0:0:0:
285,107,223883,1,4,0:0:0:0:
300,208,224033,1,10,0:0:0:0:
428,108,224183,2,0,P|396:68|348:60,1,100,4|4,0:0|0:0,0:0:0:0:
188,168,224483,5,4,0:0:0:0:
100,152,224633,1,10,0:0:0:0:
12,136,224783,1,4,0:0:0:0:
68,264,224933,1,4,0:0:0:0:
156,248,225083,1,4,0:0:0:0:
244,232,225233,1,10,0:0:0:0:
304,336,225383,2,0,P|256:352|208:344,1,100,4|4,0:0|0:0,0:0:0:0:
388,136,225683,5,4,0:0:0:0:
308,180,225833,1,10,0:0:0:0:
220,156,225983,1,4,0:0:0:0:
68,264,226133,1,4,0:0:0:0:
148,220,226283,1,4,0:0:0:0:
236,244,226433,1,10,0:0:0:0:
456,172,226583,2,0,P|468:124|444:80,1,100,4|4,0:0|0:0,0:0:0:0:
176,76,226883,5,4,0:0:0:0:
220,156,227033,1,10,0:0:0:0:
268,80,227183,1,4,0:0:0:0:
168,97,227333,1,4,0:0:0:0:
242,151,227483,1,4,0:0:0:0:
253,62,227633,1,10,0:0:0:0:
199,224,227783,2,0,P|247:236|295:216,1,100,4|6,0:0|0:0,0:0:0:0:
112,24,228083,6,0,P|64:20|24:56,1,100,4|10,0:0|0:0,0:0:0:0:
20,248,228383,2,0,P|68:252|108:216,1,100,4|4,0:0|0:0,0:0:0:0:
112,24,228683,1,4,0:0:0:0:
0,168,228833,1,10,0:0:0:0:
112,312,228983,1,4,0:0:0:0:
288,264,229133,5,4,0:0:0:0:
288,264,229208,1,4,0:0:0:0:
288,264,229283,2,0,P|336:276|384:296,1,100,4|10,0:0|0:0,0:0:0:0:
492,92,229583,2,0,P|445:111|397:123,1,100,4|4,0:0|0:0,0:0:0:0:
208,68,229883,1,4,0:0:0:0:
404,24,230033,1,10,0:0:0:0:
344,216,230183,1,4,0:0:0:0:
80,100,230333,5,6,0:0:0:0:
80,100,230408,1,4,0:0:0:0:
80,100,230483,2,0,P|92:148|68:192,1,100,4|10,0:0|0:0,0:0:0:0:
268,360,230783,2,0,P|256:312|280:268,1,100,4|4,0:0|0:0,0:0:0:0:
508,152,231083,2,0,B|472:164|472:164|448:160|448:160|412:172,1,100,4|10,0:0|0:0,0:0:0:0:
208,68,231383,1,4,0:0:0:0:
208,68,231458,1,4,0:0:0:0:
208,68,231533,5,6,0:0:0:0:
280,232,231683,1,8,0:0:0:0:
104,140,231833,1,8,0:0:0:0:
336,48,231983,1,8,0:0:0:0:
144,212,232133,5,8,0:0:0:0:
264,4,232283,1,8,0:0:0:0:
296,304,232433,1,8,0:0:0:0:
298,313,232583,1,4,0:0:0:0:
392,140,232733,5,6,0:0:0:0:
448,196,232883,1,4,0:0:0:0:
371,216,233033,1,4,0:0:0:0:
392,140,233183,2,0,P|400:96|404:40,1,100,4|10,0:0|0:0,0:0:0:0:
144,212,233483,2,0,P|136:256|132:312,1,100,4|0,0:0|0:0,0:0:0:0:
320,100,233783,2,0,P|316:50|308:0,1,100,4|2,0:0|0:0,0:0:0:0:
216,252,234083,2,0,P|219:301|227:351,1,100,4|0,0:0|0:0,0:0:0:0:
208,68,234383,5,4,0:0:0:0:
128,56,234533,1,10,0:0:0:0:
116,136,234683,1,4,0:0:0:0:
196,148,234833,1,4,0:0:0:0:
196,148,235133,5,6,0:0:0:0:
168,224,235283,1,4,0:0:0:0:
248,212,235433,1,4,0:0:0:0:
196,148,235583,2,0,P|188:104|184:48,1,100,4|10,0:0|0:0,0:0:0:0:
472,232,235883,2,0,P|480:276|484:332,1,100,4|0,0:0|0:0,0:0:0:0:
264,100,236183,2,0,P|267:50|275:0,1,100,4|2,0:0|0:0,0:0:0:0:
404,284,236483,2,0,P|400:333|392:383,1,100,4|0,0:0|0:0,0:0:0:0:
146,302,236783,5,4,0:0:0:0:
68,279,236933,1,10,0:0:0:0:
91,201,237083,1,8,0:0:0:0:
168,224,237233,1,8,0:0:0:0:
177,221,237383,1,4,0:0:0:0:
356,152,237533,5,6,0:0:0:0:
104,104,238583,6,0,L|100:68,3,33.3333333333333,4|4|4|10,0:0|0:0|0:0|0:0,0:0:0:0:
112,180,239333,1,2,0:0:0:0:
120,256,239783,5,4,0:0:0:0:
124,260,239858,1,4,0:0:0:0:
128,264,239933,2,0,P|152:256|176:252,1,50,8|4,0:0|0:0,0:0:0:0:
336,312,240083,1,4,0:0:0:0:
332,316,240158,1,4,0:0:0:0:
328,320,240233,2,0,P|304:312|280:308,1,50,8|8,0:0|0:0,0:0:0:0:
360,200,240383,2,0,P|384:192|408:188,1,50,8|8,0:0|0:0,0:0:0:0:
504,284,240533,1,4,0:0:0:0:
504,284,240608,1,4,0:0:0:0:
504,284,240683,2,0,P|512:320|512:332,1,50,8|8,0:0|0:0,0:0:0:0:
284,216,240833,2,0,P|285:191|291:167,1,50,8|8,0:0|0:0,0:0:0:0:
456,52,240983,1,0,0:0:0:0:
456,52,241058,1,0,0:0:0:0:
456,52,241133,5,8,0:0:0:0:
432,95,241208,1,4,0:0:0:0:
388,118,241283,1,4,0:0:0:0:
339,114,241358,1,4,0:0:0:0:
300,84,241433,1,8,0:0:0:0:
260,54,241508,1,4,0:0:0:0:
211,50,241583,1,4,0:0:0:0:
168,73,241658,1,4,0:0:0:0:
144,116,241733,5,8,0:0:0:0:
504,284,241933,1,8,0:0:0:0:
40,320,242133,1,8,0:0:0:0:
456,52,242333,5,6,0:0:0:0:
120,192,242933,1,6,0:0:0:0:
504,284,243533,1,6,0:0:0:0:
96,120,244133,1,6,0:0:0:0:
400,316,244733,6,0,P|412:344|420:380,1,66.6666666666667,2|0,0:0|0:0,0:0:0:0:
300,316,244933,2,0,P|307:283|319:252,1,66.6666666666667,2|8,0:0|0:0,0:0:0:0:
424,168,245133,1,8,0:0:0:0:
448,92,245233,1,8,0:0:0:0:
400,28,245333,2,0,P|367:25|332:35,1,66.6666666666667,2|0,0:0|0:0,0:0:0:0:
424,168,245533,2,0,P|456:170|491:160,1,66.6666666666667,2|8,0:0|0:0,0:0:0:0:
200,204,245733,1,8,0:0:0:0:
276,228,245833,1,8,0:0:0:0:
352,252,245933,6,0,P|384:244|420:240,1,66.6666666666667,8|4,0:0|0:0,0:0:0:0:
216,316,246133,2,0,P|184:308|148:304,1,66.6666666666667,8|4,0:0|0:0,0:0:0:0:
288,156,246333,2,0,P|320:164|356:168,1,66.6666666666667,8|4,0:0|0:0,0:0:0:0:
108,248,246533,5,8,0:0:0:0:
85,257,246608,1,8,0:0:0:0:
60,257,246683,1,8,0:0:0:0:
38,245,246758,1,8,0:0:0:0:
23,226,246833,1,8,0:0:0:0:
17,202,246908,1,8,0:0:0:0:
22,178,246983,1,8,0:0:0:0:
37,158,247058,1,4,0:0:0:0:
59,146,247133,6,0,B|96:140|132:148|132:148|160:124|160:124|204:144|268:132,1,220.000006713867,6|4,0:0|0:0,0:0:0:0:
220,0,247583,1,10,0:0:0:0:
144,228,247733,2,0,P|196:244|252:240,1,110.000003356934,4|10,0:0|0:0,0:0:0:0:
392,84,248033,1,4,0:0:0:0:
392,84,248108,1,4,0:0:0:0:
392,84,248183,2,0,L|388:140,1,55.0000016784668,10|4,0:0|0:0,0:0:0:0:
408,304,248333,6,0,P|456:320|512:304,1,110.000003356934,4|10,0:0|0:0,0:0:0:0:
444,4,248633,2,0,P|396:-12|340:4,1,110.000003356934,4|10,0:0|0:0,0:0:0:0:
36,220,248933,2,0,B|76:228|76:228|104:220|104:220|144:228,1,110.000003356934,4|10,0:0|0:0,0:0:0:0:
499,76,249233,2,0,B|459:84|459:84|431:76|431:76|391:84,1,110.000003356934,4|10,0:0|0:0,0:0:0:0:
209,324,249533,6,0,B|261:344|305:312|305:312|321:332|321:332|357:300|409:304,1,220.000006713867
384,380,249908,1,4,0:0:0:0:
384,380,249983,2,0,P|332:280|408:224,1,220.000006713867,10|10,0:0|0:0,0:0:0:0:
408,304,250433,1,4,0:0:0:0:
404,308,250508,1,4,0:0:0:0:
400,312,250583,5,10,0:0:0:0:
276,172,250733,1,4,0:0:0:0:
460,136,250883,1,10,0:0:0:0:
252,164,251033,1,4,0:0:0:0:
484,144,251183,1,10,0:0:0:0:
256,248,251333,2,0,B|222:252|200:264|200:264|160:244|160:244|112:268|44:248,1,220.000006713867,4|4,0:0|0:0,0:0:0:0:
20,232,251708,1,4,0:0:0:0:
20,232,251783,1,10,0:0:0:0:
316,112,251933,6,0,P|348:156|332:208,1,110.000003356934,6|10,0:0|0:0,0:0:0:0:
88,96,252233,2,0,P|74:44|105:2,1,110.000003356934,4|10,0:0|0:0,0:0:0:0:
252,164,252533,1,4,0:0:0:0:
255,174,252683,1,10,0:0:0:0:
84,300,252833,1,4,0:0:0:0:
81,310,252983,1,10,0:0:0:0:
364,172,253133,5,4,0:0:0:0:
328,344,253283,1,10,0:0:0:0:
380,152,253433,1,4,0:0:0:0:
312,360,253583,1,10,0:0:0:0:
396,132,253733,1,4,0:0:0:0:
496,328,253883,1,10,0:0:0:0:
296,376,254033,1,4,0:0:0:0:
504,180,254183,1,10,0:0:0:0:
176,276,254333,6,0,L|120:272,2,55.0000016784668,2|0|10,0:0|0:0|0:0,0:0:0:0:
320,216,254558,2,0,L|376:220,2,55.0000016784668,0|2|0,0:0|0:0|0:0,0:0:0:0:
184,136,254783,2,0,P|176:108|180:80,1,55.0000016784668,8|0,0:0|0:0,0:0:0:0:
308,20,254933,6,0,L|364:16,2,55.0000016784668,2|0|10,0:0|0:0|0:0,0:0:0:0:
184,136,255158,2,0,L|128:132,2,55.0000016784668
320,216,255383,2,0,P|328:244|324:272,1,55.0000016784668,10|0,0:0|0:0,0:0:0:0:
121,349,255533,5,2,0:0:0:0:
67,354,255608,1,0,0:0:0:0:
20,327,255683,1,10,0:0:0:0:
0,277,255758,1,0,0:0:0:0:
13,224,255833,1,2,0:0:0:0:
55,191,255908,1,0,0:0:0:0:
109,189,255983,1,8,0:0:0:0:
154,220,256058,1,0,0:0:0:0:
170,272,256133,1,2,0:0:0:0:
186,323,256208,1,0,0:0:0:0:
230,354,256283,1,10,0:0:0:0:
284,352,256358,1,0,0:0:0:0:
327,319,256433,1,0,0:0:0:0:
340,266,256508,1,0,0:0:0:0:
320,216,256583,1,10,0:0:0:0:
273,189,256658,1,0,0:0:0:0:
219,195,256733,6,0,B|184:204|156:220|156:220|88:180|16:160,1,220.000006713867,6|4,0:0|0:0,0:0:0:0:
16,160,257108,1,4,0:0:0:0:
16,160,257183,1,10,0:0:0:0:
252,272,257333,2,0,P|304:260|364:252,1,110.000003356934,4|10,0:0|0:0,0:0:0:0:
496,108,257633,5,4,0:0:0:0:
444,124,257708,1,4,0:0:0:0:
392,108,257783,2,0,B|362:106|336:96|336:96|288:112|288:112|244:88|180:88,1,220.000006713867,10|10,0:0|0:0,0:0:0:0:
200,228,258233,1,4,0:0:0:0:
200,228,258308,1,4,0:0:0:0:
200,228,258383,1,10,0:0:0:0:
220,0,258533,2,0,P|164:-8|116:12,1,110.000003356934,4|10,0:0|0:0,0:0:0:0:
276,264,258833,1,0,0:0:0:0:
332,272,258908,1,0,0:0:0:0:
384,248,258983,6,0,B|424:248|456:264|456:264|472:192|512:128,1,220.000006713867,10|10,0:0|0:0,0:0:0:0:
320,40,259433,1,4,0:0:0:0:
320,40,259508,1,4,0:0:0:0:
320,40,259583,1,10,0:0:0:0:
268,184,259733,1,4,0:0:0:0:
404,52,259883,1,10,0:0:0:0:
220,0,260033,1,4,0:0:0:0:
276,208,260183,1,10,0:0:0:0:
460,104,260333,6,0,P|480:52|464:0,1,110.000003356934,4|10,0:0|0:0,0:0:0:0:
404,52,260558,2,0,B|388:104|388:104|404:160,1,110.000003356934
436,228,260783,2,0,L|428:284,1,55.0000016784668,10|0,0:0|0:0,0:0:0:0:
196,232,260933,2,0,P|180:180|196:128,1,110.000003356934,4|10,0:0|0:0,0:0:0:0:
312,328,261233,1,4,0:0:0:0:
312,328,261308,1,4,0:0:0:0:
312,328,261383,2,0,L|256:332,1,55.0000016784668,10|0,0:0|0:0,0:0:0:0:
68,220,261533,6,0,B|64:180|64:180|72:152|72:152|68:112,1,110.000003356934,6|10,0:0|0:0,0:0:0:0:
208,68,261833,1,4,0:0:0:0:
68,220,261983,1,10,0:0:0:0:
232,60,262133,1,4,0:0:0:0:
44,224,262283,1,10,0:0:0:0:
256,52,262433,1,4,0:0:0:0:
200,332,262583,6,0,P|96:368|20:304,1,220.000006713867,10|10,0:0|0:0,0:0:0:0:
136,72,263033,1,4,0:0:0:0:
138,61,263183,1,10,0:0:0:0:
120,268,263333,1,4,0:0:0:0:
119,278,263483,1,10,0:0:0:0:
288,124,263633,1,4,0:0:0:0:
44,224,263783,1,10,0:0:0:0:
320,336,263933,6,0,P|372:344|416:312,1,110.000003356934,6|10,0:0|0:0,0:0:0:0:
444,276,264158,1,4,0:0:0:0:
460,267,264233,1,4,0:0:0:0:
477,262,264308,1,4,0:0:0:0:
496,259,264383,2,0,P|470:212|485:160,1,110.000003356934,10|4,0:0|0:0,0:0:0:0:
509,120,264608,1,4,0:0:0:0:
511,102,264683,1,10,0:0:0:0:
511,85,264758,1,4,0:0:0:0:
506,66,264833,2,0,L|512:12,2,55.0000016784668,4|4|10,0:0|0:0|0:0,0:0:0:0:
372,112,265133,5,6,0:0:0:0:
372,112,265208,1,8,0:0:0:0:
372,112,265283,1,8,0:0:0:0:
342,157,265358,1,8,0:0:0:0:
293,180,265433,1,8,0:0:0:0:
239,172,265508,1,8,0:0:0:0:
198,136,265583,1,8,0:0:0:0:
183,84,265658,1,8,0:0:0:0:
199,32,265733,6,0,P|232:36|256:44,1,55.0000016784668,8|8,0:0|0:0,0:0:0:0:
468,164,265883,2,0,P|435:167|411:175,1,55.0000016784668,8|8,0:0|0:0,0:0:0:0:
199,295,266033,1,4,0:0:0:0:
193,294,266108,1,4,0:0:0:0:
187,293,266183,1,4,0:0:0:0:
181,292,266258,1,4,0:0:0:0:
175,291,266333,6,0,B|136:294|96:308|96:308|56:240|0:180,1,239.999992675781,10|10,0:0|0:0,0:0:0:0:
396,32,266783,1,4,0:0:0:0:
396,32,266858,1,4,0:0:0:0:
396,32,266933,2,0,P|468:112|424:228,1,239.999992675781,10|10,0:0|0:0,0:0:0:0:
16,188,267383,1,4,0:0:0:0:
8,128,267458,1,4,0:0:0:0:
0,68,267533,6,0,P|52:92|60:152,1,119.999996337891,10|4,0:0|0:0,0:0:0:0:
272,380,267833,2,0,P|220:356|212:296,1,119.999996337891,10|4,0:0|0:0,0:0:0:0:
240,0,268133,2,0,P|292:24|300:84,1,119.999996337891,10|4,0:0|0:0,0:0:0:0:
512,312,268433,2,0,P|460:288|452:228,1,119.999996337891,10|4,0:0|0:0,0:0:0:0:
512,0,268733,6,0,B|476:20|436:8|436:8|428:40|428:40|368:8|304:32,1,239.999992675781,10|10,0:0|0:0,0:0:0:0:
176,236,269183,1,4,0:0:0:0:
168,276,269258,1,4,0:0:0:0:
160,316,269333,1,10,0:0:0:0:
376,204,269483,1,4,0:0:0:0:
368,164,269558,1,4,0:0:0:0:
360,124,269633,1,10,0:0:0:0:
120,96,269783,5,4,0:0:0:0:
248,328,269933,1,10,0:0:0:0:
448,156,270083,1,4,0:0:0:0:
96,76,270233,1,10,0:0:0:0:
472,176,270383,1,4,0:0:0:0:
224,344,270533,2,0,B|187:341|148:356|148:356|120:328|120:328|60:352|0:328,1,239.999992675781,10|10,0:0|0:0,0:0:0:0:
12,12,270983,1,4,0:0:0:0:
12,12,271058,1,4,0:0:0:0:
12,12,271133,6,0,B|52:16|52:16|88:4|88:4|132:8,1,119.999996337891,10|4,0:0|0:0,0:0:0:0:
512,124,271433,2,0,B|472:128|472:128|436:116|436:116|392:120,1,119.999996337891,10|4,0:0|0:0,0:0:0:0:
224,344,271733,2,0,P|344:368|420:292,1,239.999992675781,10|10,0:0|0:0,0:0:0:0:
244,120,272183,1,4,0:0:0:0:
184,112,272258,1,4,0:0:0:0:
124,104,272333,5,8,0:0:0:0:
224,344,272483,1,4,0:0:0:0:
408,160,272633,1,10,0:0:0:0:
144,184,272783,1,4,0:0:0:0:
132,184,272933,5,10,0:0:0:0:
444,152,273083,1,4,0:0:0:0:
196,360,273233,1,10,0:0:0:0:
112,60,273383,1,4,0:0:0:0:
440,228,273533,6,0,L|500:220,2,59.9999981689454,10|0|0,0:0|0:0|0:0,0:0:0:0:
276,164,273758,2,0,L|216:172,2,59.9999981689454,0|10|0,0:0|0:0|0:0,0:0:0:0:
412,92,273983,2,0,P|416:60|408:32,1,59.9999981689454
276,164,274133,6,0,L|284:224,2,59.9999981689454,10|0|0,0:0|0:0|0:0,0:0:0:0:
119,119,274358,2,0,L|111:59,2,59.9999981689454,0|10|0,0:0|0:0|0:0,0:0:0:0:
60,280,274583,2,0,P|32:288|0:284,1,59.9999981689454
30,81,274733,5,10,0:0:0:0:
66,35,274808,1,0,0:0:0:0:
124,23,274883,1,0,0:0:0:0:
176,51,274958,1,0,0:0:0:0:
197,105,275033,1,10,0:0:0:0:
179,161,275108,1,0,0:0:0:0:
129,193,275183,1,0,0:0:0:0:
79,224,275258,1,0,0:0:0:0:
60,280,275333,1,10,0:0:0:0:
82,334,275408,1,0,0:0:0:0:
134,362,275483,1,0,0:0:0:0:
192,350,275558,1,0,0:0:0:0:
228,305,275633,1,10,0:0:0:0:
266,260,275708,1,0,0:0:0:0:
324,249,275783,1,0,0:0:0:0:
376,277,275858,1,0,0:0:0:0:
399,331,275933,6,0,B|362:339|324:356|324:356|248:328|168:316,1,239.999992675781,10|10,0:0|0:0,0:0:0:0:
416,48,276383,1,4,0:0:0:0:
416,48,276458,1,4,0:0:0:0:
416,48,276533,2,0,P|496:116|476:240,1,239.999992675781,10|10,0:0|0:0,0:0:0:0:
376,277,276908,1,4,0:0:0:0:
336,264,276983,1,4,0:0:0:0:
296,252,277058,1,4,0:0:0:0:
256,240,277133,6,0,P|200:232|140:248,1,119.999996337891,10|4,0:0|0:0,0:0:0:0:
299,56,277433,2,0,P|355:64|415:48,1,119.999996337891,10|4,0:0|0:0,0:0:0:0:
60,256,277733,2,0,P|-4:152|44:56,1,239.999992675781,8|10,0:0|0:0,0:0:0:0:
144,28,278108,1,4,0:0:0:0:
148,32,278183,1,4,0:0:0:0:
152,36,278258,1,4,0:0:0:0:
156,40,278333,6,0,P|212:60|264:32,1,119.999996337891,10|4,0:0|0:0,0:0:0:0:
460,176,278633,2,0,P|404:156|352:184,1,119.999996337891,10|4,0:0|0:0,0:0:0:0:
268,372,278933,1,10,0:0:0:0:
265,383,279083,1,4,0:0:0:0:
412,232,279233,1,8,0:0:0:0:
120,160,279383,1,4,0:0:0:0:
265,383,279533,6,0,B|305:371|305:371|385:383,1,119.999996337891,10|4,0:0|0:0,0:0:0:0:
480,308,279758,2,0,L|488:248,2,59.9999981689454,0|10|0,0:0|0:0|0:0,0:0:0:0:
344,264,279983,2,0,P|336:232|340:204,1,59.9999981689454
504,72,280133,2,0,B|468:70|440:84|440:84|408:64|408:64|352:104|276:76,1,239.999992675781,10|10,0:0|0:0,0:0:0:0:
248,40,280508,1,4,0:0:0:0:
272,0,280583,1,4,0:0:0:0:
320,4,280658,1,4,0:0:0:0:
340,48,280733,6,0,B|332:88|332:88|308:112|308:112|300:156,1,119.999996337891,10|4,0:0|0:0,0:0:0:0:
404,376,281033,1,10,0:0:0:0:
407,384,281183,1,4,0:0:0:0:
488,148,281333,1,10,0:0:0:0:
491,136,281483,1,4,0:0:0:0:
292,240,281633,1,10,0:0:0:0:
108,124,281783,1,4,0:0:0:0:
304,32,281933,6,0,P|364:28|416:56,1,119.999996337891,10|4,0:0|0:0,0:0:0:0:
144,252,282233,1,10,0:0:0:0:
132,254,282383,1,4,0:0:0:0:
16,107,282533,1,10,0:0:0:0:
4,104,282683,1,4,0:0:0:0:
204,56,282833,1,10,0:0:0:0:
292,240,282983,1,4,0:0:0:0:
492,192,283133,6,0,P|504:136|468:88,1,119.999996337891,10|4,0:0|0:0,0:0:0:0:
396,88,283358,1,4,0:0:0:0:
377,94,283433,1,4,0:0:0:0:
357,96,283508,1,4,0:0:0:0:
337,92,283583,2,0,P|305:140|246:148,1,119.999996337891,10|4,0:0|0:0,0:0:0:0:
195,97,283808,1,4,0:0:0:0:
187,79,283883,1,4,0:0:0:0:
174,63,283958,1,4,0:0:0:0:
157,52,284033,2,0,P|101:64|53:28,1,119.999996337891,10|4,0:0|0:0,0:0:0:0:
364,8,284333,5,6,0:0:0:0:
292,240,284483,1,8,0:0:0:0:
296,248,284558,1,8,0:0:0:0:
300,256,284633,1,8,0:0:0:0:
260,268,284708,1,8,0:0:0:0:
220,280,284783,1,8,0:0:0:0:
180,292,284858,1,8,0:0:0:0:
140,304,284933,1,8,0:0:0:0:
156,244,285008,1,8,0:0:0:0:
172,184,285083,1,8,0:0:0:0:
188,124,285158,1,8,0:0:0:0:
204,64,285233,5,8,0:0:0:0:
247,104,285308,1,4,0:0:0:0:
304,123,285383,1,8,0:0:0:0:
363,117,285458,1,4,0:0:0:0:
415,88,285533,6,0,B|424:128|424:128|416:144|416:144|424:184,1,100,6|10,0:0|0:0,0:0:0:0:
492,304,285833,1,0,0:0:0:0:
466,346,285908,1,0,0:0:0:0:
422,368,285983,1,10,0:0:0:0:
373,362,286058,1,0,0:0:0:0:
336,328,286133,1,0,0:0:0:0:
297,296,286208,1,0,0:0:0:0:
248,291,286283,1,10,0:0:0:0:
204,312,286358,1,0,0:0:0:0:
179,355,286433,5,0,0:0:0:0:
8,252,286583,2,0,B|16:184|16:184|56:132|56:132|64:64,1,200,10|10,0:0|0:0,0:0:0:0:
281,32,287033,1,0,0:0:0:0:
328,44,287108,1,0,0:0:0:0:
357,84,287183,1,10,0:0:0:0:
354,133,287258,1,0,0:0:0:0:
320,168,287333,1,0,0:0:0:0:
272,175,287408,1,0,0:0:0:0:
230,150,287483,1,10,0:0:0:0:
188,124,287558,1,0,0:0:0:0:
139,131,287633,1,0,0:0:0:0:
106,167,287708,1,0,0:0:0:0:
103,215,287783,1,10,0:0:0:0:
132,255,287858,1,0,0:0:0:0:
179,268,287933,6,0,B|216:264|216:264|236:248|236:248|272:244,1,100,4|10,0:0|0:0,0:0:0:0:
480,272,288233,1,0,0:0:0:0:
475,320,288308,1,0,0:0:0:0:
435,347,288383,1,10,0:0:0:0:
388,334,288458,1,0,0:0:0:0:
368,290,288533,1,0,0:0:0:0:
388,246,288608,1,0,0:0:0:0:
413,203,288683,1,10,0:0:0:0:
411,154,288758,1,0,0:0:0:0:
385,113,288833,5,0,0:0:0:0:
103,215,288983,2,0,L|303:191,1,200,10|10,0:0|0:0,0:0:0:0:
184,56,289433,1,4,0:0:0:0:
184,56,289508,1,4,0:0:0:0:
184,56,289583,1,10,0:0:0:0:
168,296,289733,2,0,P|216:304|264:284,1,100,0|10,0:0|0:0,0:0:0:0:
196,132,290033,1,4,0:0:0:0:
196,132,290108,1,4,0:0:0:0:
196,132,290183,1,10,0:0:0:0:
172,372,290333,6,0,B|224:376|224:376|272:360,1,100,2|10,0:0|0:0,0:0:0:0:
212,64,290633,1,0,0:0:0:0:
163,69,290708,1,0,0:0:0:0:
130,105,290783,1,10,0:0:0:0:
130,154,290858,1,0,0:0:0:0:
162,191,290933,1,0,0:0:0:0:
194,227,291008,1,0,0:0:0:0:
193,276,291083,1,10,0:0:0:0:
161,312,291158,1,0,0:0:0:0:
112,318,291233,5,0,0:0:0:0:
13,91,291383,2,0,L|213:63,1,200,10|10,0:0|0:0,0:0:0:0:
452,216,291833,1,0,0:0:0:0:
447,264,291908,1,0,0:0:0:0:
412,298,291983,1,10,0:0:0:0:
363,298,292058,1,0,0:0:0:0:
326,267,292133,1,0,0:0:0:0:
320,218,292208,1,0,0:0:0:0:
348,178,292283,1,10,0:0:0:0:
375,137,292358,1,0,0:0:0:0:
369,89,292433,1,0,0:0:0:0:
332,57,292508,1,0,0:0:0:0:
284,58,292583,1,10,0:0:0:0:
248,91,292658,1,0,0:0:0:0:
244,140,292733,6,0,P|200:156|148:144,1,100,0|10,0:0|0:0,0:0:0:0:
196,76,293033,1,0,0:0:0:0:
242,60,293108,1,0,0:0:0:0:
289,76,293183,1,10,0:0:0:0:
317,116,293258,1,0,0:0:0:0:
316,165,293333,1,0,0:0:0:0:
286,204,293408,1,0,0:0:0:0:
239,218,293483,1,10,0:0:0:0:
193,201,293558,1,0,0:0:0:0:
166,160,293633,5,0,0:0:0:0:
392,64,293783,1,10,0:0:0:0:
392,64,293858,1,4,0:0:0:0:
392,64,293933,1,4,0:0:0:0:
392,64,294008,1,4,0:0:0:0:
392,64,294083,1,10,0:0:0:0:
388,112,294158,1,4,0:0:0:0:
384,160,294233,1,4,0:0:0:0:
380,208,294308,1,4,0:0:0:0:
376,256,294383,1,10,0:0:0:0:
338,287,294458,1,4,0:0:0:0:
289,298,294533,1,4,0:0:0:0:
242,284,294608,1,4,0:0:0:0:
206,249,294683,1,10,0:0:0:0:
193,201,294758,1,4,0:0:0:0:
177,154,294833,1,4,0:0:0:0:
141,120,294908,1,4,0:0:0:0:
94,106,294983,1,10,0:0:0:0:
45,116,295058,1,4,0:0:0:0:
8,148,295133,6,0,B|45:186|72:228|72:228|164:196|268:192,1,300,6|10,0:0|0:0,0:0:0:0:
460,300,295733,1,0,0:0:0:0:
468,332,295808,1,0,0:0:0:0:
476,364,295883,1,10,0:0:0:0:
242,284,296033,5,0,0:0:0:0:
440,224,296183,2,0,P|468:128|408:56,1,200,10|10,0:0|0:0,0:0:0:0:
105,116,296633,1,4,0:0:0:0:
141,120,296708,1,4,0:0:0:0:
177,124,296783,1,10,0:0:0:0:
368,240,296933,1,4,0:0:0:0:
332,236,297008,1,4,0:0:0:0:
296,232,297083,1,10,0:0:0:0:
92,320,297233,1,4,0:0:0:0:
128,324,297308,1,4,0:0:0:0:
164,328,297383,1,10,0:0:0:0:
232,68,297533,6,0,P|188:44|140:52,1,100,4|10,0:0|0:0,0:0:0:0:
35,207,297833,1,0,0:0:0:0:
64,247,297908,1,0,0:0:0:0:
108,270,297983,1,10,0:0:0:0:
157,271,298058,1,0,0:0:0:0:
202,251,298133,1,0,0:0:0:0:
247,230,298208,1,0,0:0:0:0:
296,232,298283,1,10,0:0:0:0:
340,255,298358,1,0,0:0:0:0:
369,295,298433,5,0,0:0:0:0:
28,304,298583,2,0,B|20:236|20:236|44:176|44:176|36:108,1,200,10|10,0:0|0:0,0:0:0:0:
340,255,299033,1,4,0:0:0:0:
340,255,299108,1,4,0:0:0:0:
340,255,299183,1,10,0:0:0:0:
144,360,299333,2,0,P|96:272|128:184,1,200,0|4,0:0|0:0,0:0:0:0:
128,183,299708,1,4,0:0:0:0:
128,183,299783,1,10,0:0:0:0:
432,68,299933,6,0,B|396:64|364:76|364:76|372:56|372:56|316:80|264:76,1,200,2|0,0:0|0:0,0:0:0:0:
176,320,300383,1,10,0:0:0:0:
176,320,300458,1,0,0:0:0:0:
176,320,300533,1,0,0:0:0:0:
176,320,300608,1,0,0:0:0:0:
176,320,300683,6,0,B|208:340|248:335|248:335|277:319|277:319|316:340|368:340,1,200,10|10,0:0|0:0,0:0:0:0:
296,108,301133,1,0,0:0:0:0:
296,108,301208,1,0,0:0:0:0:
296,108,301283,6,0,B|248:120|208:152|208:152|164:128|164:128|88:160|12:140,1,300,10|0,0:0|0:0,0:0:0:0:
16,141,301808,1,0,0:0:0:0:
16,141,301883,1,10,0:0:0:0:
208,64,302033,1,0,0:0:0:0:
208,64,302108,1,0,0:0:0:0:
208,64,302183,1,8,0:0:0:0:
176,320,302333,6,0,P|80:348|16:280,1,200,6|4,0:0|0:0,0:0:0:0:
16,283,302708,1,0,0:0:0:0:
16,283,302783,1,10,0:0:0:0:
144,156,302933,1,4,0:0:0:0:
180,152,303008,1,4,0:0:0:0:
216,148,303083,1,10,0:0:0:0:
328,288,303233,1,4,0:0:0:0:
364,292,303308,1,4,0:0:0:0:
400,296,303383,5,10,0:0:0:0:
208,64,303533,1,4,0:0:0:0:
208,64,303608,1,4,0:0:0:0:
208,64,303683,1,10,0:0:0:0:
360,364,303833,2,0,P|412:372|456:356,1,100,10|4,0:0|0:0,0:0:0:0:
440,32,304133,5,12,0:0:0:0:
440,32,304208,1,8,0:0:0:0:
440,32,304283,1,8,0:0:0:0:
400,40,304358,1,8,0:0:0:0:
360,48,304433,1,8,0:0:0:0:
324,84,304508,1,8,0:0:0:0:
284,92,304583,1,8,0:0:0:0:
244,100,304658,1,8,0:0:0:0:
208,64,304733,6,0,B|172:72|172:72|148:68|148:68|108:76,1,100,2|0,0:0|0:0,0:0:0:0:
324,304,305033,2,0,B|336:267|336:267|351:248|351:248|362:213,1,100,2|0,0:0|0:0,0:0:0:0:
58,284,305333,2,0,B|83:313|83:313|92:335|92:335|117:363,1,100,2|0,0:0|0:0,0:0:0:0:
352,140,305633,6,0,B|328:96|328:96|284:72,1,100,2|0,0:0|0:0,0:0:0:0:
184,384,305933,2,0,B|236:384|236:384|276:359,1,100,2|0,0:0|0:0,0:0:0:0:
56,116,306233,2,0,B|28:160|28:160|31:208,1,100,2|0,0:0|0:0,0:0:0:0:
324,304,306533,6,0,L|392:296,2,66.6666666666667,8|8|4,0:0|0:0|0:0,0:0:0:0:
122,123,306833,2,0,L|54:115,2,66.6666666666667,8|8|4,0:0|0:0|0:0,0:0:0:0:
388,64,307133,2,0,L|424:60,1,33.3333333333333,8|8,0:0|0:0,0:0:0:0:
