osu file format v14

[General]
AudioFilename: audio.mp3
AudioLeadIn: 0
PreviewTime: 140783
Countdown: 0
SampleSet: None
StackLeniency: 0.2
Mode: 0
LetterboxInBreaks: 0
WidescreenStoryboard: 0

[Editor]
Bookmarks: 65033,84233,86633,89033,105833,107933
DistanceSpacing: 0.5
BeatDivisor: 4
GridSize: 4
TimelineZoom: 1.6

[Metadata]
Title:Furuki Yuanxian
TitleUnicode:古きユアンシェン
Artist:Demetori
ArtistUnicode:Demetori
Creator:Chekito
Version:???
Source:
Tags:
BeatmapID:1821214
BeatmapSetID:871667

[Difficulty]
HPDrainRate:6
CircleSize:4.5
OverallDifficulty:7
ApproachRate:9.2
SliderMultiplier:1.7
SliderTickRate:1

[Events]
//Background and Video events
0,0,"1920x1080-2896069-anime-girls-dress-kaku-seiga-touhou___anime-wallpapers.jpg",0,0
//Break Periods
//Storyboard Layer 0 (Background)
//Storyboard Layer 1 (Fail)
//Storyboard Layer 2 (Pass)
//Storyboard Layer 3 (Foreground)
//Storyboard Sound Samples

[TimingPoints]
1515,508.474576271186,4,2,69,5,1,0
55433,300,4,3,3,70,1,0
55658,-100,4,3,3,5,0,0
55733,-100,4,3,3,70,0,0
58058,-100,4,3,3,5,0,0
58133,-100,4,3,3,70,0,0
60008,-100,4,3,3,5,0,0
60083,-100,4,3,3,70,0,0
60458,-100,4,3,3,5,0,0
60533,-100,4,3,3,70,0,0
62633,-166.666666666667,4,3,3,70,0,0
62933,-166.666666666667,4,3,3,40,0,0
63083,-166.666666666667,4,3,3,45,0,0
63233,-166.666666666667,4,3,3,50,0,0
63383,-166.666666666667,4,3,3,55,0,0
63533,-166.666666666667,4,3,3,60,0,0
63683,-166.666666666667,4,3,3,65,0,0
63833,-166.666666666667,4,3,3,70,0,0
64133,-166.666666666667,4,3,3,60,0,0
64433,-200,4,3,3,70,0,0
64508,-200,4,3,3,30,0,0
65033,-100,4,3,3,70,0,0
84233,-83.3333333333333,4,3,3,80,0,0
86633,-100,4,3,3,70,0,0
107933,300,4,3,3,70,1,0
117533,300,3,2,1,40,1,0
140933,300,4,3,1,70,1,0
194333,300,4,3,1,70,1,0

[Colours]
Combo1 : 255,155,255
Combo2 : 106,255,255
Combo3 : 198,0,198
Combo4 : 128,128,255

[HitObjects]
70,301,55433,6,0,B|115:274|115:274|210:282,1,127.5
215,284,55733,1,0,0:0:0:0:
215,284,56033,1,0,0:0:0:0:
215,284,56333,1,0,0:0:0:0:
469,208,56483,6,0,B|424:181|424:181|299:194,1,170
236,145,56933,1,0,0:0:0:0:
236,145,57233,1,0,0:0:0:0:
236,145,57533,1,0,0:0:0:0:
86,63,57833,6,0,B|131:36|131:36|220:46,1,127.5
230,50,58133,1,0,0:0:0:0:
230,50,58433,1,0,0:0:0:0:
230,50,58733,1,0,0:0:0:0:
378,204,58883,6,0,P|320:210|233:138,1,170
406,114,59333,1,0,0:0:0:0:
307,283,59483,1,0,0:0:0:0:
230,50,59633,2,0,L|238:3,1,42.5
314,259,59783,1,0,0:0:0:0:
210,67,59933,2,0,L|218:20,1,42.5
321,235,60083,1,0,0:0:0:0:
123,343,60233,6,0,B|91:299|91:299|102:216,1,127.5
107,201,60533,1,0,0:0:0:0:
107,201,60833,1,0,0:0:0:0:
107,201,61133,1,0,0:0:0:0:
226,3,61283,6,0,B|206:60|206:60|240:170,1,170
214,246,61733,1,0,0:0:0:0:
214,246,62033,1,0,0:0:0:0:
214,246,62333,1,0,0:0:0:0:
346,348,62483,1,0,0:0:0:0:
340,331,62558,1,0,0:0:0:0:
334,314,62633,6,0,B|334:273|334:273|338:264|338:264|339:203,1,101.999996887207
290,144,63083,1,0,0:0:0:0:
406,129,63233,1,0,0:0:0:0:
259,218,63383,1,0,0:0:0:0:
370,56,63533,1,0,0:0:0:0:
456,238,63683,1,0,0:0:0:0:
233,84,63833,5,0,0:0:0:0:
195,63,63908,1,0,0:0:0:0:
153,69,63983,1,0,0:0:0:0:
119,95,64058,1,0,0:0:0:0:
103,115,64133,5,0,0:0:0:0:
79,124,64208,1,0,0:0:0:0:
53,122,64283,1,0,0:0:0:0:
30,109,64358,1,0,0:0:0:0:
7,72,64433,6,0,B|3:42|3:42|15:4,2,63.75
128,190,65033,5,0,0:0:0:0:
192,244,65183,2,0,B|199:276|199:276|186:335,1,85
290,131,65483,2,0,B|268:170|268:170|293:262,1,127.5
298,273,65783,1,0,0:0:0:0:
453,341,65933,1,0,0:0:0:0:
459,316,66008,1,0,0:0:0:0:
460,290,66083,1,0,0:0:0:0:
404,184,66233,5,0,0:0:0:0:
257,349,66383,2,0,B|219:370|219:370|168:363,1,85
237,151,66683,2,0,B|274:173|274:173|293:221,1,85
76,268,66983,2,0,B|76:224|76:224|108:183,1,85
118,185,67208,1,0,0:0:0:0:
133,178,67283,1,0,0:0:0:0:
190,257,67433,5,0,0:0:0:0:
268,79,67583,2,0,P|226:75|187:93,1,85
42,204,67883,2,0,P|126:203|190:257,1,170
310,378,68333,1,0,0:0:0:0:
308,352,68408,1,0,0:0:0:0:
306,326,68483,1,0,0:0:0:0:
421,254,68633,5,0,0:0:0:0:
278,160,68783,1,0,0:0:0:0:
423,71,68933,1,0,0:0:0:0:
448,73,69008,1,0,0:0:0:0:
473,75,69083,1,0,0:0:0:0:
421,272,69233,5,0,0:0:0:0:
278,178,69383,1,0,0:0:0:0:
238,343,69533,1,0,0:0:0:0:
213,345,69608,1,0,0:0:0:0:
188,347,69683,1,0,0:0:0:0:
340,333,69833,5,0,0:0:0:0:
265,262,69983,2,0,L|160:270,1,85
27,364,70283,2,0,B|57:366|78:359|78:359|100:369|100:369|121:352|121:352|146:356|194:345,1,170
282,245,70733,1,0,0:0:0:0:
307,242,70808,1,0,0:0:0:0:
332,243,70883,1,0,0:0:0:0:
407,311,71033,5,0,0:0:0:0:
466,151,71183,2,0,B|454:118|454:118|409:82,1,85
250,255,71483,2,0,B|284:261|284:261|338:240,1,85,0|0,0:3|0:3,0:3:0:0:
267,15,71783,2,0,B|244:41|244:41|235:98,1,85,0|0,0:3|0:3,0:3:0:0:
239,107,72008,1,0,0:0:0:0:
241,123,72083,1,0,0:0:0:0:
337,146,72233,5,0,0:0:0:0:
202,315,72383,2,0,P|175:273|177:226,1,85
79,72,72683,2,0,P|108:119|83:235,1,170
11,261,73133,1,0,0:0:0:0:
202,315,73283,1,0,0:0:0:0:
325,198,73433,5,0,0:0:0:0:
378,263,73583,2,0,P|331:283|293:277,1,85
229,122,73883,1,0,0:0:0:0:
227,147,73958,1,0,0:0:0:0:
225,172,74033,1,0,0:0:0:0:
64,315,74183,1,0,0:0:0:0:
93,284,74258,1,0,0:0:0:0:
133,271,74333,1,0,0:0:0:0:
175,271,74408,1,0,0:0:0:0:
212,291,74483,1,0,0:0:0:0:
237,324,74558,1,0,0:0:0:0:
245,365,74633,5,0,0:0:0:0:
298,278,74783,2,0,B|307:246|307:246|295:180,1,85
139,102,75083,2,0,B|207:98|207:98|229:120|229:120|307:114,1,170
460,61,75533,1,0,0:0:0:0:
468,36,75608,1,0,0:0:0:0:
468,10,75683,1,0,0:0:0:0:
394,134,75833,5,0,0:0:0:0:
470,201,75983,2,0,B|490:238|490:238|485:284,1,85
251,187,76283,2,0,B|273:151|273:151|312:133,1,85
349,383,76583,2,0,B|306:381|306:381|272:356,1,85
258,346,76808,1,0,0:0:0:0:
244,336,76883,1,0,0:0:0:0:
356,258,77033,5,0,0:0:0:0:
251,187,77183,2,0,L|153:195,1,85
19,338,77483,2,0,P|101:339|157:278,1,170
112,112,77933,1,0,0:0:0:0:
86,114,78008,1,0,0:0:0:0:
60,116,78083,1,0,0:0:0:0:
215,48,78233,5,0,0:0:0:0:
288,141,78383,2,0,B|294:176|294:176|282:231,1,85
278,240,78608,1,0,0:0:0:0:
273,256,78683,1,0,0:0:0:0:
200,184,78833,1,0,0:0:0:0:
383,145,78983,2,0,B|377:110|377:110|387:61,1,85
393,46,79208,1,0,0:0:0:0:
398,30,79283,1,0,0:0:0:0:
498,187,79433,5,0,0:0:0:0:
414,245,79583,2,0,L|423:345,1,85
324,178,79883,2,0,B|316:297|316:297|262:340,1,170
167,246,80333,1,0,0:0:0:0:
171,220,80408,1,0,0:0:0:0:
175,194,80483,1,0,0:0:0:0:
83,92,80633,6,0,L|-4:101,1,85
149,23,80933,1,0,0:0:0:0:
165,42,81008,1,0,0:0:0:0:
173,65,81083,1,0,0:0:0:0:
198,208,81233,6,0,L|285:217,1,85
132,139,81533,1,0,0:0:0:0:
116,158,81608,1,0,0:0:0:0:
108,181,81683,1,0,0:0:0:0:
164,285,81833,5,0,0:0:0:0:
91,357,81983,2,0,B|60:364|60:364|4:349,1,85
108,181,82283,2,0,B|139:174|139:174|195:189,1,85
287,218,82583,1,0,0:0:0:0:
367,154,82733,1,0,0:0:0:0:
365,128,82808,1,0,0:0:0:0:
364,102,82883,1,0,0:0:0:0:
431,258,83033,5,0,0:0:0:0:
458,177,83183,1,0,0:0:0:0:
351,309,83333,1,0,0:0:0:0:
351,334,83408,1,0,0:0:0:0:
351,359,83483,1,0,0:0:0:0:
457,259,83633,1,0,0:0:0:0:
296,202,83783,5,0,0:0:0:0:
253,205,83858,1,0,0:0:0:0:
210,208,83933,1,0,0:0:0:0:
167,211,84008,1,0,0:0:0:0:
124,214,84083,1,0,0:0:0:0:
81,217,84158,1,0,0:0:0:0:
38,221,84233,6,0,L|29:100,1,101.999996887207
124,41,84533,2,0,L|131:142,1,101.999996887207
20,239,84833,2,0,L|11:118,1,101.999996887207
142,28,85133,2,0,L|149:129,1,101.999996887207
350,365,85433,6,0,L|341:244,1,101.999996887207
436,185,85733,2,0,L|443:286,1,101.999996887207
332,383,86033,2,0,L|323:262,1,101.999996887207
454,172,86333,2,0,L|461:273,1,101.999996887207
335,171,86633,6,0,P|276:160|216:192,1,127.5
208,213,86933,1,0,0:0:0:0:
165,377,87083,5,0,0:0:0:0:
138,296,87233,1,0,0:0:0:0:
57,269,87383,1,0,0:0:0:0:
70,352,87533,5,0,0:0:0:0:
123,208,87683,1,0,0:0:0:0:
122,174,87758,1,0,0:0:0:0:
122,140,87833,6,0,B|119:115|119:115|106:79,2,56.6666666666667
201,68,88133,2,0,B|204:43|204:43|217:7,2,56.6666666666667
246,157,88433,5,0,0:0:0:0:
285,154,88533,5,0,0:0:0:0:
324,151,88633,5,0,0:0:0:0:
350,180,88733,5,0,0:0:0:0:
389,183,88833,5,0,0:0:0:0:
428,187,88933,5,0,0:0:0:0:
467,191,89033,6,0,P|486:144|419:60,1,170
333,49,89483,1,0,0:0:0:0:
246,157,89633,2,0,B|248:224|248:224|279:251|279:251|281:315,1,170
339,182,90083,1,0,0:0:0:0:
189,294,90233,6,0,P|144:307|44:237,1,170
29,161,90683,1,0,0:0:0:0:
123,64,90833,2,0,B|205:104|205:25|291:65,1,170
299,72,91208,1,0,0:0:0:0:
308,86,91283,1,0,0:0:0:0:
472,183,91433,6,0,P|423:173|339:255,1,170
361,329,91883,1,0,0:0:0:0:
245,384,92033,2,0,B|195:351|195:351|71:357,1,170
0,363,92483,1,0,0:0:0:0:
149,279,92633,6,0,B|165:156|165:156|126:182,1,170
61,235,93083,1,0,0:0:0:0:
3,131,93233,2,0,B|-13:8|-13:8|26:34,1,170
37,45,93608,1,0,0:0:0:0:
49,56,93683,1,0,0:0:0:0:
166,157,93833,6,0,B|225:124|288:144|288:144|313:182,1,170
348,257,94283,1,0,0:0:0:0:
477,190,94433,2,0,P|494:142|397:67,1,170
341,97,94883,1,0,0:0:0:0:
237,8,95033,6,0,B|240:132|240:132|193:109,1,170
126,66,95483,1,0,0:0:0:0:
0,134,95633,2,0,B|-3:258|-3:258|44:235,1,170
111,192,96083,1,0,0:0:0:0:
179,328,96233,6,0,P|221:297|347:307,1,170
406,345,96683,1,0,0:0:0:0:
500,181,96833,2,0,P|458:212|332:202,1,170
271,164,97283,1,0,0:0:0:0:
337,55,97433,5,0,0:0:0:0:
178,115,97583,2,0,L|182:209,1,85
100,50,97883,1,0,0:0:0:0:
274,142,98033,5,0,0:0:0:0:
248,223,98183,1,0,0:0:0:0:
274,303,98333,1,0,0:0:0:0:
241,381,98483,1,0,0:0:0:0:
410,368,98633,6,0,B|405:311|405:311|435:277|435:277|431:202,1,170
378,122,99083,1,0,0:0:0:0:
308,238,99233,2,0,P|253:251|162:178,1,170
259,147,99683,1,0,0:0:0:0:
186,74,99833,6,0,B|99:44|108:120|15:88,1,170
53,4,100283,1,0,0:0:0:0:
149,151,100433,2,0,B|145:289|145:289|127:260,1,170
68,190,100883,1,0,0:0:0:0:
223,269,101033,6,0,B|290:263|290:263|310:233|310:233|390:227,1,170
456,292,101483,1,0,0:0:0:0:
499,163,101633,2,0,P|443:168|369:88,1,170
431,9,102083,1,0,0:0:0:0:
329,13,102233,6,0,L|150:5,1,170
86,76,102683,1,0,0:0:0:0:
167,184,102833,2,0,L|339:177,1,170
347,190,103208,1,0,0:0:0:0:
357,203,103283,1,0,0:0:0:0:
367,216,103358,1,0,0:0:0:0:
377,229,103433,6,0,P|435:228|481:131,1,170
411,63,103883,1,0,0:0:0:0:
283,110,104033,2,0,B|219:107|219:107|186:78|186:78|119:75,1,170
33,27,104483,1,0,0:0:0:0:
0,182,104633,6,0,P|41:182|88:201,1,85
155,269,104933,1,0,0:0:0:0:
155,269,105083,1,0,0:0:0:0:
218,189,105233,2,0,P|263:211|372:168,1,170
311,87,105683,1,0,0:0:0:0:
472,33,105833,6,0,L|463:153,1,113.333333333333
510,223,106233,1,0,0:0:0:0:
442,382,106433,2,0,L|433:270,1,113.333333333333
510,223,106833,1,0,0:0:0:0:
369,108,107033,5,0,0:0:0:0:
380,157,107108,1,0,0:0:0:0:
363,200,107183,1,0,0:0:0:0:
325,220,107258,1,0,0:0:0:0:
286,219,107333,1,0,0:0:0:0:
257,199,107408,1,0,0:0:0:0:
227,194,107483,1,0,0:0:0:0:
201,198,107558,1,0,0:0:0:0:
183,210,107633,1,0,0:0:0:0:
