osu file format v14

[General]
AudioFilename: audio.mp3
AudioLeadIn: 0
PreviewTime: 19289
Countdown: 0
SampleSet: Normal
StackLeniency: 0.7
Mode: 1
LetterboxInBreaks: 0
WidescreenStoryboard: 0

[Editor]
Bookmarks: 35129,50489,65849,81209,96809
DistanceSpacing: 1
BeatDivisor: 4
GridSize: 32
TimelineZoom: 1.299999

[Metadata]
Title:Fires of Hokkai ~ Flame for Puja
TitleUnicode:法界の火 ~ Flame for Puja
Artist:Demetori
ArtistUnicode:Demetori
Creator:GoldenWolf
Version:Muzukashii
Source:東方星蓮船 ~ Undefined Fantastic Object.
Tags:Ayyri Realazy 東方Project UFO Seirensen Star Lotus Ship TH12 TH 12 Byakuren Hijiri Stage 6 Theme Touhou Comiket 77 C77 Man'enjushaka 曼衍珠汝華 ~ Nada Upasana Pundarika 法界の火 ZUN Team Shanghai Alice 聖 白蓮 DECD-0006 Instrumental Guitar Metal
BeatmapID:1462463
BeatmapSetID:691058

[Difficulty]
HPDrainRate:8
CircleSize:2
OverallDifficulty:5
ApproachRate:10
SliderMultiplier:1.4
SliderTickRate:1

[Events]
//Background and Video events
0,0,"orz192.png",0,0
//Break Periods
//Storyboard Layer 0 (Background)
//Storyboard Layer 1 (Fail)
//Storyboard Layer 2 (Pass)
//Storyboard Layer 3 (Foreground)
//Storyboard Sound Samples

[TimingPoints]
35129,480,4,1,0,50,1,0

[HitObjects]
256,192,35129,5,12,0:0:0:0:
256,192,35369,12,0,40409,0:0:0:0:
256,192,40889,5,0,0:0:0:0:
256,192,41849,1,12,0:0:0:0:
256,192,42809,1,12,0:0:0:0:
256,192,43049,12,0,50009,0:0:0:0:
256,192,50489,5,12,0:0:0:0:
256,192,50729,1,4,0:0:0:0:
256,192,51449,1,8,0:0:0:0:
256,192,51929,1,0,0:0:0:0:
256,192,52409,1,8,0:0:0:0:
256,192,52649,1,0,0:0:0:0:
256,192,53369,1,8,0:0:0:0:
256,192,53849,1,0,0:0:0:0:
256,192,54329,1,8,0:0:0:0:
256,192,54569,1,0,0:0:0:0:
256,192,55289,1,8,0:0:0:0:
256,192,55769,1,0,0:0:0:0:
256,192,56249,1,8,0:0:0:0:
256,192,56489,1,8,0:0:0:0:
256,192,56729,1,0,0:0:0:0:
256,192,57209,1,8,0:0:0:0:
256,192,57449,1,0,0:0:0:0:
256,192,58169,1,12,0:0:0:0:
256,192,58409,1,0,0:0:0:0:
256,192,59129,1,8,0:0:0:0:
256,192,60089,1,0,0:0:0:0:
256,192,60329,1,0,0:0:0:0:
256,192,61049,1,8,0:0:0:0:
256,192,61529,1,0,0:0:0:0:
256,192,62009,1,0,0:0:0:0:
256,192,62249,1,0,0:0:0:0:
256,192,62969,1,8,0:0:0:0:
256,192,63929,1,0,0:0:0:0:
256,192,64169,1,0,0:0:0:0:
256,192,64889,1,8,0:0:0:0:
256,192,65129,1,4,0:0:0:0:
256,192,65849,1,12,0:0:0:0:
256,192,66089,1,0,0:0:0:0:
256,192,66809,1,8,0:0:0:0:
256,192,67289,1,0,0:0:0:0:
256,192,67769,1,8,0:0:0:0:
256,192,68009,1,8,0:0:0:0:
256,192,68489,1,0,0:0:0:0:
256,192,68729,1,8,0:0:0:0:
256,192,68969,1,0,0:0:0:0:
256,192,69449,1,0,0:0:0:0:
256,192,69689,1,8,0:0:0:0:
256,192,69929,1,8,0:0:0:0:
256,192,70649,1,8,0:0:0:0:
256,192,71129,1,0,0:0:0:0:
256,192,71609,1,8,0:0:0:0:
256,192,71849,1,8,0:0:0:0:
256,192,72569,1,8,0:0:0:0:
256,192,72809,1,0,0:0:0:0:
256,192,73049,1,0,0:0:0:0:
256,192,73529,1,12,0:0:0:0:
256,192,73769,1,0,0:0:0:0:
256,192,74489,1,8,0:0:0:0:
256,192,74969,1,0,0:0:0:0:
256,192,75449,1,8,0:0:0:0:
256,192,75689,1,0,0:0:0:0:
256,192,76409,1,8,0:0:0:0:
256,192,76889,1,0,0:0:0:0:
256,192,77369,1,8,0:0:0:0:
256,192,77609,1,0,0:0:0:0:
256,192,78329,1,8,0:0:0:0:
256,192,79289,1,8,0:0:0:0:
256,192,79529,1,0,0:0:0:0:
256,192,80249,1,8,0:0:0:0:
256,192,80489,1,12,0:0:0:0:
256,192,81209,1,0,0:0:0:0:
256,192,81449,1,0,0:0:0:0:
256,192,83129,1,0,0:0:0:0:
256,192,83369,1,8,0:0:0:0:
256,192,83609,1,0,0:0:0:0:
256,192,84569,1,8,0:0:0:0:
256,192,85049,1,0,0:0:0:0:
256,192,85289,1,0,0:0:0:0:
256,192,86009,1,0,0:0:0:0:
256,192,86249,1,8,0:0:0:0:
256,192,86489,1,0,0:0:0:0:
256,192,87449,1,0,0:0:0:0:
256,192,87689,1,8,0:0:0:0:
256,192,87929,1,0,0:0:0:0:
256,192,88889,1,0,0:0:0:0:
256,192,89129,1,0,0:0:0:0:
256,192,90329,1,0,0:0:0:0:
256,192,90569,1,8,0:0:0:0:
256,192,90809,1,0,0:0:0:0:
256,192,91769,1,0,0:0:0:0:
256,192,92009,1,8,0:0:0:0:
256,192,92249,1,0,0:0:0:0:
256,192,92729,1,0,1:0:0:0:
256,192,92969,1,0,1:0:0:0:
256,192,94649,1,0,0:0:0:0:
256,192,94889,1,8,0:0:0:0:
256,192,95129,1,0,0:0:0:0:
256,192,96089,1,0,0:0:0:0:
256,192,96329,1,8,0:0:0:0:
256,192,96569,1,4,0:0:0:0:
256,192,96809,1,4,0:0:0:0:
