osu file format v14

[General]
AudioFilename: fall2.mp3
AudioLeadIn: 0
PreviewTime: 152004
Countdown: 0
SampleSet: Normal
StackLeniency: 0.7
Mode: 1
LetterboxInBreaks: 0
WidescreenStoryboard: 0

[Editor]
DistanceSpacing: 0.9
BeatDivisor: 4
GridSize: 32
TimelineZoom: 2.499999

[Metadata]
Title:Fall of Fall ~ The Door Into Summer
TitleUnicode:フォールオブフォール ~ The Door Into Summer
Artist:Demetori
ArtistUnicode:Demetori
Creator:Dain
Version:Faithless Oni
Source:東方風神録 ~ Mountain of Faith.
Tags:Dainesl Taiko Marathon th10 Touhou Fuujinroku 東方Project Todestrieb & und Lebenstrieb 秋めく滝 Akimeku Taki Autumnal Waterfall Stage 4 犬走椛 Inubashiri Momizi Momiji 上海アリス幻樂団 team shanghai alice zun comiket 91 comic market c91 コミックマーケット コミケット metal arrange
BeatmapID:1201725
BeatmapSetID:567376

[Difficulty]
HPDrainRate:6
CircleSize:5
OverallDifficulty:6
ApproachRate:5
SliderMultiplier:1.3999999666214
SliderTickRate:1

[Events]
//Background and Video events
0,0,"bg.jpg",0,0
//Break Periods
//Storyboard Layer 0 (Background)
//Storyboard Layer 1 (Fail)
//Storyboard Layer 2 (Pass)
//Storyboard Layer 3 (Foreground)
//Storyboard Sound Samples

[TimingPoints]
20338,333.333333333333,4,1,0,100,1,0
76337,-100,4,1,0,100,0,1
95004,-100,4,1,0,100,0,0
117754,-104.166666666667,4,1,0,80,0,0
117921,-108.695652173913,4,1,0,80,0,0
118087,-113.636363636364,4,1,0,60,0,0
118254,-119.047619047619,4,1,0,60,0,0
118421,-125,4,1,0,60,0,0
118754,-100,4,1,0,100,0,0
152337,-100,4,1,0,100,0,1
171004,-100,4,1,0,100,0,0
184504,-117.647058823529,4,1,0,100,0,0
193837,-114.942528735632,4,1,0,100,0,0
193921,-113.636363636364,4,1,0,100,0,0
194004,-112.359550561798,4,1,0,100,0,0
194087,-111.111111111111,4,1,0,100,0,0
194171,-109.89010989011,4,1,0,100,0,0
194337,-108.695652173913,4,1,0,100,0,0
194421,-107.52688172043,4,1,0,100,0,0
194504,-106.382978723404,4,1,0,100,0,0
194587,-105.263157894737,4,1,0,100,0,0
194671,-104.166666666667,4,1,0,100,0,0
194754,-103.092783505155,4,1,0,100,0,0
194837,-102.040816326531,4,1,0,100,0,0
194921,-101.010101010101,4,1,0,100,0,0
195004,-100,4,1,0,100,0,0
265671,-100,4,1,0,100,0,1
284337,-100,4,1,0,100,0,0
308837,-100,4,1,0,60,0,0
311004,-100,4,1,0,50,0,0
313671,-100,4,1,0,40,0,0
316337,-100,4,1,0,30,0,0
319004,-100,4,1,0,20,0,0
321671,-100,4,1,0,10,0,0

[HitObjects]
256,192,20338,5,0,0:0:0:0:
256,192,20504,1,0,0:0:0:0:
256,192,20671,1,8,0:0:0:0:
256,192,20838,1,8,0:0:0:0:
256,192,21004,1,4,0:0:0:0:
256,192,21171,1,12,0:0:0:0:
256,192,21504,1,4,0:0:0:0:
256,192,21838,1,0,0:0:0:0:
256,192,21921,1,0,0:0:0:0:
256,192,22004,1,8,0:0:0:0:
256,192,22338,1,0,0:0:0:0:
256,192,22504,1,0,0:0:0:0:
256,192,22671,1,8,0:0:0:0:
256,192,22838,1,0,0:0:0:0:
256,192,22921,1,0,0:0:0:0:
256,192,23004,1,8,0:0:0:0:
256,192,23171,1,0,0:0:0:0:
256,192,23338,1,0,0:0:0:0:
256,192,23504,1,0,0:0:0:0:
256,192,23671,1,8,0:0:0:0:
256,192,24004,1,8,0:0:0:0:
256,192,24171,1,0,0:0:0:0:
256,192,24338,1,8,0:0:0:0:
256,192,24504,1,0,0:0:0:0:
256,192,24671,1,8,0:0:0:0:
256,192,24838,1,0,0:0:0:0:
256,192,25171,1,0,0:0:0:0:
256,192,25254,1,0,0:0:0:0:
256,192,25338,1,8,0:0:0:0:
256,192,25504,1,0,0:0:0:0:
256,192,25671,1,8,0:0:0:0:
256,192,25754,1,8,0:0:0:0:
256,192,25838,1,0,0:0:0:0:
256,192,26004,1,8,0:0:0:0:
256,192,26171,1,0,0:0:0:0:
256,192,26338,1,8,0:0:0:0:
256,192,26504,1,8,0:0:0:0:
256,192,26671,1,8,0:0:0:0:
256,192,26838,1,4,0:0:0:0:
256,192,27171,1,0,0:0:0:0:
256,192,27254,1,0,0:0:0:0:
256,192,27338,1,8,0:0:0:0:
256,192,27671,1,0,0:0:0:0:
256,192,27838,1,0,0:0:0:0:
256,192,28004,1,8,0:0:0:0:
256,192,28171,1,8,0:0:0:0:
256,192,28254,1,8,0:0:0:0:
256,192,28338,1,0,0:0:0:0:
256,192,28421,1,0,0:0:0:0:
256,192,28504,1,0,0:0:0:0:
256,192,28588,1,0,0:0:0:0:
256,192,28671,1,8,0:0:0:0:
256,192,28838,1,0,0:0:0:0:
256,192,29004,1,8,0:0:0:0:
256,192,29338,1,8,0:0:0:0:
256,192,29504,1,0,0:0:0:0:
256,192,29671,1,12,0:0:0:0:
256,192,29838,1,0,0:0:0:0:
256,192,30004,1,0,0:0:0:0:
256,192,30171,1,8,0:0:0:0:
256,192,30338,1,0,0:0:0:0:
256,192,30421,1,0,0:0:0:0:
256,192,30504,1,0,0:0:0:0:
256,192,30671,1,8,0:0:0:0:
256,192,30838,1,0,0:0:0:0:
256,192,30921,1,0,0:0:0:0:
256,192,31004,1,8,0:0:0:0:
256,192,31088,1,8,0:0:0:0:
256,192,31171,1,0,0:0:0:0:
256,192,31254,1,0,0:0:0:0:
256,192,31338,1,0,0:0:0:0:
256,192,31504,1,8,0:0:0:0:
256,192,31588,1,8,0:0:0:0:
256,192,31671,1,0,0:0:0:0:
256,192,31754,1,0,0:0:0:0:
256,192,31838,1,0,0:0:0:0:
256,192,31921,1,0,0:0:0:0:
256,192,32004,1,8,0:0:0:0:
256,192,32171,1,4,0:0:0:0:
256,192,32504,1,0,0:0:0:0:
256,192,32588,1,0,0:0:0:0:
256,192,32671,1,8,0:0:0:0:
256,192,33004,1,0,0:0:0:0:
256,192,33171,1,0,0:0:0:0:
256,192,33338,1,8,0:0:0:0:
256,192,33504,1,0,0:0:0:0:
256,192,33588,1,0,0:0:0:0:
256,192,33671,1,8,0:0:0:0:
256,192,33838,1,0,0:0:0:0:
256,192,34004,1,0,0:0:0:0:
256,192,34171,1,8,0:0:0:0:
256,192,34338,1,8,0:0:0:0:
256,192,34671,1,0,0:0:0:0:
256,192,34838,1,0,0:0:0:0:
256,192,35004,1,8,0:0:0:0:
256,192,35338,1,8,0:0:0:0:
256,192,35504,1,0,0:0:0:0:
256,192,35838,1,0,0:0:0:0:
256,192,36004,1,0,0:0:0:0:
256,192,36171,1,0,0:0:0:0:
256,192,36338,1,8,0:0:0:0:
256,192,36421,1,8,0:0:0:0:
256,192,36504,1,8,0:0:0:0:
256,192,36671,1,0,0:0:0:0:
256,192,36838,1,0,0:0:0:0:
256,192,37004,1,8,0:0:0:0:
256,192,37171,1,0,0:0:0:0:
256,192,37254,1,8,0:0:0:0:
256,192,37338,1,0,0:0:0:0:
256,192,37504,1,4,0:0:0:0:
256,192,37838,1,0,0:0:0:0:
256,192,37921,1,0,0:0:0:0:
256,192,38004,1,8,0:0:0:0:
256,192,38338,1,0,0:0:0:0:
256,192,38504,1,0,0:0:0:0:
256,192,38671,1,8,0:0:0:0:
256,192,38838,1,0,0:0:0:0:
256,192,38921,1,0,0:0:0:0:
256,192,39004,1,8,0:0:0:0:
256,192,39088,1,8,0:0:0:0:
256,192,39171,1,8,0:0:0:0:
256,192,39254,1,8,0:0:0:0:
256,192,39338,1,0,0:0:0:0:
256,192,39504,1,0,0:0:0:0:
256,192,39671,1,8,0:0:0:0:
256,192,40004,1,0,0:0:0:0:
256,192,40171,1,0,0:0:0:0:
256,192,40338,1,12,0:0:0:0:
256,192,40671,1,0,0:0:0:0:
256,192,40838,1,0,0:0:0:0:
256,192,40921,1,0,0:0:0:0:
256,192,41004,1,8,0:0:0:0:
256,192,41171,1,0,0:0:0:0:
256,192,41338,1,0,0:0:0:0:
256,192,41504,1,0,0:0:0:0:
256,192,41588,1,0,0:0:0:0:
256,192,41671,1,8,0:0:0:0:
256,192,41754,1,8,0:0:0:0:
256,192,41838,1,0,0:0:0:0:
256,192,41921,1,0,0:0:0:0:
256,192,42004,1,8,0:0:0:0:
256,192,42088,1,8,0:0:0:0:
256,192,42171,1,0,0:0:0:0:
256,192,42338,1,8,0:0:0:0:
256,192,42504,1,8,0:0:0:0:
256,192,42671,1,0,0:0:0:0:
256,192,42838,1,12,0:0:0:0:
256,192,43171,1,0,0:0:0:0:
256,192,43338,1,8,0:0:0:0:
256,192,43671,1,0,0:0:0:0:
256,192,43838,1,0,0:0:0:0:
256,192,44004,1,8,0:0:0:0:
256,192,44171,1,0,0:0:0:0:
256,192,44254,1,0,0:0:0:0:
256,192,44338,1,0,0:0:0:0:
256,192,44504,1,0,0:0:0:0:
256,192,44671,1,8,0:0:0:0:
256,192,44838,1,0,0:0:0:0:
256,192,45004,1,8,0:0:0:0:
256,192,45171,1,0,0:0:0:0:
256,192,45338,1,0,0:0:0:0:
256,192,45504,1,8,0:0:0:0:
256,192,45838,1,0,0:0:0:0:
256,192,46004,1,8,0:0:0:0:
256,192,46171,1,0,0:0:0:0:
256,192,46254,1,0,0:0:0:0:
256,192,46338,1,8,0:0:0:0:
256,192,46504,1,0,0:0:0:0:
256,192,46671,1,0,0:0:0:0:
256,192,46838,1,0,0:0:0:0:
256,192,46921,1,0,0:0:0:0:
256,192,47004,1,8,0:0:0:0:
256,192,47171,1,8,0:0:0:0:
256,192,47338,1,0,0:0:0:0:
256,192,47504,1,0,0:0:0:0:
256,192,47671,1,8,0:0:0:0:
256,192,47754,1,0,0:0:0:0:
256,192,47838,1,8,0:0:0:0:
256,192,47921,1,8,0:0:0:0:
256,192,48004,1,0,0:0:0:0:
256,192,48171,1,12,0:0:0:0:
256,192,48504,1,0,0:0:0:0:
256,192,48671,1,8,0:0:0:0:
256,192,48838,1,0,0:0:0:0:
256,192,48921,1,0,0:0:0:0:
256,192,49004,1,0,0:0:0:0:
256,192,49171,1,0,0:0:0:0:
256,192,49338,1,8,0:0:0:0:
256,192,49504,1,8,0:0:0:0:
256,192,49671,1,0,0:0:0:0:
256,192,49838,1,0,0:0:0:0:
256,192,50004,1,8,0:0:0:0:
256,192,50171,1,0,0:0:0:0:
256,192,50254,1,0,0:0:0:0:
256,192,50338,1,8,0:0:0:0:
256,192,50504,1,8,0:0:0:0:
256,192,50671,1,8,0:0:0:0:
256,192,50838,1,0,0:0:0:0:
256,192,51004,1,12,0:0:0:0:
256,192,51171,1,0,0:0:0:0:
256,192,51338,1,0,0:0:0:0:
256,192,51504,1,12,0:0:0:0:
256,192,51671,1,0,0:0:0:0:
256,192,51838,1,0,0:0:0:0:
256,192,52004,1,12,0:0:0:0:
256,192,52338,1,0,0:0:0:0:
256,192,52670,1,0,0:0:0:0:
256,192,52837,1,0,0:0:0:0:
256,192,52921,1,0,0:0:0:0:
256,192,53004,1,8,0:0:0:0:
256,192,53171,1,8,0:0:0:0:
256,192,53337,1,0,0:0:0:0:
256,192,53504,1,12,0:0:0:0:
256,192,53837,1,0,0:0:0:0:
256,192,54004,1,8,0:0:0:0:
256,192,54171,1,0,0:0:0:0:
256,192,54254,1,0,0:0:0:0:
256,192,54337,1,0,0:0:0:0:
256,192,54504,1,0,0:0:0:0:
256,192,54671,1,8,0:0:0:0:
256,192,54837,1,8,0:0:0:0:
256,192,55004,1,0,0:0:0:0:
256,192,55087,1,0,0:0:0:0:
256,192,55171,1,0,0:0:0:0:
256,192,55337,1,8,0:0:0:0:
256,192,55504,1,0,0:0:0:0:
256,192,55587,1,0,0:0:0:0:
256,192,55671,1,8,0:0:0:0:
256,192,55837,1,8,0:0:0:0:
256,192,56004,1,8,0:0:0:0:
256,192,56171,1,0,0:0:0:0:
256,192,56504,1,0,0:0:0:0:
256,192,56671,1,8,0:0:0:0:
256,192,56837,1,0,0:0:0:0:
256,192,56921,1,8,0:0:0:0:
256,192,57004,1,0,0:0:0:0:
256,192,57171,1,0,0:0:0:0:
256,192,57337,1,8,0:0:0:0:
256,192,57504,1,8,0:0:0:0:
256,192,57671,1,0,0:0:0:0:
256,192,57837,1,0,0:0:0:0:
256,192,57921,1,0,0:0:0:0:
256,192,58004,1,8,0:0:0:0:
256,192,58171,1,0,0:0:0:0:
256,192,58337,1,8,0:0:0:0:
256,192,58504,1,0,0:0:0:0:
256,192,58671,1,8,0:0:0:0:
256,192,58837,1,12,0:0:0:0:
256,192,59171,1,0,0:0:0:0:
256,192,59337,1,8,0:0:0:0:
256,192,59504,1,0,0:0:0:0:
256,192,59587,1,0,0:0:0:0:
256,192,59671,1,0,0:0:0:0:
256,192,59837,1,0,0:0:0:0:
256,192,59921,1,0,0:0:0:0:
256,192,60004,1,8,0:0:0:0:
256,192,60171,1,8,0:0:0:0:
256,192,60337,1,0,0:0:0:0:
256,192,60504,1,0,0:0:0:0:
256,192,60671,1,8,0:0:0:0:
256,192,60837,1,8,0:0:0:0:
256,192,60921,1,0,0:0:0:0:
256,192,61004,1,8,0:0:0:0:
256,192,61171,1,0,0:0:0:0:
256,192,61337,1,8,0:0:0:0:
256,192,61504,1,0,0:0:0:0:
256,192,61671,1,12,0:0:0:0:
256,192,61837,1,0,0:0:0:0:
256,192,62004,1,0,0:0:0:0:
256,192,62171,1,8,0:0:0:0:
256,192,62337,1,0,0:0:0:0:
256,192,62504,1,0,0:0:0:0:
256,192,62671,1,8,0:0:0:0:
256,192,62754,1,0,0:0:0:0:
256,192,62837,1,0,0:0:0:0:
256,192,62921,1,0,0:0:0:0:
256,192,63004,1,8,0:0:0:0:
256,192,63171,1,0,0:0:0:0:
256,192,63337,1,8,0:0:0:0:
256,192,63504,1,0,0:0:0:0:
256,192,63587,1,0,0:0:0:0:
256,192,63671,1,8,0:0:0:0:
256,192,63754,1,8,0:0:0:0:
256,192,63837,1,8,0:0:0:0:
256,192,63921,1,8,0:0:0:0:
256,192,64004,1,0,0:0:0:0:
256,192,64087,1,0,0:0:0:0:
256,192,64171,1,8,0:0:0:0:
256,192,64337,1,4,0:0:0:0:
256,192,64504,1,4,0:0:0:0:
256,192,65004,1,0,0:0:0:0:
256,192,65337,1,0,0:0:0:0:
256,192,65504,1,12,0:0:0:0:
256,192,65837,1,12,0:0:0:0:
256,192,66004,1,0,0:0:0:0:
256,192,66337,1,8,0:0:0:0:
256,192,66421,1,8,0:0:0:0:
256,192,66504,1,0,0:0:0:0:
256,192,66587,1,0,0:0:0:0:
256,192,66671,1,0,0:0:0:0:
256,192,66754,1,0,0:0:0:0:
256,192,66837,1,8,0:0:0:0:
256,192,67004,1,4,0:0:0:0:
256,192,67171,1,4,0:0:0:0:
256,192,67671,1,8,0:0:0:0:
256,192,68004,1,0,0:0:0:0:
256,192,68171,1,12,0:0:0:0:
256,192,68504,1,12,0:0:0:0:
256,192,68837,1,12,0:0:0:0:
256,192,69004,1,0,0:0:0:0:
256,192,69171,1,0,0:0:0:0:
256,192,69254,1,0,0:0:0:0:
256,192,69337,1,0,0:0:0:0:
256,192,69504,1,8,0:0:0:0:
256,192,69671,1,0,0:0:0:0:
256,192,69837,1,0,0:0:0:0:
256,192,70004,1,0,0:0:0:0:
256,192,70171,1,0,0:0:0:0:
256,192,70337,1,12,0:0:0:0:
256,192,70504,1,0,0:0:0:0:
256,192,70671,1,8,0:0:0:0:
256,192,70837,1,8,0:0:0:0:
256,192,71004,1,0,0:0:0:0:
256,192,71171,1,8,0:0:0:0:
256,192,71337,1,0,0:0:0:0:
256,192,71421,1,0,0:0:0:0:
256,192,71504,1,0,0:0:0:0:
256,192,71671,1,12,0:0:0:0:
256,192,71837,1,0,0:0:0:0:
256,192,72004,1,8,0:0:0:0:
256,192,72171,1,0,0:0:0:0:
256,192,72337,1,0,0:0:0:0:
256,192,72504,1,0,0:0:0:0:
256,192,72671,1,8,0:0:0:0:
256,192,72837,1,0,0:0:0:0:
256,192,73004,1,8,0:0:0:0:
256,192,73171,1,0,0:0:0:0:
256,192,73254,1,0,0:0:0:0:
256,192,73337,1,8,0:0:0:0:
256,192,73504,1,0,0:0:0:0:
256,192,73671,1,12,0:0:0:0:
256,192,73837,1,12,0:0:0:0:
256,192,74171,1,12,0:0:0:0:
256,192,74504,1,0,0:0:0:0:
256,192,74587,1,0,0:0:0:0:
256,192,74671,1,8,0:0:0:0:
256,192,74837,1,8,0:0:0:0:
256,192,75004,1,0,0:0:0:0:
256,192,75171,1,12,0:0:0:0:
256,192,75671,1,0,0:0:0:0:
256,192,75754,1,0,0:0:0:0:
256,192,75837,1,0,0:0:0:0:
256,192,75921,1,0,0:0:0:0:
256,192,76004,1,8,0:0:0:0:
256,192,76087,1,8,0:0:0:0:
256,192,76171,1,8,0:0:0:0:
256,192,76254,1,8,0:0:0:0:
256,192,76337,1,4,0:0:0:0:
256,192,76504,1,0,0:0:0:0:
256,192,76671,1,8,0:0:0:0:
256,192,76837,1,0,0:0:0:0:
256,192,76921,1,0,0:0:0:0:
256,192,77004,1,0,0:0:0:0:
256,192,77171,1,8,0:0:0:0:
256,192,77337,1,8,0:0:0:0:
256,192,77504,1,0,0:0:0:0:
256,192,77837,1,0,0:0:0:0:
256,192,78004,1,8,0:0:0:0:
256,192,78171,1,8,0:0:0:0:
256,192,78254,1,8,0:0:0:0:
256,192,78337,1,0,0:0:0:0:
256,192,78504,1,0,0:0:0:0:
256,192,78671,1,8,0:0:0:0:
256,192,78837,1,8,0:0:0:0:
256,192,79004,1,0,0:0:0:0:
256,192,79171,1,0,0:0:0:0:
256,192,79337,1,8,0:0:0:0:
256,192,79504,1,0,0:0:0:0:
256,192,79587,1,8,0:0:0:0:
256,192,79671,1,0,0:0:0:0:
256,192,79837,1,8,0:0:0:0:
256,192,80004,1,8,0:0:0:0:
256,192,80171,1,0,0:0:0:0:
256,192,80504,1,0,0:0:0:0:
256,192,80670,1,8,0:0:0:0:
256,192,80837,1,0,0:0:0:0:
256,192,81004,1,0,0:0:0:0:
256,192,81171,1,0,0:0:0:0:
256,192,81254,1,0,0:0:0:0:
256,192,81337,1,8,0:0:0:0:
256,192,81671,1,4,0:0:0:0:
256,192,81837,1,0,0:0:0:0:
256,192,82004,1,8,0:0:0:0:
256,192,82171,1,8,0:0:0:0:
256,192,82254,1,8,0:0:0:0:
256,192,82337,1,0,0:0:0:0:
256,192,82504,1,8,0:0:0:0:
256,192,82671,1,0,0:0:0:0:
256,192,82837,1,0,0:0:0:0:
256,192,82921,1,0,0:0:0:0:
256,192,83004,1,0,0:0:0:0:
256,192,83171,1,0,0:0:0:0:
256,192,83337,1,8,0:0:0:0:
256,192,83504,1,0,0:0:0:0:
256,192,83671,1,0,0:0:0:0:
256,192,83837,1,0,0:0:0:0:
256,192,83921,1,0,0:0:0:0:
256,192,84004,1,8,0:0:0:0:
256,192,84171,1,0,0:0:0:0:
256,192,84337,1,12,0:0:0:0:
256,192,84504,1,12,0:0:0:0:
256,192,84837,1,12,0:0:0:0:
256,192,85171,1,12,0:0:0:0:
256,192,85504,1,0,0:0:0:0:
256,192,85671,1,12,0:0:0:0:
256,192,85837,1,12,0:0:0:0:
256,192,86171,1,12,0:0:0:0:
256,192,86337,1,0,0:0:0:0:
256,192,86421,1,0,0:0:0:0:
256,192,86504,1,8,0:0:0:0:
256,192,86587,1,8,0:0:0:0:
256,192,86671,1,0,0:0:0:0:
256,192,86754,1,8,0:0:0:0:
256,192,86837,1,8,0:0:0:0:
256,192,86921,1,8,0:0:0:0:
256,192,87004,1,4,0:0:0:0:
256,192,87171,1,0,0:0:0:0:
256,192,87337,1,8,0:0:0:0:
256,192,87504,1,8,0:0:0:0:
256,192,87587,1,8,0:0:0:0:
256,192,87671,1,0,0:0:0:0:
256,192,87837,1,8,0:0:0:0:
256,192,88004,1,8,0:0:0:0:
256,192,88171,1,0,0:0:0:0:
256,192,88504,1,0,0:0:0:0:
256,192,88671,1,8,0:0:0:0:
256,192,88837,1,8,0:0:0:0:
256,192,88921,1,8,0:0:0:0:
256,192,89004,1,0,0:0:0:0:
256,192,89171,1,8,0:0:0:0:
256,192,89337,1,0,0:0:0:0:
256,192,89504,1,8,0:0:0:0:
256,192,89671,1,0,0:0:0:0:
256,192,89837,1,0,0:0:0:0:
256,192,90004,1,8,0:0:0:0:
256,192,90171,1,8,0:0:0:0:
256,192,90254,1,8,0:0:0:0:
256,192,90337,1,0,0:0:0:0:
256,192,90504,1,0,0:0:0:0:
256,192,90671,1,8,0:0:0:0:
256,192,90837,1,0,0:0:0:0:
256,192,91171,1,0,0:0:0:0:
256,192,91337,1,8,0:0:0:0:
256,192,91504,1,0,0:0:0:0:
256,192,91671,1,0,0:0:0:0:
256,192,91837,1,0,0:0:0:0:
256,192,91921,1,0,0:0:0:0:
256,192,92004,1,8,0:0:0:0:
256,192,92337,1,4,0:0:0:0:
256,192,92504,1,8,0:0:0:0:
256,192,92671,1,0,0:0:0:0:
256,192,92837,1,0,0:0:0:0:
256,192,92921,1,0,0:0:0:0:
256,192,93004,1,8,0:0:0:0:
256,192,93171,1,8,0:0:0:0:
256,192,93337,1,0,0:0:0:0:
256,192,93504,1,8,0:0:0:0:
256,192,93671,1,0,0:0:0:0:
256,192,93837,1,0,0:0:0:0:
256,192,94004,1,8,0:0:0:0:
256,192,94171,1,0,0:0:0:0:
256,192,94254,1,0,0:0:0:0:
256,192,94337,1,0,0:0:0:0:
256,192,94504,1,0,0:0:0:0:
256,192,94671,1,8,0:0:0:0:
256,192,94837,1,8,0:0:0:0:
256,192,95004,1,0,0:0:0:0:
256,192,95337,1,0,0:0:0:0:
256,192,95671,1,0,0:0:0:0:
256,192,96004,1,0,0:0:0:0:
256,192,96337,1,8,0:0:0:0:
256,192,96671,1,0,0:0:0:0:
256,192,96837,1,0,0:0:0:0:
256,192,96921,1,0,0:0:0:0:
256,192,97004,1,8,0:0:0:0:
256,192,97171,1,8,0:0:0:0:
256,192,97504,1,4,0:0:0:0:
256,192,97837,1,0,0:0:0:0:
256,192,98004,1,0,0:0:0:0:
256,192,98171,1,0,0:0:0:0:
256,192,98337,1,8,0:0:0:0:
256,192,98504,1,0,0:0:0:0:
256,192,98671,1,0,0:0:0:0:
256,192,98837,1,0,0:0:0:0:
256,192,98921,1,0,0:0:0:0:
256,192,99004,1,8,0:0:0:0:
256,192,99171,1,0,0:0:0:0:
256,192,99337,1,0,0:0:0:0:
256,192,99504,1,0,0:0:0:0:
256,192,99671,1,8,0:0:0:0:
256,192,100004,1,8,0:0:0:0:
256,192,100337,1,0,0:0:0:0:
256,192,100504,1,0,0:0:0:0:
256,192,100671,1,0,0:0:0:0:
256,192,100837,1,0,0:0:0:0:
256,192,101004,1,8,0:0:0:0:
256,192,101171,1,8,0:0:0:0:
256,192,101504,1,0,0:0:0:0:
256,192,101671,1,8,0:0:0:0:
256,192,101754,1,8,0:0:0:0:
256,192,101837,1,8,0:0:0:0:
256,192,102004,1,0,0:0:0:0:
256,192,102171,1,0,0:0:0:0:
256,192,102337,1,8,0:0:0:0:
256,192,102504,1,8,0:0:0:0:
256,192,102671,1,8,0:0:0:0:
256,192,102837,1,4,0:0:0:0:
256,192,103171,1,0,0:0:0:0:
256,192,103337,1,0,0:0:0:0:
256,192,103504,1,0,0:0:0:0:
256,192,103671,1,8,0:0:0:0:
256,192,103837,1,0,0:0:0:0:
256,192,104004,1,0,0:0:0:0:
256,192,104171,1,0,0:0:0:0:
256,192,104254,1,0,0:0:0:0:
256,192,104337,1,8,0:0:0:0:
256,192,104421,1,8,0:0:0:0:
256,192,104504,1,8,0:0:0:0:
256,192,104587,1,8,0:0:0:0:
256,192,104671,1,0,0:0:0:0:
256,192,104837,1,0,0:0:0:0:
256,192,105004,1,8,0:0:0:0:
256,192,105337,1,8,0:0:0:0:
256,192,105504,1,0,0:0:0:0:
256,192,105671,1,12,0:0:0:0:
256,192,105837,1,0,0:0:0:0:
256,192,106004,1,0,0:0:0:0:
256,192,106171,1,0,0:0:0:0:
256,192,106337,1,8,0:0:0:0:
256,192,106421,1,8,0:0:0:0:
256,192,106504,1,0,0:0:0:0:
256,192,106671,1,0,0:0:0:0:
256,192,106837,1,0,0:0:0:0:
256,192,107004,1,8,0:0:0:0:
256,192,107171,1,0,0:0:0:0:
256,192,107337,1,8,0:0:0:0:
256,192,107504,1,0,0:0:0:0:
256,192,107671,1,8,0:0:0:0:
256,192,107837,1,8,0:0:0:0:
256,192,108004,1,8,0:0:0:0:
256,192,108171,1,4,0:0:0:0:
256,192,108504,1,0,0:0:0:0:
256,192,108587,1,0,0:0:0:0:
256,192,108671,1,8,0:0:0:0:
256,192,109004,1,0,0:0:0:0:
256,192,109171,1,0,0:0:0:0:
256,192,109337,1,8,0:0:0:0:
256,192,109504,1,0,0:0:0:0:
256,192,109587,1,0,0:0:0:0:
256,192,109671,1,0,0:0:0:0:
256,192,109837,1,0,0:0:0:0:
256,192,110004,1,8,0:0:0:0:
256,192,110171,1,0,0:0:0:0:
256,192,110337,1,8,0:0:0:0:
256,192,110671,1,8,0:0:0:0:
256,192,110837,1,0,0:0:0:0:
256,192,111004,1,8,0:0:0:0:
256,192,111171,1,0,0:0:0:0:
256,192,111337,1,8,0:0:0:0:
256,192,111504,1,0,0:0:0:0:
256,192,111587,1,0,0:0:0:0:
256,192,111671,1,0,0:0:0:0:
256,192,111837,1,0,0:0:0:0:
256,192,112004,1,8,0:0:0:0:
256,192,112171,1,8,0:0:0:0:
256,192,112337,1,0,0:0:0:0:
256,192,112421,1,0,0:0:0:0:
256,192,112504,1,8,0:0:0:0:
256,192,112587,1,8,0:0:0:0:
256,192,112671,1,0,0:0:0:0:
256,192,112837,1,0,0:0:0:0:
256,192,113004,1,8,0:0:0:0:
256,192,113171,1,8,0:0:0:0:
256,192,113337,1,8,0:0:0:0:
256,192,113504,1,4,0:0:0:0:
256,192,113837,1,0,0:0:0:0:
256,192,113921,1,0,0:0:0:0:
256,192,114004,1,8,0:0:0:0:
256,192,114337,1,0,0:0:0:0:
256,192,114504,1,0,0:0:0:0:
256,192,114671,1,8,0:0:0:0:
256,192,114837,1,0,0:0:0:0:
256,192,114921,1,0,0:0:0:0:
256,192,115004,1,0,0:0:0:0:
256,192,115087,1,0,0:0:0:0:
256,192,115171,1,0,0:0:0:0:
256,192,115254,1,0,0:0:0:0:
256,192,115337,1,8,0:0:0:0:
256,192,115504,1,0,0:0:0:0:
256,192,115671,1,8,0:0:0:0:
256,192,116004,1,8,0:0:0:0:
256,192,116171,1,0,0:0:0:0:
256,192,116337,1,12,0:0:0:0:
256,192,116504,1,0,0:0:0:0:
256,192,116587,1,0,0:0:0:0:
256,192,116671,1,8,0:0:0:0:
256,192,116837,1,8,0:0:0:0:
256,192,117004,1,0,0:0:0:0:
256,192,117087,1,8,0:0:0:0:
256,192,117171,1,0,0:0:0:0:
256,192,117337,1,8,0:0:0:0:
256,192,117504,1,0,0:0:0:0:
256,192,117587,1,8,0:0:0:0:
256,192,117671,1,0,0:0:0:0:
256,192,117837,1,8,0:0:0:0:
256,192,118004,1,8,0:0:0:0:
256,192,118171,1,0,0:0:0:0:
256,192,118337,1,8,0:0:0:0:
256,192,118504,1,8,0:0:0:0:
256,192,118837,1,4,0:0:0:0:
256,192,119171,1,0,0:0:0:0:
256,192,119337,1,8,0:0:0:0:
256,192,119504,1,0,0:0:0:0:
256,192,119587,1,0,0:0:0:0:
256,192,119671,1,0,0:0:0:0:
256,192,119837,1,0,0:0:0:0:
256,192,120004,1,8,0:0:0:0:
256,192,120171,1,8,0:0:0:0:
256,192,120254,1,8,0:0:0:0:
256,192,120337,1,0,0:0:0:0:
256,192,120421,1,0,0:0:0:0:
256,192,120504,1,0,0:0:0:0:
256,192,120671,1,8,0:0:0:0:
256,192,120837,1,0,0:0:0:0:
256,192,121004,1,8,0:0:0:0:
256,192,121171,1,8,0:0:0:0:
256,192,121254,1,8,0:0:0:0:
256,192,121337,1,8,0:0:0:0:
256,192,121504,1,0,0:0:0:0:
256,192,121837,1,0,0:0:0:0:
256,192,122004,1,8,0:0:0:0:
256,192,122171,1,0,0:0:0:0:
256,192,122254,1,0,0:0:0:0:
256,192,122337,1,0,0:0:0:0:
256,192,122504,1,0,0:0:0:0:
256,192,122671,1,8,0:0:0:0:
256,192,122837,1,0,0:0:0:0:
256,192,122921,1,0,0:0:0:0:
256,192,123004,1,8,0:0:0:0:
256,192,123087,1,0,0:0:0:0:
256,192,123171,1,0,0:0:0:0:
256,192,123337,1,8,0:0:0:0:
256,192,123504,1,0,0:0:0:0:
256,192,123671,1,0,0:0:0:0:
256,192,123754,1,0,0:0:0:0:
256,192,123837,1,8,0:0:0:0:
256,192,124004,1,0,0:0:0:0:
256,192,124171,1,12,0:0:0:0:
256,192,124504,1,0,0:0:0:0:
256,192,124671,1,0,0:0:0:0:
256,192,124837,1,0,0:0:0:0:
256,192,124921,1,0,0:0:0:0:
256,192,125004,1,8,0:0:0:0:
256,192,125171,1,8,0:0:0:0:
256,192,125337,1,8,0:0:0:0:
256,192,125504,1,0,0:0:0:0:
256,192,125671,1,0,0:0:0:0:
256,192,125754,1,0,0:0:0:0:
256,192,125837,1,0,0:0:0:0:
256,192,126004,1,8,0:0:0:0:
256,192,126171,1,0,0:0:0:0:
256,192,126254,1,0,0:0:0:0:
256,192,126337,1,8,0:0:0:0:
256,192,126421,1,8,0:0:0:0:
256,192,126504,1,8,0:0:0:0:
256,192,126671,1,8,0:0:0:0:
256,192,126837,1,0,0:0:0:0:
256,192,127004,1,12,0:0:0:0:
256,192,127171,1,0,0:0:0:0:
256,192,127337,1,0,0:0:0:0:
256,192,127504,1,12,0:0:0:0:
256,192,127671,1,0,0:0:0:0:
256,192,127837,1,0,0:0:0:0:
256,192,128004,1,12,0:0:0:0:
256,192,128337,1,0,0:0:0:0:
256,192,128671,1,0,0:0:0:0:
256,192,128837,1,0,0:0:0:0:
256,192,128921,1,0,0:0:0:0:
256,192,129004,1,8,0:0:0:0:
256,192,129171,1,8,0:0:0:0:
256,192,129337,1,8,0:0:0:0:
256,192,129504,1,4,0:0:0:0:
256,192,129837,1,0,0:0:0:0:
256,192,130004,1,8,0:0:0:0:
256,192,130171,1,0,0:0:0:0:
256,192,130254,1,0,0:0:0:0:
256,192,130337,1,0,0:0:0:0:
256,192,130504,1,0,0:0:0:0:
256,192,130671,1,8,0:0:0:0:
256,192,130837,1,8,0:0:0:0:
256,192,130921,1,8,0:0:0:0:
256,192,131004,1,0,0:0:0:0:
256,192,131171,1,0,0:0:0:0:
256,192,131337,1,8,0:0:0:0:
256,192,131504,1,0,0:0:0:0:
256,192,131671,1,8,0:0:0:0:
256,192,131837,1,0,0:0:0:0:
256,192,131921,1,0,0:0:0:0:
256,192,132004,1,0,0:0:0:0:
256,192,132171,1,8,0:0:0:0:
256,192,132504,1,0,0:0:0:0:
256,192,132671,1,8,0:0:0:0:
256,192,132837,1,8,0:0:0:0:
256,192,132921,1,8,0:0:0:0:
256,192,133004,1,0,0:0:0:0:
256,192,133171,1,0,0:0:0:0:
256,192,133337,1,8,0:0:0:0:
256,192,133504,1,0,0:0:0:0:
256,192,133587,1,8,0:0:0:0:
256,192,133671,1,0,0:0:0:0:
256,192,133754,1,0,0:0:0:0:
256,192,133837,1,8,0:0:0:0:
256,192,134004,1,8,0:0:0:0:
256,192,134171,1,0,0:0:0:0:
256,192,134337,1,8,0:0:0:0:
256,192,134504,1,8,0:0:0:0:
256,192,134671,1,8,0:0:0:0:
256,192,134837,1,4,0:0:0:0:
256,192,135171,1,0,0:0:0:0:
256,192,135337,1,8,0:0:0:0:
256,192,135504,1,0,0:0:0:0:
256,192,135587,1,0,0:0:0:0:
256,192,135671,1,0,0:0:0:0:
256,192,135837,1,0,0:0:0:0:
256,192,136004,1,8,0:0:0:0:
256,192,136171,1,0,0:0:0:0:
256,192,136504,1,0,0:0:0:0:
256,192,136671,1,8,0:0:0:0:
256,192,136837,1,0,0:0:0:0:
256,192,137004,1,8,0:0:0:0:
256,192,137171,1,8,0:0:0:0:
256,192,137337,1,8,0:0:0:0:
256,192,137671,1,12,0:0:0:0:
256,192,137837,1,0,0:0:0:0:
256,192,138004,1,0,0:0:0:0:
256,192,138171,1,12,0:0:0:0:
256,192,138337,1,0,0:0:0:0:
256,192,138504,1,0,0:0:0:0:
256,192,138671,1,12,0:0:0:0:
256,192,139004,1,0,0:0:0:0:
256,192,139115,1,0,0:0:0:0:
256,192,139226,1,8,0:0:0:0:
256,192,139337,1,8,0:0:0:0:
256,192,139449,1,8,0:0:0:0:
256,192,139560,1,0,0:0:0:0:
256,192,139671,1,8,0:0:0:0:
256,192,139782,1,8,0:0:0:0:
256,192,139893,1,0,0:0:0:0:
256,192,140004,1,0,0:0:0:0:
256,192,140115,1,8,0:0:0:0:
256,192,140226,1,8,0:0:0:0:
256,192,140337,1,4,0:0:0:0:
256,192,141671,1,4,0:0:0:0:
256,192,143004,1,4,0:0:0:0:
256,192,144337,1,4,0:0:0:0:
256,192,144504,1,0,0:0:0:0:
256,192,144671,1,8,0:0:0:0:
256,192,144837,1,0,0:0:0:0:
256,192,144921,1,0,0:0:0:0:
256,192,145004,1,8,0:0:0:0:
256,192,145171,1,8,0:0:0:0:
256,192,145337,1,0,0:0:0:0:
256,192,145504,1,0,0:0:0:0:
256,192,145671,1,12,0:0:0:0:
256,192,145837,1,0,0:0:0:0:
256,192,146171,1,0,0:0:0:0:
256,192,146337,1,8,0:0:0:0:
256,192,146671,1,0,0:0:0:0:
256,192,146837,1,0,0:0:0:0:
256,192,147004,1,8,0:0:0:0:
256,192,147171,1,0,0:0:0:0:
256,192,147337,1,0,0:0:0:0:
256,192,147421,1,0,0:0:0:0:
256,192,147504,1,0,0:0:0:0:
256,192,147587,1,0,0:0:0:0:
256,192,147671,1,8,0:0:0:0:
256,192,148004,1,0,0:0:0:0:
256,192,148171,1,0,0:0:0:0:
256,192,148337,1,12,0:0:0:0:
256,192,148504,1,0,0:0:0:0:
256,192,148671,1,8,0:0:0:0:
256,192,148837,1,0,0:0:0:0:
256,192,149004,1,8,0:0:0:0:
256,192,149171,1,8,0:0:0:0:
256,192,149337,1,8,0:0:0:0:
256,192,149504,1,0,0:0:0:0:
256,192,149671,1,12,0:0:0:0:
256,192,149921,1,12,0:0:0:0:
256,192,150171,1,12,0:0:0:0:
256,192,150504,1,8,0:0:0:0:
256,192,150671,1,4,0:0:0:0:
256,192,150921,1,4,0:0:0:0:
256,192,151171,1,4,0:0:0:0:
256,192,151504,1,0,0:0:0:0:
256,192,151671,1,12,0:0:0:0:
256,192,151837,1,12,0:0:0:0:
256,192,152337,1,4,0:0:0:0:
256,192,152504,1,0,0:0:0:0:
256,192,152671,1,8,0:0:0:0:
256,192,152837,1,8,0:0:0:0:
256,192,152921,1,8,0:0:0:0:
256,192,153004,1,0,0:0:0:0:
256,192,153171,1,0,0:0:0:0:
256,192,153337,1,8,0:0:0:0:
256,192,153504,1,0,0:0:0:0:
256,192,153837,1,0,0:0:0:0:
256,192,154004,1,8,0:0:0:0:
256,192,154171,1,8,0:0:0:0:
256,192,154254,1,8,0:0:0:0:
256,192,154337,1,0,0:0:0:0:
256,192,154421,1,0,0:0:0:0:
256,192,154504,1,0,0:0:0:0:
256,192,154671,1,8,0:0:0:0:
256,192,154837,1,8,0:0:0:0:
256,192,155004,1,0,0:0:0:0:
256,192,155171,1,0,0:0:0:0:
256,192,155337,1,8,0:0:0:0:
256,192,155504,1,8,0:0:0:0:
256,192,155587,1,8,0:0:0:0:
256,192,155671,1,0,0:0:0:0:
256,192,155837,1,0,0:0:0:0:
256,192,156004,1,8,0:0:0:0:
256,192,156171,1,0,0:0:0:0:
256,192,156504,1,0,0:0:0:0:
256,192,156671,1,8,0:0:0:0:
256,192,156837,1,0,0:0:0:0:
256,192,156921,1,0,0:0:0:0:
256,192,157004,1,0,0:0:0:0:
256,192,157171,1,0,0:0:0:0:
256,192,157337,1,8,0:0:0:0:
256,192,157671,1,4,0:0:0:0:
256,192,157837,1,0,0:0:0:0:
256,192,158004,1,8,0:0:0:0:
256,192,158171,1,0,0:0:0:0:
256,192,158254,1,0,0:0:0:0:
256,192,158337,1,8,0:0:0:0:
256,192,158421,1,8,0:0:0:0:
256,192,158504,1,0,0:0:0:0:
256,192,158671,1,0,0:0:0:0:
256,192,158837,1,8,0:0:0:0:
256,192,159004,1,0,0:0:0:0:
256,192,159171,1,0,0:0:0:0:
256,192,159337,1,8,0:0:0:0:
256,192,159504,1,0,0:0:0:0:
256,192,159587,1,0,0:0:0:0:
256,192,159671,1,0,0:0:0:0:
256,192,159837,1,0,0:0:0:0:
256,192,160004,1,8,0:0:0:0:
256,192,160171,1,0,0:0:0:0:
256,192,160337,1,12,0:0:0:0:
256,192,160504,1,12,0:0:0:0:
256,192,160837,1,12,0:0:0:0:
256,192,161171,1,12,0:0:0:0:
256,192,161504,1,0,0:0:0:0:
256,192,161671,1,12,0:0:0:0:
256,192,161837,1,12,0:0:0:0:
256,192,162171,1,12,0:0:0:0:
256,192,162337,1,0,0:0:0:0:
256,192,162421,1,0,0:0:0:0:
256,192,162504,1,0,0:0:0:0:
256,192,162587,1,0,0:0:0:0:
256,192,162671,1,8,0:0:0:0:
256,192,162754,1,8,0:0:0:0:
256,192,162837,1,8,0:0:0:0:
256,192,162921,1,8,0:0:0:0:
256,192,163004,1,4,0:0:0:0:
256,192,163171,1,0,0:0:0:0:
256,192,163337,1,8,0:0:0:0:
256,192,163504,1,0,0:0:0:0:
256,192,163587,1,0,0:0:0:0:
256,192,163671,1,0,0:0:0:0:
256,192,163837,1,0,0:0:0:0:
256,192,164004,1,8,0:0:0:0:
256,192,164171,1,8,0:0:0:0:
256,192,164504,1,0,0:0:0:0:
256,192,164671,1,8,0:0:0:0:
256,192,164837,1,8,0:0:0:0:
256,192,164921,1,8,0:0:0:0:
256,192,165004,1,0,0:0:0:0:
256,192,165087,1,0,0:0:0:0:
256,192,165171,1,0,0:0:0:0:
256,192,165337,1,8,0:0:0:0:
256,192,165421,1,0,0:0:0:0:
256,192,165504,1,0,0:0:0:0:
256,192,165587,1,0,0:0:0:0:
256,192,165671,1,8,0:0:0:0:
256,192,165837,1,0,0:0:0:0:
256,192,166004,1,8,0:0:0:0:
256,192,166171,1,0,0:0:0:0:
256,192,166254,1,0,0:0:0:0:
256,192,166337,1,8,0:0:0:0:
256,192,166504,1,0,0:0:0:0:
256,192,166671,1,0,0:0:0:0:
256,192,166837,1,8,0:0:0:0:
256,192,167171,1,0,0:0:0:0:
256,192,167337,1,8,0:0:0:0:
256,192,167504,1,0,0:0:0:0:
256,192,167587,1,0,0:0:0:0:
256,192,167671,1,8,0:0:0:0:
256,192,167837,1,0,0:0:0:0:
256,192,168004,1,8,0:0:0:0:
256,192,168337,1,4,0:0:0:0:
256,192,168504,1,0,0:0:0:0:
256,192,168671,1,8,0:0:0:0:
256,192,168837,1,8,0:0:0:0:
256,192,168921,1,8,0:0:0:0:
256,192,169004,1,0,0:0:0:0:
256,192,169171,1,8,0:0:0:0:
256,192,169337,1,0,0:0:0:0:
256,192,169504,1,0,0:0:0:0:
256,192,169671,1,8,0:0:0:0:
256,192,169837,1,0,0:0:0:0:
256,192,170004,1,8,0:0:0:0:
256,192,170171,1,8,0:0:0:0:
256,192,170254,1,8,0:0:0:0:
256,192,170337,1,0,0:0:0:0:
256,192,170421,1,0,0:0:0:0:
256,192,170504,1,0,0:0:0:0:
256,192,170671,1,8,0:0:0:0:
256,192,170837,1,8,0:0:0:0:
256,192,171004,1,0,0:0:0:0:
256,192,171337,1,0,0:0:0:0:
256,192,171671,1,0,0:0:0:0:
256,192,171837,1,8,0:0:0:0:
256,192,172004,1,8,0:0:0:0:
256,192,172337,1,0,0:0:0:0:
256,192,172504,1,0,0:0:0:0:
256,192,172671,1,8,0:0:0:0:
256,192,173004,1,8,0:0:0:0:
256,192,173087,1,0,0:0:0:0:
256,192,173171,1,8,0:0:0:0:
256,192,173254,1,8,0:0:0:0:
256,192,173337,1,8,0:0:0:0:
256,192,173421,1,8,0:0:0:0:
256,192,173504,1,0,0:0:0:0:
256,192,173671,1,8,0:0:0:0:
256,192,173754,1,8,0:0:0:0:
256,192,173837,1,0,0:0:0:0:
256,192,173921,1,0,0:0:0:0:
256,192,174004,1,0,0:0:0:0:
256,192,174171,1,8,0:0:0:0:
256,192,174254,1,8,0:0:0:0:
256,192,174337,1,0,0:0:0:0:
256,192,174421,1,0,0:0:0:0:
256,192,174504,1,0,0:0:0:0:
256,192,174671,1,8,0:0:0:0:
256,192,174754,1,8,0:0:0:0:
256,192,174837,1,0,0:0:0:0:
256,192,174921,1,0,0:0:0:0:
256,192,175004,1,0,0:0:0:0:
256,192,175171,1,8,0:0:0:0:
256,192,175254,1,8,0:0:0:0:
256,192,175337,1,0,0:0:0:0:
256,192,175421,1,0,0:0:0:0:
256,192,175504,1,0,0:0:0:0:
256,192,175671,1,8,0:0:0:0:
256,192,175754,1,0,0:0:0:0:
256,192,175837,1,0,0:0:0:0:
256,192,175921,1,0,0:0:0:0:
256,192,176004,1,8,0:0:0:0:
256,192,176087,1,8,0:0:0:0:
256,192,176171,1,0,0:0:0:0:
256,192,176337,1,8,0:0:0:0:
256,192,176421,1,0,0:0:0:0:
256,192,176504,1,8,0:0:0:0:
256,192,176587,1,8,0:0:0:0:
256,192,176671,1,0,0:0:0:0:
256,192,176837,1,8,0:0:0:0:
256,192,176921,1,0,0:0:0:0:
256,192,177004,1,8,0:0:0:0:
256,192,177087,1,8,0:0:0:0:
256,192,177171,1,0,0:0:0:0:
256,192,177337,1,8,0:0:0:0:
256,192,177421,1,0,0:0:0:0:
256,192,177504,1,8,0:0:0:0:
256,192,177587,1,8,0:0:0:0:
256,192,177671,1,0,0:0:0:0:
256,192,177837,1,8,0:0:0:0:
256,192,177921,1,0,0:0:0:0:
256,192,178004,1,8,0:0:0:0:
256,192,178087,1,8,0:0:0:0:
256,192,178171,1,0,0:0:0:0:
256,192,178337,1,8,0:0:0:0:
256,192,178421,1,0,0:0:0:0:
256,192,178504,1,0,0:0:0:0:
256,192,178587,1,0,0:0:0:0:
256,192,178671,1,8,0:0:0:0:
256,192,178754,1,8,0:0:0:0:
256,192,178837,1,0,0:0:0:0:
256,192,179004,1,8,0:0:0:0:
256,192,179087,1,8,0:0:0:0:
256,192,179171,1,0,0:0:0:0:
256,192,179254,1,8,0:0:0:0:
256,192,179337,1,0,0:0:0:0:
256,192,179421,1,0,0:0:0:0:
256,192,179504,1,8,0:0:0:0:
256,192,179587,1,8,0:0:0:0:
256,192,179671,1,0,0:0:0:0:
256,192,179754,1,8,0:0:0:0:
256,192,179837,1,0,0:0:0:0:
256,192,179921,1,0,0:0:0:0:
256,192,180004,1,8,0:0:0:0:
256,192,180087,1,8,0:0:0:0:
256,192,180171,1,0,0:0:0:0:
256,192,180254,1,8,0:0:0:0:
256,192,180337,1,0,0:0:0:0:
256,192,180421,1,0,0:0:0:0:
256,192,180504,1,8,0:0:0:0:
256,192,180587,1,8,0:0:0:0:
256,192,180671,1,0,0:0:0:0:
256,192,180754,1,8,0:0:0:0:
256,192,180837,1,0,0:0:0:0:
256,192,180921,1,0,0:0:0:0:
256,192,181004,1,8,0:0:0:0:
256,192,181087,1,8,0:0:0:0:
256,192,181171,1,8,0:0:0:0:
256,192,181254,1,0,0:0:0:0:
256,192,181337,1,0,0:0:0:0:
256,192,181421,1,0,0:0:0:0:
256,192,181504,1,8,0:0:0:0:
256,192,181671,1,0,0:0:0:0:
256,192,181754,1,0,0:0:0:0:
256,192,181837,1,8,0:0:0:0:
256,192,181921,1,0,0:0:0:0:
256,192,182004,1,8,0:0:0:0:
256,192,182087,1,8,0:0:0:0:
256,192,182171,1,0,0:0:0:0:
256,192,182254,1,8,0:0:0:0:
256,192,182337,1,0,0:0:0:0:
256,192,182421,1,0,0:0:0:0:
256,192,182504,1,8,0:0:0:0:
256,192,182587,1,8,0:0:0:0:
256,192,182671,1,0,0:0:0:0:
256,192,182754,1,8,0:0:0:0:
256,192,182837,1,0,0:0:0:0:
256,192,182921,1,0,0:0:0:0:
256,192,183004,1,8,0:0:0:0:
256,192,183087,1,8,0:0:0:0:
256,192,183171,1,0,0:0:0:0:
256,192,183254,1,8,0:0:0:0:
256,192,183337,1,0,0:0:0:0:
256,192,183421,1,0,0:0:0:0:
256,192,183504,1,8,0:0:0:0:
256,192,183587,1,8,0:0:0:0:
256,192,183671,1,0,0:0:0:0:
256,192,183754,1,0,0:0:0:0:
256,192,183837,1,8,0:0:0:0:
256,192,183921,1,8,0:0:0:0:
256,192,184004,1,8,0:0:0:0:
256,192,184171,1,8,0:0:0:0:
256,192,184337,1,4,0:0:0:0:
256,192,184671,1,0,0:0:0:0:
256,192,184837,1,0,0:0:0:0:
256,192,184921,1,0,0:0:0:0:
256,192,185004,1,0,0:0:0:0:
256,192,185171,1,0,0:0:0:0:
256,192,185504,1,0,0:0:0:0:
256,192,185671,1,0,0:0:0:0:
256,192,186004,1,0,0:0:0:0:
256,192,186171,1,0,0:0:0:0:
256,192,186254,1,0,0:0:0:0:
256,192,186337,1,8,0:0:0:0:
256,192,186504,1,0,0:0:0:0:
256,192,186837,1,0,0:0:0:0:
256,192,187004,1,0,0:0:0:0:
256,192,187337,1,0,0:0:0:0:
256,192,187504,1,0,0:0:0:0:
256,192,187587,1,0,0:0:0:0:
256,192,187671,1,0,0:0:0:0:
256,192,187837,1,0,0:0:0:0:
256,192,188171,1,0,0:0:0:0:
256,192,188337,1,8,0:0:0:0:
256,192,188504,1,0,0:0:0:0:
256,192,188671,1,0,0:0:0:0:
256,192,188837,1,8,0:0:0:0:
256,192,188921,1,0,0:0:0:0:
256,192,189004,1,8,0:0:0:0:
256,192,189171,1,0,0:0:0:0:
256,192,189337,1,8,0:0:0:0:
256,192,189421,1,8,0:0:0:0:
256,192,189504,1,8,0:0:0:0:
256,192,189671,1,4,0:0:0:0:
256,192,190004,1,0,0:0:0:0:
256,192,190171,1,0,0:0:0:0:
256,192,190254,1,0,0:0:0:0:
256,192,190337,1,0,0:0:0:0:
256,192,190504,1,0,0:0:0:0:
256,192,190837,1,0,0:0:0:0:
256,192,191004,1,0,0:0:0:0:
256,192,191337,1,0,0:0:0:0:
256,192,191504,1,0,0:0:0:0:
256,192,191587,1,0,0:0:0:0:
256,192,191671,1,8,0:0:0:0:
256,192,191837,1,0,0:0:0:0:
256,192,192171,1,0,0:0:0:0:
256,192,192337,1,0,0:0:0:0:
256,192,192671,1,0,0:0:0:0:
256,192,192837,1,0,0:0:0:0:
256,192,192921,1,0,0:0:0:0:
256,192,193004,1,0,0:0:0:0:
256,192,193171,1,0,0:0:0:0:
256,192,193504,1,0,0:0:0:0:
256,192,193671,1,8,0:0:0:0:
256,192,193837,1,8,0:0:0:0:
256,192,193921,1,8,0:0:0:0:
256,192,194004,1,0,0:0:0:0:
256,192,194087,1,0,0:0:0:0:
256,192,194171,1,0,0:0:0:0:
256,192,194337,1,8,0:0:0:0:
256,192,194421,1,0,0:0:0:0:
256,192,194504,1,0,0:0:0:0:
256,192,194587,1,0,0:0:0:0:
256,192,194671,1,8,0:0:0:0:
256,192,194754,1,0,0:0:0:0:
256,192,194837,1,8,0:0:0:0:
256,192,194921,1,8,0:0:0:0:
256,192,195004,1,4,0:0:0:0:
256,192,195171,1,8,0:0:0:0:
256,192,195254,1,8,0:0:0:0:
256,192,195337,1,0,0:0:0:0:
256,192,195504,1,0,0:0:0:0:
256,192,195671,1,8,0:0:0:0:
256,192,195754,1,8,0:0:0:0:
256,192,195837,1,0,0:0:0:0:
256,192,196004,1,8,0:0:0:0:
256,192,196087,1,8,0:0:0:0:
256,192,196171,1,0,0:0:0:0:
256,192,196254,1,0,0:0:0:0:
256,192,196337,1,0,0:0:0:0:
256,192,196504,1,8,0:0:0:0:
256,192,196587,1,0,0:0:0:0:
256,192,196671,1,8,0:0:0:0:
256,192,196754,1,8,0:0:0:0:
256,192,196837,1,0,0:0:0:0:
256,192,197004,1,8,0:0:0:0:
256,192,197087,1,8,0:0:0:0:
256,192,197171,1,0,0:0:0:0:
256,192,197254,1,0,0:0:0:0:
256,192,197337,1,8,0:0:0:0:
256,192,197421,1,0,0:0:0:0:
256,192,197504,1,0,0:0:0:0:
256,192,197587,1,0,0:0:0:0:
256,192,197671,1,12,0:0:0:0:
256,192,197837,1,0,0:0:0:0:
256,192,197921,1,0,0:0:0:0:
256,192,198004,1,0,0:0:0:0:
256,192,198171,1,8,0:0:0:0:
256,192,198337,1,0,0:0:0:0:
256,192,198421,1,0,0:0:0:0:
256,192,198504,1,0,0:0:0:0:
256,192,198671,1,8,0:0:0:0:
256,192,198754,1,8,0:0:0:0:
256,192,198837,1,8,0:0:0:0:
256,192,198921,1,8,0:0:0:0:
256,192,199004,1,0,0:0:0:0:
256,192,199171,1,0,0:0:0:0:
256,192,199254,1,0,0:0:0:0:
256,192,199337,1,8,0:0:0:0:
256,192,199421,1,0,0:0:0:0:
256,192,199504,1,0,0:0:0:0:
256,192,199671,1,0,0:0:0:0:
256,192,199754,1,8,0:0:0:0:
256,192,199837,1,0,0:0:0:0:
256,192,199921,1,0,0:0:0:0:
256,192,200004,1,8,0:0:0:0:
256,192,200087,1,8,0:0:0:0:
256,192,200171,1,8,0:0:0:0:
256,192,200254,1,8,0:0:0:0:
256,192,200337,1,4,0:0:0:0:
256,192,200504,1,8,0:0:0:0:
256,192,200587,1,0,0:0:0:0:
256,192,200671,1,8,0:0:0:0:
256,192,200837,1,0,0:0:0:0:
256,192,201004,1,8,0:0:0:0:
256,192,201087,1,0,0:0:0:0:
256,192,201170,1,8,0:0:0:0:
256,192,201337,1,0,0:0:0:0:
256,192,201421,1,0,0:0:0:0:
256,192,201504,1,8,0:0:0:0:
256,192,201587,1,0,0:0:0:0:
256,192,201671,1,8,0:0:0:0:
256,192,201837,1,8,0:0:0:0:
256,192,201921,1,0,0:0:0:0:
256,192,202004,1,8,0:0:0:0:
256,192,202087,1,8,0:0:0:0:
256,192,202171,1,0,0:0:0:0:
256,192,202337,1,0,0:0:0:0:
256,192,202421,1,0,0:0:0:0:
256,192,202504,1,8,0:0:0:0:
256,192,202587,1,8,0:0:0:0:
256,192,202671,1,0,0:0:0:0:
256,192,202754,1,8,0:0:0:0:
256,192,202837,1,0,0:0:0:0:
256,192,202921,1,0,0:0:0:0:
256,192,203004,1,12,0:0:0:0:
256,192,203171,1,0,0:0:0:0:
256,192,203254,1,8,0:0:0:0:
256,192,203337,1,0,0:0:0:0:
256,192,203504,1,8,0:0:0:0:
256,192,203587,1,8,0:0:0:0:
256,192,203671,1,0,0:0:0:0:
256,192,203754,1,8,0:0:0:0:
256,192,203837,1,0,0:0:0:0:
256,192,204004,1,8,0:0:0:0:
256,192,204087,1,0,0:0:0:0:
256,192,204171,1,0,0:0:0:0:
256,192,204254,1,0,0:0:0:0:
256,192,204337,1,8,0:0:0:0:
256,192,204504,1,8,0:0:0:0:
256,192,204587,1,8,0:0:0:0:
256,192,204671,1,0,0:0:0:0:
256,192,204754,1,0,0:0:0:0:
256,192,204837,1,8,0:0:0:0:
256,192,204921,1,0,0:0:0:0:
256,192,205004,1,0,0:0:0:0:
256,192,205087,1,0,0:0:0:0:
256,192,205171,1,8,0:0:0:0:
256,192,205254,1,8,0:0:0:0:
256,192,205337,1,0,0:0:0:0:
256,192,205504,1,4,0:0:0:0:
256,192,205837,1,0,0:0:0:0:
256,192,206004,1,0,0:0:0:0:
256,192,206337,1,8,0:0:0:0:
256,192,206504,1,0,0:0:0:0:
256,192,206837,1,0,0:0:0:0:
256,192,206921,1,0,0:0:0:0:
256,192,207004,1,8,0:0:0:0:
256,192,207171,1,0,0:0:0:0:
256,192,207504,1,0,0:0:0:0:
256,192,207671,1,8,0:0:0:0:
256,192,207837,1,0,0:0:0:0:
256,192,208004,1,0,0:0:0:0:
256,192,208171,1,0,0:0:0:0:
256,192,208337,1,8,0:0:0:0:
256,192,208504,1,0,0:0:0:0:
256,192,208837,1,0,0:0:0:0:
256,192,209004,1,8,0:0:0:0:
256,192,209337,1,0,0:0:0:0:
256,192,209504,1,0,0:0:0:0:
256,192,209587,1,0,0:0:0:0:
256,192,209671,1,8,0:0:0:0:
256,192,209837,1,0,0:0:0:0:
256,192,210004,1,0,0:0:0:0:
256,192,210171,1,0,0:0:0:0:
256,192,210337,1,8,0:0:0:0:
256,192,210504,1,0,0:0:0:0:
256,192,210837,1,0,0:0:0:0:
256,192,211171,1,0,0:0:0:0:
256,192,211337,1,0,0:0:0:0:
256,192,211671,1,8,0:0:0:0:
256,192,211837,1,0,0:0:0:0:
256,192,212171,1,0,0:0:0:0:
256,192,212254,1,0,0:0:0:0:
256,192,212337,1,8,0:0:0:0:
256,192,212504,1,0,0:0:0:0:
256,192,212671,1,0,0:0:0:0:
256,192,212837,1,0,0:0:0:0:
256,192,213004,1,8,0:0:0:0:
256,192,213171,1,0,0:0:0:0:
256,192,213337,1,0,0:0:0:0:
256,192,213504,1,12,0:0:0:0:
256,192,213837,1,8,0:0:0:0:
256,192,214004,1,0,0:0:0:0:
256,192,214171,1,8,0:0:0:0:
256,192,214254,1,0,0:0:0:0:
256,192,214337,1,8,0:0:0:0:
256,192,214504,1,8,0:0:0:0:
256,192,214671,1,0,0:0:0:0:
256,192,214837,1,0,0:0:0:0:
256,192,214921,1,0,0:0:0:0:
256,192,215004,1,8,0:0:0:0:
256,192,215171,1,0,0:0:0:0:
256,192,215337,1,8,0:0:0:0:
256,192,215421,1,8,0:0:0:0:
256,192,215504,1,0,0:0:0:0:
256,192,215587,1,0,0:0:0:0:
256,192,215671,1,0,0:0:0:0:
256,192,215754,1,0,0:0:0:0:
256,192,215837,1,8,0:0:0:0:
256,192,216004,1,0,0:0:0:0:
256,192,216171,1,12,0:0:0:0:
256,192,216504,1,0,0:0:0:0:
256,192,216671,1,0,0:0:0:0:
256,192,217004,1,8,0:0:0:0:
256,192,217171,1,0,0:0:0:0:
256,192,217504,1,0,0:0:0:0:
256,192,217587,1,0,0:0:0:0:
256,192,217671,1,8,0:0:0:0:
256,192,217837,1,0,0:0:0:0:
256,192,218171,1,0,0:0:0:0:
256,192,218337,1,8,0:0:0:0:
256,192,218504,1,0,0:0:0:0:
256,192,218671,1,0,0:0:0:0:
256,192,218837,1,0,0:0:0:0:
256,192,219171,1,0,0:0:0:0:
256,192,219337,1,0,0:0:0:0:
256,192,219671,1,8,0:0:0:0:
256,192,220004,1,0,0:0:0:0:
256,192,220171,1,0,0:0:0:0:
256,192,220254,1,0,0:0:0:0:
256,192,220337,1,8,0:0:0:0:
256,192,220504,1,0,0:0:0:0:
256,192,220671,1,0,0:0:0:0:
256,192,220837,1,0,0:0:0:0:
256,192,220921,1,0,0:0:0:0:
256,192,221004,1,8,0:0:0:0:
256,192,221171,1,8,0:0:0:0:
256,192,221337,1,8,0:0:0:0:
256,192,221504,1,0,0:0:0:0:
256,192,221837,1,0,0:0:0:0:
256,192,222004,1,0,0:0:0:0:
256,192,222171,1,0,0:0:0:0:
256,192,222337,1,8,0:0:0:0:
256,192,222671,1,0,0:0:0:0:
256,192,222837,1,0,0:0:0:0:
256,192,222921,1,0,0:0:0:0:
256,192,223004,1,8,0:0:0:0:
256,192,223171,1,0,0:0:0:0:
256,192,223504,1,0,0:0:0:0:
256,192,223671,1,8,0:0:0:0:
256,192,223837,1,8,0:0:0:0:
256,192,224004,1,0,0:0:0:0:
256,192,224171,1,0,0:0:0:0:
256,192,224504,1,8,0:0:0:0:
256,192,224671,1,0,0:0:0:0:
256,192,224837,1,0,0:0:0:0:
256,192,224921,1,0,0:0:0:0:
256,192,225004,1,8,0:0:0:0:
256,192,225337,1,0,0:0:0:0:
256,192,225421,1,0,0:0:0:0:
256,192,225504,1,0,0:0:0:0:
256,192,225671,1,8,0:0:0:0:
256,192,225837,1,0,0:0:0:0:
256,192,226004,1,0,0:0:0:0:
256,192,226087,1,0,0:0:0:0:
256,192,226171,1,0,0:0:0:0:
256,192,226254,1,0,0:0:0:0:
256,192,226337,1,8,0:0:0:0:
256,192,226421,1,8,0:0:0:0:
256,192,226504,1,8,0:0:0:0:
256,192,226587,1,8,0:0:0:0:
256,192,226671,1,0,0:0:0:0:
256,192,226837,1,8,0:0:0:0:
256,192,227004,1,4,0:0:0:0:
256,192,227337,1,0,0:0:0:0:
256,192,227671,1,8,0:0:0:0:
256,192,228004,1,0,0:0:0:0:
256,192,228171,1,12,0:0:0:0:
256,192,228504,1,0,0:0:0:0:
256,192,228671,1,0,0:0:0:0:
256,192,228837,1,0,0:0:0:0:
256,192,228921,1,0,0:0:0:0:
256,192,229004,1,8,0:0:0:0:
256,192,229115,1,8,0:0:0:0:
256,192,229226,1,8,0:0:0:0:
256,192,229337,1,0,0:0:0:0:
256,192,229504,1,0,0:0:0:0:
256,192,229671,1,12,0:0:0:0:
256,192,230004,1,0,0:0:0:0:
256,192,230171,1,0,0:0:0:0:
256,192,230337,1,8,0:0:0:0:
256,192,230504,1,0,0:0:0:0:
256,192,230587,1,0,0:0:0:0:
256,192,230671,1,8,0:0:0:0:
256,192,230837,1,8,0:0:0:0:
256,192,231004,1,8,0:0:0:0:
256,192,231087,1,8,0:0:0:0:
256,192,231171,1,0,0:0:0:0:
256,192,231254,1,0,0:0:0:0:
256,192,231337,1,0,0:0:0:0:
256,192,231421,1,0,0:0:0:0:
256,192,231504,1,0,0:0:0:0:
256,192,231587,1,0,0:0:0:0:
256,192,231671,1,8,0:0:0:0:
256,192,231837,1,8,0:0:0:0:
256,192,232004,1,0,0:0:0:0:
256,192,232171,1,4,0:0:0:0:
256,192,232504,1,0,0:0:0:0:
256,192,232587,1,0,0:0:0:0:
256,192,232671,1,8,0:0:0:0:
256,192,232837,1,0,0:0:0:0:
256,192,233004,1,0,0:0:0:0:
256,192,233087,1,0,0:0:0:0:
256,192,233171,1,8,0:0:0:0:
256,192,233254,1,0,0:0:0:0:
256,192,233337,1,0,0:0:0:0:
256,192,233504,1,8,0:0:0:0:
256,192,233587,1,8,0:0:0:0:
256,192,233671,1,0,0:0:0:0:
256,192,233837,1,0,0:0:0:0:
256,192,234004,1,8,0:0:0:0:
256,192,234171,1,0,0:0:0:0:
256,192,234254,1,0,0:0:0:0:
256,192,234337,1,8,0:0:0:0:
256,192,234421,1,0,0:0:0:0:
256,192,234504,1,8,0:0:0:0:
256,192,234671,1,8,0:0:0:0:
256,192,234837,1,0,0:0:0:0:
256,192,235171,1,0,0:0:0:0:
256,192,235254,1,0,0:0:0:0:
256,192,235337,1,8,0:0:0:0:
256,192,235504,1,0,0:0:0:0:
256,192,235587,1,0,0:0:0:0:
256,192,235671,1,8,0:0:0:0:
256,192,235754,1,8,0:0:0:0:
256,192,235837,1,8,0:0:0:0:
256,192,236004,1,0,0:0:0:0:
256,192,236171,1,8,0:0:0:0:
256,192,236254,1,8,0:0:0:0:
256,192,236337,1,0,0:0:0:0:
256,192,236504,1,0,0:0:0:0:
256,192,236671,1,8,0:0:0:0:
256,192,236837,1,0,0:0:0:0:
256,192,236921,1,0,0:0:0:0:
256,192,237004,1,8,0:0:0:0:
256,192,237087,1,0,0:0:0:0:
256,192,237171,1,0,0:0:0:0:
256,192,237337,1,8,0:0:0:0:
256,192,237504,1,0,0:0:0:0:
256,192,237837,1,0,0:0:0:0:
256,192,237921,1,0,0:0:0:0:
256,192,238004,1,8,0:0:0:0:
256,192,238171,1,0,0:0:0:0:
256,192,238337,1,0,0:0:0:0:
256,192,238421,1,0,0:0:0:0:
256,192,238504,1,8,0:0:0:0:
256,192,238671,1,8,0:0:0:0:
256,192,238754,1,0,0:0:0:0:
256,192,238837,1,8,0:0:0:0:
256,192,238921,1,8,0:0:0:0:
256,192,239004,1,0,0:0:0:0:
256,192,239087,1,0,0:0:0:0:
256,192,239171,1,0,0:0:0:0:
256,192,239337,1,8,0:0:0:0:
256,192,239504,1,0,0:0:0:0:
256,192,239671,1,0,0:0:0:0:
256,192,239837,1,8,0:0:0:0:
256,192,239921,1,8,0:0:0:0:
256,192,240004,1,8,0:0:0:0:
256,192,240171,1,0,0:0:0:0:
256,192,240504,1,0,0:0:0:0:
256,192,240587,1,0,0:0:0:0:
256,192,240671,1,8,0:0:0:0:
256,192,240837,1,8,0:0:0:0:
256,192,241171,1,8,0:0:0:0:
256,192,241254,1,8,0:0:0:0:
256,192,241337,1,0,0:0:0:0:
256,192,241504,1,0,0:0:0:0:
256,192,241671,1,8,0:0:0:0:
256,192,241754,1,8,0:0:0:0:
256,192,241837,1,0,0:0:0:0:
256,192,241921,1,0,0:0:0:0:
256,192,242004,1,0,0:0:0:0:
256,192,242087,1,0,0:0:0:0:
256,192,242171,1,0,0:0:0:0:
256,192,242254,1,0,0:0:0:0:
256,192,242337,1,8,0:0:0:0:
256,192,242421,1,8,0:0:0:0:
256,192,242504,1,8,0:0:0:0:
256,192,242587,1,8,0:0:0:0:
256,192,242671,1,0,0:0:0:0:
256,192,242837,1,4,0:0:0:0:
256,192,243171,1,0,0:0:0:0:
256,192,243254,1,0,0:0:0:0:
256,192,243337,1,8,0:0:0:0:
256,192,243504,1,0,0:0:0:0:
256,192,243671,1,0,0:0:0:0:
256,192,243754,1,0,0:0:0:0:
256,192,243837,1,8,0:0:0:0:
256,192,244004,1,0,0:0:0:0:
256,192,244171,1,8,0:0:0:0:
256,192,244254,1,8,0:0:0:0:
256,192,244337,1,0,0:0:0:0:
256,192,244504,1,0,0:0:0:0:
256,192,244671,1,8,0:0:0:0:
256,192,244837,1,0,0:0:0:0:
256,192,245004,1,8,0:0:0:0:
256,192,245087,1,8,0:0:0:0:
256,192,245171,1,0,0:0:0:0:
256,192,245254,1,0,0:0:0:0:
256,192,245337,1,8,0:0:0:0:
256,192,245504,1,8,0:0:0:0:
256,192,245837,1,0,0:0:0:0:
256,192,245921,1,0,0:0:0:0:
256,192,246004,1,8,0:0:0:0:
256,192,246171,1,0,0:0:0:0:
256,192,246337,1,8,0:0:0:0:
256,192,246504,1,0,0:0:0:0:
256,192,246671,1,0,0:0:0:0:
256,192,246837,1,8,0:0:0:0:
256,192,246921,1,8,0:0:0:0:
256,192,247004,1,0,0:0:0:0:
256,192,247087,1,0,0:0:0:0:
256,192,247171,1,0,0:0:0:0:
256,192,247254,1,0,0:0:0:0:
256,192,247337,1,8,0:0:0:0:
256,192,247504,1,0,0:0:0:0:
256,192,247671,1,8,0:0:0:0:
256,192,247837,1,0,0:0:0:0:
256,192,248004,1,0,0:0:0:0:
256,192,248171,1,12,0:0:0:0:
256,192,248504,1,0,0:0:0:0:
256,192,248587,1,0,0:0:0:0:
256,192,248671,1,8,0:0:0:0:
256,192,248837,1,0,0:0:0:0:
256,192,249004,1,0,0:0:0:0:
256,192,249087,1,0,0:0:0:0:
256,192,249171,1,8,0:0:0:0:
256,192,249337,1,0,0:0:0:0:
256,192,249504,1,8,0:0:0:0:
256,192,249587,1,8,0:0:0:0:
256,192,249671,1,0,0:0:0:0:
256,192,249837,1,0,0:0:0:0:
256,192,250004,1,8,0:0:0:0:
256,192,250171,1,0,0:0:0:0:
256,192,250337,1,8,0:0:0:0:
256,192,250504,1,0,0:0:0:0:
256,192,250587,1,0,0:0:0:0:
256,192,250671,1,0,0:0:0:0:
256,192,250837,1,8,0:0:0:0:
256,192,251171,1,0,0:0:0:0:
256,192,251254,1,0,0:0:0:0:
256,192,251337,1,8,0:0:0:0:
256,192,251504,1,8,0:0:0:0:
256,192,251671,1,0,0:0:0:0:
256,192,251837,1,0,0:0:0:0:
256,192,252004,1,0,0:0:0:0:
256,192,252087,1,0,0:0:0:0:
256,192,252171,1,0,0:0:0:0:
256,192,252254,1,0,0:0:0:0:
256,192,252337,1,8,0:0:0:0:
256,192,252504,1,0,0:0:0:0:
256,192,252671,1,0,0:0:0:0:
256,192,252837,1,0,0:0:0:0:
256,192,253004,1,0,0:0:0:0:
256,192,253087,1,0,0:0:0:0:
256,192,253171,1,0,0:0:0:0:
256,192,253254,1,0,0:0:0:0:
256,192,253337,1,8,0:0:0:0:
256,192,253421,1,8,0:0:0:0:
256,192,253504,1,0,0:0:0:0:
256,192,253671,1,4,0:0:0:0:
256,192,253837,1,4,0:0:0:0:
256,192,254171,1,0,0:0:0:0:
256,192,254337,1,8,0:0:0:0:
256,192,254671,1,0,0:0:0:0:
256,192,254837,1,12,0:0:0:0:
256,192,255171,1,12,0:0:0:0:
256,192,255337,1,0,0:0:0:0:
256,192,255671,1,8,0:0:0:0:
256,192,255754,1,8,0:0:0:0:
256,192,255837,1,8,0:0:0:0:
256,192,255921,1,8,0:0:0:0:
256,192,256004,1,0,0:0:0:0:
256,192,256087,1,8,0:0:0:0:
256,192,256171,1,0,0:0:0:0:
256,192,256337,1,4,0:0:0:0:
256,192,256504,1,4,0:0:0:0:
256,192,256837,1,0,0:0:0:0:
256,192,257004,1,8,0:0:0:0:
256,192,257171,1,0,0:0:0:0:
256,192,257337,1,8,0:0:0:0:
256,192,257421,1,0,0:0:0:0:
256,192,257504,1,8,0:0:0:0:
256,192,257671,1,0,0:0:0:0:
256,192,257754,1,8,0:0:0:0:
256,192,257837,1,0,0:0:0:0:
256,192,257921,1,0,0:0:0:0:
256,192,258004,1,8,0:0:0:0:
256,192,258087,1,8,0:0:0:0:
256,192,258171,1,8,0:0:0:0:
256,192,258254,1,8,0:0:0:0:
256,192,258337,1,0,0:0:0:0:
256,192,258421,1,0,0:0:0:0:
256,192,258504,1,0,0:0:0:0:
256,192,258587,1,0,0:0:0:0:
256,192,258671,1,8,0:0:0:0:
256,192,258837,1,8,0:0:0:0:
256,192,259004,1,4,0:0:0:0:
256,192,259337,1,8,0:0:0:0:
256,192,259504,1,8,0:0:0:0:
256,192,259671,1,0,0:0:0:0:
256,192,260004,1,8,0:0:0:0:
256,192,260171,1,8,0:0:0:0:
256,192,260337,1,4,0:0:0:0:
256,192,260504,1,0,0:0:0:0:
256,192,260671,1,8,0:0:0:0:
256,192,260837,1,0,0:0:0:0:
256,192,260921,1,0,0:0:0:0:
256,192,261004,1,8,0:0:0:0:
256,192,261171,1,0,0:0:0:0:
256,192,261337,1,8,0:0:0:0:
256,192,261671,1,8,0:0:0:0:
256,192,261754,1,8,0:0:0:0:
256,192,261837,1,0,0:0:0:0:
256,192,262004,1,0,0:0:0:0:
256,192,262087,1,8,0:0:0:0:
256,192,262171,1,0,0:0:0:0:
256,192,262337,1,8,0:0:0:0:
256,192,262421,1,8,0:0:0:0:
256,192,262504,1,0,0:0:0:0:
256,192,262671,1,8,0:0:0:0:
256,192,262754,1,0,0:0:0:0:
256,192,262837,1,8,0:0:0:0:
256,192,263004,1,12,0:0:0:0:
256,192,263337,1,0,0:0:0:0:
256,192,263421,1,0,0:0:0:0:
256,192,263504,1,8,0:0:0:0:
256,192,263837,1,0,0:0:0:0:
256,192,263921,1,0,0:0:0:0:
256,192,264004,1,8,0:0:0:0:
256,192,264171,1,0,0:0:0:0:
256,192,264337,1,12,0:0:0:0:
256,192,264587,1,12,0:0:0:0:
256,192,264837,1,12,0:0:0:0:
256,192,265671,1,4,0:0:0:0:
256,192,265837,1,0,0:0:0:0:
256,192,266004,1,8,0:0:0:0:
256,192,266171,1,0,0:0:0:0:
256,192,266254,1,0,0:0:0:0:
256,192,266337,1,0,0:0:0:0:
256,192,266504,1,0,0:0:0:0:
256,192,266671,1,8,0:0:0:0:
256,192,266837,1,8,0:0:0:0:
256,192,266921,1,8,0:0:0:0:
256,192,267004,1,0,0:0:0:0:
256,192,267170,1,0,0:0:0:0:
256,192,267337,1,8,0:0:0:0:
256,192,267504,1,0,0:0:0:0:
256,192,267587,1,0,0:0:0:0:
256,192,267671,1,8,0:0:0:0:
256,192,267754,1,8,0:0:0:0:
256,192,267837,1,0,0:0:0:0:
256,192,268004,1,8,0:0:0:0:
256,192,268171,1,8,0:0:0:0:
256,192,268337,1,0,0:0:0:0:
256,192,268504,1,0,0:0:0:0:
256,192,268671,1,8,0:0:0:0:
256,192,268837,1,8,0:0:0:0:
256,192,268921,1,8,0:0:0:0:
256,192,269004,1,0,0:0:0:0:
256,192,269171,1,0,0:0:0:0:
256,192,269337,1,8,0:0:0:0:
256,192,269504,1,0,0:0:0:0:
256,192,269671,1,0,0:0:0:0:
256,192,269837,1,0,0:0:0:0:
256,192,269921,1,0,0:0:0:0:
256,192,270004,1,8,0:0:0:0:
256,192,270171,1,0,0:0:0:0:
256,192,270254,1,8,0:0:0:0:
256,192,270337,1,0,0:0:0:0:
256,192,270421,1,0,0:0:0:0:
256,192,270504,1,0,0:0:0:0:
256,192,270587,1,0,0:0:0:0:
256,192,270671,1,8,0:0:0:0:
256,192,271004,1,4,0:0:0:0:
256,192,271171,1,0,0:0:0:0:
256,192,271254,1,0,0:0:0:0:
256,192,271337,1,8,0:0:0:0:
256,192,271504,1,8,0:0:0:0:
256,192,271587,1,0,0:0:0:0:
256,192,271671,1,8,0:0:0:0:
256,192,271754,1,8,0:0:0:0:
256,192,271837,1,0,0:0:0:0:
256,192,272004,1,0,0:0:0:0:
256,192,272171,1,8,0:0:0:0:
256,192,272337,1,0,0:0:0:0:
256,192,272504,1,0,0:0:0:0:
256,192,272671,1,8,0:0:0:0:
256,192,272837,1,0,0:0:0:0:
256,192,272921,1,0,0:0:0:0:
256,192,273004,1,0,0:0:0:0:
256,192,273171,1,0,0:0:0:0:
256,192,273337,1,8,0:0:0:0:
256,192,273504,1,0,0:0:0:0:
256,192,273671,1,12,0:0:0:0:
256,192,273837,1,12,0:0:0:0:
256,192,274171,1,12,0:0:0:0:
256,192,274504,1,12,0:0:0:0:
256,192,274837,1,0,0:0:0:0:
256,192,275004,1,12,0:0:0:0:
256,192,275171,1,12,0:0:0:0:
256,192,275504,1,12,0:0:0:0:
256,192,275671,1,0,0:0:0:0:
256,192,275754,1,8,0:0:0:0:
256,192,275837,1,0,0:0:0:0:
256,192,275921,1,0,0:0:0:0:
256,192,276004,1,8,0:0:0:0:
256,192,276087,1,0,0:0:0:0:
256,192,276171,1,8,0:0:0:0:
256,192,276254,1,8,0:0:0:0:
256,192,276337,1,4,0:0:0:0:
256,192,276504,1,0,0:0:0:0:
256,192,276671,1,8,0:0:0:0:
256,192,276837,1,0,0:0:0:0:
256,192,276921,1,0,0:0:0:0:
256,192,277004,1,8,0:0:0:0:
256,192,277171,1,0,0:0:0:0:
256,192,277337,1,8,0:0:0:0:
256,192,277504,1,0,0:0:0:0:
256,192,277587,1,8,0:0:0:0:
256,192,277671,1,0,0:0:0:0:
256,192,277837,1,0,0:0:0:0:
256,192,278004,1,8,0:0:0:0:
256,192,278171,1,8,0:0:0:0:
256,192,278254,1,8,0:0:0:0:
256,192,278337,1,0,0:0:0:0:
256,192,278504,1,0,0:0:0:0:
256,192,278587,1,0,0:0:0:0:
256,192,278671,1,8,0:0:0:0:
256,192,278837,1,8,0:0:0:0:
256,192,279004,1,0,0:0:0:0:
256,192,279171,1,0,0:0:0:0:
256,192,279254,1,8,0:0:0:0:
256,192,279337,1,0,0:0:0:0:
256,192,279504,1,8,0:0:0:0:
256,192,279671,1,0,0:0:0:0:
256,192,279837,1,0,0:0:0:0:
256,192,280004,1,8,0:0:0:0:
256,192,280171,1,0,0:0:0:0:
256,192,280254,1,0,0:0:0:0:
256,192,280337,1,8,0:0:0:0:
256,192,280504,1,0,0:0:0:0:
256,192,280671,1,8,0:0:0:0:
256,192,280837,1,0,0:0:0:0:
256,192,280921,1,8,0:0:0:0:
256,192,281004,1,0,0:0:0:0:
256,192,281087,1,0,0:0:0:0:
256,192,281171,1,0,0:0:0:0:
256,192,281254,1,0,0:0:0:0:
256,192,281337,1,8,0:0:0:0:
256,192,281671,1,4,0:0:0:0:
256,192,281837,1,0,0:0:0:0:
256,192,282004,1,8,0:0:0:0:
256,192,282171,1,8,0:0:0:0:
256,192,282254,1,8,0:0:0:0:
256,192,282337,1,0,0:0:0:0:
256,192,282504,1,0,0:0:0:0:
256,192,282671,1,8,0:0:0:0:
256,192,282837,1,0,0:0:0:0:
256,192,282921,1,0,0:0:0:0:
256,192,283004,1,8,0:0:0:0:
256,192,283171,1,0,0:0:0:0:
256,192,283337,1,8,0:0:0:0:
256,192,283504,1,0,0:0:0:0:
256,192,283671,1,8,0:0:0:0:
256,192,283754,1,8,0:0:0:0:
256,192,283837,1,0,0:0:0:0:
256,192,283921,1,0,0:0:0:0:
256,192,284004,1,8,0:0:0:0:
256,192,284171,1,8,0:0:0:0:
256,192,284337,1,0,0:0:0:0:
256,192,284671,1,0,0:0:0:0:
256,192,285004,1,8,0:0:0:0:
256,192,285337,1,0,0:0:0:0:
256,192,285671,1,0,0:0:0:0:
256,192,286004,1,0,0:0:0:0:
256,192,286171,1,0,0:0:0:0:
256,192,286254,1,0,0:0:0:0:
256,192,286337,1,8,0:0:0:0:
256,192,286504,1,8,0:0:0:0:
256,192,286837,1,4,0:0:0:0:
256,192,287171,1,0,0:0:0:0:
256,192,287254,1,0,0:0:0:0:
256,192,287337,1,8,0:0:0:0:
256,192,287671,1,8,0:0:0:0:
256,192,287837,1,0,0:0:0:0:
256,192,288004,1,8,0:0:0:0:
256,192,288171,1,0,0:0:0:0:
256,192,288254,1,0,0:0:0:0:
256,192,288337,1,8,0:0:0:0:
256,192,288504,1,0,0:0:0:0:
256,192,288671,1,0,0:0:0:0:
256,192,288837,1,0,0:0:0:0:
256,192,289004,1,8,0:0:0:0:
256,192,289337,1,0,0:0:0:0:
256,192,289504,1,8,0:0:0:0:
256,192,289671,1,0,0:0:0:0:
256,192,290004,1,8,0:0:0:0:
256,192,290171,1,0,0:0:0:0:
256,192,290504,1,0,0:0:0:0:
256,192,290671,1,8,0:0:0:0:
256,192,290837,1,8,0:0:0:0:
256,192,291004,1,0,0:0:0:0:
256,192,291087,1,0,0:0:0:0:
256,192,291171,1,0,0:0:0:0:
256,192,291254,1,0,0:0:0:0:
256,192,291337,1,0,0:0:0:0:
256,192,291504,1,0,0:0:0:0:
256,192,291671,1,8,0:0:0:0:
256,192,291837,1,8,0:0:0:0:
256,192,292004,1,8,0:0:0:0:
256,192,292171,1,4,0:0:0:0:
256,192,292504,1,0,0:0:0:0:
256,192,292587,1,0,0:0:0:0:
256,192,292671,1,8,0:0:0:0:
256,192,293004,1,0,0:0:0:0:
256,192,293171,1,8,0:0:0:0:
256,192,293337,1,8,0:0:0:0:
256,192,293504,1,0,0:0:0:0:
256,192,293587,1,0,0:0:0:0:
256,192,293671,1,8,0:0:0:0:
256,192,293754,1,8,0:0:0:0:
256,192,293837,1,8,0:0:0:0:
256,192,293921,1,8,0:0:0:0:
256,192,294004,1,8,0:0:0:0:
256,192,294171,1,0,0:0:0:0:
256,192,294337,1,8,0:0:0:0:
256,192,294671,1,8,0:0:0:0:
256,192,294837,1,0,0:0:0:0:
256,192,295004,1,12,0:0:0:0:
256,192,295171,1,0,0:0:0:0:
256,192,295337,1,0,0:0:0:0:
256,192,295504,1,0,0:0:0:0:
256,192,295671,1,8,0:0:0:0:
256,192,295837,1,0,0:0:0:0:
256,192,296004,1,8,0:0:0:0:
256,192,296087,1,0,0:0:0:0:
256,192,296171,1,0,0:0:0:0:
256,192,296254,1,0,0:0:0:0:
256,192,296337,1,8,0:0:0:0:
256,192,296421,1,8,0:0:0:0:
256,192,296504,1,0,0:0:0:0:
256,192,296587,1,0,0:0:0:0:
256,192,296671,1,0,0:0:0:0:
256,192,296837,1,8,0:0:0:0:
256,192,296921,1,8,0:0:0:0:
256,192,297004,1,0,0:0:0:0:
256,192,297087,1,0,0:0:0:0:
256,192,297171,1,0,0:0:0:0:
256,192,297254,1,0,0:0:0:0:
256,192,297337,1,8,0:0:0:0:
256,192,297504,1,4,0:0:0:0:
256,192,297837,1,0,0:0:0:0:
256,192,297921,1,0,0:0:0:0:
256,192,298004,1,8,0:0:0:0:
256,192,298337,1,0,0:0:0:0:
256,192,298504,1,0,0:0:0:0:
256,192,298671,1,8,0:0:0:0:
256,192,298837,1,0,0:0:0:0:
256,192,298921,1,0,0:0:0:0:
256,192,299004,1,8,0:0:0:0:
256,192,299171,1,0,0:0:0:0:
256,192,299337,1,0,0:0:0:0:
256,192,299504,1,0,0:0:0:0:
256,192,299671,1,8,0:0:0:0:
256,192,299837,1,8,0:0:0:0:
256,192,300004,1,8,0:0:0:0:
256,192,300171,1,0,0:0:0:0:
256,192,300337,1,0,0:0:0:0:
256,192,300504,1,0,0:0:0:0:
256,192,300671,1,8,0:0:0:0:
256,192,301004,1,8,0:0:0:0:
256,192,301171,1,0,0:0:0:0:
256,192,301337,1,8,0:0:0:0:
256,192,301504,1,0,0:0:0:0:
256,192,301587,1,0,0:0:0:0:
256,192,301671,1,8,0:0:0:0:
256,192,301754,1,0,0:0:0:0:
256,192,301837,1,0,0:0:0:0:
256,192,302004,1,8,0:0:0:0:
256,192,302171,1,0,0:0:0:0:
256,192,302337,1,8,0:0:0:0:
256,192,302504,1,8,0:0:0:0:
256,192,302671,1,8,0:0:0:0:
256,192,302837,1,4,0:0:0:0:
256,192,303171,1,0,0:0:0:0:
256,192,303254,1,0,0:0:0:0:
256,192,303337,1,8,0:0:0:0:
256,192,303671,1,8,0:0:0:0:
256,192,303837,1,0,0:0:0:0:
256,192,304004,1,0,0:0:0:0:
256,192,304171,1,0,0:0:0:0:
256,192,304254,1,0,0:0:0:0:
256,192,304337,1,8,0:0:0:0:
256,192,304421,1,8,0:0:0:0:
256,192,304504,1,8,0:0:0:0:
256,192,304587,1,8,0:0:0:0:
256,192,304671,1,0,0:0:0:0:
256,192,304837,1,0,0:0:0:0:
256,192,305004,1,8,0:0:0:0:
256,192,305171,1,0,0:0:0:0:
256,192,305337,1,0,0:0:0:0:
256,192,305504,1,0,0:0:0:0:
256,192,305671,1,12,0:0:0:0:
256,192,305837,1,0,0:0:0:0:
256,192,306004,1,8,0:0:0:0:
256,192,306171,1,0,0:0:0:0:
256,192,306254,1,0,0:0:0:0:
256,192,306337,1,8,0:0:0:0:
256,192,306421,1,0,0:0:0:0:
256,192,306504,1,0,0:0:0:0:
256,192,306671,1,8,0:0:0:0:
256,192,306837,1,0,0:0:0:0:
256,192,307004,1,8,0:0:0:0:
256,192,307087,1,8,0:0:0:0:
256,192,307171,1,0,0:0:0:0:
256,192,307254,1,8,0:0:0:0:
256,192,307337,1,0,0:0:0:0:
256,192,307504,1,8,0:0:0:0:
256,192,307587,1,8,0:0:0:0:
256,192,307671,1,0,0:0:0:0:
256,192,307754,1,8,0:0:0:0:
256,192,307837,1,0,0:0:0:0:
256,192,308004,1,8,0:0:0:0:
256,192,308087,1,8,0:0:0:0:
256,192,308171,1,8,0:0:0:0:
256,192,308254,1,8,0:0:0:0:
256,192,308337,1,0,0:0:0:0:
256,192,308421,1,0,0:0:0:0:
256,192,308504,1,0,0:0:0:0:
256,192,308587,1,0,0:0:0:0:
256,192,308671,1,12,0:0:0:0:
256,192,308837,12,0,331337,0:0:0:0:
