osu file format v14

[General]
AudioFilename: audio.mp3
AudioLeadIn: 0
PreviewTime: 265282
Countdown: 0
SampleSet: Normal
StackLeniency: 0.7
Mode: 1
LetterboxInBreaks: 0
WidescreenStoryboard: 0

[Editor]
DistanceSpacing: 0.6
BeatDivisor: 4
GridSize: 32
TimelineZoom: 3.699999

[Metadata]
Title:Fall of Fall ~ The Door Into Summer
TitleUnicode:フォールオブフォール ~ The Door Into Summer
Artist:Demetori
ArtistUnicode:Demetori
Creator:Remus
Version:Taiko Stage
Source:東方風神録~ Mountain of Faith.
Tags:touhou project fuujinroku lebenstrieb & todestrieb 秋めく滝 autumnal waterfall stage 4 犬走椛 inubashiri momiji zun comiket 91 c91 metal marathon
BeatmapID:1369892
BeatmapSetID:646548

[Difficulty]
HPDrainRate:5
CircleSize:2
OverallDifficulty:6.5
ApproachRate:10
SliderMultiplier:1.4
SliderTickRate:1

[Events]
//Background and Video events
0,0,"bg.jpg",0,100
//Break Periods
//Storyboard Layer 0 (Background)
//Storyboard Layer 1 (Fail)
//Storyboard Layer 2 (Pass)
//Storyboard Layer 3 (Foreground)
//Storyboard Sound Samples

[TimingPoints]
366,333.333333333333,4,1,0,30,1,0
20365,-90.9090909090909,4,1,0,65,0,0
21032,-83.3333333333333,4,1,0,65,0,0
21865,-100,4,1,0,65,0,0
43032,-100,4,1,0,80,0,0
76365,-100,4,1,0,90,0,1
97532,-100,4,1,0,70,0,0
117865,-100,4,1,0,50,0,0
118865,-100,4,1,0,80,0,0
119698,-100,4,1,0,70,0,0
140448,-100,4,1,0,70,0,0
152365,-95.2380952380952,4,1,0,90,0,1
173532,-95.2380952380952,4,1,0,80,0,0
173698,-95.2380952380952,4,1,0,70,0,0
179198,-95.2380952380952,4,1,0,80,0,0
184365,-90.9090909090909,4,1,0,90,0,1
205532,-90.9090909090909,4,1,0,90,0,0
205865,-95.2380952380952,4,1,0,80,0,0
232199,-95.2380952380952,4,1,0,80,0,1
232532,-90.9090909090909,4,1,0,90,0,1
253699,-90.9090909090909,4,1,0,80,0,0
254365,-95.2380952380952,4,1,0,80,0,0
265699,-95.2380952380952,4,1,0,90,0,1
286865,-100,4,1,0,80,0,0

[Colours]
Combo1 : 213,0,5
Combo2 : 164,78,49

[HitObjects]
256,192,366,5,8,0:0:0:0:
256,192,532,1,0,0:0:0:0:
256,192,699,1,8,0:0:0:0:
256,192,865,1,0,0:0:0:0:
256,192,5699,1,8,0:0:0:0:
256,192,5865,1,0,0:0:0:0:
256,192,6032,1,8,0:0:0:0:
256,192,6199,1,0,0:0:0:0:
256,192,11032,1,8,0:0:0:0:
256,192,11199,1,0,0:0:0:0:
256,192,11365,1,8,0:0:0:0:
256,192,11532,1,0,0:0:0:0:
256,192,16365,1,8,0:0:0:0:
256,192,16532,1,0,0:0:0:0:
256,192,16699,1,8,0:0:0:0:
256,192,16865,1,0,0:0:0:0:
256,192,17699,1,8,0:0:0:0:
256,192,17865,1,0,0:0:0:0:
256,192,18032,1,8,0:0:0:0:
256,192,18199,1,0,0:0:0:0:
256,192,18699,1,8,0:0:0:0:
256,192,18865,1,0,0:0:0:0:
256,192,19032,1,8,0:0:0:0:
256,192,19199,1,0,0:0:0:0:
256,192,19699,1,8,0:0:0:0:
256,192,19865,1,0,0:0:0:0:
256,192,20032,1,8,0:0:0:0:
252,192,20199,1,0,0:0:0:0:
256,192,20365,1,8,0:0:0:0:
256,192,20532,1,0,0:0:0:0:
256,192,20699,1,8,0:0:0:0:
252,192,20865,1,0,0:0:0:0:
252,192,21032,1,8,0:0:0:0:
252,192,21199,1,8,0:0:0:0:
256,196,21532,1,4,0:0:0:0:
256,196,21865,1,0,0:0:0:0:
256,196,21949,1,0,0:0:0:0:
256,196,22032,1,8,0:0:0:0:
256,192,22365,1,0,0:0:0:0:
256,192,22532,1,0,0:0:0:0:
256,192,22699,1,8,0:0:0:0:
256,192,22865,1,0,0:0:0:0:
256,192,22949,1,0,0:0:0:0:
256,192,23032,1,8,0:0:0:0:
256,192,23199,1,0,0:0:0:0:
256,192,23365,1,8,0:0:0:0:
260,192,23532,1,0,0:0:0:0:
260,192,23698,1,0,0:0:0:0:
260,192,24032,1,8,0:0:0:0:
260,192,24198,1,8,0:0:0:0:
256,196,24282,1,8,0:0:0:0:
260,200,24365,1,0,0:0:0:0:
260,200,24532,1,0,0:0:0:0:
256,196,24698,1,8,0:0:0:0:
256,196,24865,1,0,0:0:0:0:
264,192,25198,1,0,0:0:0:0:
264,192,25365,1,8,0:0:0:0:
256,192,25532,1,0,0:0:0:0:
260,192,25698,1,8,0:0:0:0:
260,192,25782,1,0,0:0:0:0:
260,192,25865,1,0,0:0:0:0:
260,192,25948,1,0,0:0:0:0:
260,192,26032,1,8,0:0:0:0:
260,192,26198,1,0,0:0:0:0:
264,188,26365,1,8,0:0:0:0:
264,188,26448,1,0,0:0:0:0:
264,188,26532,1,8,0:0:0:0:
264,188,26615,1,0,0:0:0:0:
264,188,26698,1,8,0:0:0:0:
264,188,26865,1,4,0:0:0:0:
256,192,27198,1,0,0:0:0:0:
256,192,27282,1,0,0:0:0:0:
256,192,27365,1,8,0:0:0:0:
256,192,27698,1,0,0:0:0:0:
256,192,27865,1,0,0:0:0:0:
256,192,28032,1,8,0:0:0:0:
256,196,28198,1,0,0:0:0:0:
256,196,28282,1,0,0:0:0:0:
256,196,28365,1,8,0:0:0:0:
256,192,28448,1,8,0:0:0:0:
256,192,28532,1,0,0:0:0:0:
256,192,28615,1,0,0:0:0:0:
256,192,28698,1,8,0:0:0:0:
256,192,28865,1,0,0:0:0:0:
256,192,29032,1,0,0:0:0:0:
256,196,29365,1,8,0:0:0:0:
256,196,29532,1,0,0:0:0:0:
256,196,29698,1,0,0:0:0:0:
256,192,29782,1,0,0:0:0:0:
256,196,29865,1,0,0:0:0:0:
256,196,30032,1,8,0:0:0:0:
256,196,30198,1,0,0:0:0:0:
264,192,30282,1,0,0:0:0:0:
264,192,30365,1,8,0:0:0:0:
264,192,30448,1,8,0:0:0:0:
264,192,30532,1,0,0:0:0:0:
264,192,30698,1,8,0:0:0:0:
264,192,30865,1,0,0:0:0:0:
264,192,30948,1,0,0:0:0:0:
264,192,31032,1,8,0:0:0:0:
264,192,31115,1,8,0:0:0:0:
264,192,31198,1,0,0:0:0:0:
264,192,31282,1,0,0:0:0:0:
264,192,31365,1,8,0:0:0:0:
264,192,31448,1,0,0:0:0:0:
264,192,31532,1,8,0:0:0:0:
264,192,31615,1,8,0:0:0:0:
264,184,31698,1,0,0:0:0:0:
264,192,31782,1,0,0:0:0:0:
264,184,31865,1,8,0:0:0:0:
256,192,31948,1,0,0:0:0:0:
256,192,32032,1,8,0:0:0:0:
256,192,32198,1,4,0:0:0:0:
256,196,32532,1,0,0:0:0:0:
256,196,32615,1,0,0:0:0:0:
256,196,32698,1,8,0:0:0:0:
256,192,33032,1,0,0:0:0:0:
256,192,33198,1,0,0:0:0:0:
256,192,33365,1,8,0:0:0:0:
256,192,33532,1,0,0:0:0:0:
256,192,33615,1,0,0:0:0:0:
256,192,33698,1,8,0:0:0:0:
256,192,33865,1,0,0:0:0:0:
256,192,34032,1,8,0:0:0:0:
260,192,34198,1,0,0:0:0:0:
260,192,34365,1,0,0:0:0:0:
260,192,34698,1,8,0:0:0:0:
260,192,34865,1,8,0:0:0:0:
256,204,34948,1,8,0:0:0:0:
260,200,35032,1,0,0:0:0:0:
260,200,35198,1,0,0:0:0:0:
256,196,35365,1,8,0:0:0:0:
256,196,35532,1,0,0:0:0:0:
264,192,35865,1,0,0:0:0:0:
264,192,36032,1,8,0:0:0:0:
256,192,36198,1,0,0:0:0:0:
260,192,36365,1,8,0:0:0:0:
260,192,36448,1,8,0:0:0:0:
260,192,36532,1,0,0:0:0:0:
260,192,36615,1,0,0:0:0:0:
260,192,36698,1,8,0:0:0:0:
260,192,36865,1,0,0:0:0:0:
264,188,37032,1,8,0:0:0:0:
256,180,37115,1,0,0:0:0:0:
264,188,37198,1,8,0:0:0:0:
264,184,37282,1,0,0:0:0:0:
264,188,37365,1,8,0:0:0:0:
264,188,37532,1,4,0:0:0:0:
256,192,37865,1,0,0:0:0:0:
256,192,37948,1,0,0:0:0:0:
256,192,38032,1,8,0:0:0:0:
256,192,38365,1,0,0:0:0:0:
256,192,38532,1,0,0:0:0:0:
256,192,38698,1,8,0:0:0:0:
256,196,38865,1,0,0:0:0:0:
256,196,38948,1,0,0:0:0:0:
256,196,39032,1,8,0:0:0:0:
256,192,39115,1,8,0:0:0:0:
256,192,39198,1,0,0:0:0:0:
256,192,39282,1,0,0:0:0:0:
256,192,39365,1,8,0:0:0:0:
256,192,39532,1,0,0:0:0:0:
256,192,39698,1,0,0:0:0:0:
256,196,40032,1,8,0:0:0:0:
256,196,40365,1,0,0:0:0:0:
256,196,40532,1,0,0:0:0:0:
256,196,40698,1,8,0:0:0:0:
256,196,40865,1,0,0:0:0:0:
256,196,40948,1,0,0:0:0:0:
264,192,41032,1,8,0:0:0:0:
264,192,41115,1,8,0:0:0:0:
264,192,41198,1,0,0:0:0:0:
264,192,41365,1,8,0:0:0:0:
264,192,41532,1,0,0:0:0:0:
264,192,41615,1,0,0:0:0:0:
264,192,41698,1,8,0:0:0:0:
264,192,41782,1,8,0:0:0:0:
264,192,41865,1,0,0:0:0:0:
264,192,41948,1,0,0:0:0:0:
264,192,42032,1,8,0:0:0:0:
264,192,42115,1,8,0:0:0:0:
264,192,42198,1,0,0:0:0:0:
264,192,42282,1,0,0:0:0:0:
264,184,42365,1,8,0:0:0:0:
264,192,42448,1,0,0:0:0:0:
264,184,42532,1,8,0:0:0:0:
256,192,42615,1,0,0:0:0:0:
256,192,42698,1,8,0:0:0:0:
256,192,42865,1,4,0:0:0:0:
256,188,43198,1,0,0:0:0:0:
256,188,43365,1,12,0:0:0:0:
260,184,43698,1,0,0:0:0:0:
260,184,43865,1,0,0:0:0:0:
260,184,44032,1,8,0:0:0:0:
260,184,44198,1,0,0:0:0:0:
256,200,44282,1,0,0:0:0:0:
256,196,44365,1,0,0:0:0:0:
264,196,44532,1,0,0:0:0:0:
264,196,44698,1,8,0:0:0:0:
264,196,44865,1,0,0:0:0:0:
264,196,44948,1,0,0:0:0:0:
264,196,45032,1,8,0:0:0:0:
264,192,45198,1,0,0:0:0:0:
264,192,45365,1,8,0:0:0:0:
264,192,45532,1,4,0:0:0:0:
236,184,45865,1,0,0:0:0:0:
256,196,46032,1,8,0:0:0:0:
256,196,46365,1,0,0:0:0:0:
256,196,46532,1,0,0:0:0:0:
256,196,46698,1,8,0:0:0:0:
236,188,46865,1,0,0:0:0:0:
236,188,46948,1,0,0:0:0:0:
236,188,47032,1,0,0:0:0:0:
236,188,47198,1,0,0:0:0:0:
256,196,47365,1,8,0:0:0:0:
236,188,47532,1,0,0:0:0:0:
224,160,47615,1,0,0:0:0:0:
236,188,47698,1,0,0:0:0:0:
236,188,47865,1,8,0:0:0:0:
236,188,47948,1,0,0:0:0:0:
256,196,48032,1,8,0:0:0:0:
236,188,48198,1,4,0:0:0:0:
256,196,48532,1,0,0:0:0:0:
256,196,48698,1,8,0:0:0:0:
252,192,48865,1,0,0:0:0:0:
252,192,48948,1,0,0:0:0:0:
256,188,49032,1,0,0:0:0:0:
256,188,49198,1,0,0:0:0:0:
256,196,49365,1,8,0:0:0:0:
248,188,49532,1,0,0:0:0:0:
248,188,49698,1,0,0:0:0:0:
248,188,49865,1,8,0:0:0:0:
256,196,50032,1,8,0:0:0:0:
252,188,50198,1,0,0:0:0:0:
252,188,50282,1,0,0:0:0:0:
252,188,50365,1,0,0:0:0:0:
252,188,50532,1,0,0:0:0:0:
256,196,50698,1,8,0:0:0:0:
256,192,50865,1,0,0:0:0:0:
256,192,51032,1,12,0:0:0:0:
244,192,51198,1,0,0:0:0:0:
244,192,51365,1,0,0:0:0:0:
252,192,51532,1,12,0:0:0:0:
244,192,51698,1,0,0:0:0:0:
244,192,51865,1,0,0:0:0:0:
252,192,52032,1,12,0:0:0:0:
244,192,52365,1,0,0:0:0:0:
244,192,52698,1,0,0:0:0:0:
244,192,52865,1,0,0:0:0:0:
244,192,52948,1,0,0:0:0:0:
244,192,53032,1,8,0:0:0:0:
252,192,53198,1,0,0:0:0:0:
252,192,53365,1,8,0:0:0:0:
252,192,53532,1,4,0:0:0:0:
252,192,53865,1,0,0:0:0:0:
252,192,54032,1,8,0:0:0:0:
252,192,54198,1,0,0:0:0:0:
252,192,54282,1,0,0:0:0:0:
252,192,54365,1,0,0:0:0:0:
252,192,54532,1,0,0:0:0:0:
256,196,54698,1,8,0:0:0:0:
256,196,54865,1,8,0:0:0:0:
256,196,54948,1,8,0:0:0:0:
260,196,55032,1,0,0:0:0:0:
260,196,55198,1,0,0:0:0:0:
256,196,55365,1,8,0:0:0:0:
256,196,55532,1,0,0:0:0:0:
256,196,55615,1,0,0:0:0:0:
256,196,55698,1,0,0:0:0:0:
256,196,55865,1,0,0:0:0:0:
256,196,56032,1,8,0:0:0:0:
256,196,56198,1,4,0:0:0:0:
256,192,56532,1,0,0:0:0:0:
256,196,56698,1,8,0:0:0:0:
256,192,56865,1,0,0:0:0:0:
256,192,56948,1,0,0:0:0:0:
256,192,57032,1,0,0:0:0:0:
256,192,57198,1,0,0:0:0:0:
252,196,57365,1,8,0:0:0:0:
256,192,57532,1,0,0:0:0:0:
256,192,57865,1,0,0:0:0:0:
252,196,58032,1,8,0:0:0:0:
252,184,58198,1,0,0:0:0:0:
252,184,58282,1,0,0:0:0:0:
252,184,58365,1,8,0:0:0:0:
252,184,58532,1,0,0:0:0:0:
252,196,58698,1,8,0:0:0:0:
252,184,58865,1,4,0:0:0:0:
248,184,59198,1,0,0:0:0:0:
252,196,59365,1,8,0:0:0:0:
260,192,59532,1,0,0:0:0:0:
260,192,59615,1,0,0:0:0:0:
260,192,59698,1,0,0:0:0:0:
260,192,59865,1,0,0:0:0:0:
252,196,60032,1,8,0:0:0:0:
252,196,60198,1,8,0:0:0:0:
252,196,60282,1,8,0:0:0:0:
256,192,60365,1,0,0:0:0:0:
256,192,60532,1,0,0:0:0:0:
252,196,60698,1,8,0:0:0:0:
256,188,60865,1,0,0:0:0:0:
256,188,60948,1,0,0:0:0:0:
256,188,61032,1,0,0:0:0:0:
256,188,61198,1,0,0:0:0:0:
252,196,61365,1,8,0:0:0:0:
256,188,61532,1,0,0:0:0:0:
252,196,61698,1,12,0:0:0:0:
256,188,61865,1,0,0:0:0:0:
256,188,62032,1,0,0:0:0:0:
256,188,62198,1,12,0:0:0:0:
264,176,62365,1,0,0:0:0:0:
256,184,62532,1,0,0:0:0:0:
256,188,62698,1,12,0:0:0:0:
256,192,63032,1,8,0:0:0:0:
252,180,63198,1,0,0:0:0:0:
252,192,63365,1,8,0:0:0:0:
252,192,63532,1,0,0:0:0:0:
252,192,63615,1,0,0:0:0:0:
252,192,63698,1,8,0:0:0:0:
252,192,63782,1,8,0:0:0:0:
252,192,63865,1,8,0:0:0:0:
252,192,63948,1,8,0:0:0:0:
252,192,64032,1,0,0:0:0:0:
252,192,64115,1,0,0:0:0:0:
252,192,64198,1,0,0:0:0:0:
252,192,64282,1,0,0:0:0:0:
252,192,64365,1,8,0:0:0:0:
252,192,64532,1,8,0:0:0:0:
252,184,64698,1,0,0:0:0:0:
256,192,65032,1,0,0:0:0:0:
256,192,65365,1,0,0:0:0:0:
256,192,65532,1,8,0:0:0:0:
256,192,65698,1,0,0:0:0:0:
256,192,65865,1,8,0:0:0:0:
248,192,66032,1,0,0:0:0:0:
248,188,66365,1,8,0:0:0:0:
248,188,66448,1,8,0:0:0:0:
248,188,66532,1,8,0:0:0:0:
248,188,66615,1,8,0:0:0:0:
248,188,66698,1,0,0:0:0:0:
248,188,66782,1,0,0:0:0:0:
248,188,66865,1,0,0:0:0:0:
248,188,66948,1,0,0:0:0:0:
248,188,67032,1,8,0:0:0:0:
256,192,67198,1,8,0:0:0:0:
260,192,67365,1,0,0:0:0:0:
260,192,67698,1,0,0:0:0:0:
260,192,68032,1,0,0:0:0:0:
260,192,68198,1,8,0:0:0:0:
260,192,68365,1,0,0:0:0:0:
260,192,68532,1,8,0:0:0:0:
260,192,68698,1,0,0:0:0:0:
260,192,68865,1,8,0:0:0:0:
260,192,69032,1,0,0:0:0:0:
252,188,69365,1,0,0:0:0:0:
252,188,69532,1,0,0:0:0:0:
252,188,69698,1,4,0:0:0:0:
256,192,69865,1,0,0:0:0:0:
256,192,70032,1,0,0:0:0:0:
256,200,70198,1,0,0:0:0:0:
256,192,70365,1,8,0:0:0:0:
256,200,70698,1,0,0:0:0:0:
256,200,70865,1,0,0:0:0:0:
256,192,71032,1,4,0:0:0:0:
256,200,71198,1,0,0:0:0:0:
256,200,71365,1,8,0:0:0:0:
256,192,71448,1,0,0:0:0:0:
256,200,71532,1,0,0:0:0:0:
256,200,71615,1,0,0:0:0:0:
256,192,71698,1,8,0:0:0:0:
256,200,72032,1,0,0:0:0:0:
256,200,72198,1,0,0:0:0:0:
256,192,72365,1,4,0:0:0:0:
256,200,72532,1,0,0:0:0:0:
256,200,72698,1,0,0:0:0:0:
256,200,72865,1,0,0:0:0:0:
256,192,73032,1,8,0:0:0:0:
256,200,73198,1,0,0:0:0:0:
256,200,73282,1,0,0:0:0:0:
256,200,73365,1,8,0:0:0:0:
256,200,73532,1,0,0:0:0:0:
264,196,73615,1,0,0:0:0:0:
256,200,73698,1,8,0:0:0:0:
256,200,73865,1,8,0:0:0:0:
248,208,74032,1,0,0:0:0:0:
256,200,74198,1,12,0:0:0:0:
256,200,74532,1,0,0:0:0:0:
256,200,74615,1,0,0:0:0:0:
256,200,74698,1,8,0:0:0:0:
256,200,74865,1,8,0:0:0:0:
248,188,75032,1,0,0:0:0:0:
256,200,75198,1,12,0:0:0:0:
260,204,75698,1,8,0:0:0:0:
260,204,75782,1,8,0:0:0:0:
260,204,75865,1,0,0:0:0:0:
260,204,75948,1,0,0:0:0:0:
260,204,76032,1,8,0:0:0:0:
260,192,76115,1,0,0:0:0:0:
260,192,76198,1,8,0:0:0:0:
260,192,76282,1,0,0:0:0:0:
260,192,76365,1,8,0:0:0:0:
260,192,76532,1,0,0:0:0:0:
260,192,76615,1,0,0:0:0:0:
260,192,76698,1,8,0:0:0:0:
260,192,76865,1,8,0:0:0:0:
252,192,77032,1,0,0:0:0:0:
252,192,77198,1,0,0:0:0:0:
264,192,77365,1,8,0:0:0:0:
252,196,77532,1,0,0:0:0:0:
244,192,77865,1,0,0:0:0:0:
264,192,78032,1,8,0:0:0:0:
244,192,78365,1,0,0:0:0:0:
244,192,78532,1,0,0:0:0:0:
260,192,78615,1,0,0:0:0:0:
264,192,78698,1,8,0:0:0:0:
264,192,78865,1,8,0:0:0:0:
244,192,79032,1,0,0:0:0:0:
244,192,79198,1,0,0:0:0:0:
264,192,79365,1,8,0:0:0:0:
244,192,79532,1,0,0:0:0:0:
256,192,79615,1,0,0:0:0:0:
256,192,79698,1,0,0:0:0:0:
244,192,79865,1,0,0:0:0:0:
264,192,80032,1,8,0:0:0:0:
244,192,80198,1,0,0:0:0:0:
244,192,80532,1,0,0:0:0:0:
260,192,80698,1,8,0:0:0:0:
244,192,81032,1,0,0:0:0:0:
244,192,81198,1,0,0:0:0:0:
260,192,81365,1,8,0:0:0:0:
244,192,81698,1,0,0:0:0:0:
244,192,81865,1,0,0:0:0:0:
260,192,82032,1,8,0:0:0:0:
244,192,82198,1,0,0:0:0:0:
256,192,82365,1,0,0:0:0:0:
244,192,82532,1,0,0:0:0:0:
260,192,82615,1,0,0:0:0:0:
260,192,82698,1,8,0:0:0:0:
244,192,82865,1,0,0:0:0:0:
244,192,83198,1,0,0:0:0:0:
260,192,83365,1,8,0:0:0:0:
244,192,83698,1,0,0:0:0:0:
244,192,83865,1,0,0:0:0:0:
260,192,84032,1,8,0:0:0:0:
244,192,84198,1,0,0:0:0:0:
244,192,84282,1,0,0:0:0:0:
260,192,84365,1,8,0:0:0:0:
244,192,84532,1,0,0:0:0:0:
244,192,84698,1,0,0:0:0:0:
260,192,84865,1,8,0:0:0:0:
244,192,85032,1,0,0:0:0:0:
244,192,85115,1,0,0:0:0:0:
256,192,85198,1,8,0:0:0:0:
260,192,85365,1,0,0:0:0:0:
260,192,85532,1,8,0:0:0:0:
260,192,85615,1,0,0:0:0:0:
260,192,85698,1,8,0:0:0:0:
260,192,85865,1,0,0:0:0:0:
260,192,86032,1,8,0:0:0:0:
260,192,86198,1,0,0:0:0:0:
260,204,86365,1,8,0:0:0:0:
260,204,86448,1,8,0:0:0:0:
260,204,86532,1,8,0:0:0:0:
260,204,86615,1,8,0:0:0:0:
260,204,86698,1,0,0:0:0:0:
260,192,86782,1,0,0:0:0:0:
260,192,86865,1,8,0:0:0:0:
260,192,86948,1,0,0:0:0:0:
260,192,87032,1,8,0:0:0:0:
260,192,87198,1,0,0:0:0:0:
256,176,87282,1,0,0:0:0:0:
260,192,87365,1,8,0:0:0:0:
236,176,87532,1,8,0:0:0:0:
252,192,87698,1,0,0:0:0:0:
252,192,87865,1,0,0:0:0:0:
264,192,88032,1,8,0:0:0:0:
252,196,88198,1,0,0:0:0:0:
240,188,88365,1,0,0:0:0:0:
244,192,88532,1,0,0:0:0:0:
236,180,88615,1,0,0:0:0:0:
264,192,88698,1,8,0:0:0:0:
240,196,88865,1,0,0:0:0:0:
244,192,89032,1,0,0:0:0:0:
244,192,89198,1,0,0:0:0:0:
264,192,89365,1,8,0:0:0:0:
240,184,89532,1,0,0:0:0:0:
240,184,89615,1,0,0:0:0:0:
244,192,89698,1,0,0:0:0:0:
244,192,89865,1,0,0:0:0:0:
264,192,90032,1,8,0:0:0:0:
244,192,90198,1,8,0:0:0:0:
240,184,90365,1,0,0:0:0:0:
244,192,90532,1,0,0:0:0:0:
236,180,90615,1,0,0:0:0:0:
264,192,90698,1,8,0:0:0:0:
244,192,90865,1,0,0:0:0:0:
240,184,91032,1,0,0:0:0:0:
244,192,91198,1,0,0:0:0:0:
260,192,91365,1,8,0:0:0:0:
240,184,91532,1,0,0:0:0:0:
244,192,91698,1,0,0:0:0:0:
252,176,91782,1,8,0:0:0:0:
244,192,91865,1,0,0:0:0:0:
260,192,92032,1,8,0:0:0:0:
240,188,92198,1,0,0:0:0:0:
244,192,92365,1,8,0:0:0:0:
244,192,92532,1,0,0:0:0:0:
260,192,92698,1,8,0:0:0:0:
244,192,92865,1,8,0:0:0:0:
252,192,93032,1,0,0:0:0:0:
244,192,93198,1,0,0:0:0:0:
252,184,93282,1,0,0:0:0:0:
260,192,93365,1,8,0:0:0:0:
244,192,93532,1,8,0:0:0:0:
256,188,93698,1,0,0:0:0:0:
244,192,93865,1,0,0:0:0:0:
260,192,94032,1,8,0:0:0:0:
260,192,94198,1,0,0:0:0:0:
248,176,94282,1,0,0:0:0:0:
244,192,94365,1,0,0:0:0:0:
244,192,94532,1,0,0:0:0:0:
260,192,94698,1,8,0:0:0:0:
260,192,94865,1,0,0:0:0:0:
260,192,95032,1,8,0:0:0:0:
256,188,95365,1,0,0:0:0:0:
256,188,95698,1,0,0:0:0:0:
256,188,96032,1,0,0:0:0:0:
256,188,96365,1,8,0:0:0:0:
256,188,96698,1,0,0:0:0:0:
256,188,96865,1,0,0:0:0:0:
256,188,96948,1,0,0:0:0:0:
256,188,97032,1,8,0:0:0:0:
256,188,97198,1,8,0:0:0:0:
248,184,97532,1,12,0:0:0:0:
256,188,97865,1,0,0:0:0:0:
256,188,98032,1,0,0:0:0:0:
256,192,98198,1,0,0:0:0:0:
260,184,98365,1,8,0:0:0:0:
260,184,98532,1,0,0:0:0:0:
260,184,98698,1,0,0:0:0:0:
260,184,98865,1,8,0:0:0:0:
256,200,98948,1,8,0:0:0:0:
256,196,99032,1,0,0:0:0:0:
264,196,99198,1,0,0:0:0:0:
264,196,99365,1,0,0:0:0:0:
264,196,99532,1,0,0:0:0:0:
264,196,99698,1,8,0:0:0:0:
264,192,99865,1,0,0:0:0:0:
264,192,100032,1,8,0:0:0:0:
248,184,100365,1,8,0:0:0:0:
236,184,100532,1,0,0:0:0:0:
256,196,100698,1,8,0:0:0:0:
256,196,100865,1,0,0:0:0:0:
256,196,101032,1,8,0:0:0:0:
256,196,101198,1,8,0:0:0:0:
256,196,101365,1,0,0:0:0:0:
236,188,101532,1,0,0:0:0:0:
236,188,101698,1,8,0:0:0:0:
252,192,101782,1,8,0:0:0:0:
236,188,101865,1,0,0:0:0:0:
256,196,102032,1,0,0:0:0:0:
236,188,102198,1,0,0:0:0:0:
236,188,102365,1,8,0:0:0:0:
232,176,102448,1,0,0:0:0:0:
236,188,102532,1,8,0:0:0:0:
252,192,102615,1,0,0:0:0:0:
252,192,102698,1,8,0:0:0:0:
236,188,102865,1,12,0:0:0:0:
256,196,103198,1,0,0:0:0:0:
256,196,103365,1,0,0:0:0:0:
252,192,103532,1,0,0:0:0:0:
256,188,103698,1,8,0:0:0:0:
256,188,103865,1,0,0:0:0:0:
256,196,104032,1,0,0:0:0:0:
248,188,104198,1,8,0:0:0:0:
248,188,104282,1,8,0:0:0:0:
248,188,104365,1,0,0:0:0:0:
256,192,104448,1,0,0:0:0:0:
248,188,104532,1,8,0:0:0:0:
256,196,104698,1,8,0:0:0:0:
252,188,104865,1,0,0:0:0:0:
252,188,104948,1,0,0:0:0:0:
252,188,105032,1,8,0:0:0:0:
252,188,105198,1,0,0:0:0:0:
256,196,105365,1,8,0:0:0:0:
256,192,105532,1,0,0:0:0:0:
256,192,105615,1,0,0:0:0:0:
256,192,105698,1,8,0:0:0:0:
244,192,105865,1,0,0:0:0:0:
244,192,106032,1,8,0:0:0:0:
252,192,106198,1,0,0:0:0:0:
256,192,106282,1,0,0:0:0:0:
244,192,106365,1,8,0:0:0:0:
256,192,106448,1,8,0:0:0:0:
244,192,106532,1,0,0:0:0:0:
252,192,106698,1,8,0:0:0:0:
240,188,106865,1,0,0:0:0:0:
244,192,107032,1,0,0:0:0:0:
240,180,107198,1,8,0:0:0:0:
244,192,107365,1,8,0:0:0:0:
244,192,107532,1,0,0:0:0:0:
244,192,107615,1,0,0:0:0:0:
244,192,107698,1,8,0:0:0:0:
252,192,107865,1,8,0:0:0:0:
252,192,108032,1,8,0:0:0:0:
252,192,108198,1,4,0:0:0:0:
252,192,108532,1,0,0:0:0:0:
252,192,108615,1,0,0:0:0:0:
252,192,108698,1,8,0:0:0:0:
252,192,109032,1,0,0:0:0:0:
252,192,109198,1,0,0:0:0:0:
256,196,109365,1,8,0:0:0:0:
260,196,109532,1,8,0:0:0:0:
260,196,109615,1,8,0:0:0:0:
260,196,109698,1,0,0:0:0:0:
260,196,109865,1,0,0:0:0:0:
256,196,110032,1,8,0:0:0:0:
256,196,110198,1,0,0:0:0:0:
256,196,110365,1,0,0:0:0:0:
256,196,110698,1,8,0:0:0:0:
256,196,110865,1,0,0:0:0:0:
252,188,111032,1,0,0:0:0:0:
256,192,111198,1,0,0:0:0:0:
256,196,111365,1,8,0:0:0:0:
256,192,111532,1,0,0:0:0:0:
256,192,111615,1,0,0:0:0:0:
256,192,111698,1,0,0:0:0:0:
256,192,111865,1,0,0:0:0:0:
252,196,112032,1,8,0:0:0:0:
256,192,112198,1,0,0:0:0:0:
256,192,112365,1,8,0:0:0:0:
252,200,112448,1,0,0:0:0:0:
256,192,112532,1,8,0:0:0:0:
252,200,112615,1,0,0:0:0:0:
252,196,112698,1,8,0:0:0:0:
252,184,112865,1,0,0:0:0:0:
252,184,112948,1,0,0:0:0:0:
252,184,113032,1,8,0:0:0:0:
252,184,113198,1,8,0:0:0:0:
252,196,113365,1,8,0:0:0:0:
252,184,113532,1,12,0:0:0:0:
248,184,113865,1,0,0:0:0:0:
248,184,113948,1,0,0:0:0:0:
252,196,114032,1,8,0:0:0:0:
260,192,114365,1,0,0:0:0:0:
260,192,114532,1,0,0:0:0:0:
252,196,114698,1,8,0:0:0:0:
256,192,114865,1,8,0:0:0:0:
256,192,114948,1,0,0:0:0:0:
256,192,115032,1,8,0:0:0:0:
256,192,115115,1,8,0:0:0:0:
256,192,115198,1,0,0:0:0:0:
256,192,115282,1,0,0:0:0:0:
252,196,115365,1,8,0:0:0:0:
256,188,115532,1,0,0:0:0:0:
256,188,115698,1,0,0:0:0:0:
252,196,116032,1,8,0:0:0:0:
256,188,116198,1,0,0:0:0:0:
252,196,116365,1,8,0:0:0:0:
256,188,116615,1,0,0:0:0:0:
256,188,116698,1,8,0:0:0:0:
256,188,116865,1,12,0:0:0:0:
264,176,117032,1,0,0:0:0:0:
264,192,117115,1,0,0:0:0:0:
256,184,117198,1,8,0:0:0:0:
256,188,117365,1,12,0:0:0:0:
264,192,117615,1,0,0:0:0:0:
264,192,117698,1,8,0:0:0:0:
264,192,117865,1,0,0:0:0:0:
264,192,118032,1,8,0:0:0:0:
264,192,118198,1,0,0:0:0:0:
264,192,118365,1,8,0:0:0:0:
264,192,118532,1,0,0:0:0:0:
264,192,118698,1,0,0:0:0:0:
256,192,118865,1,12,0:0:0:0:
256,188,119198,1,0,0:0:0:0:
256,188,119365,1,8,0:0:0:0:
260,184,119698,1,0,0:0:0:0:
260,184,119865,1,0,0:0:0:0:
260,184,120032,1,8,0:0:0:0:
260,184,120198,1,0,0:0:0:0:
256,200,120282,1,0,0:0:0:0:
256,196,120365,1,0,0:0:0:0:
264,196,120532,1,0,0:0:0:0:
264,196,120698,1,8,0:0:0:0:
264,196,120865,1,0,0:0:0:0:
264,196,120948,1,0,0:0:0:0:
264,196,121032,1,8,0:0:0:0:
264,192,121198,1,0,0:0:0:0:
264,192,121365,1,8,0:0:0:0:
264,192,121448,1,8,0:0:0:0:
264,192,121532,1,0,0:0:0:0:
236,184,121865,1,0,0:0:0:0:
256,196,122032,1,8,0:0:0:0:
256,196,122365,1,0,0:0:0:0:
256,196,122532,1,0,0:0:0:0:
256,196,122698,1,8,0:0:0:0:
236,188,122865,1,0,0:0:0:0:
236,188,122948,1,0,0:0:0:0:
236,188,123032,1,0,0:0:0:0:
236,188,123198,1,0,0:0:0:0:
256,196,123365,1,8,0:0:0:0:
236,188,123532,1,0,0:0:0:0:
236,188,123698,1,0,0:0:0:0:
236,188,123865,1,8,0:0:0:0:
236,188,123948,1,0,0:0:0:0:
256,196,124032,1,8,0:0:0:0:
236,188,124198,1,12,0:0:0:0:
256,196,124532,1,0,0:0:0:0:
256,196,124698,1,8,0:0:0:0:
252,192,124865,1,0,0:0:0:0:
252,192,124948,1,0,0:0:0:0:
256,188,125032,1,0,0:0:0:0:
256,188,125198,1,0,0:0:0:0:
256,196,125365,1,8,0:0:0:0:
256,196,125532,1,8,0:0:0:0:
256,192,125615,1,8,0:0:0:0:
248,188,125698,1,0,0:0:0:0:
248,188,125865,1,0,0:0:0:0:
256,196,126032,1,8,0:0:0:0:
252,188,126198,1,0,0:0:0:0:
252,188,126282,1,0,0:0:0:0:
252,188,126365,1,0,0:0:0:0:
252,188,126532,1,0,0:0:0:0:
256,196,126698,1,8,0:0:0:0:
256,192,126865,1,0,0:0:0:0:
256,192,127032,1,12,0:0:0:0:
244,192,127198,1,0,0:0:0:0:
244,192,127365,1,0,0:0:0:0:
252,192,127532,1,12,0:0:0:0:
244,192,127698,1,0,0:0:0:0:
244,192,127865,1,0,0:0:0:0:
252,192,128032,1,12,0:0:0:0:
244,192,128365,1,0,0:0:0:0:
244,192,128698,1,0,0:0:0:0:
244,192,128865,1,0,0:0:0:0:
244,192,128948,1,0,0:0:0:0:
244,192,129032,1,8,0:0:0:0:
252,192,129198,1,0,0:0:0:0:
252,192,129365,1,8,0:0:0:0:
252,192,129532,1,4,0:0:0:0:
252,192,129865,1,0,0:0:0:0:
252,192,130032,1,8,0:0:0:0:
252,192,130198,1,0,0:0:0:0:
252,192,130282,1,0,0:0:0:0:
252,192,130365,1,0,0:0:0:0:
252,192,130532,1,0,0:0:0:0:
256,196,130698,1,8,0:0:0:0:
260,196,130865,1,0,0:0:0:0:
260,196,131032,1,0,0:0:0:0:
260,196,131198,1,8,0:0:0:0:
256,196,131365,1,8,0:0:0:0:
256,196,131532,1,0,0:0:0:0:
256,196,131615,1,0,0:0:0:0:
256,196,131698,1,0,0:0:0:0:
256,196,131865,1,0,0:0:0:0:
256,196,132032,1,8,0:0:0:0:
256,196,132198,1,4,0:0:0:0:
256,192,132532,1,0,0:0:0:0:
256,196,132698,1,8,0:0:0:0:
256,192,132865,1,0,0:0:0:0:
256,192,132948,1,0,0:0:0:0:
256,192,133032,1,0,0:0:0:0:
256,192,133198,1,0,0:0:0:0:
252,196,133365,1,8,0:0:0:0:
256,192,133532,1,0,0:0:0:0:
256,192,133698,1,0,0:0:0:0:
256,192,133865,1,0,0:0:0:0:
252,196,134032,1,8,0:0:0:0:
252,184,134198,1,0,0:0:0:0:
252,184,134282,1,0,0:0:0:0:
252,184,134365,1,8,0:0:0:0:
252,184,134532,1,0,0:0:0:0:
252,196,134698,1,8,0:0:0:0:
252,184,134865,1,4,0:0:0:0:
248,184,135198,1,0,0:0:0:0:
252,196,135365,1,8,0:0:0:0:
260,192,135532,1,0,0:0:0:0:
260,192,135615,1,0,0:0:0:0:
260,192,135698,1,0,0:0:0:0:
260,192,135865,1,0,0:0:0:0:
252,196,136032,1,8,0:0:0:0:
256,192,136198,1,0,0:0:0:0:
256,192,136365,1,0,0:0:0:0:
256,192,136532,1,8,0:0:0:0:
252,196,136698,1,8,0:0:0:0:
256,188,136865,1,0,0:0:0:0:
256,188,136948,1,0,0:0:0:0:
256,188,137032,1,0,0:0:0:0:
256,188,137198,1,0,0:0:0:0:
252,196,137365,1,8,0:0:0:0:
256,188,137532,1,0,0:0:0:0:
252,196,137698,1,12,0:0:0:0:
256,188,137865,1,0,0:0:0:0:
256,188,138032,1,0,0:0:0:0:
256,188,138198,1,12,0:0:0:0:
264,176,138365,1,0,0:0:0:0:
256,184,138532,1,0,0:0:0:0:
256,188,138698,1,12,0:0:0:0:
252,196,139032,1,0,0:0:0:0:
252,196,139143,1,8,0:0:0:0:
252,196,139254,1,8,0:0:0:0:
252,196,139365,1,8,0:0:0:0:
252,196,139476,1,8,0:0:0:0:
252,196,139587,1,8,0:0:0:0:
252,196,139698,1,0,0:0:0:0:
252,196,139810,1,0,0:0:0:0:
252,196,139921,1,8,0:0:0:0:
252,196,140032,1,0,0:0:0:0:
252,196,140143,1,0,0:0:0:0:
252,196,140254,1,8,0:0:0:0:
252,196,140365,1,4,0:0:0:0:
252,192,141032,1,8,0:0:0:0:
252,192,141282,1,8,0:0:0:0:
256,192,141532,1,8,0:0:0:0:
256,192,141698,1,4,0:0:0:0:
252,192,142032,1,8,0:0:0:0:
252,192,142365,1,8,0:0:0:0:
256,192,142698,1,8,0:0:0:0:
256,192,142865,1,8,0:0:0:0:
256,192,143032,1,4,0:0:0:0:
260,188,143365,1,8,0:0:0:0:
260,188,143698,1,8,0:0:0:0:
256,192,144032,1,8,0:0:0:0:
256,192,144198,1,8,0:0:0:0:
256,192,144365,1,4,0:0:0:0:
256,192,144532,1,0,0:0:0:0:
256,192,144698,1,8,0:0:0:0:
256,196,144948,1,0,0:0:0:0:
256,196,145032,1,8,0:0:0:0:
256,196,145198,1,0,0:0:0:0:
256,196,145365,1,0,0:0:0:0:
256,196,145532,1,8,0:0:0:0:
256,196,145698,1,0,0:0:0:0:
256,196,145865,1,0,0:0:0:0:
256,196,146032,1,0,0:0:0:0:
256,188,146198,1,0,0:0:0:0:
256,188,146365,1,12,0:0:0:0:
264,188,146698,1,0,0:0:0:0:
264,188,146865,1,8,0:0:0:0:
264,188,147032,1,0,0:0:0:0:
264,188,147198,1,0,0:0:0:0:
264,188,147365,1,0,0:0:0:0:
264,188,147448,1,0,0:0:0:0:
264,188,147532,1,0,0:0:0:0:
264,188,147615,1,0,0:0:0:0:
264,188,147698,1,12,0:0:0:0:
256,188,147865,1,0,0:0:0:0:
256,188,148032,1,8,0:0:0:0:
256,188,148198,1,0,0:0:0:0:
256,188,148365,1,0,0:0:0:0:
256,188,148698,1,0,0:0:0:0:
256,188,149032,1,0,0:0:0:0:
256,188,149365,1,0,0:0:0:0:
256,188,149532,1,0,0:0:0:0:
256,188,149615,1,0,0:0:0:0:
256,188,149698,1,8,0:0:0:0:
256,192,149948,1,0,0:0:0:0:
256,192,150198,1,12,0:0:0:0:
256,192,150532,1,0,0:0:0:0:
256,192,150615,1,0,0:0:0:0:
256,192,150698,1,8,0:0:0:0:
256,192,150865,1,0,0:0:0:0:
256,192,150948,1,8,0:0:0:0:
256,192,151115,1,0,0:0:0:0:
256,192,151198,1,8,0:0:0:0:
256,192,151532,1,0,0:0:0:0:
256,192,151615,1,0,0:0:0:0:
256,192,151698,1,8,0:0:0:0:
256,192,151865,1,8,0:0:0:0:
256,192,152032,1,0,0:0:0:0:
256,192,152198,1,0,0:0:0:0:
260,192,152365,1,12,0:0:0:0:
260,192,152532,1,0,0:0:0:0:
260,192,152615,1,0,0:0:0:0:
260,192,152698,1,8,0:0:0:0:
260,192,152865,1,8,0:0:0:0:
252,192,153032,1,0,0:0:0:0:
252,192,153198,1,0,0:0:0:0:
264,192,153365,1,8,0:0:0:0:
252,196,153532,1,0,0:0:0:0:
244,192,153865,1,0,0:0:0:0:
264,192,154032,1,8,0:0:0:0:
244,192,154365,1,0,0:0:0:0:
244,192,154532,1,0,0:0:0:0:
260,192,154615,1,0,0:0:0:0:
264,192,154698,1,8,0:0:0:0:
264,192,154865,1,8,0:0:0:0:
244,192,155032,1,0,0:0:0:0:
244,192,155198,1,0,0:0:0:0:
264,192,155365,1,8,0:0:0:0:
244,192,155532,1,0,0:0:0:0:
256,192,155615,1,0,0:0:0:0:
256,192,155698,1,0,0:0:0:0:
244,192,155865,1,0,0:0:0:0:
264,192,156032,1,8,0:0:0:0:
244,192,156198,1,0,0:0:0:0:
244,192,156532,1,0,0:0:0:0:
260,192,156698,1,8,0:0:0:0:
244,192,157032,1,0,0:0:0:0:
244,192,157198,1,0,0:0:0:0:
260,192,157365,1,8,0:0:0:0:
244,192,157698,1,0,0:0:0:0:
244,192,157865,1,0,0:0:0:0:
260,192,158032,1,8,0:0:0:0:
244,192,158198,1,0,0:0:0:0:
256,192,158365,1,0,0:0:0:0:
244,192,158532,1,0,0:0:0:0:
260,192,158615,1,0,0:0:0:0:
260,192,158698,1,8,0:0:0:0:
244,192,158865,1,0,0:0:0:0:
244,192,159198,1,0,0:0:0:0:
260,192,159365,1,8,0:0:0:0:
244,192,159698,1,0,0:0:0:0:
244,192,159865,1,0,0:0:0:0:
260,192,160032,1,8,0:0:0:0:
244,192,160198,1,0,0:0:0:0:
244,192,160282,1,0,0:0:0:0:
260,192,160365,1,8,0:0:0:0:
244,192,160532,1,0,0:0:0:0:
244,192,160698,1,0,0:0:0:0:
260,192,160865,1,8,0:0:0:0:
244,192,161032,1,8,0:0:0:0:
244,192,161115,1,8,0:0:0:0:
256,192,161198,1,0,0:0:0:0:
260,192,161365,1,0,0:0:0:0:
260,192,161532,1,8,0:0:0:0:
260,192,161615,1,0,0:0:0:0:
260,192,161698,1,8,0:0:0:0:
260,192,161865,1,0,0:0:0:0:
260,192,162032,1,8,0:0:0:0:
260,192,162198,1,0,0:0:0:0:
260,204,162365,1,8,0:0:0:0:
260,204,162448,1,0,0:0:0:0:
260,204,162532,1,8,0:0:0:0:
260,204,162615,1,8,0:0:0:0:
260,204,162698,1,0,0:0:0:0:
260,192,162782,1,0,0:0:0:0:
260,192,162865,1,8,0:0:0:0:
260,192,162948,1,0,0:0:0:0:
260,192,163032,1,8,0:0:0:0:
260,192,163198,1,0,0:0:0:0:
256,176,163282,1,0,0:0:0:0:
260,192,163365,1,8,0:0:0:0:
236,176,163532,1,8,0:0:0:0:
252,192,163698,1,0,0:0:0:0:
252,192,163865,1,0,0:0:0:0:
264,192,164032,1,8,0:0:0:0:
252,196,164198,1,0,0:0:0:0:
240,188,164365,1,0,0:0:0:0:
244,192,164532,1,0,0:0:0:0:
236,180,164615,1,0,0:0:0:0:
264,192,164698,1,8,0:0:0:0:
240,196,164865,1,0,0:0:0:0:
244,192,165032,1,0,0:0:0:0:
244,192,165198,1,0,0:0:0:0:
264,192,165365,1,8,0:0:0:0:
240,184,165532,1,0,0:0:0:0:
240,184,165615,1,0,0:0:0:0:
244,192,165698,1,0,0:0:0:0:
244,192,165865,1,0,0:0:0:0:
264,192,166032,1,8,0:0:0:0:
244,192,166198,1,8,0:0:0:0:
240,184,166365,1,0,0:0:0:0:
244,192,166532,1,0,0:0:0:0:
236,180,166615,1,0,0:0:0:0:
264,192,166698,1,8,0:0:0:0:
244,192,166865,1,0,0:0:0:0:
240,184,167032,1,0,0:0:0:0:
244,192,167198,1,0,0:0:0:0:
260,192,167365,1,8,0:0:0:0:
240,184,167532,1,0,0:0:0:0:
244,192,167698,1,0,0:0:0:0:
252,176,167782,1,8,0:0:0:0:
244,192,167865,1,0,0:0:0:0:
260,192,168032,1,8,0:0:0:0:
240,188,168198,1,0,0:0:0:0:
244,192,168365,1,8,0:0:0:0:
244,192,168532,1,0,0:0:0:0:
260,192,168698,1,8,0:0:0:0:
244,192,168865,1,8,0:0:0:0:
252,192,169032,1,0,0:0:0:0:
244,192,169198,1,0,0:0:0:0:
252,184,169282,1,0,0:0:0:0:
260,192,169365,1,8,0:0:0:0:
244,192,169532,1,8,0:0:0:0:
256,188,169698,1,0,0:0:0:0:
244,192,169865,1,0,0:0:0:0:
260,192,170032,1,8,0:0:0:0:
260,192,170198,1,0,0:0:0:0:
248,176,170282,1,0,0:0:0:0:
244,192,170365,1,0,0:0:0:0:
244,192,170532,1,0,0:0:0:0:
260,192,170698,1,8,0:0:0:0:
260,192,170865,1,8,0:0:0:0:
260,192,171032,1,0,0:0:0:0:
256,200,171365,1,0,0:0:0:0:
264,204,171532,1,8,0:0:0:0:
256,200,171698,1,0,0:0:0:0:
264,204,171865,1,8,0:0:0:0:
264,204,171948,1,0,0:0:0:0:
256,200,172032,1,8,0:0:0:0:
264,208,172198,1,8,0:0:0:0:
264,208,172365,1,0,0:0:0:0:
264,208,172532,1,0,0:0:0:0:
256,192,172615,1,0,0:0:0:0:
264,208,172698,1,8,0:0:0:0:
256,200,173032,1,8,0:0:0:0:
252,192,173115,1,8,0:0:0:0:
252,192,173198,1,8,0:0:0:0:
252,192,173282,1,0,0:0:0:0:
252,192,173365,1,8,0:0:0:0:
252,192,173532,1,0,0:0:0:0:
256,196,173698,1,8,0:0:0:0:
256,200,173782,1,8,0:0:0:0:
256,196,173865,1,0,0:0:0:0:
256,200,173948,1,0,0:0:0:0:
256,200,174032,1,8,0:0:0:0:
256,200,174115,1,0,0:0:0:0:
256,196,174198,1,8,0:0:0:0:
256,200,174282,1,8,0:0:0:0:
256,196,174365,1,0,0:0:0:0:
256,200,174448,1,0,0:0:0:0:
256,196,174532,1,8,0:0:0:0:
256,200,174615,1,0,0:0:0:0:
256,196,174698,1,8,0:0:0:0:
256,200,174782,1,8,0:0:0:0:
256,196,174865,1,0,0:0:0:0:
256,200,174948,1,0,0:0:0:0:
256,196,175032,1,8,0:0:0:0:
256,200,175115,1,0,0:0:0:0:
256,196,175198,1,8,0:0:0:0:
256,196,175282,1,8,0:0:0:0:
256,196,175365,1,0,0:0:0:0:
256,196,175448,1,0,0:0:0:0:
256,196,175532,1,8,0:0:0:0:
256,196,175615,1,0,0:0:0:0:
256,196,175698,1,8,0:0:0:0:
256,196,175782,1,8,0:0:0:0:
256,196,175865,1,0,0:0:0:0:
256,196,175948,1,0,0:0:0:0:
256,196,176032,1,8,0:0:0:0:
256,196,176115,1,0,0:0:0:0:
256,196,176198,1,8,0:0:0:0:
256,196,176365,1,8,0:0:0:0:
256,196,176448,1,8,0:0:0:0:
256,196,176532,1,0,0:0:0:0:
256,196,176615,1,0,0:0:0:0:
256,196,176698,1,8,0:0:0:0:
256,196,176782,1,0,0:0:0:0:
256,192,176865,1,8,0:0:0:0:
256,196,176948,1,8,0:0:0:0:
260,200,177032,1,0,0:0:0:0:
260,200,177115,1,0,0:0:0:0:
260,200,177198,1,8,0:0:0:0:
260,200,177282,1,0,0:0:0:0:
256,192,177365,1,8,0:0:0:0:
256,192,177448,1,8,0:0:0:0:
260,200,177532,1,0,0:0:0:0:
260,200,177615,1,0,0:0:0:0:
260,200,177698,1,8,0:0:0:0:
260,200,177782,1,0,0:0:0:0:
256,192,177865,1,8,0:0:0:0:
256,200,177948,1,8,0:0:0:0:
260,200,178032,1,0,0:0:0:0:
256,200,178115,1,0,0:0:0:0:
260,200,178198,1,8,0:0:0:0:
256,200,178282,1,0,0:0:0:0:
256,192,178365,1,8,0:0:0:0:
256,200,178448,1,8,0:0:0:0:
260,200,178532,1,0,0:0:0:0:
256,200,178615,1,0,0:0:0:0:
260,200,178698,1,8,0:0:0:0:
256,200,178782,1,8,0:0:0:0:
260,200,178865,1,0,0:0:0:0:
256,192,179032,1,8,0:0:0:0:
260,200,179198,1,0,0:0:0:0:
260,200,179282,1,0,0:0:0:0:
260,200,179365,1,0,0:0:0:0:
256,192,179532,1,8,0:0:0:0:
260,200,179698,1,0,0:0:0:0:
260,200,179782,1,0,0:0:0:0:
260,200,179865,1,0,0:0:0:0:
256,192,180032,1,8,0:0:0:0:
260,200,180198,1,0,0:0:0:0:
260,200,180282,1,0,0:0:0:0:
260,200,180365,1,0,0:0:0:0:
256,192,180532,1,8,0:0:0:0:
260,200,180698,1,0,0:0:0:0:
260,200,180782,1,0,0:0:0:0:
260,200,180865,1,0,0:0:0:0:
256,192,181032,1,8,0:0:0:0:
264,192,181115,1,8,0:0:0:0:
256,192,181198,1,0,0:0:0:0:
264,192,181282,1,8,0:0:0:0:
256,192,181365,1,0,0:0:0:0:
264,192,181448,1,0,0:0:0:0:
256,192,181532,1,0,0:0:0:0:
256,192,181698,1,8,0:0:0:0:
256,184,181782,1,8,0:0:0:0:
256,184,181865,1,0,0:0:0:0:
256,184,181948,1,0,0:0:0:0:
256,184,182032,1,0,0:0:0:0:
256,184,182115,1,0,0:0:0:0:
256,192,182198,1,8,0:0:0:0:
256,184,182282,1,8,0:0:0:0:
256,184,182365,1,0,0:0:0:0:
256,184,182448,1,0,0:0:0:0:
256,184,182532,1,0,0:0:0:0:
256,184,182615,1,0,0:0:0:0:
256,192,182698,1,8,0:0:0:0:
256,184,182782,1,8,0:0:0:0:
256,184,182865,1,0,0:0:0:0:
256,184,182948,1,0,0:0:0:0:
256,184,183032,1,0,0:0:0:0:
256,184,183115,1,0,0:0:0:0:
256,192,183198,1,8,0:0:0:0:
256,184,183282,1,8,0:0:0:0:
256,184,183365,1,0,0:0:0:0:
256,184,183448,1,0,0:0:0:0:
256,184,183532,1,0,0:0:0:0:
256,184,183615,1,0,0:0:0:0:
256,192,183698,1,8,0:0:0:0:
256,184,183782,1,8,0:0:0:0:
256,184,183865,1,8,0:0:0:0:
256,184,183948,1,0,0:0:0:0:
256,184,184032,1,8,0:0:0:0:
256,184,184115,1,0,0:0:0:0:
256,184,184198,1,0,0:0:0:0:
256,192,184365,1,8,0:0:0:0:
256,192,184448,1,0,0:0:0:0:
256,192,184532,1,8,0:0:0:0:
256,192,184615,1,0,0:0:0:0:
256,192,184698,1,0,0:0:0:0:
256,192,184865,1,8,0:0:0:0:
256,192,184948,1,0,0:0:0:0:
256,192,185032,1,0,0:0:0:0:
256,192,185115,1,0,0:0:0:0:
256,192,185198,1,8,0:0:0:0:
256,192,185365,1,8,0:0:0:0:
256,192,185448,1,0,0:0:0:0:
256,192,185532,1,8,0:0:0:0:
256,192,185615,1,0,0:0:0:0:
256,192,185698,1,0,0:0:0:0:
256,192,185865,1,8,0:0:0:0:
264,188,185948,1,0,0:0:0:0:
264,188,186032,1,0,0:0:0:0:
264,188,186115,1,0,0:0:0:0:
264,188,186198,1,8,0:0:0:0:
256,192,186365,1,8,0:0:0:0:
264,188,186448,1,8,0:0:0:0:
256,192,186532,1,8,0:0:0:0:
264,188,186615,1,0,0:0:0:0:
256,192,186698,1,0,0:0:0:0:
264,188,186782,1,0,0:0:0:0:
256,192,186865,1,8,0:0:0:0:
252,184,186948,1,0,0:0:0:0:
256,192,187032,1,8,0:0:0:0:
264,188,187115,1,0,0:0:0:0:
256,192,187198,1,8,0:0:0:0:
256,192,187282,1,8,0:0:0:0:
256,192,187365,1,0,0:0:0:0:
256,192,187532,1,8,0:0:0:0:
248,176,187615,1,8,0:0:0:0:
248,172,187698,1,0,0:0:0:0:
248,176,187782,1,0,0:0:0:0:
248,172,187865,1,8,0:0:0:0:
256,192,188032,1,8,0:0:0:0:
256,192,188115,1,0,0:0:0:0:
256,192,188198,1,8,0:0:0:0:
256,192,188282,1,0,0:0:0:0:
256,192,188365,1,0,0:0:0:0:
256,192,188532,1,8,0:0:0:0:
256,192,188615,1,8,0:0:0:0:
256,192,188698,1,0,0:0:0:0:
256,192,188782,1,0,0:0:0:0:
256,192,188865,1,8,0:0:0:0:
256,192,189032,1,8,0:0:0:0:
256,192,189115,1,8,0:0:0:0:
256,192,189198,1,0,0:0:0:0:
256,192,189282,1,0,0:0:0:0:
256,192,189365,1,8,0:0:0:0:
256,192,189448,1,0,0:0:0:0:
256,192,189532,1,8,0:0:0:0:
256,192,189615,1,0,0:0:0:0:
256,192,189698,1,8,0:0:0:0:
256,192,189782,1,0,0:0:0:0:
256,192,189865,1,8,0:0:0:0:
256,192,189948,1,0,0:0:0:0:
256,192,190032,1,0,0:0:0:0:
256,192,190198,1,8,0:0:0:0:
256,192,190282,1,0,0:0:0:0:
256,192,190365,1,0,0:0:0:0:
256,192,190448,1,0,0:0:0:0:
256,192,190532,1,8,0:0:0:0:
256,192,190698,1,8,0:0:0:0:
256,192,190782,1,0,0:0:0:0:
256,192,190865,1,8,0:0:0:0:
256,192,190948,1,0,0:0:0:0:
256,192,191032,1,0,0:0:0:0:
256,192,191198,1,8,0:0:0:0:
264,188,191282,1,0,0:0:0:0:
264,188,191365,1,0,0:0:0:0:
264,188,191448,1,0,0:0:0:0:
264,188,191532,1,8,0:0:0:0:
256,192,191698,1,8,0:0:0:0:
264,188,191782,1,8,0:0:0:0:
256,192,191865,1,8,0:0:0:0:
264,188,191948,1,0,0:0:0:0:
256,192,192032,1,0,0:0:0:0:
264,188,192115,1,0,0:0:0:0:
256,192,192198,1,8,0:0:0:0:
276,188,192282,1,0,0:0:0:0:
256,192,192365,1,8,0:0:0:0:
256,192,192448,1,0,0:0:0:0:
256,192,192532,1,8,0:0:0:0:
256,192,192615,1,8,0:0:0:0:
256,192,192698,1,0,0:0:0:0:
256,192,192865,1,8,0:0:0:0:
256,192,192948,1,8,0:0:0:0:
256,192,193032,1,0,0:0:0:0:
256,192,193115,1,0,0:0:0:0:
256,192,193198,1,8,0:0:0:0:
256,192,193365,1,8,0:0:0:0:
256,192,193448,1,0,0:0:0:0:
256,192,193532,1,8,0:0:0:0:
256,192,193615,1,8,0:0:0:0:
256,192,193698,1,0,0:0:0:0:
256,192,193865,1,8,0:0:0:0:
264,188,193948,1,8,0:0:0:0:
264,188,194032,1,0,0:0:0:0:
264,188,194115,1,0,0:0:0:0:
264,188,194198,1,8,0:0:0:0:
256,192,194365,1,8,0:0:0:0:
264,188,194448,1,8,0:0:0:0:
256,192,194532,1,0,0:0:0:0:
264,188,194615,1,0,0:0:0:0:
256,192,194698,1,8,0:0:0:0:
264,188,194782,1,0,0:0:0:0:
256,192,194865,1,8,0:0:0:0:
260,192,195032,1,8,0:0:0:0:
260,192,195282,1,0,0:0:0:0:
260,192,195365,1,8,0:0:0:0:
260,192,195532,1,8,0:0:0:0:
264,184,195782,1,0,0:0:0:0:
260,192,195865,1,8,0:0:0:0:
260,192,196032,1,8,0:0:0:0:
260,192,196115,1,8,0:0:0:0:
260,192,196198,1,0,0:0:0:0:
260,192,196282,1,0,0:0:0:0:
260,192,196365,1,8,0:0:0:0:
260,192,196532,1,8,0:0:0:0:
260,168,196615,1,0,0:0:0:0:
260,168,196698,1,8,0:0:0:0:
260,192,196865,1,0,0:0:0:0:
260,168,197115,1,0,0:0:0:0:
260,192,197198,1,8,0:0:0:0:
260,192,197365,1,8,0:0:0:0:
260,192,197448,1,0,0:0:0:0:
260,192,197532,1,8,0:0:0:0:
260,192,197615,1,0,0:0:0:0:
260,192,197698,1,8,0:0:0:0:
260,192,197948,1,0,0:0:0:0:
260,192,198032,1,8,0:0:0:0:
260,192,198198,1,8,0:0:0:0:
260,192,198448,1,0,0:0:0:0:
260,192,198532,1,8,0:0:0:0:
260,192,198698,1,0,0:0:0:0:
260,192,198782,1,8,0:0:0:0:
260,192,198865,1,8,0:0:0:0:
260,192,198948,1,8,0:0:0:0:
260,192,199032,1,0,0:0:0:0:
260,192,199198,1,8,0:0:0:0:
260,192,199282,1,8,0:0:0:0:
260,192,199365,1,0,0:0:0:0:
260,192,199448,1,8,0:0:0:0:
260,192,199532,1,0,0:0:0:0:
260,192,199698,1,8,0:0:0:0:
260,192,199782,1,0,0:0:0:0:
260,192,199865,1,8,0:0:0:0:
260,192,199948,1,0,0:0:0:0:
260,192,200032,1,8,0:0:0:0:
260,192,200115,1,8,0:0:0:0:
260,192,200198,1,0,0:0:0:0:
260,192,200282,1,0,0:0:0:0:
260,192,200365,1,8,0:0:0:0:
260,192,200615,1,8,0:0:0:0:
260,192,200698,1,0,0:0:0:0:
260,192,200865,1,8,0:0:0:0:
260,192,201115,1,8,0:0:0:0:
260,192,201198,1,0,0:0:0:0:
260,192,201365,1,8,0:0:0:0:
260,192,201448,1,8,0:0:0:0:
260,192,201532,1,0,0:0:0:0:
260,192,201615,1,0,0:0:0:0:
260,192,201698,1,8,0:0:0:0:
260,192,201865,1,8,0:0:0:0:
260,192,202032,1,0,0:0:0:0:
260,192,202115,1,0,0:0:0:0:
260,192,202198,1,8,0:0:0:0:
260,192,202365,1,8,0:0:0:0:
260,192,202532,1,0,0:0:0:0:
260,192,202615,1,0,0:0:0:0:
260,192,202698,1,8,0:0:0:0:
268,220,202782,1,0,0:0:0:0:
268,220,202865,1,8,0:0:0:0:
268,220,202948,1,8,0:0:0:0:
260,192,203032,1,8,0:0:0:0:
260,192,203282,1,0,0:0:0:0:
260,192,203365,1,8,0:0:0:0:
260,192,203532,1,8,0:0:0:0:
260,192,203782,1,0,0:0:0:0:
260,192,203865,1,8,0:0:0:0:
260,192,204032,1,8,0:0:0:0:
260,192,204115,1,0,0:0:0:0:
260,192,204198,1,8,0:0:0:0:
260,192,204282,1,0,0:0:0:0:
260,192,204365,1,8,0:0:0:0:
260,192,204532,1,8,0:0:0:0:
260,192,204615,1,8,0:0:0:0:
260,192,204698,1,0,0:0:0:0:
260,192,204865,1,8,0:0:0:0:
260,192,204948,1,8,0:0:0:0:
260,192,205032,1,0,0:0:0:0:
260,192,205198,1,8,0:0:0:0:
260,192,205365,1,8,0:0:0:0:
260,192,205532,1,12,0:0:0:0:
264,196,205865,1,8,0:0:0:0:
264,196,206032,1,0,0:0:0:0:
256,192,206365,1,8,0:0:0:0:
256,192,206532,1,8,0:0:0:0:
256,192,206698,1,0,0:0:0:0:
256,192,206865,1,8,0:0:0:0:
256,192,206948,1,8,0:0:0:0:
256,192,207032,1,0,0:0:0:0:
256,192,207198,1,8,0:0:0:0:
256,192,207365,1,0,0:0:0:0:
256,200,207532,1,0,0:0:0:0:
256,200,207698,1,8,0:0:0:0:
256,200,207865,1,0,0:0:0:0:
256,200,208032,1,0,0:0:0:0:
256,200,208198,1,0,0:0:0:0:
256,200,208282,1,0,0:0:0:0:
256,200,208365,1,0,0:0:0:0:
256,200,208532,1,0,0:0:0:0:
256,200,208698,1,8,0:0:0:0:
256,196,209032,1,8,0:0:0:0:
256,196,209198,1,8,0:0:0:0:
256,196,209365,1,0,0:0:0:0:
256,204,209532,1,8,0:0:0:0:
256,204,209615,1,8,0:0:0:0:
256,204,209698,1,0,0:0:0:0:
256,204,209865,1,8,0:0:0:0:
256,204,210032,1,0,0:0:0:0:
256,204,210198,1,8,0:0:0:0:
256,204,210282,1,0,0:0:0:0:
256,204,210365,1,8,0:0:0:0:
256,204,210532,1,0,0:0:0:0:
256,204,210698,1,0,0:0:0:0:
256,204,210865,1,8,0:0:0:0:
264,204,211198,1,0,0:0:0:0:
264,204,211365,1,0,0:0:0:0:
264,204,211698,1,8,0:0:0:0:
264,204,211865,1,0,0:0:0:0:
264,204,212032,1,0,0:0:0:0:
264,204,212198,1,8,0:0:0:0:
264,204,212282,1,8,0:0:0:0:
264,204,212365,1,0,0:0:0:0:
256,196,212532,1,8,0:0:0:0:
256,196,212698,1,0,0:0:0:0:
256,196,212865,1,0,0:0:0:0:
256,196,213032,1,8,0:0:0:0:
256,196,213198,1,0,0:0:0:0:
256,196,213365,1,0,0:0:0:0:
256,196,213532,1,4,0:0:0:0:
248,188,213865,1,8,0:0:0:0:
248,188,214032,1,0,0:0:0:0:
248,188,214198,1,8,0:0:0:0:
248,188,214282,1,0,0:0:0:0:
248,188,214365,1,8,0:0:0:0:
248,188,214532,1,8,0:0:0:0:
248,188,214698,1,8,0:0:0:0:
248,188,214782,1,0,0:0:0:0:
248,188,214865,1,8,0:0:0:0:
248,188,214948,1,0,0:0:0:0:
248,188,215032,1,8,0:0:0:0:
264,192,215198,1,0,0:0:0:0:
264,192,215365,1,8,0:0:0:0:
264,192,215448,1,8,0:0:0:0:
264,192,215532,1,0,0:0:0:0:
264,192,215615,1,0,0:0:0:0:
264,192,215698,1,8,0:0:0:0:
264,192,215865,1,0,0:0:0:0:
264,192,216032,1,0,0:0:0:0:
252,188,216198,1,4,0:0:0:0:
252,188,216532,1,0,0:0:0:0:
252,188,216698,1,0,0:0:0:0:
252,188,217032,1,8,0:0:0:0:
252,188,217198,1,0,0:0:0:0:
252,188,217532,1,8,0:0:0:0:
252,188,217615,1,8,0:0:0:0:
252,188,217698,1,0,0:0:0:0:
252,188,217865,1,8,0:0:0:0:
260,196,218198,1,0,0:0:0:0:
260,196,218365,1,8,0:0:0:0:
252,192,218532,1,0,0:0:0:0:
252,192,218698,1,0,0:0:0:0:
252,192,218865,1,8,0:0:0:0:
252,192,219198,1,0,0:0:0:0:
252,192,219365,1,8,0:0:0:0:
252,192,219476,1,0,0:0:0:0:
252,192,219587,1,0,0:0:0:0:
252,192,219698,1,8,0:0:0:0:
252,192,219810,1,0,0:0:0:0:
252,192,219921,1,0,0:0:0:0:
252,192,220032,1,8,0:0:0:0:
252,192,220198,1,8,0:0:0:0:
252,192,220282,1,8,0:0:0:0:
252,192,220365,1,8,0:0:0:0:
252,192,220532,1,0,0:0:0:0:
256,184,220698,1,8,0:0:0:0:
252,192,220810,1,8,0:0:0:0:
252,192,220921,1,0,0:0:0:0:
252,192,221032,1,8,0:0:0:0:
252,192,221143,1,8,0:0:0:0:
252,192,221254,1,0,0:0:0:0:
252,192,221365,1,8,0:0:0:0:
252,184,221476,1,8,0:0:0:0:
252,192,221587,1,0,0:0:0:0:
252,184,221698,1,8,0:0:0:0:
252,184,221865,1,0,0:0:0:0:
252,184,222032,1,0,0:0:0:0:
256,188,222365,1,8,0:0:0:0:
256,188,222532,1,0,0:0:0:0:
256,188,222698,1,0,0:0:0:0:
256,188,222865,1,8,0:0:0:0:
256,188,222948,1,8,0:0:0:0:
256,188,223032,1,0,0:0:0:0:
256,188,223198,1,8,0:0:0:0:
256,188,223365,1,0,0:0:0:0:
256,188,223532,1,0,0:0:0:0:
256,188,223698,1,8,0:0:0:0:
256,188,223865,1,0,0:0:0:0:
256,188,224032,1,0,0:0:0:0:
256,188,224198,1,4,0:0:0:0:
256,184,224532,1,8,0:0:0:0:
256,184,224698,1,0,0:0:0:0:
256,184,224865,1,0,0:0:0:0:
256,184,225032,1,8,0:0:0:0:
256,184,225198,1,0,0:0:0:0:
256,184,225365,1,8,0:0:0:0:
256,184,225448,1,8,0:0:0:0:
256,184,225532,1,0,0:0:0:0:
256,184,225615,1,8,0:0:0:0:
256,184,225698,1,0,0:0:0:0:
256,184,225865,1,8,0:0:0:0:
264,192,226032,1,8,0:0:0:0:
264,192,226115,1,0,0:0:0:0:
264,192,226198,1,0,0:0:0:0:
264,192,226282,1,0,0:0:0:0:
264,192,226365,1,8,0:0:0:0:
264,192,226532,1,8,0:0:0:0:
264,192,226698,1,0,0:0:0:0:
264,192,226865,1,0,0:0:0:0:
256,192,227032,1,4,0:0:0:0:
256,192,227365,1,4,0:0:0:0:
256,192,227698,1,12,0:0:0:0:
256,192,228032,1,8,0:0:0:0:
256,192,228198,1,4,0:0:0:0:
256,192,228532,1,0,0:0:0:0:
256,192,228865,1,0,0:0:0:0:
256,192,228948,1,0,0:0:0:0:
256,192,229032,1,8,0:0:0:0:
256,192,229143,1,8,0:0:0:0:
256,192,229254,1,0,0:0:0:0:
256,192,229365,1,0,0:0:0:0:
256,192,229476,1,8,0:0:0:0:
256,192,229587,1,8,0:0:0:0:
256,192,229698,1,0,0:0:0:0:
256,192,230032,1,0,0:0:0:0:
256,192,230198,1,0,0:0:0:0:
256,192,230365,1,12,0:0:0:0:
256,192,230532,1,0,0:0:0:0:
256,192,230615,1,0,0:0:0:0:
256,192,230698,1,8,0:0:0:0:
256,192,230865,1,0,0:0:0:0:
256,192,230948,1,0,0:0:0:0:
256,192,231032,1,8,0:0:0:0:
256,192,231115,1,8,0:0:0:0:
256,192,231198,1,0,0:0:0:0:
256,192,231282,1,0,0:0:0:0:
256,192,231365,1,8,0:0:0:0:
256,192,231448,1,8,0:0:0:0:
256,192,231532,1,0,0:0:0:0:
256,192,231615,1,0,0:0:0:0:
256,192,231698,1,8,0:0:0:0:
256,192,231782,1,8,0:0:0:0:
256,192,231865,1,8,0:0:0:0:
256,192,231948,1,0,0:0:0:0:
256,192,232032,1,8,0:0:0:0:
256,192,232115,1,0,0:0:0:0:
256,192,232198,1,8,0:0:0:0:
244,180,232532,1,0,0:0:0:0:
244,180,232615,1,0,0:0:0:0:
244,180,232698,1,8,0:0:0:0:
248,188,232865,1,8,0:0:0:0:
248,188,232948,1,8,0:0:0:0:
248,188,233032,1,0,0:0:0:0:
248,188,233198,1,8,0:0:0:0:
248,188,233365,1,0,0:0:0:0:
248,188,233532,1,8,0:0:0:0:
248,188,233615,1,8,0:0:0:0:
248,188,233698,1,0,0:0:0:0:
248,188,233865,1,0,0:0:0:0:
256,176,233948,1,0,0:0:0:0:
248,188,234032,1,8,0:0:0:0:
248,188,234198,1,0,0:0:0:0:
256,176,234282,1,0,0:0:0:0:
248,188,234365,1,8,0:0:0:0:
256,176,234448,1,0,0:0:0:0:
248,188,234532,1,8,0:0:0:0:
248,188,234698,1,8,0:0:0:0:
256,188,234865,1,4,0:0:0:0:
256,196,235198,1,8,0:0:0:0:
260,200,235282,1,0,0:0:0:0:
256,196,235365,1,8,0:0:0:0:
260,200,235532,1,0,0:0:0:0:
260,200,235615,1,0,0:0:0:0:
260,200,235698,1,8,0:0:0:0:
260,200,235865,1,8,0:0:0:0:
260,200,236032,1,0,0:0:0:0:
260,200,236198,1,8,0:0:0:0:
260,200,236282,1,8,0:0:0:0:
260,200,236365,1,0,0:0:0:0:
260,200,236532,1,0,0:0:0:0:
260,200,236615,1,0,0:0:0:0:
260,200,236698,1,8,0:0:0:0:
260,200,236865,1,0,0:0:0:0:
260,200,237032,1,8,0:0:0:0:
260,200,237115,1,0,0:0:0:0:
260,200,237198,1,8,0:0:0:0:
260,200,237282,1,0,0:0:0:0:
260,200,237365,1,8,0:0:0:0:
260,200,237532,1,4,0:0:0:0:
244,180,237865,1,8,0:0:0:0:
244,180,237948,1,8,0:0:0:0:
244,180,238032,1,0,0:0:0:0:
248,188,238198,1,0,0:0:0:0:
248,188,238282,1,0,0:0:0:0:
248,188,238365,1,8,0:0:0:0:
248,188,238532,1,0,0:0:0:0:
248,188,238698,1,8,0:0:0:0:
248,188,238865,1,8,0:0:0:0:
248,188,238948,1,8,0:0:0:0:
248,188,239032,1,0,0:0:0:0:
248,188,239198,1,0,0:0:0:0:
256,176,239282,1,0,0:0:0:0:
248,188,239365,1,8,0:0:0:0:
248,188,239532,1,8,0:0:0:0:
256,176,239615,1,0,0:0:0:0:
248,188,239698,1,8,0:0:0:0:
256,176,239782,1,0,0:0:0:0:
248,188,239865,1,8,0:0:0:0:
248,188,240032,1,8,0:0:0:0:
256,188,240198,1,4,0:0:0:0:
244,180,240532,1,8,0:0:0:0:
244,180,240615,1,0,0:0:0:0:
244,180,240698,1,8,0:0:0:0:
248,188,240865,1,0,0:0:0:0:
248,188,240948,1,0,0:0:0:0:
248,188,241032,1,8,0:0:0:0:
248,188,241198,1,0,0:0:0:0:
248,188,241365,1,8,0:0:0:0:
248,188,241532,1,0,0:0:0:0:
248,188,241615,1,0,0:0:0:0:
248,188,241698,1,8,0:0:0:0:
248,188,241782,1,8,0:0:0:0:
248,188,241865,1,8,0:0:0:0:
256,176,241948,1,8,0:0:0:0:
248,188,242032,1,0,0:0:0:0:
248,188,242087,1,0,0:0:0:0:
248,184,242143,1,0,0:0:0:0:
248,188,242198,1,8,0:0:0:0:
256,176,242282,1,0,0:0:0:0:
248,188,242365,1,8,0:0:0:0:
256,176,242448,1,0,0:0:0:0:
248,188,242532,1,8,0:0:0:0:
248,188,242615,1,0,0:0:0:0:
248,188,242698,1,8,0:0:0:0:
260,184,242782,1,0,0:0:0:0:
260,184,242865,1,0,0:0:0:0:
252,180,243198,1,0,0:0:0:0:
256,184,243282,1,0,0:0:0:0:
256,196,243365,1,8,0:0:0:0:
252,196,243698,1,0,0:0:0:0:
252,196,243865,1,0,0:0:0:0:
252,196,244032,1,8,0:0:0:0:
252,196,244198,1,8,0:0:0:0:
252,196,244282,1,8,0:0:0:0:
252,196,244365,1,0,0:0:0:0:
252,196,244532,1,0,0:0:0:0:
252,196,244698,1,8,0:0:0:0:
252,196,244865,1,0,0:0:0:0:
252,196,245032,1,8,0:0:0:0:
252,196,245198,1,8,0:0:0:0:
252,196,245365,1,8,0:0:0:0:
252,196,245532,1,4,0:0:0:0:
256,192,245865,1,0,0:0:0:0:
256,192,246032,1,8,0:0:0:0:
256,192,246365,1,8,0:0:0:0:
256,192,246532,1,8,0:0:0:0:
256,192,246698,1,0,0:0:0:0:
256,192,246865,1,0,0:0:0:0:
256,192,246948,1,0,0:0:0:0:
256,192,247032,1,8,0:0:0:0:
256,192,247143,1,8,0:0:0:0:
256,192,247254,1,0,0:0:0:0:
256,192,247365,1,8,0:0:0:0:
248,200,247476,1,8,0:0:0:0:
248,200,247587,1,0,0:0:0:0:
248,200,247698,1,8,0:0:0:0:
248,200,247865,1,8,0:0:0:0:
248,200,248032,1,8,0:0:0:0:
248,200,248198,1,0,0:0:0:0:
260,192,248532,1,8,0:0:0:0:
260,192,248615,1,8,0:0:0:0:
260,192,248698,1,0,0:0:0:0:
248,192,249032,1,8,0:0:0:0:
248,192,249198,1,8,0:0:0:0:
248,192,249365,1,0,0:0:0:0:
248,192,249532,1,8,0:0:0:0:
248,192,249615,1,8,0:0:0:0:
248,192,249698,1,0,0:0:0:0:
248,192,249865,1,0,0:0:0:0:
248,192,250032,1,8,0:0:0:0:
248,192,250198,1,0,0:0:0:0:
248,192,250365,1,0,0:0:0:0:
248,192,250532,1,0,0:0:0:0:
248,192,250698,1,8,0:0:0:0:
248,192,250865,1,0,0:0:0:0:
256,192,251198,1,0,0:0:0:0:
256,192,251365,1,8,0:0:0:0:
256,192,251532,1,0,0:0:0:0:
256,192,251698,1,8,0:0:0:0:
256,192,251782,1,0,0:0:0:0:
252,188,251865,1,8,0:0:0:0:
252,188,252032,1,8,0:0:0:0:
252,188,252198,1,8,0:0:0:0:
236,176,252282,1,8,0:0:0:0:
236,176,252365,1,8,0:0:0:0:
236,176,252532,1,0,0:0:0:0:
236,176,252698,1,0,0:0:0:0:
248,192,252865,1,0,0:0:0:0:
248,192,253032,1,0,0:0:0:0:
248,192,253115,1,0,0:0:0:0:
256,192,253198,1,8,0:0:0:0:
248,192,253282,1,8,0:0:0:0:
256,192,253365,1,0,0:0:0:0:
256,192,253448,1,0,0:0:0:0:
256,192,253532,1,8,0:0:0:0:
256,192,253615,1,8,0:0:0:0:
252,192,253698,1,8,0:0:0:0:
252,192,253865,1,8,0:0:0:0:
252,184,254032,1,0,0:0:0:0:
256,192,254365,1,0,0:0:0:0:
256,192,254698,1,0,0:0:0:0:
256,192,254865,1,8,0:0:0:0:
256,192,255032,1,0,0:0:0:0:
256,192,255198,1,8,0:0:0:0:
248,192,255365,1,0,0:0:0:0:
248,188,255698,1,8,0:0:0:0:
248,188,255782,1,8,0:0:0:0:
248,188,255865,1,8,0:0:0:0:
248,188,255948,1,8,0:0:0:0:
248,188,256032,1,0,0:0:0:0:
248,188,256115,1,0,0:0:0:0:
248,188,256198,1,0,0:0:0:0:
248,188,256282,1,0,0:0:0:0:
248,188,256365,1,8,0:0:0:0:
256,192,256532,1,8,0:0:0:0:
260,192,256698,1,0,0:0:0:0:
260,192,257032,1,0,0:0:0:0:
256,192,257365,1,0,0:0:0:0:
256,192,257532,1,8,0:0:0:0:
256,192,257615,1,8,0:0:0:0:
256,192,257698,1,0,0:0:0:0:
256,192,257782,1,0,0:0:0:0:
256,192,257865,1,8,0:0:0:0:
256,192,257948,1,0,0:0:0:0:
256,192,258032,1,8,0:0:0:0:
256,192,258115,1,8,0:0:0:0:
256,192,258198,1,8,0:0:0:0:
256,192,258282,1,0,0:0:0:0:
256,188,258365,1,8,0:0:0:0:
256,188,258448,1,0,0:0:0:0:
256,188,258532,1,0,0:0:0:0:
252,188,258615,1,0,0:0:0:0:
252,188,258698,1,8,0:0:0:0:
252,188,258782,1,0,0:0:0:0:
252,188,258865,1,8,0:0:0:0:
252,188,258948,1,0,0:0:0:0:
252,188,259032,1,8,0:0:0:0:
256,192,259198,1,0,0:0:0:0:
256,192,259365,1,0,0:0:0:0:
256,200,259532,1,0,0:0:0:0:
256,192,259698,1,12,0:0:0:0:
256,200,260032,1,0,0:0:0:0:
256,200,260198,1,0,0:0:0:0:
256,192,260365,1,8,0:0:0:0:
256,200,260532,1,0,0:0:0:0:
256,200,260698,1,0,0:0:0:0:
256,200,260865,1,0,0:0:0:0:
256,192,261032,1,12,0:0:0:0:
256,192,261198,1,0,0:0:0:0:
256,200,261365,1,8,0:0:0:0:
256,200,261532,1,0,0:0:0:0:
256,192,261698,1,8,0:0:0:0:
256,200,261865,1,0,0:0:0:0:
256,192,261948,1,0,0:0:0:0:
256,200,262032,1,8,0:0:0:0:
256,200,262198,1,0,0:0:0:0:
256,200,262282,1,0,0:0:0:0:
256,192,262365,1,8,0:0:0:0:
256,200,262532,1,0,0:0:0:0:
256,200,262615,1,0,0:0:0:0:
256,200,262698,1,8,0:0:0:0:
256,200,262865,1,0,0:0:0:0:
264,196,262948,1,0,0:0:0:0:
256,200,263032,1,8,0:0:0:0:
256,200,263198,1,8,0:0:0:0:
248,208,263365,1,8,0:0:0:0:
256,200,263448,1,8,0:0:0:0:
256,200,263532,1,0,0:0:0:0:
256,200,263865,1,8,0:0:0:0:
256,200,263948,1,8,0:0:0:0:
256,200,264032,1,0,0:0:0:0:
256,200,264198,1,0,0:0:0:0:
248,188,264365,1,8,0:0:0:0:
256,200,264532,1,0,0:0:0:0:
256,192,264615,1,8,0:0:0:0:
256,192,264782,1,0,0:0:0:0:
256,192,264865,1,8,0:0:0:0:
256,192,265365,1,0,0:0:0:0:
256,192,265532,1,0,0:0:0:0:
260,192,265698,1,12,0:0:0:0:
260,192,265865,1,0,0:0:0:0:
260,192,265948,1,0,0:0:0:0:
260,192,266032,1,8,0:0:0:0:
260,192,266198,1,8,0:0:0:0:
252,192,266365,1,0,0:0:0:0:
252,192,266532,1,0,0:0:0:0:
264,192,266698,1,8,0:0:0:0:
252,196,266865,1,0,0:0:0:0:
244,192,267198,1,0,0:0:0:0:
264,192,267365,1,8,0:0:0:0:
244,192,267698,1,0,0:0:0:0:
244,192,267865,1,0,0:0:0:0:
260,192,267948,1,0,0:0:0:0:
264,192,268032,1,8,0:0:0:0:
264,192,268198,1,8,0:0:0:0:
244,192,268365,1,0,0:0:0:0:
244,192,268532,1,0,0:0:0:0:
264,192,268698,1,8,0:0:0:0:
244,192,268865,1,0,0:0:0:0:
256,192,268948,1,0,0:0:0:0:
256,192,269032,1,0,0:0:0:0:
244,192,269198,1,0,0:0:0:0:
264,192,269365,1,8,0:0:0:0:
244,192,269532,1,0,0:0:0:0:
244,192,269865,1,0,0:0:0:0:
260,192,270032,1,8,0:0:0:0:
244,192,270365,1,0,0:0:0:0:
244,192,270532,1,0,0:0:0:0:
260,192,270698,1,8,0:0:0:0:
244,192,271032,1,0,0:0:0:0:
244,192,271198,1,0,0:0:0:0:
260,192,271365,1,8,0:0:0:0:
244,192,271532,1,0,0:0:0:0:
244,192,271698,1,0,0:0:0:0:
244,192,271865,1,0,0:0:0:0:
260,192,271948,1,0,0:0:0:0:
260,192,272032,1,8,0:0:0:0:
244,192,272198,1,0,0:0:0:0:
244,192,272532,1,0,0:0:0:0:
260,192,272698,1,8,0:0:0:0:
244,192,273032,1,0,0:0:0:0:
244,192,273198,1,0,0:0:0:0:
260,192,273365,1,8,0:0:0:0:
244,192,273532,1,0,0:0:0:0:
244,192,273615,1,0,0:0:0:0:
260,192,273698,1,8,0:0:0:0:
244,192,273865,1,0,0:0:0:0:
244,192,274032,1,0,0:0:0:0:
260,192,274198,1,8,0:0:0:0:
244,192,274365,1,8,0:0:0:0:
244,192,274448,1,8,0:0:0:0:
256,192,274532,1,0,0:0:0:0:
260,192,274698,1,0,0:0:0:0:
260,192,274865,1,8,0:0:0:0:
260,192,274948,1,0,0:0:0:0:
260,192,275032,1,8,0:0:0:0:
260,192,275198,1,0,0:0:0:0:
260,192,275365,1,8,0:0:0:0:
260,192,275532,1,0,0:0:0:0:
260,204,275698,1,8,0:0:0:0:
260,204,275782,1,8,0:0:0:0:
260,204,275865,1,8,0:0:0:0:
260,204,275948,1,8,0:0:0:0:
260,204,276032,1,0,0:0:0:0:
260,192,276115,1,0,0:0:0:0:
260,192,276198,1,8,0:0:0:0:
260,192,276282,1,0,0:0:0:0:
260,192,276365,1,8,0:0:0:0:
260,192,276532,1,0,0:0:0:0:
256,176,276615,1,0,0:0:0:0:
260,192,276698,1,8,0:0:0:0:
236,176,276865,1,8,0:0:0:0:
252,192,277032,1,0,0:0:0:0:
252,192,277198,1,0,0:0:0:0:
264,192,277365,1,8,0:0:0:0:
252,196,277532,1,0,0:0:0:0:
240,188,277698,1,0,0:0:0:0:
244,192,277865,1,0,0:0:0:0:
236,180,277948,1,0,0:0:0:0:
264,192,278032,1,8,0:0:0:0:
240,196,278198,1,0,0:0:0:0:
244,192,278365,1,0,0:0:0:0:
244,192,278532,1,0,0:0:0:0:
264,192,278698,1,8,0:0:0:0:
240,184,278865,1,0,0:0:0:0:
240,184,278948,1,0,0:0:0:0:
244,192,279032,1,0,0:0:0:0:
244,192,279198,1,0,0:0:0:0:
264,192,279365,1,8,0:0:0:0:
244,192,279532,1,8,0:0:0:0:
240,184,279698,1,0,0:0:0:0:
244,192,279865,1,0,0:0:0:0:
236,180,279948,1,0,0:0:0:0:
264,192,280032,1,8,0:0:0:0:
244,192,280198,1,0,0:0:0:0:
240,184,280365,1,8,0:0:0:0:
244,192,280532,1,0,0:0:0:0:
260,192,280698,1,8,0:0:0:0:
240,184,280865,1,0,0:0:0:0:
244,192,281032,1,0,0:0:0:0:
252,176,281115,1,8,0:0:0:0:
244,192,281198,1,0,0:0:0:0:
260,192,281365,1,8,0:0:0:0:
240,188,281532,1,0,0:0:0:0:
244,192,281698,1,8,0:0:0:0:
244,192,281865,1,0,0:0:0:0:
260,192,282032,1,8,0:0:0:0:
244,192,282198,1,0,0:0:0:0:
252,192,282365,1,0,0:0:0:0:
244,192,282532,1,0,0:0:0:0:
252,184,282615,1,0,0:0:0:0:
260,192,282698,1,8,0:0:0:0:
244,192,282865,1,8,0:0:0:0:
256,188,283032,1,0,0:0:0:0:
244,192,283198,1,0,0:0:0:0:
260,192,283365,1,8,0:0:0:0:
260,192,283532,1,0,0:0:0:0:
248,176,283615,1,0,0:0:0:0:
244,192,283698,1,0,0:0:0:0:
244,192,283865,1,0,0:0:0:0:
260,192,284032,1,8,0:0:0:0:
260,192,284198,1,0,0:0:0:0:
260,192,284365,1,0,0:0:0:0:
260,196,284698,1,0,0:0:0:0:
260,196,285032,1,0,0:0:0:0:
260,196,285365,1,0,0:0:0:0:
260,196,285698,1,0,0:0:0:0:
260,196,286032,1,0,0:0:0:0:
260,196,286198,1,0,0:0:0:0:
260,196,286282,1,0,0:0:0:0:
260,196,286365,1,8,0:0:0:0:
260,196,286532,1,4,0:0:0:0:
256,196,286865,1,12,0:0:0:0:
256,196,287198,1,0,0:0:0:0:
256,196,287282,1,0,0:0:0:0:
256,196,287365,1,8,0:0:0:0:
256,192,287698,1,0,0:0:0:0:
256,192,287865,1,0,0:0:0:0:
256,192,288032,1,8,0:0:0:0:
256,192,288198,1,8,0:0:0:0:
256,192,288282,1,8,0:0:0:0:
256,192,288365,1,0,0:0:0:0:
256,192,288532,1,0,0:0:0:0:
256,192,288698,1,8,0:0:0:0:
260,192,288865,1,0,0:0:0:0:
260,192,289032,1,0,0:0:0:0:
260,192,289365,1,8,0:0:0:0:
260,192,289532,1,8,0:0:0:0:
260,200,289615,1,0,0:0:0:0:
256,196,289698,1,8,0:0:0:0:
260,200,289865,1,0,0:0:0:0:
256,196,290032,1,8,0:0:0:0:
256,196,290198,1,0,0:0:0:0:
264,192,290532,1,0,0:0:0:0:
264,192,290698,1,8,0:0:0:0:
256,192,290865,1,0,0:0:0:0:
260,192,291032,1,8,0:0:0:0:
260,192,291115,1,0,0:0:0:0:
260,192,291198,1,0,0:0:0:0:
260,192,291282,1,0,0:0:0:0:
260,192,291365,1,8,0:0:0:0:
260,192,291532,1,0,0:0:0:0:
264,188,291698,1,8,0:0:0:0:
264,188,291782,1,0,0:0:0:0:
264,188,291865,1,8,0:0:0:0:
264,188,291948,1,0,0:0:0:0:
264,188,292032,1,8,0:0:0:0:
264,188,292198,1,4,0:0:0:0:
256,192,292532,1,0,0:0:0:0:
256,192,292615,1,0,0:0:0:0:
256,192,292698,1,8,0:0:0:0:
256,192,293032,1,0,0:0:0:0:
256,192,293198,1,0,0:0:0:0:
256,192,293365,1,8,0:0:0:0:
256,196,293532,1,0,0:0:0:0:
256,196,293615,1,0,0:0:0:0:
256,196,293698,1,8,0:0:0:0:
256,192,293782,1,8,0:0:0:0:
256,192,293865,1,0,0:0:0:0:
256,192,293948,1,0,0:0:0:0:
256,192,294032,1,8,0:0:0:0:
256,192,294198,1,0,0:0:0:0:
256,192,294365,1,0,0:0:0:0:
256,196,294698,1,8,0:0:0:0:
256,196,294865,1,0,0:0:0:0:
256,196,295032,1,0,0:0:0:0:
256,192,295115,1,0,0:0:0:0:
256,196,295198,1,0,0:0:0:0:
256,196,295365,1,8,0:0:0:0:
256,196,295532,1,0,0:0:0:0:
264,192,295615,1,0,0:0:0:0:
264,192,295698,1,8,0:0:0:0:
264,192,295782,1,8,0:0:0:0:
264,192,295865,1,0,0:0:0:0:
264,192,296032,1,8,0:0:0:0:
264,192,296198,1,0,0:0:0:0:
264,192,296282,1,0,0:0:0:0:
264,192,296365,1,8,0:0:0:0:
264,192,296448,1,8,0:0:0:0:
264,192,296532,1,0,0:0:0:0:
264,192,296615,1,0,0:0:0:0:
264,192,296698,1,8,0:0:0:0:
264,192,296782,1,0,0:0:0:0:
264,192,296865,1,8,0:0:0:0:
264,192,296948,1,8,0:0:0:0:
264,184,297032,1,0,0:0:0:0:
264,192,297115,1,0,0:0:0:0:
264,184,297198,1,8,0:0:0:0:
256,192,297282,1,0,0:0:0:0:
256,192,297365,1,8,0:0:0:0:
256,192,297532,1,12,0:0:0:0:
256,196,297865,1,0,0:0:0:0:
256,196,297948,1,0,0:0:0:0:
256,196,298032,1,8,0:0:0:0:
256,192,298365,1,0,0:0:0:0:
256,192,298532,1,0,0:0:0:0:
256,192,298698,1,8,0:0:0:0:
256,192,298865,1,8,0:0:0:0:
256,192,298948,1,8,0:0:0:0:
256,192,299032,1,0,0:0:0:0:
256,192,299198,1,0,0:0:0:0:
256,192,299365,1,8,0:0:0:0:
260,192,299532,1,0,0:0:0:0:
260,192,299698,1,8,0:0:0:0:
260,192,299865,1,0,0:0:0:0:
260,192,300032,1,8,0:0:0:0:
260,192,300198,1,8,0:0:0:0:
256,204,300282,1,8,0:0:0:0:
260,200,300365,1,0,0:0:0:0:
260,200,300532,1,0,0:0:0:0:
256,196,300698,1,8,0:0:0:0:
256,196,300865,1,0,0:0:0:0:
276,192,301032,1,8,0:0:0:0:
264,192,301198,1,0,0:0:0:0:
264,192,301365,1,8,0:0:0:0:
256,192,301532,1,0,0:0:0:0:
256,192,301615,1,0,0:0:0:0:
260,192,301698,1,8,0:0:0:0:
260,192,301782,1,0,0:0:0:0:
260,192,301865,1,8,0:0:0:0:
260,192,301948,1,0,0:0:0:0:
260,192,302032,1,8,0:0:0:0:
260,192,302198,1,8,0:0:0:0:
264,188,302365,1,0,0:0:0:0:
256,180,302448,1,0,0:0:0:0:
264,188,302532,1,8,0:0:0:0:
264,184,302615,1,0,0:0:0:0:
264,188,302698,1,8,0:0:0:0:
264,188,302865,1,0,0:0:0:0:
256,192,303198,1,0,0:0:0:0:
256,192,303282,1,0,0:0:0:0:
256,192,303365,1,8,0:0:0:0:
256,192,303698,1,0,0:0:0:0:
256,192,303865,1,0,0:0:0:0:
256,192,304032,1,8,0:0:0:0:
256,196,304198,1,0,0:0:0:0:
256,196,304282,1,0,0:0:0:0:
256,196,304365,1,8,0:0:0:0:
256,192,304448,1,8,0:0:0:0:
256,192,304532,1,0,0:0:0:0:
256,192,304615,1,0,0:0:0:0:
256,192,304698,1,8,0:0:0:0:
256,192,304865,1,0,0:0:0:0:
256,192,305032,1,8,0:0:0:0:
256,192,305198,1,8,0:0:0:0:
256,196,305365,1,8,0:0:0:0:
256,196,305532,1,0,0:0:0:0:
256,196,305698,1,0,0:0:0:0:
256,196,305865,1,0,0:0:0:0:
264,196,305948,1,0,0:0:0:0:
256,196,306032,1,8,0:0:0:0:
256,196,306198,1,0,0:0:0:0:
256,196,306282,1,0,0:0:0:0:
264,192,306365,1,8,0:0:0:0:
264,192,306448,1,8,0:0:0:0:
264,192,306532,1,0,0:0:0:0:
264,192,306698,1,8,0:0:0:0:
264,192,306865,1,0,0:0:0:0:
264,192,306948,1,0,0:0:0:0:
264,192,307032,1,8,0:0:0:0:
264,192,307115,1,8,0:0:0:0:
264,192,307198,1,0,0:0:0:0:
264,192,307282,1,0,0:0:0:0:
264,192,307365,1,8,0:0:0:0:
264,192,307448,1,0,0:0:0:0:
264,192,307532,1,8,0:0:0:0:
264,192,307615,1,8,0:0:0:0:
264,184,307698,1,0,0:0:0:0:
264,192,307782,1,0,0:0:0:0:
264,184,307865,1,8,0:0:0:0:
256,192,307948,1,0,0:0:0:0:
256,192,308032,1,8,0:0:0:0:
256,192,308115,1,8,0:0:0:0:
256,192,308198,1,0,0:0:0:0:
256,192,308254,1,0,0:0:0:0:
256,192,308310,1,0,0:0:0:0:
256,192,308365,1,8,0:0:0:0:
256,192,308448,1,0,0:0:0:0:
256,192,308532,1,8,0:0:0:0:
256,192,308698,1,12,0:0:0:0:
