osu file format v14

[General]
AudioFilename: audio.mp3
AudioLeadIn: 0
PreviewTime: 672809
Countdown: 0
SampleSet: None
StackLeniency: 0.2
Mode: 0
LetterboxInBreaks: 1
StoryFireInFront: 0
EpilepsyWarning: 1
WidescreenStoryboard: 1

[Editor]
Bookmarks: 20120,44120,52340,56090,80090,152120,168296,168705,234826,245480,411428,640139,642652,645165
DistanceSpacing: 3.2
BeatDivisor: 4
GridSize: 4
TimelineZoom: 1.8

[Metadata]
Title:Determinism&DestruKction
TitleUnicode:Determinism&DestruKction
Artist:Demetori
ArtistUnicode:Demetori
Creator:Keada
Version:Crossfade
Source:東方Project
Tags:ピュアヒューリーズ ~ Vengeance is Mine 春色小径 ~ Rest In Peace, Saith The Lord. 妖魔夜行 ~ Deterministic Chaos 星条旗のピエロ ~ The MadPiero Laughs The Woman Who Sold the Moon Clownpiece Rumia Hakurei Reimu Junko Youmu Konpaku ZUN c92
BeatmapID:1390448
BeatmapSetID:655278

[Difficulty]
HPDrainRate:6
CircleSize:4.5
OverallDifficulty:8.5
ApproachRate:9.3
SliderMultiplier:1.6
SliderTickRate:1

[Events]
//Background and Video events
0,0,"clownpiece.jpg",0,0
//Break Periods
2,140852,167742
2,185026,233047
2,235026,244926
2,250680,391592
2,392346,410888
2,417967,542726
2,547372,583041
2,587395,637072
2,647878,722830
//Storyboard Layer 0 (Background)
//Storyboard Layer 1 (Fail)
//Storyboard Layer 2 (Pass)
//Storyboard Layer 3 (Foreground)
//Storyboard Sound Samples

[TimingPoints]
9590,375,4,2,1,10,1,0
19715,-100,4,2,1,10,0,0
20090,375,4,2,1,40,1,0
20090,-200,4,2,1,40,0,0
21402,-200,4,2,1,5,0,0
21590,-200,4,2,1,40,0,0
22152,-200,4,2,1,5,0,0
22340,-200,4,2,1,40,0,0
22902,-200,4,2,1,5,0,0
23090,-200,4,2,1,40,0,0
24402,-200,4,2,1,5,0,0
24590,-200,4,2,1,40,0,0
25152,-200,4,2,1,5,0,0
25340,-200,4,2,1,40,0,0
25902,-200,4,2,1,5,0,0
26090,-200,4,2,1,40,0,0
28902,-200,4,2,1,5,0,0
29090,-200,4,2,1,40,0,0
31902,-200,4,2,1,5,0,0
32090,-200,4,2,1,40,0,0
33402,-200,4,2,1,5,0,0
33590,-200,4,2,1,40,0,0
34152,-200,4,2,1,5,0,0
34340,-200,4,2,1,40,0,0
34902,-200,4,2,1,5,0,0
35090,-200,4,2,1,40,0,0
36402,-200,4,2,1,5,0,0
36590,-200,4,2,1,40,0,0
37152,-200,4,2,1,5,0,0
37340,-200,4,2,1,40,0,0
37902,-200,4,2,1,5,0,0
38090,-200,4,2,1,40,0,0
40715,-200,4,2,1,5,0,0
41090,-200,4,2,1,40,0,0
43902,-200,4,2,1,5,0,0
44090,-166.666666666667,4,2,1,50,0,0
56090,-100,4,3,4,70,0,0
56465,-100,4,3,1,70,0,0
59090,-100,4,3,4,70,0,0
59465,-100,4,3,1,70,0,0
62090,-100,4,3,4,70,0,0
62465,-100,4,3,1,70,0,0
65090,-100,4,3,4,70,0,0
65465,-100,4,3,1,70,0,0
68090,-100,4,3,4,70,0,0
68465,-100,4,3,1,70,0,0
71090,-100,4,3,4,70,0,0
71465,-100,4,3,1,70,0,0
74090,-100,4,3,4,70,0,0
74465,-100,4,3,1,70,0,0
77090,-100,4,3,4,70,0,0
77465,-100,4,3,1,70,0,0
80090,-90.9090909090909,4,3,4,75,0,0
80465,-90.9090909090909,4,3,1,75,0,0
83090,-90.9090909090909,4,3,6,75,0,0
83465,-90.9090909090909,4,3,1,75,0,0
86090,-90.9090909090909,4,3,4,75,0,0
86465,-90.9090909090909,4,3,1,75,0,0
89090,-90.9090909090909,4,3,6,75,0,0
89465,-90.9090909090909,4,3,1,75,0,0
92090,-90.9090909090909,4,3,4,75,0,0
92465,-90.9090909090909,4,3,1,75,0,0
95090,-90.9090909090909,4,3,6,75,0,0
95277,-90.9090909090909,4,3,1,75,0,0
97715,-90.9090909090909,4,3,4,75,0,0
98090,-90.9090909090909,4,3,6,75,0,0
98465,-90.9090909090909,4,3,1,75,0,0
104090,-200,4,3,1,50,0,0
116090,-133.333333333333,4,3,4,70,0,0
116277,-133.333333333333,4,3,5,70,0,0
122090,-133.333333333333,4,3,6,70,0,0
122277,-133.333333333333,4,3,2,70,0,0
125090,-133.333333333333,4,3,6,70,0,0
125558,-133.333333333333,4,3,2,70,0,0
126215,-133.333333333333,4,3,4,70,0,0
128090,-111.111111111111,4,3,4,75,0,1
152090,-100,4,3,4,70,0,0
168296,408.163265306122,4,3,1,60,1,0
168704,408.163265306122,4,3,1,60,1,0
170132,-100,4,3,6,60,0,0
179928,-100,4,3,5,60,0,0
181765,-83.3333333333333,4,3,1,75,0,1
207887,-125,4,3,1,60,0,0
233601,-200,4,3,1,60,0,0
245480,333.333333333333,4,3,1,55,1,0
250813,-142.857142857143,4,3,1,55,0,0
261479,-111.111111111111,4,3,1,65,0,0
282813,-100,4,3,1,70,0,0
304146,-111.111111111111,4,3,1,65,0,0
314813,-100,4,3,1,70,0,0
325479,-95.2380952380952,4,3,1,70,0,0
338813,-133.333333333333,4,3,1,55,0,0
349479,-86.9565217391304,4,3,1,75,0,1
370729,-86.9565217391304,4,3,1,70,0,0
370813,-83.3333333333333,4,3,1,75,0,1
392146,-100,4,3,1,65,0,0
411442,324.324324324324,6,3,1,70,1,0
417117,-100,6,3,6,70,0,0
417281,324.324324324324,4,3,1,70,1,0
438037,-133.333333333333,4,3,1,60,0,0
448416,-111.111111111111,4,3,1,65,0,0
458794,-83.3333333333333,4,3,1,75,0,1
476956,-125,4,3,1,60,0,0
489929,-100,4,3,1,65,0,0
500308,-83.3333333333333,4,3,1,75,0,1
518470,-133.333333333333,4,3,1,60,0,0
524632,-105.263157894737,4,3,1,65,0,0
543280,-100,4,3,1,65,0,0
544416,-100,4,3,1,45,0,0
545713,-100,4,3,1,25,0,0
547010,-100,4,3,1,15,0,0
547172,-100,4,3,1,5,0,0
557208,314.13612565445,6,3,1,60,1,0
557208,-133.333333333333,6,3,1,60,0,0
583595,320.855614973262,3,3,1,50,1,0
583595,-200,3,3,1,50,0,0
584557,324.324324324324,4,3,1,40,1,0
584557,-200,4,3,1,40,0,0
585529,327.868852459016,3,3,1,30,1,0
585529,-200,3,3,1,30,0,0
586512,341.880341880342,4,3,1,20,1,0
586512,-200,4,3,1,20,0,0
587365,314.13612565445,4,3,1,70,1,0
592391,314.13612565445,3,3,1,70,1,0
607469,314.13612565445,4,3,1,70,1,0
607469,-90.9090909090909,4,3,1,70,0,0
617521,-86.9565217391304,4,3,1,70,0,0
627573,-90.9090909090909,4,3,1,70,0,0
637626,-86.9565217391304,4,3,1,70,0,1
647678,-100,4,3,1,65,0,0
652704,-153.846153846153,4,3,1,55,0,0
662756,-133.333333333333,4,3,1,60,0,0
667783,-117.647058823529,4,3,1,65,0,0
672809,-83.3333333333333,4,3,1,75,0,1
692835,-83.3333333333333,4,3,1,75,0,0
692914,-76.9230769230769,4,3,1,75,0,1
707992,-100,4,3,1,70,0,0
713018,314.13612565445,3,3,1,55,1,0
713018,-133.333333333333,3,3,1,55,0,0
715845,314.13612565445,4,3,1,60,1,0
715845,-105.263157894737,4,3,1,60,0,0
717101,-90.9090909090909,4,3,1,70,0,0
723384,-100,4,3,1,70,0,0
724640,-100,4,3,1,62,0,0
725897,-100,4,3,1,54,0,0
727153,-100,4,3,1,46,0,0
728410,-100,4,3,1,38,0,0
729666,-100,4,3,1,30,0,0
730923,-1000,4,3,1,22,0,0
732180,-1000,4,3,1,14,0,0
733436,-1000,4,3,1,5,0,0

[Colours]
Combo1 : 143,61,121
Combo2 : 219,51,51
Combo3 : 58,75,109
Combo4 : 250,216,182
Combo5 : 255,192,0
Combo6 : 214,78,176
Combo7 : 225,198,43
Combo8 : 105,114,214

[HitObjects]
256,192,9590,12,0,19715,0:0:0:0:
100,112,20090,6,0,B|200:96|200:96|272:128|272:128|376:112,1,280,2|0,0:0|0:0,0:0:0:0:
436,48,21590,6,0,P|461:101|450:159,1,120,2|0,0:0|0:0,0:0:0:0:
372,216,22340,2,0,L|244:220,1,120,2|0,0:0|0:0,0:0:0:0:
100,332,23090,102,0,B|132:268|88:204|88:204|40:132|88:60,1,280,2|0,0:0|0:0,0:0:0:0:
184,32,24590,6,0,B|260:20|260:20|312:36,1,120,2|0,0:0|0:0,0:0:0:0:
372,72,25340,2,0,B|384:113|384:113|372:189,1,120,2|0,0:0|0:0,0:0:0:0:
248,272,26090,102,0,B|212:272|212:272|192:280|192:280|172:272|172:272|131:272,1,120,2|2,0:0|0:0,0:0:0:0:
48,192,27215,2,0,B|96:188|120:152|120:152|172:148|200:184|200:184|232:164|260:172|260:172|316:224|384:176,1,360,2|0,0:0|0:0,0:0:0:0:
328,16,29090,6,0,P|304:76|332:128,1,120,2|2,0:0|0:0,0:0:0:0:
392,304,30215,2,0,P|506:237|373:237,1,360,2|0,0:0|0:0,0:0:0:0:
440,254,32090,102,0,B|372:239|372:239|312:290|228:242|228:242|264:242|292:226,1,280,2|0,0:0|0:0,0:0:0:0:
356,159,33590,6,0,P|372:103|343:53,1,120,2|0,0:0|0:0,0:0:0:0:
252,32,34340,2,0,L|132:32,1,120,2|0,0:0|0:0,0:0:0:0:
56,84,35090,6,0,B|48:136|48:136|68:212|68:212|76:240|56:284|56:284|96:244|92:204,1,280,2|0,0:0|0:0,0:0:0:0:
124,132,36590,102,0,B|168:120|168:120|256:136,1,120,2|0,0:0|0:0,0:0:0:0:
312,180,37340,2,0,P|366:192|340:156,1,120,2|0,0:0|0:0,0:0:0:0:
309,86,38090,6,0,P|367:74|421:108,1,120,2|2,0:0|0:0,0:0:0:0:
400,296,39215,2,0,B|320:324|256:256|256:256|184:324|104:292,1,320,2|0,0:0|0:0,0:0:0:0:
60,224,41090,6,0,B|48:144|48:144|53:105,1,120,2|2,0:0|0:0,0:0:0:0:
272,16,42215,2,0,B|268:64|244:92|244:92|240:132|272:172|272:172|276:224|240:276|240:276|276:312|260:364,1,360,2|0,0:0|0:0,0:0:0:0:
176,344,44090,5,0,3:3:0:0:
176,344,44277,1,0,3:3:0:0:
80,364,44465,2,0,P|76:336|84:312,1,47.9999985351563,8|0,3:0|2:0,3:0:0:0:
152,252,44840,1,0,0:0:0:0:
60,220,45027,1,0,3:0:0:0:
60,220,45215,1,0,3:0:0:0:
236,200,45402,6,0,P|251:244|241:290,1,95.9999970703126,8|0,3:0|3:0,0:0:0:0:
152,252,45965,2,0,L|144:188,1,47.9999985351563,8|0,3:0|0:0,0:0:0:0:
176,112,46340,1,0,0:0:0:0:
176,112,46433,1,0,0:0:0:0:
176,112,46527,1,0,3:0:0:0:
84,136,46715,1,8,3:0:0:0:
104,44,46902,1,0,0:0:0:0:
284,96,47090,5,0,3:0:0:0:
284,96,47277,1,0,3:0:0:0:
295,192,47465,2,0,P|272:192|249:184,1,47.9999985351563,8|0,3:0|0:0,0:0:0:0:
180,116,47840,1,0,0:0:0:0:
160,208,48027,1,0,3:0:0:0:
160,208,48215,1,0,3:0:0:0:
352,248,48402,6,0,P|373:205|367:158,1,95.9999970703126,8|0,3:0|3:0,0:0:0:0:
320,96,48965,2,0,L|256:88,1,47.9999985351563,8|0,3:0|0:0,0:0:0:0:
248,88,49246,1,0,0:0:0:0:
248,88,49340,1,0,0:0:0:0:
220,180,49527,1,0,3:0:0:0:
152,112,49715,2,0,P|145:87|149:62,1,47.9999985351563,8|0,3:0|2:0,3:0:0:0:
164,36,49996,1,0,0:0:0:0:
164,36,50090,5,0,3:0:0:0:
84,12,50277,1,0,3:0:0:0:
220,88,50465,2,0,P|243:82|259:65,1,47.9999985351563,8|0,3:0|0:0,0:0:0:0:
280,32,50746,1,0,0:0:0:0:
280,32,50840,1,0,0:0:0:0:
332,140,51027,1,0,3:0:0:0:
332,140,51215,1,0,3:0:0:0:
396,12,51402,6,0,B|424:0|424:0|500:4,1,95.9999970703126,8|0,3:0|3:0,0:0:0:0:
436,124,51965,2,0,P|428:92|432:68,1,47.9999985351563,8|0,3:0|0:0,0:0:0:0:
464,80,52246,1,8,3:0:0:0:
464,80,52340,1,0,2:0:0:0:
464,80,52433,1,8,3:0:0:0:
464,80,52527,1,2,3:0:0:0:
360,136,52715,2,0,P|352:104|356:80,1,47.9999985351563,8|0,3:0|0:0,0:0:0:0:
500,176,53090,5,2,3:0:0:0:
500,176,53277,1,2,3:0:0:0:
356,216,53465,2,0,L|288:208,1,47.9999985351563,8|0,3:0|0:0,0:0:0:0:
280,232,53746,1,8,3:0:0:0:
280,232,53840,1,0,0:0:0:0:
244,92,54027,1,0,3:0:0:0:
144,196,54215,1,0,3:0:0:0:
325,107,54402,6,0,P|321:59|289:23,1,95.9999970703126,8|0,3:0|3:0,0:0:0:0:
196,85,54965,2,0,L|256:93,1,47.9999985351563,8|0,3:0|0:0,0:0:0:0:
256,132,55246,1,8,3:0:0:0:
256,132,55340,1,0,0:0:0:0:
256,132,55433,1,8,3:0:0:0:
256,132,55527,1,2,3:0:0:0:
168,216,55715,2,0,P|160:188|164:164,1,47.9999985351563,8|0,3:0|0:0,0:0:0:0:
400,132,56090,5,6,0:0:0:0:
404,171,56183,1,2,0:0:0:0:
408,211,56277,1,2,0:0:0:0:
224,96,56465,2,0,P|216:52|236:8,1,80,12|0,0:0|2:0,0:0:0:0:
284,184,56840,1,6,0:0:0:0:
279,223,56933,1,2,0:0:0:0:
275,263,57027,1,2,0:0:0:0:
271,303,57402,6,0,B|208:296|208:296|176:308|176:308|108:300,1,160,12|0,0:0|0:0,0:0:0:0:
160,148,57965,2,0,P|172:196|156:236,1,80,12|0,0:0|2:0,0:0:0:0:
12,272,58340,1,4,0:0:0:0:
104,96,58527,1,0,0:0:0:0:
240,244,58715,1,12,0:0:0:0:
52,180,58902,1,2,2:0:0:0:
224,12,59090,5,6,0:0:0:0:
227,51,59183,1,2,0:0:0:0:
230,91,59277,1,2,0:0:0:0:
52,180,59465,2,0,B|40:144|40:144|52:96,1,80,12|0,0:0|0:0,0:0:0:0:
308,108,59840,1,6,0:0:0:0:
304,147,59933,1,2,0:0:0:0:
301,187,60027,1,2,0:0:0:0:
298,226,60402,6,0,B|340:244|376:228|376:228|416:212|464:232,1,160,12|0,0:0|0:0,0:0:0:0:
219,263,60965,2,0,P|209:225|220:187,1,80,12|0,0:0|0:0,0:0:0:0:
372,56,61340,1,6,0:0:0:0:
400,52,61433,1,2,0:0:0:0:
428,48,61527,1,8,0:0:0:0:
260,104,61715,1,6,0:0:0:0:
232,100,61808,1,2,0:0:0:0:
204,96,61902,1,8,0:0:0:0:
396,128,62090,5,6,0:0:0:0:
411,163,62183,1,2,0:0:0:0:
401,201,62277,1,2,0:0:0:0:
220,187,62465,2,0,L|304:175,1,80,12|0,0:0|0:0,0:0:0:0:
436,268,62840,1,6,0:0:0:0:
401,283,62933,1,2,0:0:0:0:
362,273,63027,1,2,0:0:0:0:
338,242,63402,6,0,L|172:264,1,160,12|0,0:0|0:0,0:0:0:0:
16,244,63965,2,0,P|4:204|20:160,1,80,12|0,0:0|0:0,0:0:0:0:
228,36,64340,1,6,0:0:0:0:
120,204,64527,1,2,0:0:0:0:
156,8,64715,1,12,0:0:0:0:
312,136,64902,1,2,0:0:0:0:
88,88,65090,5,6,0:0:0:0:
127,86,65183,1,2,0:0:0:0:
167,84,65277,1,2,0:0:0:0:
355,205,65465,2,0,P|315:217|263:201,1,80,12|0,0:0|0:0,0:0:0:0:
228,36,65840,1,6,0:0:0:0:
267,37,65934,1,0,2:0:0:0:
307,39,66027,1,2,0:0:0:0:
424,148,66215,1,2,0:0:0:0:
215,271,66402,6,0,P|190:198|233:134,1,160,12|2,0:0|0:0,0:0:0:0:
436,236,66965,1,12,0:0:0:0:
252,360,67152,1,2,0:0:0:0:
233,134,67340,1,12,0:0:0:0:
328,336,67527,5,2,0:0:0:0:
332,340,67590,1,2,0:0:0:0:
336,344,67652,2,0,L|372:348,1,26.6666666666667,2|2,0:0|0:0,0:0:0:0:
488,168,67902,1,8,0:0:0:0:
164,92,68090,5,6,0:0:0:0:
150,128,68183,1,2,0:0:0:0:
162,166,68277,1,2,0:0:0:0:
312,137,68465,2,0,L|212:133,1,80,12|0,0:0|0:0,0:0:0:0:
72,204,68840,1,6,0:0:0:0:
87,239,68933,1,2,0:0:0:0:
122,257,69027,1,2,0:0:0:0:
160,249,69402,6,0,B|216:248|216:248|256:272|256:272|313:272,1,160,6|0,0:0|0:0,0:0:0:0:
456,191,69965,2,0,P|464:153|452:115,1,80,12|0,0:0|0:0,0:0:0:0:
264,52,70340,1,6,0:0:0:0:
376,216,70527,1,2,0:0:0:0:
464,36,70715,1,12,0:0:0:0:
248,136,70902,1,0,0:0:0:0:
445,271,71090,5,6,0:0:0:0:
450,231,71183,1,2,0:0:0:0:
455,191,71277,1,2,0:0:0:0:
228,216,71465,2,0,P|267:218|301:198,1,80,12|0,0:0|0:0,0:0:0:0:
164,48,71840,5,6,0:0:0:0:
124,48,71933,1,2,0:0:0:0:
95,76,72027,1,2,0:0:0:0:
66,47,72121,1,2,0:0:0:0:
25,47,72215,1,8,0:0:0:0:
142,213,72402,6,0,L|318:197,1,160,12|0,0:0|0:0,0:0:0:0:
492,208,72965,1,12,0:0:0:0:
400,340,73152,1,2,0:0:0:0:
428,140,73340,1,12,0:0:0:0:
476,340,73527,1,8,0:0:0:0:
512,120,73715,1,6,0:0:0:0:
396,348,73902,1,2,0:0:0:0:
456,56,74090,5,6,0:0:0:0:
416,52,74183,1,2,0:0:0:0:
376,49,74277,1,2,0:0:0:0:
256,212,74465,2,0,B|293:223|293:223|344:212,1,80,12|2,0:0|0:0,0:0:0:0:
236,40,74840,1,6,0:0:0:0:
196,43,74934,1,2,0:0:0:0:
156,47,75027,1,2,0:0:0:0:
116,50,75402,6,0,L|84:228,1,160,12|2,0:0|0:0,0:0:0:0:
253,289,75965,2,0,B|264:252|264:252|253:201,1,80,12|2,0:0|0:0,0:0:0:0:
196,43,76340,1,6,0:0:0:0:
172,224,76527,1,2,0:0:0:0:
340,152,76715,1,12,0:0:0:0:
160,324,76902,1,2,0:0:0:0:
332,64,77090,5,6,0:0:0:0:
371,66,77183,1,2,0:0:0:0:
402,90,77277,1,2,0:0:0:0:
251,230,77465,2,0,L|155:222,1,80,12|0,0:0|0:0,0:0:0:0:
340,152,77840,1,6,0:0:0:0:
365,181,77933,1,2,0:0:0:0:
370,220,78027,1,2,0:0:0:0:
224,312,78215,1,6,0:0:0:0:
424,296,78402,1,10,0:0:0:0:
264,152,78590,5,6,0:0:0:0:
356,348,78777,1,0,0:0:0:0:
484,176,78965,1,12,0:0:0:0:
272,252,79152,1,2,0:0:0:0:
320,32,79340,5,8,0:0:0:0:
354,13,79433,1,8,0:0:0:0:
394,17,79527,1,8,0:0:0:0:
424,42,79621,1,8,0:0:0:0:
436,79,79715,1,8,0:0:0:0:
424,117,79808,1,8,0:0:0:0:
394,142,79902,1,8,0:0:0:0:
355,146,79996,1,8,0:0:0:0:
320,128,80090,5,6,0:0:0:0:
376,340,80277,1,2,0:0:0:0:
163,275,80465,2,0,P|150:234|160:192,1,88.000002685547,12|0,0:0|0:0,0:0:0:0:
368,80,80840,1,6,0:0:0:0:
280,280,81027,1,2,0:0:0:0:
152,99,81215,2,0,P|195:104|232:136,1,88.000002685547,12|0,0:0|0:0,0:0:0:0:
248,352,81590,5,6,0:0:0:0:
316,144,81777,1,2,0:0:0:0:
468,304,81965,2,0,P|425:312|387:292,1,88.000002685547,12|0,0:0|0:0,0:0:0:0:
356,72,82340,1,6,0:0:0:0:
504,236,82527,1,2,0:0:0:0:
292,292,82715,2,0,P|304:240|336:212,1,88.000002685547,12|0,0:0|0:0,0:0:0:0:
492,68,83090,5,6,0:0:0:0:
272,72,83277,1,2,0:0:0:0:
512,172,83465,1,12,0:0:0:0:
360,12,83652,1,2,0:0:0:0:
420,224,83840,1,6,0:0:0:0:
208,164,84027,1,2,0:0:0:0:
384,28,84215,1,12,0:0:0:0:
348,244,84402,1,0,0:0:0:0:
164,56,84590,5,6,0:0:0:0:
368,136,84777,1,2,0:0:0:0:
196,276,84965,1,12,0:0:0:0:
272,72,85152,1,2,0:0:0:0:
424,232,85340,1,6,0:0:0:0:
168,172,85527,1,0,0:0:0:0:
376,4,85715,2,0,L|488:12,1,88.000002685547,12|0,0:0|0:0,0:0:0:0:
280,200,86090,5,6,0:0:0:0:
280,200,86183,1,0,2:0:0:0:
280,200,86277,1,2,0:0:0:0:
484,116,86465,1,12,0:0:0:0:
468,336,86652,1,2,0:0:0:0:
304,120,86840,1,6,0:0:0:0:
304,120,86933,1,0,2:0:0:0:
304,120,87027,1,2,0:0:0:0:
488,244,87215,1,12,0:0:0:0:
292,344,87402,1,2,0:0:0:0:
376,80,87590,5,6,0:0:0:0:
376,80,87683,1,0,2:0:0:0:
376,80,87777,1,2,0:0:0:0:
380,300,87965,1,12,0:0:0:0:
176,192,88152,1,2,0:0:0:0:
448,132,88340,1,6,0:0:0:0:
448,132,88433,1,0,2:0:0:0:
448,132,88527,1,2,0:0:0:0:
300,296,88715,1,12,0:0:0:0:
216,92,88902,1,2,0:0:0:0:
432,252,89090,5,6,0:0:0:0:
312,68,89277,1,2,0:0:0:0:
192,252,89465,1,12,0:0:0:0:
312,56,89652,1,2,0:0:0:0:
432,260,89840,1,6,0:0:0:0:
312,44,90027,1,2,0:0:0:0:
192,268,90215,1,12,0:0:0:0:
312,32,90402,1,2,0:0:0:0:
312,316,90590,5,6,0:0:0:0:
176,92,90777,1,2,0:0:0:0:
440,96,90965,1,12,0:0:0:0:
188,176,91152,1,2,0:0:0:0:
404,24,91340,1,6,0:0:0:0:
400,312,91527,5,10,0:0:0:0:
296,40,91715,1,10,0:0:0:0:
88,244,91902,1,10,0:0:0:0:
420,228,92090,5,6,0:0:0:0:
224,132,92277,1,2,0:0:0:0:
240,352,92465,2,0,L|260:248,1,88.000002685547,12|2,0:0|0:0,0:0:0:0:
296,40,92840,1,6,0:0:0:0:
112,160,93027,1,2,0:0:0:0:
324,224,93215,2,0,P|340:184|320:124,1,88.000002685547,12|2,0:0|0:0,0:0:0:0:
96,84,93590,5,6,0:0:0:0:
236,252,93777,1,2,0:0:0:0:
296,40,93965,2,0,B|256:24|256:24|200:32,1,88.000002685547,12|0,0:0|0:0,0:0:0:0:
84,232,94340,1,6,0:0:0:0:
264,108,94527,1,2,0:0:0:0:
64,16,94715,2,0,P|32:48|22:98,1,88.000002685547,12|0,0:0|0:0,0:0:0:0:
156,320,95090,5,6,0:0:0:0:
168,100,95277,1,2,0:0:0:0:
84,352,95465,1,12,0:0:0:0:
204,168,95652,1,2,0:0:0:0:
384,280,95840,1,6,0:0:0:0:
244,100,96027,1,2,0:0:0:0:
92,276,96215,1,12,0:0:0:0:
308,312,96402,1,0,0:0:0:0:
208,32,96590,5,6,0:0:0:0:
60,196,96777,1,2,0:0:0:0:
280,216,96965,1,12,0:0:0:0:
200,12,97152,1,2,0:0:0:0:
168,232,97340,1,6,0:0:0:0:
364,132,97527,1,2,0:0:0:0:
120,64,97715,1,12,0:0:0:0:
344,48,97902,1,2,0:0:0:0:
232,288,98090,5,6,0:0:0:0:
232,288,98277,1,2,0:0:0:0:
258,67,98465,2,0,L|346:47,1,88.000002685547,12|2,0:0|0:0,0:0:0:0:
324,268,98840,1,6,0:0:0:0:
324,268,99027,1,2,0:0:0:0:
168,112,99215,2,0,L|80:92,1,88.000002685547,12|2,0:0|0:0,0:0:0:0:
96,312,99590,5,6,0:0:0:0:
280,192,99777,1,2,0:0:0:0:
82,92,99965,2,0,B|66:136|66:136|78:180,1,88.000002685547,12|0,0:0|0:0,0:0:0:0:
276,272,100340,1,6,0:0:0:0:
160,88,100527,1,2,0:0:0:0:
56,284,100715,2,0,B|100:288|100:288|144:264,1,88.000002685547,12|0,0:0|0:0,0:0:0:0:
288,72,101090,5,6,0:0:0:0:
240,312,101277,1,2,0:0:0:0:
220,28,101465,1,12,0:0:0:0:
304,260,101652,1,2,0:0:0:0:
52,180,101840,5,6,0:0:0:0:
316,180,102027,1,2,0:0:0:0:
124,360,102215,1,12,0:0:0:0:
128,80,102402,1,2,0:0:0:0:
376,232,102590,5,6,0:0:0:0:
92,292,102777,1,2,0:0:0:0:
144,4,102965,1,12,0:0:0:0:
278,168,103152,5,8,0:0:0:0:
282,172,103215,1,8,0:0:0:0:
286,176,103277,2,0,L|322:180,1,29.3333342285157,8|2,0:0|0:0,0:0:0:0:
472,228,103527,1,2,0:0:0:0:
448,52,103715,1,2,0:0:0:0:
376,232,103902,1,2,0:0:0:0:
372,32,104090,6,0,P|263:15|329:102,1,280,6|0,3:0|2:0,2:0:0:0:
452,232,105590,2,0,P|397:210|341:228,1,120,2|0,2:0|2:0,2:0:0:0:
231,233,106340,2,0,P|287:250|341:229,1,120,2|0,2:0|2:0,2:0:0:0:
268,94,107090,2,0,B|212:58|156:98|156:98|104:134|38:86|38:86|60:88|84:82,1,280,2|0,2:0|2:0,0:0:0:0:
216,152,108590,6,0,L|228:280,1,120,2|0,2:0|2:0,3:0:0:0:
56,352,109340,2,0,L|67:232,1,120,2|0,2:0|2:0,3:0:0:0:
171,326,110090,2,0,P|154:368|144:324,1,120,2|0,2:0|2:0,3:0:0:0:
66,232,110840,2,0,B|106:224|106:224|134:236|134:236|198:228,1,120,2|0,2:0|2:0,0:0:0:0:
276,268,111590,6,0,P|284:248|284:216,1,40,2|0,2:0|2:0,0:0:0:0:
244,168,111871,1,0,3:0:0:0:
244,168,111965,2,0,P|236:148|236:116,1,40,0|0,2:0|2:0,2:0:0:0:
252,40,112340,2,0,P|304:4|352:28,1,120,2|0,2:0|2:0,0:0:0:0:
396,92,112996,1,8,0:0:0:0:
396,92,113090,6,0,L|404:224,1,120,2|0,2:0|2:0,2:0:0:0:
272,272,113840,2,0,P|232:272|276:256,1,120,2|0,2:0|2:0,0:0:0:0:
183,329,114590,2,0,P|155:278|163:219,1,120,2|0,0:0|2:0,0:0:0:0:
224,160,115340,1,2,2:0:0:0:
240,152,116090,5,6,0:0:0:0:
300,48,116277,1,6,0:0:0:0:
352,156,116465,1,8,0:0:0:0:
300,48,116652,1,6,0:0:0:0:
288,260,116840,5,2,0:0:0:0:
407,260,117027,1,6,0:0:0:0:
352,156,117215,1,8,0:0:0:0:
407,260,117402,1,6,0:0:0:0:
240,152,117590,5,2,0:0:0:0:
288,260,117777,1,6,0:0:0:0:
352,156,117965,1,8,0:0:0:0:
288,260,118152,1,6,0:0:0:0:
300,48,118340,5,2,0:0:0:0:
240,152,118527,1,6,0:0:0:0:
352,156,118715,1,8,0:0:0:0:
240,152,118902,1,6,0:0:0:0:
420,56,119090,5,2,0:0:0:0:
352,156,119277,1,6,0:0:0:0:
300,48,119465,1,8,0:0:0:0:
352,156,119652,1,6,0:0:0:0:
184,48,119840,5,2,0:0:0:0:
240,152,120027,1,6,0:0:0:0:
300,48,120215,1,8,0:0:0:0:
240,152,120402,1,6,0:0:0:0:
76,48,120590,5,2,0:0:0:0:
156,136,120777,1,6,0:0:0:0:
80,228,120965,1,8,0:0:0:0:
0,140,121152,1,6,0:0:0:0:
199,217,121340,5,2,0:0:0:0:
193,335,121527,1,6,0:0:0:0:
74,347,121715,1,8,0:0:0:0:
80,228,121902,1,6,0:0:0:0:
300,284,122090,5,6,0:0:0:0:
300,284,122277,1,6,0:0:0:0:
312,164,122465,2,0,B|288:148|236:144,1,60.0000022888184,8|6,0:0|0:0,0:0:0:0:
80,228,122840,1,2,0:0:0:0:
80,228,123027,1,6,0:0:0:0:
68,108,123215,2,0,B|92:92|144:88,1,60.0000022888184,8|6,0:0|0:0,0:0:0:0:
333,56,123590,5,2,0:0:0:0:
333,56,123777,1,6,0:0:0:0:
213,44,123965,2,0,B|197:68|193:120,1,60.0000022888184,8|6,0:0|0:0,0:0:0:0:
272,300,124340,1,2,0:0:0:0:
272,300,124527,1,6,0:0:0:0:
392,312,124715,2,0,B|408:288|412:236,1,60.0000022888184,8|2,0:0|0:0,0:0:0:0:
408,251,124965,1,2,0:0:0:0:
406,247,125027,1,2,0:0:0:0:
403,243,125090,6,0,P|384:188|380:168,1,60.0000022888185,6|0,0:0|0:0,0:0:0:0:
440,28,125465,1,8,0:0:0:0:
468,36,125558,2,0,P|459:64|448:92,1,60.0000022888185,6|2,0:0|0:0,0:0:0:0:
352,112,125840,2,0,L|264:104,1,60.0000022888184,12|2,0:0|0:0,0:0:0:0:
60,76,126215,2,0,L|119:70,1,60.0000022888184,12|2,0:0|0:0,0:0:0:0:
196,28,126496,1,2,0:0:0:0:
208,16,126590,5,2,0:0:0:0:
120,204,126777,1,2,0:0:0:0:
0,28,126965,1,2,0:0:0:0:
124,220,127152,1,2,0:0:0:0:
288,12,127340,1,10,0:0:0:0:
256,340,128090,5,6,0:0:0:0:
48,168,128277,2,0,P|103:126|170:145,1,143.999995605469,2|0,0:0|0:0,0:0:0:0:
256,356,128840,1,12,0:0:0:0:
464,168,129027,2,0,P|408:126|341:145,1,143.999995605469,2|0,0:0|0:0,0:0:0:0:
256,248,129496,1,2,0:0:0:0:
256,248,129590,6,0,L|256:112,1,107.999996704102,6|0,0:0|0:0,0:0:0:0:
256,28,129965,1,2,0:0:0:0:
360,256,130152,1,2,0:0:0:0:
108,260,130340,1,12,0:0:0:0:
316,88,130527,1,0,0:0:0:0:
336,75,130620,1,2,0:0:0:0:
359,70,130714,1,2,0:0:0:0:
382,75,130808,1,2,0:0:0:0:
402,88,130902,1,2,0:0:0:0:
416,107,130995,1,2,0:0:0:0:
424,132,131090,5,6,0:0:0:0:
428,96,131183,1,2,0:0:0:0:
432,60,131277,1,2,0:0:0:0:
352,188,131465,1,0,2:0:0:0:
436,24,131652,1,0,2:0:0:0:
472,260,131840,1,12,0:0:0:0:
472,48,132027,1,2,0:0:0:0:
396,256,132215,1,0,2:0:0:0:
464,88,132402,1,2,0:0:0:0:
428,328,132590,6,0,P|372:332|316:256,1,143.999995605469,6|2,0:0|0:0,0:0:0:0:
352,188,133058,1,2,0:0:0:0:
352,188,133152,1,2,0:0:0:0:
212,352,133340,1,12,0:0:0:0:
144,148,133527,1,2,0:0:0:0:
396,256,133715,1,8,0:0:0:0:
124,272,133902,1,8,0:0:0:0:
312,24,134090,5,6,0:0:0:0:
27,191,134277,2,0,P|12:123|52:64,1,143.999995605469,2|0,0:0|0:0,0:0:0:0:
328,12,134840,1,12,0:0:0:0:
512,288,135027,2,0,P|527:220|487:161,1,143.999995605469,2|0,0:0|0:0,0:0:0:0:
324,156,135496,1,2,0:0:0:0:
324,156,135590,6,0,L|308:284,1,107.999996704102,6|0,0:0|0:0,0:0:0:0:
344,368,135965,1,8,0:0:0:0:
200,208,136152,1,2,0:0:0:0:
404,132,136340,1,6,0:0:0:0:
144,272,136527,1,2,0:0:0:0:
128,253,136620,1,2,0:0:0:0:
118,231,136714,1,2,0:0:0:0:
115,208,136808,1,2,0:0:0:0:
118,184,136902,1,2,0:0:0:0:
128,162,136995,1,2,0:0:0:0:
144,144,137089,5,6,0:0:0:0:
108,144,137183,1,0,0:0:0:0:
72,144,137277,1,0,0:0:0:0:
196,228,137465,1,0,2:0:0:0:
31,143,137652,1,0,2:0:0:0:
268,108,137840,1,12,0:0:0:0:
55,108,138027,1,2,0:0:0:0:
263,182,138215,1,0,2:0:0:0:
12,108,138402,1,2,0:0:0:0:
328,152,138590,6,0,P|340:84|288:36,1,143.999995605469,6|0,0:0|0:0,0:0:0:0:
216,48,139058,1,2,0:0:0:0:
216,48,139152,1,2,0:0:0:0:
196,280,139340,1,12,0:0:0:0:
132,40,139527,1,2,0:0:0:0:
132,40,139621,1,2,0:0:0:0:
132,40,139715,1,8,0:0:0:0:
132,332,139902,1,8,0:0:0:0:
448,180,140090,5,12,0:0:0:0:
108,120,140277,2,0,L|92:296,1,143.999995605469,2|0,0:0|0:0,0:0:0:0:
272,160,168296,6,0,P|232:160|272:140,1,120,2|0,0:0|2:0,0:0:0:0:
272,244,168704,6,0,P|232:248|194:230,1,80,6|0,0:0|0:0,0:0:0:0:
156,168,169010,1,2,0:0:0:0:
156,168,169112,2,0,L|164:68,1,80,2|0,0:0|0:0,0:0:0:0:
100,36,169418,1,2,0:0:0:0:
100,36,169520,1,8,0:0:0:0:
296,76,169724,1,6,0:0:0:0:
80,120,169928,1,2,0:0:0:0:
360,20,170132,6,0,P|382:93|332:151,1,160,6|0,0:0|0:0,0:0:0:0:
256,168,170642,1,2,0:0:0:0:
256,168,170744,2,0,P|272:208|312:228,1,80,8|0,0:0|0:0,0:0:0:0:
472,132,171152,1,12,0:0:0:0:
436,149,171254,1,2,0:0:0:0:
418,183,171356,1,2,0:0:0:0:
424,222,171458,1,2,0:0:0:0:
452,250,171560,1,2,0:0:0:0:
487,267,171663,1,2,0:0:0:0:
505,301,171765,1,2,0:0:0:0:
499,340,171867,1,2,0:0:0:0:
471,368,171969,6,0,B|432:356|432:356|396:364|396:364|336:344,1,120,6|2,0:0|0:0,0:0:0:0:
276,336,172377,2,0,B|256:292|256:292|272:212,1,120,2|2,0:0|0:0,0:0:0:0:
324,164,172785,1,6,0:0:0:0:
124,136,172989,1,2,0:0:0:0:
292,28,173193,1,8,0:0:0:0:
132,220,173397,6,0,P|64:196|52:100,1,160,6|0,0:0|0:0,0:0:0:0:
208,60,174010,1,6,0:0:0:0:
228,56,174112,1,2,0:0:0:0:
144,140,174316,1,2,0:0:0:0:
124,136,174418,2,0,L|112:72,2,40,8|2|2,0:0|0:0|0:0,0:0:0:0:
236,164,174724,1,2,0:0:0:0:
256,168,174826,2,0,L|268:232,1,40,2|0,0:0|0:0,0:0:0:0:
216,312,175030,1,8,0:0:0:0:
252,328,175132,1,8,0:0:0:0:
288,344,175234,5,2,0:0:0:0:
292,336,175336,1,2,0:0:0:0:
296,328,175438,2,0,L|332:328,2,26.6666666666667,2|2|2,0:0|0:0|0:0,0:0:0:0:
392,372,175642,2,0,P|407:335|399:297,1,80,12|2,0:0|0:0,0:0:0:0:
340,232,175948,1,2,0:0:0:0:
340,232,176050,2,0,B|408:224|408:224|388:212,1,80,14|0,0:0|0:0,0:0:0:0:
296,160,176357,2,0,B|228:152|228:152|248:140,1,80,6|0,0:0|0:0,0:0:0:0:
368,112,176663,6,0,B|484:84|484:84|420:80,1,160,6|2,0:0|0:0,0:0:0:0:
287,84,177173,1,2,0:0:0:0:
287,84,177275,2,0,P|284:137|309:174,1,80,12|0,0:0|0:0,0:0:0:0:
348,307,177581,1,2,0:0:0:0:
348,307,177683,2,0,P|350:253|325:216,1,80,12|2,0:0|0:0,0:0:0:0:
140,72,178091,1,8,0:0:0:0:
120,80,178193,2,0,L|228:84,1,80,6|0,0:0|0:0,0:0:0:0:
56,136,178499,6,0,P|32:96|60:20,1,120,6|2,0:0|0:0,0:0:0:0:
120,80,178908,2,0,L|136:204,1,120,10|2,0:0|0:0,0:0:0:0:
108,276,179316,1,12,0:0:0:0:
256,140,179520,1,2,0:0:0:0:
324,328,179724,1,12,0:0:0:0:
56,212,179928,5,6,0:0:0:0:
344,128,180234,2,0,L|348:160,1,20,8|0,0:0|0:0,0:0:0:0:
32,132,180540,5,6,0:0:0:0:
296,204,180795,2,0,L|296:236,1,20,8|0,0:0|0:0,0:0:0:0:
56,56,181084,5,6,0:0:0:0:
264,108,181357,2,0,L|255:138,1,20,8|0,0:0|0:0,0:0:0:0:
136,352,181765,5,4,0:0:0:0:
332,212,181969,1,8,0:0:0:0:
116,108,182173,1,2,0:0:0:0:
112,120,182275,1,2,0:0:0:0:
108,132,182377,1,8,0:0:0:0:
352,144,182581,2,0,P|364:96|344:56,1,95.9999970703126,2|8,0:0|0:0,0:0:0:0:
240,192,182887,2,0,L|232:296,1,95.9999970703126,2|0,0:0|0:0,0:0:0:0:
344,332,183193,1,8,0:0:0:0:
264,108,183397,5,6,0:0:0:0:
160,324,183601,1,8,0:0:0:0:
396,272,183806,1,2,0:0:0:0:
404,260,183908,1,2,0:0:0:0:
412,248,184010,1,8,0:0:0:0:
176,128,184214,2,0,P|148:166|155:212,1,95.9999970703126,2|8,0:0|0:0,0:0:0:0:
333,212,184520,2,0,L|225:188,1,95.9999970703126,2|0,0:0|0:0,0:0:0:0:
84,268,184826,1,8,0:0:0:0:
206,100,233601,6,0,L|290:112,1,80,0|0,0:0|2:0,0:0:0:0:
285,111,234826,5,6,0:0:0:0:
256,192,245480,12,0,250480,0:0:0:0:
208,100,392146,5,6,0:0:0:0:
256,192,411442,12,0,416469,2:0:0:0:
200,60,416631,5,8,0:0:0:0:
276,272,416793,1,8,0:0:0:0:
288,292,417117,6,0,L|128:280,1,160,6|0,0:0|0:0,0:0:0:0:
244,168,417605,1,0,0:0:0:0:
244,168,417686,1,0,0:0:0:0:
244,168,417767,1,0,0:0:0:0:
268,132,543280,5,6,0:0:0:0:
256,192,543362,12,2,547172,2:0:0:0:
292,104,583595,6,0,L|456:76,1,160
220,280,584557,6,0,L|56:252,1,160
280,140,585529,6,0,L|444:112,1,160
248,236,586512,6,0,L|90:209,1,160
76,160,637626,5,0,0:0:0:0:
103,124,637704,1,0,0:0:0:0:
147,111,637783,1,0,0:0:0:0:
190,126,637861,1,0,0:0:0:0:
216,162,637940,1,0,0:0:0:0:
242,198,638018,1,0,0:0:0:0:
285,213,638096,1,0,0:0:0:0:
328,200,638175,1,0,0:0:0:0:
356,164,638253,1,0,0:0:0:0:
361,118,638332,1,0,0:0:0:0:
340,79,638411,1,0,0:0:0:0:
299,59,638489,1,0,0:0:0:0:
256,65,638567,1,0,0:0:0:0:
228,100,638647,1,0,0:0:0:0:
224,144,638726,1,0,0:0:0:0:
252,180,638804,1,0,0:0:0:0:
285,213,638882,5,0,0:0:0:0:
306,252,638960,1,0,0:0:0:0:
299,297,639039,1,0,0:0:0:0:
266,327,639117,1,0,0:0:0:0:
221,331,639196,1,0,0:0:0:0:
257,302,639274,1,0,0:0:0:0:
302,295,639353,1,0,0:0:0:0:
344,312,639431,1,0,0:0:0:0:
372,347,639510,1,0,0:0:0:0:
412,370,639588,1,0,0:0:0:0:
456,365,639667,1,0,0:0:0:0:
489,333,639745,1,0,0:0:0:0:
496,289,639824,1,0,0:0:0:0:
480,248,639903,1,0,0:0:0:0:
460,204,639982,1,0,0:0:0:0:
456,160,640060,1,0,0:0:0:0:
476,116,640139,5,0,0:0:0:0:
436,150,640217,1,0,0:0:0:0:
383,159,640296,1,0,0:0:0:0:
334,139,640374,1,0,0:0:0:0:
303,96,640453,1,0,0:0:0:0:
271,53,640531,1,0,0:0:0:0:
222,33,640609,1,0,0:0:0:0:
170,41,640688,1,0,0:0:0:0:
130,76,640766,1,0,0:0:0:0:
116,128,640845,1,0,0:0:0:0:
136,180,640924,1,0,0:0:0:0:
184,208,641003,1,0,0:0:0:0:
240,208,641081,1,0,0:0:0:0:
276,164,641160,1,0,0:0:0:0:
272,108,641238,1,0,0:0:0:0:
224,80,641317,1,0,0:0:0:0:
172,96,641395,5,0,0:0:0:0:
220,124,641474,1,0,0:0:0:0:
272,112,641552,1,0,0:0:0:0:
312,72,641631,1,0,0:0:0:0:
328,20,641709,1,0,0:0:0:0:
373,0,641787,1,0,0:0:0:0:
426,0,641866,1,0,0:0:0:0:
469,27,641944,1,0,0:0:0:0:
487,76,642023,1,0,0:0:0:0:
464,128,642102,1,0,0:0:0:0:
416,156,642181,1,0,0:0:0:0:
372,188,642259,1,0,0:0:0:0:
352,240,642338,1,0,0:0:0:0:
360,296,642416,1,0,0:0:0:0:
404,328,642495,1,0,0:0:0:0:
460,324,642573,1,0,0:0:0:0:
496,284,642652,5,0,0:0:0:0:
456,238,642730,1,0,0:0:0:0:
397,223,642809,1,0,0:0:0:0:
340,243,642887,1,0,0:0:0:0:
305,292,642966,1,0,0:0:0:0:
269,340,643044,1,0,0:0:0:0:
212,361,643122,1,0,0:0:0:0:
154,345,643201,1,0,0:0:0:0:
114,300,643279,1,0,0:0:0:0:
104,240,643359,1,0,0:0:0:0:
124,184,643437,1,0,0:0:0:0:
168,144,643516,1,0,0:0:0:0:
204,100,643594,1,0,0:0:0:0:
204,40,643673,1,0,0:0:0:0:
156,4,643751,1,0,0:0:0:0:
96,16,643830,1,0,0:0:0:0:
68,68,643908,5,0,0:0:0:0:
92,124,643987,1,0,0:0:0:0:
152,132,644065,1,0,0:0:0:0:
200,96,644144,1,0,0:0:0:0:
240,52,644222,1,0,0:0:0:0:
300,56,644301,1,0,0:0:0:0:
336,104,644379,1,0,0:0:0:0:
324,164,644458,1,0,0:0:0:0:
268,188,644537,1,0,0:0:0:0:
220,224,644615,1,0,0:0:0:0:
204,280,644694,1,0,0:0:0:0:
224,336,644772,1,0,0:0:0:0:
284,348,644851,1,0,0:0:0:0:
332,312,644929,1,0,0:0:0:0:
388,288,645008,1,0,0:0:0:0:
448,296,645086,1,0,0:0:0:0:
492,336,645165,5,0,0:0:0:0:
424,336,645243,1,0,0:0:0:0:
375,290,645322,1,0,0:0:0:0:
373,222,645400,1,0,0:0:0:0:
418,172,645479,1,0,0:0:0:0:
462,121,645558,1,0,0:0:0:0:
460,54,645636,1,0,0:0:0:0:
411,8,645715,1,0,0:0:0:0:
344,8,645793,1,0,0:0:0:0:
308,68,645872,1,0,0:0:0:0:
248,104,645950,1,0,0:0:0:0:
180,96,646029,1,0,0:0:0:0:
144,40,646107,1,0,0:0:0:0:
80,12,646186,1,0,0:0:0:0:
16,32,646264,1,0,0:0:0:0:
4,100,646343,1,0,0:0:0:0:
52,148,646421,5,0,0:0:0:0:
127,167,646499,1,0,0:0:0:0:
156,239,646578,1,0,0:0:0:0:
116,305,646656,1,0,0:0:0:0:
39,313,646736,1,0,0:0:0:0:
74,242,646814,1,0,0:0:0:0:
147,214,646893,1,0,0:0:0:0:
220,242,646971,1,0,0:0:0:0:
255,313,647050,5,0,0:0:0:0:
274,300,647128,1,0,0:0:0:0:
289,283,647207,1,0,0:0:0:0:
298,262,647285,1,0,0:0:0:0:
301,239,647364,1,0,0:0:0:0:
298,216,647442,1,0,0:0:0:0:
288,196,647521,1,0,0:0:0:0:
272,179,647599,1,0,0:0:0:0:
252,167,647678,1,0,0:0:0:0:
256,156,723384,5,6,0:0:0:0:
256,192,723462,12,0,730609,2:0:0:0:
196,116,730923,6,2,B|176:148|176:148|180:176|180:176|164:204|174:232|174:232|176:228,1,128,0|2,0:0|2:0,0:0:0:0:
