osu file format v14

[General]
AudioFilename: audio.mp3
AudioLeadIn: 0
PreviewTime: 288481
Countdown: 1
SampleSet: None
StackLeniency: 0.3
Mode: 0
LetterboxInBreaks: 0
WidescreenStoryboard: 0

[Editor]
Bookmarks: 22873,33659,44446,66019,76805,87592,109165,120289,141862,152648,163435,185008,195794,217367,233547,255120,265906,271300,278041,288828,299614,310401,321187,331974,342760,353547,364333,375794,395345
DistanceSpacing: 0.6
BeatDivisor: 4
GridSize: 16
TimelineZoom: 2.899999

[Metadata]
Title:Desire Drive ~ Desire Dream
TitleUnicode:デザイアドライブ ~ Desire Dream
Artist:Demetori
ArtistUnicode:Demetori
Creator:Crissa
Version:Stage 4
Source:東方神霊廟 ~ Ten Desires.
Tags:BEGIERDE DES ZAUBERER ZUN [-Crissaegrim-] Comiket 81 c81 東方 Proyect Touhou Seiga Kaku デザイアドライブ
BeatmapID:1721284
BeatmapSetID:821205

[Difficulty]
HPDrainRate:6
CircleSize:4.4
OverallDifficulty:9
ApproachRate:9.3
SliderMultiplier:2
SliderTickRate:1

[Events]
//Background and Video events
0,0,"bg.jpg",0,0
//Break Periods
//Storyboard Layer 0 (Background)
//Storyboard Layer 1 (Fail)
//Storyboard Layer 2 (Pass)
//Storyboard Layer 3 (Foreground)
//Storyboard Sound Samples

[TimingPoints]
-58,337.078651685393,4,3,4,60,1,0
616,-100,4,3,4,50,0,0
1121,-100,4,3,4,60,0,0
7020,-100,4,3,4,50,0,0
8874,-100,4,3,4,60,0,0
9211,-100,4,3,4,50,0,0
11908,-100,4,3,4,60,0,0
17807,-76.9230769230769,4,3,4,60,0,0
33649,-166.666666666667,4,3,4,40,0,0
41402,-166.666666666667,4,3,4,5,0,0
41571,-166.666666666667,4,3,4,40,0,0
41739,-111.111111111111,4,3,4,50,0,0
44267,-76.9230769230769,4,3,4,60,0,0
64492,-111.111111111111,4,3,4,60,0,0
66009,-111.111111111111,4,3,4,50,0,0
66262,-111.111111111111,4,3,4,5,0,0
66346,-111.111111111111,4,3,4,50,0,0
67610,-111.111111111111,4,3,4,5,0,0
67694,-111.111111111111,4,3,4,50,0,0
68958,-111.111111111111,4,3,4,5,0,0
69042,-111.111111111111,4,3,4,50,0,0
71402,-83.3333333333333,4,3,4,60,0,0
76795,-76.9230769230769,4,3,4,60,0,0
109155,-90.9090909090909,4,3,4,50,0,0
109998,-90.9090909090909,4,3,4,5,0,0
110082,-90.9090909090909,4,3,4,50,0,0
110250,-90.9090909090909,4,3,4,5,0,0
110335,-90.9090909090909,4,3,4,50,0,0
110419,-90.9090909090909,4,3,4,5,0,0
110503,-90.9090909090909,4,3,4,50,0,0
111346,-90.9090909090909,4,3,4,5,0,0
111430,-90.9090909090909,4,3,4,50,0,0
111598,-90.9090909090909,4,3,4,5,0,0
111683,-90.9090909090909,4,3,4,50,0,0
111767,-90.9090909090909,4,3,4,5,0,0
111852,-90.9090909090909,4,3,4,50,0,0
112694,-90.9090909090909,4,3,4,5,0,0
112778,-90.9090909090909,4,3,4,50,0,0
112946,-90.9090909090909,4,3,4,5,0,0
113031,-90.9090909090909,4,3,4,50,0,0
113115,-90.9090909090909,4,3,4,5,0,0
113200,-90.9090909090909,4,3,4,50,0,0
114548,-90.9090909090909,4,3,4,60,0,0
117245,-90.9090909090909,4,3,4,65,0,0
120110,-71.4285714285714,4,3,4,70,0,1
120279,337.078651685393,4,3,4,70,1,1
120363,-71.4285714285714,4,3,4,70,0,1
130391,-71.4285714285714,4,3,4,60,0,0
131065,-71.4285714285714,4,3,4,70,0,1
141683,-100,4,3,4,60,0,0
141936,-100,4,3,4,5,0,0
142020,-100,4,3,4,60,0,0
142779,-100,4,3,4,5,0,0
142863,-100,4,3,4,60,0,0
143453,-100,4,3,4,5,0,0
143537,-100,4,3,4,60,0,0
145475,-100,4,3,4,5,0,0
145559,-100,4,3,4,60,0,0
146149,-100,4,3,4,5,0,0
146233,-100,4,3,4,60,0,0
163425,-76.9230769230769,4,3,4,50,0,0
184998,-76.9230769230769,4,3,4,60,0,0
193087,-76.9230769230769,4,3,4,50,0,0
195110,-76.9230769230769,4,3,4,60,0,0
195616,-100,4,3,4,60,0,0
201009,-83.3333333333333,4,3,4,60,0,1
201514,-142.857142857143,4,3,4,60,0,1
203705,-83.3333333333333,4,3,4,60,0,1
204211,-142.857142857143,4,3,4,60,0,1
204885,-83.3333333333333,4,3,4,60,0,1
214071,-83.3333333333333,4,3,4,5,0,1
214155,-83.3333333333333,4,3,4,60,0,1
225194,-83.3333333333333,4,3,4,5,0,1
225278,-83.3333333333333,4,3,4,60,0,1
233368,-76.9230769230769,4,3,4,60,0,0
255110,-90.9090909090909,4,3,4,50,0,0
255363,-90.9090909090909,4,3,4,5,0,0
255447,-90.9090909090909,4,3,4,50,0,0
258059,-90.9090909090909,4,3,4,5,0,0
258143,-90.9090909090909,4,3,4,50,0,0
260419,-90.9090909090909,4,3,4,5,0,0
260503,-90.9090909090909,4,3,4,50,0,0
260756,-90.9090909090909,4,3,4,5,0,0
260840,-90.9090909090909,4,3,4,50,0,0
265896,-76.9230769230769,4,3,4,60,0,0
278031,-166.666666666667,4,3,4,45,0,0
279211,-166.666666666667,4,3,4,5,0,0
279380,-166.666666666667,4,3,4,45,0,0
279717,-166.666666666667,4,3,4,5,0,0
279885,-166.666666666667,4,3,4,45,0,0
280222,-166.666666666667,4,3,4,5,0,0
280391,-166.666666666667,4,3,4,45,0,0
281908,-166.666666666667,4,3,4,5,0,0
282076,-250,4,3,4,45,0,0
282245,-250,4,3,4,5,0,0
282413,-250,4,3,4,45,0,0
282582,-250,4,3,4,5,0,0
282750,-125,4,3,4,50,0,0
287470,-125,4,3,4,55,0,0
288144,-125,4,3,4,60,0,0
288818,-71.4285714285714,4,3,4,70,0,1
298930,-71.4285714285714,4,3,4,60,0,0
299604,-71.4285714285714,4,3,4,70,0,1
308874,-83.3333333333333,4,3,4,70,0,1
309717,-83.3333333333333,4,3,4,60,0,0
310391,-71.4285714285714,4,3,4,70,0,1
319661,-100,4,3,4,60,0,0
320054,-100,4,3,4,50,0,0
321177,-76.9230769230769,4,3,4,50,0,0
331964,-76.9230769230769,4,3,4,60,0,0
333565,-76.9230769230769,4,3,4,5,0,0
333649,-76.9230769230769,4,3,4,60,0,0
337273,-76.9230769230769,4,3,4,5,0,0
337357,-76.9230769230769,4,3,4,60,0,0
337610,-76.9230769230769,4,3,4,5,0,0
337694,-76.9230769230769,4,3,4,60,0,0
340307,-76.9230769230769,4,3,4,5,0,0
340391,-76.9230769230769,4,3,4,60,0,0
353537,-76.9230769230769,4,3,4,65,0,0
358930,-76.9230769230769,4,3,4,70,0,1
364323,-250,4,3,4,60,0,0
375868,-250,4,3,4,20,0,0
395335,-250,4,3,4,5,0,0

[Colours]
Combo1 : 255,128,166
Combo2 : 255,210,128
Combo3 : 106,218,255
Combo4 : 106,166,255
Combo5 : 143,106,255

[HitObjects]
221,124,616,5,0,0:0:0:0:
222,130,784,1,0,0:0:0:0:
223,136,953,1,0,0:0:0:0:
224,142,1121,6,0,B|125:102|126:171|23:130,1,200,6|0,0:0|0:0,0:0:0:0:
134,14,1627,2,0,P|162:60|158:121,1,100,10|0,0:0|0:0,0:0:0:0:
45,242,1964,1,0,0:0:0:0:
164,213,2133,1,0,0:0:0:0:
233,290,2301,1,8,0:0:0:0:
266,200,2470,6,0,P|356:180|440:248,1,200
445,348,2975,1,8,0:0:0:0:
506,177,3144,1,0,0:0:0:0:
294,290,3312,1,0,0:0:0:0:
446,112,3481,1,0,0:0:0:0:
500,263,3649,1,8,0:0:0:0:
239,175,3818,6,0,P|265:120|357:189,1,200,6|0,0:0|0:0,0:0:0:0:
303,235,4239,1,0,0:0:0:0:
297,243,4324,1,10,0:0:0:0:
209,43,4492,1,0,0:0:0:0:
164,263,4661,1,0,0:0:0:0:
307,156,4829,1,0,0:0:0:0:
261,359,4998,1,8,0:0:0:0:
204,165,5166,1,0,0:0:0:0:
388,306,5335,5,0,0:0:0:0:
164,263,5503,1,0,0:0:0:0:
355,228,5672,1,8,0:0:0:0:
188,337,5840,2,0,P|179:308|179:272,1,50
225,197,6009,6,0,P|230:140|212:93,1,100,12|0,0:0|0:0,0:0:0:0:
145,45,6262,1,8,0:0:0:0:
105,43,6346,1,8,0:0:0:0:
69,61,6430,1,8,0:0:0:0:
46,94,6515,6,0,B|39:166|39:166|72:211|72:211|64:295,1,200,6|0,0:0|0:0,0:0:0:0:
170,363,7020,2,0,L|160:263,1,100,8|0,0:0|0:0,0:0:0:0:
254,123,7357,2,0,L|244:222,1,100
338,363,7694,2,0,L|328:263,1,100,8|0,0:0|0:0,0:0:0:0:
422,123,8031,2,0,L|412:222,1,100
506,363,8368,2,0,L|496:263,1,100,8|0,0:0|0:0,0:0:0:0:
339,112,8706,1,0,0:0:0:0:
301,322,8874,1,8,0:0:0:0:
261,321,8958,1,8,0:0:0:0:
220,320,9043,1,8,0:0:0:0:
180,319,9127,1,8,0:0:0:0:
140,318,9211,6,0,B|119:272|144:237|144:237|129:207|129:207|161:169|145:124,1,200,6|0,0:0|0:0,0:0:0:0:
2,67,9717,2,0,L|131:60,1,100,8|0,0:0|0:0,0:0:0:0:
199,0,10054,2,0,L|328:7,1,100,4|0,0:0|0:0,0:0:0:0:
304,122,10391,2,0,L|204:127,1,100,8|0,0:0|0:0,0:0:0:0:
341,204,10728,5,4,0:0:0:0:
298,5,10897,1,4,0:0:0:0:
139,178,11065,2,0,P|131:247|185:309,1,150,10|0,0:0|0:0,0:0:0:0:
222,222,11402,1,8,0:0:0:0:
0,331,11571,1,4,0:0:0:0:
191,378,11739,1,4,0:0:0:0:
4,125,11908,6,0,B|82:127|82:127|119:103|119:103|206:108,1,200,6|0,0:0|0:0,0:0:0:0:
143,283,12413,2,0,P|132:228|147:181,1,100,10|0,0:0|0:0,0:0:0:0:
351,174,12750,1,0,0:0:0:0:
235,236,12919,1,0,0:0:0:0:
239,104,13088,1,8,0:0:0:0:
335,273,13256,6,0,B|236:233|237:302|134:261,1,200
192,157,13762,1,8,0:0:0:0:
161,352,13930,1,0,0:0:0:0:
83,143,14099,1,0,0:0:0:0:
255,281,14267,1,0,0:0:0:0:
75,294,14436,1,8,0:0:0:0:
281,186,14604,6,0,P|312:131|246:23,1,200,6|0,0:0|0:0,0:0:0:0:
159,7,15026,1,0,0:0:0:0:
144,5,15110,1,10,0:0:0:0:
183,240,15279,1,0,0:0:0:0:
47,44,15447,1,0,0:0:0:0:
24,268,15616,1,0,0:0:0:0:
157,127,15784,1,8,0:0:0:0:
180,351,15953,1,0,0:0:0:0:
47,158,16121,5,0,0:0:0:0:
265,238,16290,1,0,0:0:0:0:
101,310,16458,1,8,0:0:0:0:
277,374,16627,1,0,0:0:0:0:
236,101,16795,1,8,0:0:0:0:
246,80,16880,2,0,L|257:186,1,100,8|0,0:0|0:0,0:0:0:0:
264,272,17133,1,4,0:0:0:0:
292,282,17217,1,4,0:0:0:0:
321,282,17301,6,0,P|353:271|393:122,1,200,6|0,0:0|0:0,0:0:0:0:
300,64,17723,1,0,0:0:0:0:
300,64,17807,2,0,L|165:56,1,129.999994049073,10|0,0:0|0:0,0:0:0:0:
124,177,18059,1,0,0:0:0:0:
124,177,18144,2,0,L|259:169,1,129.999994049073,4|0,0:0|0:0,0:0:0:0:
382,164,18397,1,0,0:0:0:0:
382,164,18481,1,10,0:0:0:0:
210,329,18649,1,0,0:0:0:0:
210,329,18734,1,0,0:0:0:0:
210,329,18818,6,0,P|186:254|198:200,1,129.999994049073,4|0,0:0|0:0,0:0:0:0:
294,123,19071,1,0,0:0:0:0:
294,123,19155,2,0,P|318:48|306:-6,1,129.999994049073,10|0,0:0|0:0,0:0:0:0:
181,15,19408,1,0,0:0:0:0:
181,15,19492,1,6,0:0:0:0:
441,149,19661,1,6,0:0:0:0:
181,171,19829,1,8,0:0:0:0:
368,45,19998,6,0,B|308:169|425:169|361:297,1,259.999988098145,6|0,0:0|0:0,0:0:0:0:
257,368,20419,1,0,0:0:0:0:
257,368,20503,2,0,L|114:361,1,129.999994049073,10|0,0:0|0:0,0:0:0:0:
1,358,20756,1,0,0:0:0:0:
1,358,20840,1,4,0:0:0:0:
212,252,21009,1,0,0:0:0:0:
212,252,21093,1,0,0:0:0:0:
212,252,21177,1,10,0:0:0:0:
48,215,21346,1,0,0:0:0:0:
327,84,21515,5,8,0:0:0:0:
326,96,21683,1,8,0:0:0:0:
325,108,21852,1,8,0:0:0:0:
324,120,22020,1,8,0:0:0:0:
323,132,22189,5,8,0:0:0:0:
373,120,22273,1,8,0:0:0:0:
422,134,22357,1,8,0:0:0:0:
457,171,22442,1,8,0:0:0:0:
469,220,22526,1,8,0:0:0:0:
454,269,22610,1,8,0:0:0:0:
417,304,22694,1,8,0:0:0:0:
368,316,22779,1,8,0:0:0:0:
319,302,22863,5,6,0:0:0:0:
246,99,23031,2,0,P|281:152|278:232,1,129.999994049073,8|4,0:0|0:0,0:0:0:0:
235,293,23284,1,0,0:0:0:0:
235,293,23368,1,8,0:0:0:0:
145,163,23537,1,4,0:0:0:0:
113,384,23706,1,8,0:0:0:0:
341,336,23874,1,4,0:0:0:0:
341,336,23958,1,0,0:0:0:0:
341,336,24043,6,0,P|363:269|341:202,1,129.999994049073,8|4,0:0|0:0,0:0:0:0:
220,132,24380,2,0,P|198:65|220:-2,1,129.999994049073,8|4,0:0|0:0,0:0:0:0:
316,8,24633,1,0,0:0:0:0:
316,8,24717,1,8,0:0:0:0:
313,217,24885,5,4,0:0:0:0:
286,215,24970,1,0,0:0:0:0:
260,214,25054,1,8,0:0:0:0:
234,213,25138,1,0,0:0:0:0:
211,200,25222,1,4,0:0:0:0:
184,198,25307,1,0,0:0:0:0:
158,197,25391,1,8,0:0:0:0:
132,196,25475,1,0,0:0:0:0:
111,180,25559,5,4,0:0:0:0:
254,12,25728,2,0,P|276:79|254:146,1,129.999994049073,8|4,0:0|0:0,0:0:0:0:
181,210,25981,1,0,0:0:0:0:
181,210,26065,2,0,P|159:277|181:344,1,129.999994049073,8|4,0:0|0:0,0:0:0:0:
391,142,26402,2,0,L|257:134,1,129.999994049073,8|4,0:0|0:0,0:0:0:0:
161,127,26655,1,0,0:0:0:0:
161,127,26739,1,8,0:0:0:0:
309,61,26908,5,4,0:0:0:0:
283,281,27076,2,0,L|417:273,1,129.999994049073,8|4,0:0|0:0,0:0:0:0:
512,266,27329,1,0,0:0:0:0:
512,266,27413,1,8,0:0:0:0:
345,144,27582,5,4,0:0:0:0:
343,171,27667,1,0,0:0:0:0:
342,197,27751,1,8,0:0:0:0:
341,223,27835,1,0,0:0:0:0:
328,246,27919,1,4,0:0:0:0:
326,273,28004,1,0,0:0:0:0:
325,299,28088,1,8,0:0:0:0:
324,325,28172,1,0,0:0:0:0:
308,345,28256,5,6,0:0:0:0:
85,240,28425,2,0,P|152:234|202:279,1,129.999994049073,8|4,0:0|0:0,0:0:0:0:
228,352,28677,1,0,0:0:0:0:
228,352,28762,1,8,0:0:0:0:
60,321,28930,1,4,0:0:0:0:
283,281,29099,1,8,0:0:0:0:
111,145,29267,1,4,0:0:0:0:
111,145,29352,1,0,0:0:0:0:
111,145,29436,6,0,P|105:78|150:28,1,129.999994049073,8|4,0:0|0:0,0:0:0:0:
301,112,29773,2,0,P|301:179|251:225,1,129.999994049073,8|4,0:0|0:0,0:0:0:0:
158,245,30026,1,0,0:0:0:0:
158,245,30110,1,8,0:0:0:0:
388,302,30279,5,4,0:0:0:0:
389,276,30363,1,0,0:0:0:0:
390,250,30447,1,8,0:0:0:0:
391,224,30531,1,0,0:0:0:0:
406,203,30616,1,4,0:0:0:0:
407,177,30700,1,0,0:0:0:0:
408,151,30784,1,8,0:0:0:0:
409,125,30868,1,0,0:0:0:0:
424,104,30953,5,2,0:0:0:0:
286,231,31121,2,0,P|214:238|150:209,1,129.999994049073,8|4,0:0|0:0,0:0:0:0:
104,143,31374,1,0,0:0:0:0:
104,143,31458,1,8,0:0:0:0:
277,11,31627,1,0,0:0:0:0:
277,11,31711,1,0,0:0:0:0:
277,11,31795,2,0,L|280:149,1,129.999994049073,8|4,0:0|0:0,0:0:0:0:
286,231,32048,1,0,0:0:0:0:
286,231,32133,1,8,0:0:0:0:
395,119,32301,6,0,L|396:188,1,64.9999970245363,4|0,0:0|0:0,0:0:0:0:
398,320,32470,1,8,0:0:0:0:
359,316,32554,1,8,0:0:0:0:
320,312,32638,1,8,0:0:0:0:
281,309,32722,1,8,0:0:0:0:
241,306,32807,1,8,0:0:0:0:
202,303,32891,1,8,0:0:0:0:
163,300,32975,5,4,0:0:0:0:
166,287,33059,1,4,0:0:0:0:
169,274,33144,1,4,0:0:0:0:
172,261,33228,1,4,0:0:0:0:
175,248,33312,1,4,0:0:0:0:
179,235,33397,1,4,0:0:0:0:
183,222,33481,1,4,0:0:0:0:
187,209,33565,1,4,0:0:0:0:
191,196,33649,6,0,B|336:120|334:243|479:183|479:183|425:97|331:118|331:118|361:58|305:1|305:1|248:53|268:111,1,719.999978027344,2|0,0:0|0:0,0:0:0:0:
286,122,36009,5,4,0:0:0:0:
300,144,36093,1,4,0:0:0:0:
309,168,36177,1,4,0:0:0:0:
314,193,36262,1,4,0:0:0:0:
314,219,36346,6,0,B|241:244|197:192|197:192|215:308|215:308|159:223|60:254|60:254|162:150|86:39,1,659.999979858399,2|0,0:0|0:0,0:0:0:0:
11,90,38284,1,0,0:0:0:0:
11,90,38368,2,0,L|22:202,2,79.9999975585938,4|4|4,0:0|0:0|0:0,0:0:0:0:
18,262,39043,6,0,B|110:214|199:289|199:289|156:196|156:196|226:257|325:212|325:212|277:124|174:148|174:148|243:113|239:46|239:46|245:80|266:98,1,839.999974365235,2|0,0:0|0:0,0:0:0:0:
370,33,41571,2,0,L|372:14,2,19.9999993896485,4|4|4,0:0|0:0|0:0,0:0:0:0:
336,57,41739,6,0,L|343:192,1,134.999995880127,10|0,0:0|0:0,0:0:0:0:
345,237,42076,1,8,0:0:0:0:
267,126,42245,1,4,0:0:0:0:
260,327,42413,5,8,0:0:0:0:
348,151,42582,1,4,0:0:0:0:
337,384,42750,5,8,0:0:0:0:
198,179,42919,1,4,0:0:0:0:
418,300,43088,5,8,0:0:0:0:
440,261,43172,1,8,0:0:0:0:
447,216,43256,1,4,0:0:0:0:
438,171,43341,1,4,0:0:0:0:
415,133,43425,5,8,0:0:0:0:
174,278,43593,1,0,0:0:0:0:
178,294,43677,1,0,0:0:0:0:
183,310,43762,2,0,L|200:271,1,29.9999990844727,8|8,0:0|0:0,0:0:0:0:
281,72,43930,2,0,L|266:26,3,29.9999990844727,4|4|4|4,0:0|0:0|0:0|0:0,0:0:0:0:
412,217,44267,6,0,B|341:208|341:208|292:228|292:228|219:219,1,194.999991073609,2|0,0:0|0:0,0:0:0:0:
126,208,44604,1,8,0:0:0:0:
207,68,44773,1,4,0:0:0:0:
207,68,44856,1,0,0:0:0:0:
207,68,44941,1,8,0:0:0:0:
180,325,45110,1,4,0:0:0:0:
272,208,45279,1,8,0:0:0:0:
56,138,45447,1,4,0:0:0:0:
56,138,45531,1,4,0:0:0:0:
56,138,45616,6,0,P|115:97|232:138,1,194.999991073609,8|0,0:0|0:0,0:0:0:0:
272,208,45953,1,8,0:0:0:0:
363,28,46121,1,4,0:0:0:0:
363,28,46206,1,4,0:0:0:0:
363,28,46290,1,8,0:0:0:0:
397,277,46458,1,4,0:0:0:0:
269,90,46627,1,8,0:0:0:0:
254,345,46795,1,4,0:0:0:0:
254,345,46880,1,4,0:0:0:0:
254,345,46964,6,0,P|154:369|57:330,1,194.999991073609,8|0,0:0|0:0,0:0:0:0:
8,272,47301,1,8,0:0:0:0:
268,216,47470,1,4,0:0:0:0:
268,216,47554,1,4,0:0:0:0:
268,216,47638,1,8,0:0:0:0:
36,99,47807,1,4,0:0:0:0:
36,99,47891,1,4,0:0:0:0:
36,99,47975,1,8,0:0:0:0:
296,43,48144,1,4,0:0:0:0:
296,43,48228,1,4,0:0:0:0:
296,43,48312,6,0,B|287:114|287:114|307:163|307:163|298:236,1,194.999991073609,8|0,0:0|0:0,0:0:0:0:
285,336,48649,1,8,0:0:0:0:
404,168,48818,1,4,0:0:0:0:
404,168,48902,1,4,0:0:0:0:
404,168,48986,1,8,0:0:0:0:
214,252,49155,1,4,0:0:0:0:
467,251,49324,1,8,0:0:0:0:
264,117,49492,1,4,0:0:0:0:
264,117,49576,1,4,0:0:0:0:
264,117,49661,6,0,B|208:114|183:73|183:73|124:58|85:103,1,194.999991073609,10|0,0:0|0:0,0:0:0:0:
48,174,49998,1,8,0:0:0:0:
237,224,50166,1,4,0:0:0:0:
237,224,50250,1,4,0:0:0:0:
237,224,50335,1,8,0:0:0:0:
63,301,50503,1,4,0:0:0:0:
252,351,50672,1,8,0:0:0:0:
222,133,50840,1,4,0:0:0:0:
222,133,50925,1,4,0:0:0:0:
222,133,51009,6,0,P|300:115|394:198,1,194.999991073609,8|0,0:0|0:0,0:0:0:0:
399,271,51346,1,8,0:0:0:0:
439,89,51515,1,4,0:0:0:0:
439,89,51599,1,4,0:0:0:0:
439,89,51683,1,8,0:0:0:0:
283,228,51852,1,4,0:0:0:0:
254,37,52020,1,8,0:0:0:0:
126,205,52189,1,4,0:0:0:0:
126,205,52273,1,4,0:0:0:0:
126,205,52357,6,0,P|141:285|248:344,1,194.999991073609,8|0,0:0|0:0,0:0:0:0:
331,325,52694,1,8,0:0:0:0:
254,110,52863,1,4,0:0:0:0:
254,110,52947,1,4,0:0:0:0:
254,110,53031,1,8,0:0:0:0:
131,313,53200,1,4,0:0:0:0:
131,313,53284,1,4,0:0:0:0:
131,313,53368,1,8,0:0:0:0:
382,223,53537,1,4,0:0:0:0:
382,223,53621,1,4,0:0:0:0:
382,223,53706,6,0,B|379:167|338:142|338:142|323:83|368:44,1,194.999991073609,8|0,0:0|0:0,0:0:0:0:
443,0,54043,1,8,0:0:0:0:
244,34,54211,1,4,0:0:0:0:
244,34,54295,1,4,0:0:0:0:
244,34,54380,1,8,0:0:0:0:
425,114,54548,1,4,0:0:0:0:
166,158,54717,1,10,0:0:0:0:
365,192,54885,1,4,0:0:0:0:
365,192,54970,1,4,0:0:0:0:
365,192,55054,6,0,B|396:270|348:341|348:341|305:315,1,194.999991073609,10|0,0:0|0:0,0:0:0:0:
239,269,55391,1,8,0:0:0:0:
472,253,55559,1,4,0:0:0:0:
472,253,55644,1,4,0:0:0:0:
472,253,55728,1,8,0:0:0:0:
280,109,55897,1,4,0:0:0:0:
280,109,55981,1,4,0:0:0:0:
280,109,56065,1,8,0:0:0:0:
252,348,56234,1,4,0:0:0:0:
252,348,56319,1,4,0:0:0:0:
252,348,56402,6,0,P|167:372|77:314,1,194.999991073609,8|0,0:0|0:0,0:0:0:0:
45,235,56739,1,8,0:0:0:0:
274,218,56908,1,4,0:0:0:0:
274,218,56992,1,4,0:0:0:0:
274,218,57076,1,8,0:0:0:0:
63,75,57245,1,4,0:0:0:0:
63,75,57329,1,4,0:0:0:0:
63,75,57413,1,8,0:0:0:0:
116,319,57582,1,4,0:0:0:0:
116,319,57666,1,4,0:0:0:0:
116,319,57750,6,0,L|317:309,1,194.999991073609,8|0,0:0|0:0,0:0:0:0:
428,304,58088,1,8,0:0:0:0:
344,76,58256,1,4,0:0:0:0:
344,76,58340,1,4,0:0:0:0:
344,76,58425,1,8,0:0:0:0:
248,301,58593,1,4,0:0:0:0:
248,301,58677,1,4,0:0:0:0:
248,301,58762,1,8,0:0:0:0:
164,73,58930,1,4,0:0:0:0:
164,73,59014,1,4,0:0:0:0:
164,73,59099,6,0,B|133:151|181:222|181:222|224:196,1,194.999991073609,8|0,0:0|0:0,0:0:0:0:
293,155,59436,1,8,0:0:0:0:
74,147,59604,1,4,0:0:0:0:
74,147,59689,1,4,0:0:0:0:
74,147,59773,1,8,0:0:0:0:
233,296,59941,1,4,0:0:0:0:
259,47,60110,1,8,0:0:0:0:
110,233,60279,1,4,0:0:0:0:
110,233,60363,1,4,0:0:0:0:
110,233,60447,6,0,P|181:200|289:255,1,194.999991073609,10|0,0:0|0:0,0:0:0:0:
316,335,60784,1,8,0:0:0:0:
374,139,60953,1,4,0:0:0:0:
374,139,61037,1,4,0:0:0:0:
374,139,61121,1,8,0:0:0:0:
465,325,61290,1,4,0:0:0:0:
465,325,61374,1,4,0:0:0:0:
465,325,61458,1,8,0:0:0:0:
225,149,61627,1,4,0:0:0:0:
225,149,61711,1,4,0:0:0:0:
225,149,61795,6,0,P|159:138|78:239,1,194.999991073609,8|0,0:0|0:0,0:0:0:0:
79,317,62133,1,8,0:0:0:0:
23,109,62301,1,4,0:0:0:0:
23,109,62385,1,4,0:0:0:0:
23,109,62470,1,8,0:0:0:0:
217,270,62638,1,4,0:0:0:0:
217,270,62722,1,4,0:0:0:0:
217,270,62807,1,8,0:0:0:0:
278,41,62975,1,4,0:0:0:0:
278,41,63059,1,4,0:0:0:0:
278,41,63144,6,0,P|195:32|127:133,1,194.999991073609,10|0,0:0|0:0,0:0:0:0:
137,203,63481,2,0,P|166:189|205:186,1,64.9999970245363,10|0,0:0|0:0,0:0:0:0:
390,204,63649,1,4,0:0:0:0:
136,330,63818,2,0,P|165:344|204:347,1,64.9999970245363,10|0,0:0|0:0,0:0:0:0:
389,329,63986,1,4,0:0:0:0:
278,41,64155,5,10,0:0:0:0:
136,330,64324,1,4,0:0:0:0:
286,180,64492,2,0,L|336:186,2,29.9999990844727,8|4|4,0:0|0:0|0:0,0:0:0:0:
262,197,64661,5,4,0:0:0:0:
225,114,64829,1,4,0:0:0:0:
140,81,64998,1,4,0:0:0:0:
57,118,65166,1,4,0:0:0:0:
144,319,65335,5,8,0:0:0:0:
188,318,65419,1,8,0:0:0:0:
232,318,65503,1,8,0:0:0:0:
277,317,65588,1,8,0:0:0:0:
321,317,65672,1,8,0:0:0:0:
365,316,65756,1,8,0:0:0:0:
409,316,65840,1,8,0:0:0:0:
454,315,65925,1,8,0:0:0:0:
498,315,66009,6,0,P|470:248|459:168,1,134.999995880127,6|0,0:0|0:0,0:0:0:0:
462,71,66346,1,8,0:0:0:0:
200,232,66683,6,0,P|271:222|352:232,1,134.999995880127,4|4,0:0|0:0,0:0:0:0:
445,260,67020,1,8,0:0:0:0:
376,134,67189,1,0,0:0:0:0:
337,333,67357,6,0,P|265:342|184:332,1,134.999995880127,4|0,0:0|0:0,0:0:0:0:
92,305,67694,1,8,0:0:0:0:
243,69,68031,6,0,P|233:140|243:221,1,134.999995880127,4|4,0:0|0:0,0:0:0:0:
271,314,68368,1,8,0:0:0:0:
355,162,68537,1,0,0:0:0:0:
145,123,68706,6,0,P|154:194|144:275,1,134.999995880127,4|0,0:0|0:0,0:0:0:0:
117,368,69043,1,8,0:0:0:0:
242,146,69380,6,0,P|313:136|394:146,1,134.999995880127,4|4,0:0|0:0,0:0:0:0:
487,174,69717,1,8,0:0:0:0:
363,43,69885,1,0,0:0:0:0:
384,235,70054,6,0,P|312:225|231:235,1,134.999995880127,4|4,0:0|0:0,0:0:0:0:
139,263,70391,1,8,0:0:0:0:
267,333,70559,1,0,0:0:0:0:
242,146,70728,1,4,0:0:0:0:
164,373,70897,1,4,0:0:0:0:
146,375,70981,1,4,0:0:0:0:
128,374,71065,2,0,P|90:343|65:281,1,89.9999972534181,10|0,0:0|0:0,0:0:0:0:
198,89,71402,6,0,P|200:147|208:215,1,119.999996337891,6|0,0:0|0:0,0:0:0:0:
305,26,71739,1,8,0:0:0:0:
297,169,71908,1,0,0:0:0:0:
456,76,72076,2,0,P|386:72|323:116,1,119.999996337891,4|4,0:0|0:0,0:0:0:0:
301,172,72329,1,4,0:0:0:0:
301,172,72413,1,8,0:0:0:0:
220,1,72582,1,0,0:0:0:0:
87,215,72750,6,0,P|150:207|214:209,1,119.999996337891,6|0,0:0|0:0,0:0:0:0:
377,263,73088,1,8,0:0:0:0:
238,294,73256,1,0,0:0:0:0:
355,115,73425,2,0,P|425:111|488:155,1,119.999996337891,4|4,0:0|0:0,0:0:0:0:
510,211,73678,1,4,0:0:0:0:
510,211,73762,1,8,0:0:0:0:
489,41,73930,1,0,0:0:0:0:
303,216,74099,6,0,L|313:355,1,119.999996337891,10|4,0:0|0:0,0:0:0:0:
311,335,74436,1,4,0:0:0:0:
175,138,74604,6,0,L|165:277,1,119.999996337891,10|4,0:0|0:0,0:0:0:0:
166,257,74941,1,4,0:0:0:0:
303,60,75110,6,0,L|313:199,1,119.999996337891,10|4,0:0|0:0,0:0:0:0:
324,300,75363,1,4,0:0:0:0:
324,300,75447,5,10,0:0:0:0:
182,60,75616,1,10,0:0:0:0:
115,215,75784,1,0,0:0:0:0:
115,215,75868,1,0,0:0:0:0:
115,215,75953,5,10,0:0:0:0:
412,126,76121,1,10,0:0:0:0:
182,60,76290,1,4,0:0:0:0:
134,61,76374,1,4,0:0:0:0:
92,85,76458,1,4,0:0:0:0:
68,127,76543,1,4,0:0:0:0:
68,175,76627,1,4,0:0:0:0:
92,216,76711,1,4,0:0:0:0:
133,240,76795,6,0,P|194:215|262:237,1,129.999994049073,10|0,0:0|0:0,0:0:0:0:
314,303,77048,1,0,0:0:0:0:
314,303,77133,1,8,0:0:0:0:
377,75,77301,1,0,0:0:0:0:
409,236,77470,1,8,0:0:0:0:
262,100,77638,1,0,0:0:0:0:
262,100,77722,1,0,0:0:0:0:
262,100,77807,1,8,0:0:0:0:
474,170,77975,1,0,0:0:0:0:
304,182,78144,6,0,P|288:243|313:302,1,129.999994049073,8|0,0:0|0:0,0:0:0:0:
396,353,78397,1,0,0:0:0:0:
396,353,78481,1,8,0:0:0:0:
209,252,78649,1,0,0:0:0:0:
421,229,78818,5,8,0:0:0:0:
419,203,78902,1,0,0:0:0:0:
417,177,78986,1,0,0:0:0:0:
415,150,79071,1,0,0:0:0:0:
414,124,79155,1,8,0:0:0:0:
413,98,79239,1,0,0:0:0:0:
412,71,79324,1,0,0:0:0:0:
411,45,79407,1,0,0:0:0:0:
410,18,79492,6,0,P|377:72|318:96,1,129.999994049073,8|0,0:0|0:0,0:0:0:0:
227,84,79745,1,0,0:0:0:0:
227,84,79829,1,8,0:0:0:0:
284,285,79998,1,0,0:0:0:0:
314,114,80166,1,8,0:0:0:0:
159,217,80335,1,0,0:0:0:0:
159,217,80419,1,0,0:0:0:0:
159,217,80503,1,8,0:0:0:0:
379,215,80672,1,0,0:0:0:0:
211,152,80840,6,0,P|195:213|220:272,1,129.999994049073,8|0,0:0|0:0,0:0:0:0:
303,323,81093,1,0,0:0:0:0:
303,323,81177,1,8,0:0:0:0:
311,140,81346,1,0,0:0:0:0:
205,281,81515,6,0,B|194:311|194:311|196:356,1,64.9999970245363,8|0,0:0|0:0,0:0:0:0:
379,215,81683,2,0,B|390:185|390:185|388:140,1,64.9999970245363
206,47,81852,5,10,0:0:0:0:
205,79,81936,1,0,0:0:0:0:
204,111,82020,1,0,0:0:0:0:
203,143,82104,1,0,0:0:0:0:
203,175,82189,5,10,0:0:0:0:
432,146,82357,1,0,0:0:0:0:
432,146,82441,1,0,0:0:0:0:
432,146,82526,1,8,0:0:0:0:
316,294,82694,1,0,0:0:0:0:
248,92,82863,2,0,P|183:118|165:175,1,129.999994049073,8|0,0:0|0:0,0:0:0:0:
194,253,83116,1,0,0:0:0:0:
194,253,83200,1,8,0:0:0:0:
81,125,83368,1,0,0:0:0:0:
20,324,83537,6,0,P|87:348|140:321,1,129.999994049073,8|0,0:0|0:0,0:0:0:0:
194,253,83790,1,0,0:0:0:0:
194,253,83874,1,8,0:0:0:0:
16,223,84043,2,0,P|3:189|-1:155,1,64.9999970245363
23,63,84211,5,8,0:0:0:0:
47,66,84295,1,0,0:0:0:0:
73,70,84380,1,0,0:0:0:0:
98,73,84464,1,0,0:0:0:0:
123,77,84548,1,8,0:0:0:0:
149,81,84633,1,0,0:0:0:0:
174,85,84717,1,0,0:0:0:0:
198,90,84801,1,0,0:0:0:0:
225,93,84885,6,0,B|239:157|239:157|211:232,1,129.999994049073,10|0,0:0|0:0,0:0:0:0:
171,306,85138,1,0,0:0:0:0:
175,324,85222,1,8,0:0:0:0:
179,343,85307,1,0,0:0:0:0:
362,256,85475,1,0,0:0:0:0:
362,256,85559,2,0,L|345:127,1,129.999994049073,8|0,0:0|0:0,0:0:0:0:
336,44,85812,1,0,0:0:0:0:
336,44,85897,1,10,0:0:0:0:
245,198,86065,1,0,0:0:0:0:
245,198,86149,1,0,0:0:0:0:
245,198,86234,5,4,0:0:0:0:
77,174,86402,2,0,L|87:224,2,43.3333313496908,4|4|4,0:0|0:0|0:0,0:0:0:0:
47,158,86571,1,4,0:0:0:0:
156,118,86739,1,0,0:0:0:0:
117,345,86908,5,8,0:0:0:0:
47,158,87076,2,0,L|57:108,2,43.3333313496908,4|4|4,0:0|0:0|0:0,0:0:0:0:
77,174,87245,1,4,0:0:0:0:
281,213,87413,6,8,B|208:217|208:217|167:251|167:251|81:255,1,194.999991073609,10|0,0:0|0:0,0:0:0:0:
8,257,87750,1,8,0:0:0:0:
241,364,87919,2,0,P|245:326|237:291,1,64.9999970245363,0|4,0:0|0:0,0:0:0:0:
114,149,88088,1,8,0:0:0:0:
83,337,88256,1,4,0:0:0:0:
68,84,88425,1,8,0:0:0:0:
281,213,88593,1,4,0:0:0:0:
281,213,88677,1,4,0:0:0:0:
281,213,88762,6,0,P|304:143|219:65,1,194.999991073609,8|0,0:0|0:0,0:0:0:0:
140,67,89099,1,8,0:0:0:0:
188,325,89267,1,4,0:0:0:0:
188,325,89352,1,4,0:0:0:0:
188,325,89436,2,0,L|200:251,1,64.9999970245363,8|0,0:0|0:0,0:0:0:0:
225,65,89604,1,4,0:0:0:0:
118,254,89773,1,8,0:0:0:0:
345,214,89941,1,4,0:0:0:0:
345,214,90026,1,4,0:0:0:0:
345,214,90110,6,0,P|289:186|198:273,1,194.999991073609,8|0,0:0|0:0,0:0:0:0:
199,348,90447,1,8,0:0:0:0:
153,107,90616,1,4,0:0:0:0:
153,107,90700,1,4,0:0:0:0:
153,107,90784,2,0,P|161:142|158:177,1,64.9999970245363,8|0,0:0|0:0,0:0:0:0:
315,315,90953,2,0,P|307:280|310:245,1,64.9999970245363,4|0,0:0|0:0,0:0:0:0:
377,14,91121,2,0,P|385:49|382:84,1,64.9999970245363,8|0,0:0|0:0,0:0:0:0:
201,234,91290,1,4,0:0:0:0:
201,234,91374,1,4,0:0:0:0:
201,234,91458,6,0,B|253:198|253:198|380:234,1,194.999991073609,8|0,0:0|0:0,0:0:0:0:
475,266,91795,1,8,0:0:0:0:
390,85,91964,1,4,0:0:0:0:
390,85,92048,1,4,0:0:0:0:
390,85,92133,1,8,0:0:0:0:
398,324,92301,1,0,0:0:0:0:
133,181,92470,6,0,P|162:159|201:152,1,64.9999970245363,8|0,0:0|0:0,0:0:0:0:
436,135,92638,2,0,P|406:156|368:164,1,64.9999970245363,4|4,0:0|0:0,0:0:0:0:
280,285,92807,6,0,B|264:213|264:213|287:165|287:165|268:80,1,194.999991073609,10|0,0:0|0:0,0:0:0:0:
244,3,93144,1,8,0:0:0:0:
175,238,93312,2,0,L|246:228,1,64.9999970245363,4|4,0:0|0:0,0:0:0:0:
380,164,93481,1,8,0:0:0:0:
138,85,93649,1,4,0:0:0:0:
344,44,93818,1,8,0:0:0:0:
212,226,93986,1,4,0:0:0:0:
212,226,94071,1,4,0:0:0:0:
212,226,94155,6,0,P|134:195|63:285,1,194.999991073609,8|0,0:0|0:0,0:0:0:0:
61,360,94492,1,8,0:0:0:0:
301,292,94661,1,4,0:0:0:0:
301,292,94745,1,4,0:0:0:0:
301,292,94829,2,0,L|230:289,1,64.9999970245363,8|0,0:0|0:0,0:0:0:0:
69,188,94998,1,4,0:0:0:0:
263,119,95166,1,8,0:0:0:0:
172,349,95335,1,4,0:0:0:0:
172,349,95419,1,4,0:0:0:0:
172,349,95503,6,0,P|150:277|241:206,1,194.999991073609,8|0,0:0|0:0,0:0:0:0:
317,223,95840,1,8,0:0:0:0:
141,66,96009,1,4,0:0:0:0:
141,66,96093,1,4,0:0:0:0:
141,66,96177,2,0,P|134:96|137:143,1,64.9999970245363,8|0,0:0|0:0,0:0:0:0:
296,303,96346,2,0,P|300:269|292:226,1,64.9999970245363,4|0,0:0|0:0,0:0:0:0:
69,159,96515,2,0,P|78:188|104:227,1,64.9999970245363,8|0,0:0|0:0,0:0:0:0:
318,68,96683,1,4,0:0:0:0:
318,68,96767,1,4,0:0:0:0:
318,68,96852,6,0,B|355:100|340:159|340:159|299:184|296:240,1,194.999991073609,8|0,0:0|0:0,0:0:0:0:
310,320,97189,1,8,0:0:0:0:
221,168,97357,1,4,0:0:0:0:
221,168,97441,1,4,0:0:0:0:
221,168,97526,1,8,0:0:0:0:
397,166,97694,1,4,0:0:0:0:
93,326,97863,2,0,L|159:333,1,64.9999970245363,10|0,0:0|0:0,0:0:0:0:
328,348,98031,1,4,0:0:0:0:
328,348,98116,1,4,0:0:0:0:
328,348,98200,6,0,B|359:270|311:199|311:199|268:225,1,194.999991073609,10|0,0:0|0:0,0:0:0:0:
200,269,98537,1,8,0:0:0:0:
232,63,98706,1,4,0:0:0:0:
232,63,98790,1,4,0:0:0:0:
232,63,98874,2,0,P|199:64|165:59,1,64.9999970245363,8|0,0:0|0:0,0:0:0:0:
27,231,99043,2,0,P|59:226|91:227,1,64.9999970245363,4|4,0:0|0:0,0:0:0:0:
233,168,99211,2,0,P|200:166|168:171,1,64.9999970245363,8|0,0:0|0:0,0:0:0:0:
25,109,99380,2,0,P|57:113|89:111,1,64.9999970245363,4|4,0:0|0:0,0:0:0:0:
312,166,99548,6,0,P|352:236|266:315,1,194.999991073609,8|0,0:0|0:0,0:0:0:0:
198,287,99885,1,8,0:0:0:0:
281,82,100054,1,4,0:0:0:0:
281,82,100138,1,4,0:0:0:0:
281,82,100222,2,0,P|288:110|288:158,1,64.9999970245363,8|0,0:0|0:0,0:0:0:0:
207,351,100391,2,0,P|206:318|198:287,1,64.9999970245363,4|4,0:0|0:0,0:0:0:0:
154,38,100559,2,0,P|161:65|185:107,1,64.9999970245363,8|0,0:0|0:0,0:0:0:0:
410,72,100728,1,4,0:0:0:0:
410,72,100812,1,4,0:0:0:0:
410,72,100897,6,0,L|399:273,1,194.999991073609,8|0,0:0|0:0,0:0:0:0:
396,358,101234,1,8,0:0:0:0:
289,123,101402,1,4,0:0:0:0:
289,123,101486,1,4,0:0:0:0:
289,123,101571,2,0,P|273:153|265:196,1,64.9999970245363,8|0,0:0|0:0,0:0:0:0:
185,366,101739,2,0,P|177:334|161:306,1,64.9999970245363,4|4,0:0|0:0,0:0:0:0:
178,52,101908,2,0,P|162:82|154:125,1,64.9999970245363,8|0,0:0|0:0,0:0:0:0:
354,224,102076,1,4,0:0:0:0:
354,224,102161,1,4,0:0:0:0:
354,224,102245,6,0,B|258:186|255:255|150:214,1,194.999991073609,8|0,0:0|0:0,0:0:0:0:
92,162,102582,1,8,0:0:0:0:
241,348,102750,1,4,0:0:0:0:
241,348,102835,1,4,0:0:0:0:
241,348,102919,1,8,0:0:0:0:
237,68,103088,1,4,0:0:0:0:
114,300,103256,1,8,0:0:0:0:
406,232,103425,1,4,0:0:0:0:
406,232,103509,1,4,0:0:0:0:
406,232,103593,6,0,B|375:185|406:139|406:139|417:86|374:51,1,194.999991073609,10|0,0:0|0:0,0:0:0:0:
292,19,103930,1,8,0:0:0:0:
282,259,104099,1,4,0:0:0:0:
282,259,104183,1,4,0:0:0:0:
282,259,104267,2,0,P|248:261|208:251,1,64.9999970245363,8|0,0:0|0:0,0:0:0:0:
83,111,104436,2,0,P|117:109|157:119,1,64.9999970245363,4|4,0:0|0:0,0:0:0:0:
196,342,104604,2,0,P|165:326|135:298,1,64.9999970245363,8|0,0:0|0:0,0:0:0:0:
314,149,104773,1,4,0:0:0:0:
314,149,104857,1,4,0:0:0:0:
314,149,104941,6,0,P|388:136|481:222,1,194.999991073609,8|0,0:0|0:0,0:0:0:0:
474,298,105279,1,8,0:0:0:0:
223,219,105447,1,4,0:0:0:0:
223,219,105531,1,4,0:0:0:0:
223,219,105616,2,0,P|212:181|210:143,1,64.9999970245363,8|0,0:0|0:0,0:0:0:0:
469,92,105784,2,0,P|480:54|482:16,1,64.9999970245363,4|4,0:0|0:0,0:0:0:0:
382,245,105953,2,0,P|391:275|395:308,1,64.9999970245363,8|0,0:0|0:0,0:0:0:0:
297,64,106121,1,4,0:0:0:0:
297,64,106206,1,4,0:0:0:0:
297,64,106290,6,0,B|281:136|281:136|304:184|304:184|285:269,1,194.999991073609,10|0,0:0|0:0,0:0:0:0:
265,342,106627,1,8,0:0:0:0:
429,130,106795,1,4,0:0:0:0:
429,130,106880,1,4,0:0:0:0:
429,130,106964,2,0,L|359:125,1,64.9999970245363,10|0,0:0|0:0,0:0:0:0:
158,199,107133,1,4,0:0:0:0:
158,199,107218,1,4,0:0:0:0:
158,199,107302,2,0,L|228:194,1,64.9999970245363,10|0,0:0|0:0,0:0:0:0:
429,268,107470,1,4,0:0:0:0:
429,268,107554,1,4,0:0:0:0:
429,268,107638,6,0,P|341:264|305:158,1,194.999991073609,10|0,0:0|0:0,0:0:0:0:
317,84,107975,1,4,0:0:0:0:
315,77,108059,1,4,0:0:0:0:
313,70,108144,5,8,0:0:0:0:
277,98,108228,1,8,0:0:0:0:
233,111,108312,1,8,0:0:0:0:
187,109,108397,1,8,0:0:0:0:
145,90,108481,5,4,0:0:0:0:
132,85,108565,1,4,0:0:0:0:
118,82,108649,1,4,0:0:0:0:
104,81,108734,1,4,0:0:0:0:
89,83,108818,1,4,0:0:0:0:
75,87,108902,1,4,0:0:0:0:
63,94,108987,1,4,0:0:0:0:
51,102,109072,1,4,0:0:0:0:
41,113,109155,6,0,L|52:171,1,55.0000016784668,6|0,0:0|0:0,0:0:0:0:
134,254,109324,2,0,L|123:312,1,55.0000016784668
146,104,109492,2,0,L|157:162,1,55.0000016784668,6|0,0:0|0:0,0:0:0:0:
239,245,109661,2,0,L|228:303,1,55.0000016784668
253,107,109829,6,0,B|304:84|304:84|362:86,1,110.000003356934,10|0,0:0|0:0,0:0:0:0:
429,166,110082,2,0,B|383:133|383:133|356:82,1,110.000003356934
386,39,110335,2,0,B|358:85,1,55.0000016784668
338,241,110503,6,0,L|429:247,2,73.3333355712891,6|4|4,0:0|0:0|0:0,0:0:0:0:
265,191,110840,1,6,0:0:0:0:
257,272,110953,1,4,0:0:0:0:
249,353,111065,1,4,0:0:0:0:
183,305,111177,6,0,B|127:299|127:299|78:268,1,110.000003356934,10|0,0:0|0:0,0:0:0:0:
62,165,111430,2,0,B|84:215|84:215|82:274,1,110.000003356934
34,297,111683,2,0,B|82:270,1,55.0000016784668
185,176,111852,5,6,0:0:0:0:
183,165,111936,1,0,0:0:0:0:
181,154,112020,1,0,0:0:0:0:
226,319,112189,1,6,0:0:0:0:
224,330,112273,1,0,0:0:0:0:
222,341,112357,1,0,0:0:0:0:
306,145,112526,6,0,B|351:177|351:177|378:228,1,110.000003356934,10|0,0:0|0:0,0:0:0:0:
343,327,112779,2,0,B|348:271|348:271|379:222,1,110.000003356934
431,227,113032,2,0,L|375:225,1,55.0000016784668
236,101,113200,6,0,L|245:26,2,73.3333355712891,2|2|0,0:0|0:0|0:0,0:0:0:0:
264,177,113537,1,8,0:0:0:0:
184,164,113649,1,8,0:0:0:0:
118,211,113762,1,8,0:0:0:0:
104,290,113874,6,0,L|119:378,1,73.3333355712891,2|2,0:0|0:0,0:0:0:0:
198,257,114099,1,4,0:0:0:0:
269,293,114211,1,8,0:0:0:0:
316,225,114324,1,8,0:0:0:0:
398,209,114436,1,8,0:0:0:0:
464,255,114548,6,0,P|478:196|484:133,1,110.000003356934,2|0,0:0|0:0,0:0:0:0:
285,55,114885,1,8,0:0:0:0:
316,225,115054,1,0,0:0:0:0:
68,151,115222,2,0,P|136:109|224:128,1,165.000005035401,2|0,0:0|0:0,0:0:0:0:
277,174,115559,1,8,0:0:0:0:
131,24,115728,1,0,0:0:0:0:
125,283,115897,6,0,L|247:277,1,110.000003356934,2|0,0:0|0:0,0:0:0:0:
476,262,116234,1,8,0:0:0:0:
294,377,116402,1,0,0:0:0:0:
322,67,116571,2,0,P|371:99|349:223,1,165.000005035401,2|0,0:0|0:0,0:0:0:0:
308,253,116908,1,8,0:0:0:0:
161,94,117076,1,0,0:0:0:0:
165,72,117161,1,0,0:0:0:0:
170,50,117245,6,0,P|189:107|176:171,1,110.000003356934,10|0,0:0|0:0,0:0:0:0:
120,224,117498,1,0,0:0:0:0:
120,224,117582,1,8,0:0:0:0:
268,99,117750,1,0,0:0:0:0:
326,338,117919,6,0,P|385:341|444:312,1,110.000003356934,8|0,0:0|0:0,0:0:0:0:
481,244,118172,1,0,0:0:0:0:
481,244,118256,1,10,0:0:0:0:
184,293,118425,1,4,0:0:0:0:
162,140,118593,5,4,0:0:0:0:
198,151,118677,1,4,0:0:0:0:
234,140,118762,1,4,0:0:0:0:
270,151,118846,1,4,0:0:0:0:
306,140,118930,5,8,0:0:0:0:
300,189,119015,1,8,0:0:0:0:
330,227,119099,1,4,0:0:0:0:
379,233,119183,1,4,0:0:0:0:
417,203,119267,5,4,0:0:0:0:
444,198,119352,1,4,0:0:0:0:
469,207,119436,1,4,0:0:0:0:
486,227,119520,1,4,0:0:0:0:
491,254,119604,5,4,0:0:0:0:
337,56,119773,2,0,L|343:11,2,36.6666677856446,4|4|4,0:0|0:0|0:0,0:0:0:0:
359,76,119941,1,4,0:0:0:0:
63,32,120110,6,0,L|86:262,1,209.999993591309,6|0,0:0|0:0,0:0:0:0:
95,344,120447,1,8,0:0:0:0:
217,141,120616,1,4,0:0:0:0:
216,131,120700,1,4,0:0:0:0:
215,121,120784,1,8,0:0:0:0:
342,349,120953,1,4,0:0:0:0:
198,268,121121,1,8,0:0:0:0:
437,250,121290,1,4,0:0:0:0:
445,245,121374,1,4,0:0:0:0:
453,240,121458,6,0,P|473:176|388:70,1,209.999993591309,8|0,0:0|0:0,0:0:0:0:
297,58,121795,1,8,0:0:0:0:
219,277,121964,1,4,0:0:0:0:
221,286,122048,1,4,0:0:0:0:
223,295,122132,1,8,0:0:0:0:
378,101,122301,1,4,0:0:0:0:
111,146,122470,1,8,0:0:0:0:
338,203,122638,1,4,0:0:0:0:
338,212,122722,1,4,0:0:0:0:
338,222,122807,2,0,L|339:292,1,69.9999978637696,8|0,0:0|0:0,0:0:0:0:
110,311,122975,5,4,0:0:0:0:
270,171,123144,1,8,0:0:0:0:
13,211,123312,1,4,0:0:0:0:
12,201,123396,1,4,0:0:0:0:
11,190,123481,1,8,0:0:0:0:
217,334,123649,1,4,0:0:0:0:
17,295,123818,1,8,0:0:0:0:
285,218,123986,1,4,0:0:0:0:
289,208,124071,1,4,0:0:0:0:
291,198,124155,6,0,P|279:114|167:51,1,209.999993591309,8|0,0:0|0:0,0:0:0:0:
77,52,124492,1,8,0:0:0:0:
106,325,124661,1,4,0:0:0:0:
106,325,124745,1,4,0:0:0:0:
106,325,124829,1,8,0:0:0:0:
290,54,124998,1,4,0:0:0:0:
420,340,125166,2,0,P|307:370|225:292,1,209.999993591309,8|0,0:0|0:0,0:0:0:0:
223,226,125503,1,8,0:0:0:0:
229,187,125588,1,0,0:0:0:0:
235,148,125672,5,2,0:0:0:0:
470,253,125840,1,8,0:0:0:0:
303,102,126009,1,4,0:0:0:0:
307,87,126093,1,4,0:0:0:0:
311,72,126177,1,8,0:0:0:0:
359,319,126346,1,4,0:0:0:0:
433,142,126514,1,8,0:0:0:0:
197,226,126683,1,4,0:0:0:0:
192,211,126767,1,4,0:0:0:0:
187,196,126852,6,0,P|192:132|322:75,1,209.999993591309,8|0,0:0|0:0,0:0:0:0:
405,110,127189,1,8,0:0:0:0:
380,316,127357,1,4,0:0:0:0:
378,330,127441,1,4,0:0:0:0:
376,345,127526,1,8,0:0:0:0:
221,172,127694,1,4,0:0:0:0:
219,158,127779,1,4,0:0:0:0:
217,143,127863,1,8,0:0:0:0:
451,192,128031,1,4,0:0:0:0:
453,207,128116,1,4,0:0:0:0:
455,221,128200,1,8,0:0:0:0:
112,124,128368,5,0,0:0:0:0:
343,102,128537,1,8,0:0:0:0:
180,249,128705,1,4,0:0:0:0:
182,264,128790,1,4,0:0:0:0:
184,278,128874,1,8,0:0:0:0:
414,238,129043,1,4,0:0:0:0:
223,146,129211,1,8,0:0:0:0:
458,95,129380,1,4,0:0:0:0:
459,80,129464,1,4,0:0:0:0:
460,65,129548,6,0,B|379:73|379:73|335:54|335:54|254:62,1,209.999993591309,10|0,0:0|0:0,0:0:0:0:
157,73,129885,1,8,0:0:0:0:
314,203,130054,1,4,0:0:0:0:
327,202,130138,1,4,0:0:0:0:
340,201,130222,1,8,0:0:0:0:
172,350,130391,5,4,0:0:0:0:
152,348,130475,1,4,0:0:0:0:
132,347,130559,5,8,0:0:0:0:
155,311,130644,1,8,0:0:0:0:
156,268,130728,5,4,0:0:0:0:
154,261,130812,1,4,0:0:0:0:
152,254,130896,1,4,0:0:0:0:
150,247,130981,1,4,0:0:0:0:
148,240,131065,5,2,0:0:0:0:
188,249,131149,1,0,0:0:0:0:
227,236,131234,1,8,0:0:0:0:
254,205,131317,1,0,0:0:0:0:
263,165,131402,1,0,0:0:0:0:
291,135,131486,1,0,0:0:0:0:
330,121,131571,1,8,0:0:0:0:
370,130,131654,1,0,0:0:0:0:
401,158,131739,6,0,P|410:193|403:235,1,69.9999978637696
232,304,131908,2,0,P|223:269|230:227,1,69.9999978637696,8|0,0:0|0:0,0:0:0:0:
291,135,132076,1,0,0:0:0:0:
305,95,132161,1,0,0:0:0:0:
301,53,132245,5,8,0:0:0:0:
258,77,132329,1,0,0:0:0:0:
209,84,132413,1,0,0:0:0:0:
160,74,132498,1,0,0:0:0:0:
118,48,132582,6,0,P|83:43|41:46,1,69.9999978637696,8|0,0:0|0:0,0:0:0:0:
7,222,132750,2,0,P|42:227|84:224,1,69.9999978637696
292,161,132919,2,0,P|257:156|215:159,1,69.9999978637696,8|0,0:0|0:0,0:0:0:0:
176,341,133087,5,0,0:0:0:0:
222,357,133172,1,0,0:0:0:0:
269,347,133256,1,8,0:0:0:0:
305,315,133341,1,0,0:0:0:0:
320,269,133425,5,0,0:0:0:0:
324,255,133509,1,0,0:0:0:0:
331,243,133593,1,8,0:0:0:0:
341,233,133677,1,0,0:0:0:0:
353,226,133762,6,0,P|389:201|410:166,1,69.9999978637696
277,42,133930,2,0,P|241:67|220:102,1,69.9999978637696,8|0,0:0|0:0,0:0:0:0:
256,266,134099,1,0,0:0:0:0:
244,305,134183,1,0,0:0:0:0:
215,332,134267,1,8,0:0:0:0:
176,341,134352,1,0,0:0:0:0:
138,329,134436,5,0,0:0:0:0:
126,312,134520,1,0,0:0:0:0:
111,298,134604,1,8,0:0:0:0:
92,288,134689,1,0,0:0:0:0:
72,284,134773,2,0,P|29:266|8:241,1,69.9999978637696
113,111,134941,5,8,0:0:0:0:
135,108,135026,1,0,0:0:0:0:
156,105,135110,1,0,0:0:0:0:
177,102,135194,1,0,0:0:0:0:
199,99,135279,2,0,L|192:178,1,69.9999978637696,8|0,0:0|0:0,0:0:0:0:
287,331,135447,5,0,0:0:0:0:
342,326,135531,1,0,0:0:0:0:
398,321,135616,1,8,0:0:0:0:
453,317,135700,1,0,0:0:0:0:
508,314,135784,2,0,L|513:224,1,69.9999978637696
277,27,135953,6,0,B|274:105|274:105|305:150|305:150|300:245,1,209.999993591309,10|0,0:0|0:0,0:0:0:0:
287,331,136289,1,10,0:0:0:0:
231,336,136374,1,0,0:0:0:0:
176,341,136458,6,0,L|181:251,1,69.9999978637696,4|0,0:0|0:0,0:0:0:0:
42,124,136627,2,0,L|47:214,1,69.9999978637696,8|0,0:0|0:0,0:0:0:0:
241,167,136795,1,0,0:0:0:0:
261,130,136880,1,0,0:0:0:0:
259,87,136964,1,8,0:0:0:0:
236,51,137048,1,0,0:0:0:0:
198,31,137132,2,0,P|161:29|119:46,1,69.9999978637696
153,248,137301,2,0,P|190:250|232:233,1,69.9999978637696,8|0,0:0|0:0,0:0:0:0:
335,135,137470,1,0,0:0:0:0:
346,94,137554,1,0,0:0:0:0:
340,52,137638,5,8,0:0:0:0:
303,84,137722,1,0,0:0:0:0:
286,130,137807,1,0,0:0:0:0:
295,178,137890,1,0,0:0:0:0:
326,215,137975,2,0,P|340:248|334:297,1,69.9999978637696,8|0,0:0|0:0,0:0:0:0:
166,314,138144,2,0,P|152:281|158:232,1,69.9999978637696
273,64,138312,2,0,P|287:97|281:146,1,69.9999978637696,8|0,0:0|0:0,0:0:0:0:
77,182,138481,5,0,0:0:0:0:
76,133,138565,1,0,0:0:0:0:
99,90,138649,1,8,0:0:0:0:
140,64,138734,1,0,0:0:0:0:
189,63,138818,5,0,0:0:0:0:
198,73,138902,1,0,0:0:0:0:
207,83,138986,1,8,0:0:0:0:
216,93,139071,1,0,0:0:0:0:
225,103,139155,6,0,L|308:97,1,69.9999978637696,2|0,0:0|0:0,0:0:0:0:
457,196,139323,2,0,L|374:190,1,69.9999978637696,8|0,0:0|0:0,0:0:0:0:
226,256,139492,5,0,0:0:0:0:
228,297,139576,1,0,0:0:0:0:
250,331,139661,1,8,0:0:0:0:
286,349,139744,1,0,0:0:0:0:
326,347,139829,5,0,0:0:0:0:
338,340,139913,1,0,0:0:0:0:
351,335,139998,1,8,0:0:0:0:
364,332,140081,1,0,0:0:0:0:
378,332,140166,2,0,P|422:328|447:316,1,69.9999978637696
379,62,140335,6,0,B|336:23|282:42|282:42|256:89|186:86,1,209.999993591309,10|0,0:0|0:0,0:0:0:0:
84,55,140672,1,10,0:0:0:0:
153,375,140840,1,2,0:0:0:0:
331,181,141009,1,4,0:0:0:0:
326,146,141093,1,4,0:0:0:0:
321,111,141177,1,8,0:0:0:0:
40,235,141346,1,4,0:0:0:0:
46,283,141430,1,4,0:0:0:0:
52,331,141514,1,8,0:0:0:0:
211,103,141683,6,0,B|166:76|166:76|181:202,1,150,2|0,0:0|0:0,0:0:0:0:
191,264,142020,1,0,0:0:0:0:
210,264,142104,1,0,0:0:0:0:
230,264,142189,1,4,0:0:0:0:
249,264,142273,1,0,0:0:0:0:
268,264,142357,1,0,0:0:0:0:
287,264,142441,1,0,0:0:0:0:
318,328,142526,6,0,L|329:170,1,150,8|0,0:0|0:0,0:0:0:0:
335,83,142863,1,4,0:0:0:0:
354,78,142947,1,0,0:0:0:0:
373,76,143031,1,0,0:0:0:0:
392,77,143116,1,0,0:0:0:0:
411,82,143200,6,0,P|459:113|492:206,1,150,4|0,0:0|0:0,0:0:0:0:
473,289,143537,1,4,0:0:0:0:
453,290,143621,1,0,0:0:0:0:
433,291,143705,1,0,0:0:0:0:
412,292,143790,1,0,0:0:0:0:
364,344,143874,5,8,0:0:0:0:
271,86,144043,1,8,0:0:0:0:
95,296,144211,1,8,0:0:0:0:
350,205,144380,1,4,0:0:0:0:
350,205,144717,5,0,0:0:0:0:
330,204,144801,1,0,0:0:0:0:
310,203,144885,1,4,0:0:0:0:
289,202,144970,1,0,0:0:0:0:
269,201,145054,1,0,0:0:0:0:
249,200,145138,1,0,0:0:0:0:
201,250,145222,6,0,L|218:97,1,150,12|0,0:0|0:0,0:0:0:0:
224,11,145559,1,4,0:0:0:0:
240,22,145644,1,0,0:0:0:0:
257,30,145728,1,0,0:0:0:0:
275,34,145812,1,0,0:0:0:0:
294,36,145896,6,0,P|367:78|408:148,1,150,4|0,0:0|0:0,0:0:0:0:
419,232,146234,1,4,0:0:0:0:
417,251,146318,1,0,0:0:0:0:
415,270,146402,1,0,0:0:0:0:
413,289,146486,1,0,0:0:0:0:
454,346,146571,5,10,0:0:0:0:
183,206,146739,1,8,0:0:0:0:
485,136,146908,1,8,0:0:0:0:
257,62,147076,6,0,P|268:162|264:269,1,200,2|0,0:0|0:0,0:0:0:0:
158,355,147582,2,0,P|160:301|153:243,1,100,8|0,0:0|0:0,0:0:0:0:
112,155,147919,5,4,0:0:0:0:
436,248,148256,1,8,0:0:0:0:
110,242,148593,1,4,0:0:0:0:
437,160,148930,1,8,0:0:0:0:
152,318,149267,1,4,0:0:0:0:
267,110,149436,1,8,0:0:0:0:
226,91,149520,1,8,0:0:0:0:
183,106,149604,1,8,0:0:0:0:
164,147,149689,1,8,0:0:0:0:
179,190,149773,6,0,B|280:220|278:157|378:189,1,200,2|0,0:0|0:0,0:0:0:0:
464,320,150278,2,0,P|457:271|460:216,1,100,8|0,0:0|0:0,0:0:0:0:
483,100,150616,1,4,0:0:0:0:
263,303,150953,2,0,L|256:194,1,100,8|0,0:0|0:0,0:0:0:0:
249,109,151205,1,4,0:0:0:0:
247,78,151290,5,8,0:0:0:0:
120,288,151458,1,8,0:0:0:0:
397,243,151627,1,4,0:0:0:0:
405,214,151711,1,4,0:0:0:0:
402,184,151795,1,4,0:0:0:0:
389,156,151880,1,4,0:0:0:0:
367,135,151964,5,8,0:0:0:0:
346,174,152048,1,4,0:0:0:0:
339,217,152132,1,4,0:0:0:0:
347,260,152217,1,4,0:0:0:0:
370,297,152301,1,8,0:0:0:0:
445,63,152470,6,0,P|381:32|269:89,1,200,2|0,0:0|0:0,0:0:0:0:
242,173,152891,1,0,0:0:0:0:
242,173,152975,5,10,0:0:0:0:
203,17,153144,2,0,L|102:11,1,100
88,255,153481,1,0,0:0:0:0:
88,255,153565,1,0,0:0:0:0:
88,255,153649,5,10,0:0:0:0:
15,120,153818,2,0,L|116:114,1,100
210,295,154155,1,0,0:0:0:0:
210,295,154239,1,0,0:0:0:0:
210,295,154323,5,10,0:0:0:0:
249,102,154492,1,0,0:0:0:0:
381,357,154661,5,10,0:0:0:0:
147,205,154829,1,10,0:0:0:0:
395,78,154998,1,0,0:0:0:0:
221,347,155166,6,0,L|107:336,1,100,2|0,0:0|0:0,0:0:0:0:
55,151,155503,1,0,0:0:0:0:
55,151,155587,1,0,0:0:0:0:
55,151,155672,5,10,0:0:0:0:
218,58,155840,2,0,L|216:178,1,100
462,106,156177,1,0,0:0:0:0:
462,106,156261,1,0,0:0:0:0:
462,106,156346,5,10,0:0:0:0:
299,199,156514,2,0,L|301:79,1,100
452,257,156852,1,0,0:0:0:0:
452,257,156936,1,0,0:0:0:0:
452,257,157020,6,0,P|377:245|330:318,1,150,10|0,0:0|0:0,0:0:0:0:
326,384,157357,1,8,0:0:0:0:
271,378,157441,1,8,0:0:0:0:
215,373,157526,5,4,0:0:0:0:
218,358,157610,1,4,0:0:0:0:
221,343,157694,1,4,0:0:0:0:
225,328,157778,1,4,0:0:0:0:
229,313,157863,6,0,B|155:299|155:299|114:326|114:326|29:314,1,200,2|0,0:0|0:0,0:0:0:0:
86,140,158368,2,0,P|98:189|96:243,1,100,8|0,0:0|0:0,0:0:0:0:
229,148,158705,2,0,P|217:99|219:45,1,100,4|0,0:0|0:0,0:0:0:0:
372,156,159043,2,0,P|384:205|382:259,1,100,8|0,0:0|0:0,0:0:0:0:
176,276,159380,2,0,P|164:227|166:173,1,100,4|0,0:0|0:0,0:0:0:0:
319,284,159718,2,0,P|331:333|329:387,1,100,8|0,0:0|0:0,0:0:0:0:
112,305,160054,5,4,0:0:0:0:
317,182,160222,1,8,0:0:0:0:
328,132,160307,1,8,0:0:0:0:
300,88,160391,1,4,0:0:0:0:
250,77,160475,1,4,0:0:0:0:
206,105,160559,6,0,B|176:206|239:204|207:304,1,200,6|0,0:0|0:0,0:0:0:0:
26,265,161065,2,0,P|87:251|136:252,1,100,8|0,0:0|0:0,0:0:0:0:
295,326,161402,1,4,0:0:0:0:
126,343,161571,1,4,0:0:0:0:
332,230,161739,1,8,0:0:0:0:
77,64,161908,6,0,B|84:139|84:139|117:175|117:175|124:257,1,200,2|0,0:0|0:0,0:0:0:0:
332,230,162413,2,0,L|342:119,1,100,10|0,0:0|0:0,0:0:0:0:
351,44,162666,1,0,0:0:0:0:
351,44,162750,5,8,0:0:0:0:
213,132,162919,1,4,0:0:0:0:
251,269,163087,1,4,0:0:0:0:
368,309,163256,1,4,0:0:0:0:
387,306,163340,1,4,0:0:0:0:
407,303,163425,6,0,L|394:164,1,129.999994049073,10|0,0:0|0:0,0:0:0:0:
395,174,163762,1,4,0:0:0:0:
176,130,163930,6,0,L|163:269,1,129.999994049073,10|0,0:0|0:0,0:0:0:0:
164,259,164267,1,4,0:0:0:0:
433,239,164436,6,0,L|420:100,1,129.999994049073,10|0,0:0|0:0,0:0:0:0:
421,110,164773,1,4,0:0:0:0:
150,66,164941,6,0,L|137:205,1,129.999994049073,10|0,0:0|0:0,0:0:0:0:
138,195,165278,1,4,0:0:0:0:
459,175,165447,6,0,L|446:36,1,129.999994049073,10|0,0:0|0:0,0:0:0:0:
124,2,165784,1,10,0:0:0:0:
247,279,165953,1,4,0:0:0:0:
240,298,166037,1,4,0:0:0:0:
234,316,166121,6,0,P|173:287|97:300,1,129.999994049073,10|0,0:0|0:0,0:0:0:0:
113,293,166458,1,4,0:0:0:0:
307,114,166627,6,0,P|368:143|444:130,1,129.999994049073,10|0,0:0|0:0,0:0:0:0:
428,137,166964,1,4,0:0:0:0:
232,338,167132,6,0,P|171:309|95:322,1,129.999994049073,10|0,0:0|0:0,0:0:0:0:
111,315,167469,1,4,0:0:0:0:
309,92,167638,6,0,P|370:121|446:108,1,129.999994049073,10|0,0:0|0:0,0:0:0:0:
430,115,167975,1,4,0:0:0:0:
230,360,168144,6,0,P|169:331|93:344,1,129.999994049073,10|0,0:0|0:0,0:0:0:0:
311,70,168481,1,10,0:0:0:0:
111,82,168649,1,4,0:0:0:0:
106,100,168734,1,4,0:0:0:0:
101,118,168818,5,10,0:0:0:0:
225,303,168986,1,0,0:0:0:0:
244,137,169155,1,4,0:0:0:0:
56,324,169323,5,10,0:0:0:0:
303,292,169492,1,0,0:0:0:0:
117,233,169661,1,4,0:0:0:0:
376,104,169829,5,10,0:0:0:0:
277,360,169998,1,0,0:0:0:0:
244,137,170166,1,4,0:0:0:0:
463,333,170335,5,10,0:0:0:0:
173,287,170503,1,0,0:0:0:0:
423,223,170672,1,4,0:0:0:0:
202,75,170840,5,10,0:0:0:0:
277,360,171009,1,0,0:0:0:0:
429,62,171177,5,10,0:0:0:0:
354,347,171346,1,4,0:0:0:0:
328,342,171430,1,4,0:0:0:0:
302,337,171514,5,10,0:0:0:0:
289,46,171683,1,0,0:0:0:0:
200,259,171852,1,4,0:0:0:0:
500,139,172020,5,10,0:0:0:0:
198,103,172189,1,0,0:0:0:0:
409,218,172357,1,4,0:0:0:0:
116,273,172526,5,10,0:0:0:0:
347,102,172694,1,0,0:0:0:0:
305,328,172863,1,4,0:0:0:0:
169,38,173031,5,10,0:0:0:0:
202,327,173200,1,0,0:0:0:0:
307,173,173368,1,4,0:0:0:0:
20,317,173537,6,0,P|10:249|31:188,1,129.999994049073,10|0,0:0|0:0,0:0:0:0:
115,125,173790,1,0,0:0:0:0:
115,125,173874,1,10,0:0:0:0:
202,327,174043,1,4,0:0:0:0:
227,328,174127,1,4,0:0:0:0:
252,330,174211,5,10,0:0:0:0:
244,157,174380,1,0,0:0:0:0:
350,281,174548,1,4,0:0:0:0:
146,224,174717,5,10,0:0:0:0:
353,180,174885,1,0,0:0:0:0:
252,330,175054,1,4,0:0:0:0:
242,76,175222,5,10,0:0:0:0:
350,281,175391,1,0,0:0:0:0:
182,159,175559,1,4,0:0:0:0:
478,127,175728,5,10,0:0:0:0:
273,253,175896,1,0,0:0:0:0:
349,93,176065,1,4,0:0:0:0:
351,363,176234,5,10,0:0:0:0:
437,133,176402,1,0,0:0:0:0:
228,339,176571,5,10,0:0:0:0:
142,109,176739,1,4,0:0:0:0:
163,94,176823,1,4,0:0:0:0:
185,80,176908,6,0,L|171:223,1,129.999994049073,10|0,0:0|0:0,0:0:0:0:
172,209,177245,1,4,0:0:0:0:
372,106,177413,6,0,L|386:249,1,129.999994049073,10|0,0:0|0:0,0:0:0:0:
384,235,177750,1,4,0:0:0:0:
154,93,177919,6,0,L|140:236,1,129.999994049073,10|0,0:0|0:0,0:0:0:0:
141,222,178256,1,4,0:0:0:0:
403,119,178425,6,0,L|417:262,1,129.999994049073,10|0,0:0|0:0,0:0:0:0:
416,248,178762,1,4,0:0:0:0:
123,106,178930,6,0,L|109:249,1,129.999994049073,10|0,0:0|0:0,0:0:0:0:
433,131,179267,1,10,0:0:0:0:
205,80,179436,1,4,0:0:0:0:
208,60,179520,1,4,0:0:0:0:
211,40,179604,5,10,0:0:0:0:
285,254,179773,1,0,0:0:0:0:
334,85,179941,1,4,0:0:0:0:
120,264,180110,5,10,0:0:0:0:
386,246,180278,1,0,0:0:0:0:
206,350,180447,1,4,0:0:0:0:
231,61,180616,5,10,0:0:0:0:
353,316,180784,1,0,0:0:0:0:
167,169,180953,1,4,0:0:0:0:
492,158,181121,5,10,0:0:0:0:
242,284,181290,1,0,0:0:0:0:
340,89,181458,1,4,0:0:0:0:
419,384,181627,5,10,0:0:0:0:
215,269,181795,1,0,0:0:0:0:
512,147,181964,1,10,0:0:0:0:
246,71,182132,1,4,0:0:0:0:
249,96,182217,1,4,0:0:0:0:
252,121,182301,5,10,0:0:0:0:
29,32,182470,1,0,0:0:0:0:
237,0,182638,1,4,0:0:0:0:
134,308,182807,5,10,0:0:0:0:
106,81,182975,1,0,0:0:0:0:
34,246,183144,1,4,0:0:0:0:
373,187,183312,5,10,0:0:0:0:
154,152,183481,1,0,0:0:0:0:
393,384,183649,5,10,0:0:0:0:
421,285,183818,1,0,0:0:0:0:
216,351,183986,5,10,0:0:0:0:
182,232,184155,1,0,0:0:0:0:
432,371,184323,5,10,0:0:0:0:
154,152,184492,1,8,0:0:0:0:
495,57,184661,1,8,0:0:0:0:
314,258,184829,1,4,0:0:0:0:
294,257,184913,1,4,0:0:0:0:
274,256,184998,6,0,P|253:186|282:114,1,129.999994049073,2|0,0:0|0:0,0:0:0:0:
290,43,185250,1,0,0:0:0:0:
263,39,185334,1,8,0:0:0:0:
236,45,185418,1,0,0:0:0:0:
213,59,185503,6,0,P|182:69|142:65,1,64.9999970245363
72,24,185672,1,8,0:0:0:0:
57,46,185756,1,0,0:0:0:0:
54,74,185840,1,0,0:0:0:0:
61,100,185925,1,0,0:0:0:0:
76,122,186009,6,0,P|86:153|82:196,1,64.9999970245363,8|0,0:0|0:0,0:0:0:0:
34,267,186177,1,0,0:0:0:0:
66,263,186262,1,0,0:0:0:0:
97,270,186346,1,8,0:0:0:0:
124,287,186430,1,0,0:0:0:0:
143,312,186514,6,0,P|171:334|213:342,1,64.9999970245363
300,332,186683,1,8,0:0:0:0:
320,306,186767,1,0,0:0:0:0:
329,274,186852,1,0,0:0:0:0:
327,241,186935,1,0,0:0:0:0:
313,210,187020,6,0,P|292:185|252:168,1,64.9999970245363,8|0,0:0|0:0,0:0:0:0:
123,159,187189,1,0,0:0:0:0:
125,126,187272,1,0,0:0:0:0:
139,95,187357,2,0,P|160:70|200:53,1,64.9999970245363,8|0,0:0|0:0,0:0:0:0:
311,44,187526,1,0,0:0:0:0:
343,47,187610,1,0,0:0:0:0:
375,50,187694,6,0,L|397:126,1,64.9999970245363,8|0,0:0|0:0,0:0:0:0:
427,217,187863,1,0,0:0:0:0:
426,249,187947,1,0,0:0:0:0:
414,278,188031,1,8,0:0:0:0:
392,301,188116,1,0,0:0:0:0:
364,316,188200,6,0,P|325:322|277:310,1,64.9999970245363
194,275,188368,1,8,0:0:0:0:
192,242,188453,1,0,0:0:0:0:
190,209,188537,1,0,0:0:0:0:
188,176,188621,1,0,0:0:0:0:
186,143,188705,6,0,L|182:75,1,64.9999970245363,8|0,0:0|0:0,0:0:0:0:
60,60,188874,1,0,0:0:0:0:
58,93,188959,1,0,0:0:0:0:
56,126,189043,1,8,0:0:0:0:
54,159,189127,1,0,0:0:0:0:
52,192,189211,6,0,L|50:259,1,64.9999970245363
106,346,189380,1,8,0:0:0:0:
136,321,189464,1,0,0:0:0:0:
172,307,189548,1,0,0:0:0:0:
211,307,189633,1,0,0:0:0:0:
247,319,189717,6,0,P|292:322|317:315,1,64.9999970245363,8|0,0:0|0:0,0:0:0:0:
405,228,189885,1,0,0:0:0:0:
413,182,189970,1,0,0:0:0:0:
407,137,190054,2,0,P|387:99|359:76,1,64.9999970245363,10|0,0:0|0:0,0:0:0:0:
210,196,190222,2,0,L|297:193,1,64.9999970245363
168,37,190391,6,0,L|81:34,1,64.9999970245363,10|0,0:0|0:0,0:0:0:0:
10,115,190559,1,0,0:0:0:0:
38,151,190644,1,0,0:0:0:0:
51,194,190728,1,8,0:0:0:0:
49,239,190812,1,0,0:0:0:0:
31,280,190896,6,0,P|23:313|25:358,1,64.9999970245363
198,355,191065,1,8,0:0:0:0:
203,309,191149,1,0,0:0:0:0:
208,263,191234,1,0,0:0:0:0:
213,217,191318,1,0,0:0:0:0:
218,172,191402,6,0,L|228:95,1,64.9999970245363,8|0,0:0|0:0,0:0:0:0:
316,19,191571,1,0,0:0:0:0:
361,21,191655,1,0,0:0:0:0:
398,45,191739,1,8,0:0:0:0:
418,84,191824,1,0,0:0:0:0:
416,129,191908,6,0,L|406:198,1,64.9999970245363
388,331,192076,1,8,0:0:0:0:
342,333,192161,1,0,0:0:0:0:
296,335,192245,1,0,0:0:0:0:
250,338,192329,1,0,0:0:0:0:
204,341,192413,6,0,L|214:238,1,64.9999970245363,8|0,0:0|0:0,0:0:0:0:
226,107,192582,1,0,0:0:0:0:
180,110,192666,1,0,0:0:0:0:
134,113,192750,2,0,P|156:71|186:155,1,194.999991073609,8|0,0:0|0:0,0:0:0:0:
44,184,193087,6,0,B|173:241|170:140|295:194,1,259.999988098145,10|4,0:0|0:0,0:0:0:0:
373,288,193593,1,4,0:0:0:0:
352,91,193762,5,8,0:0:0:0:
289,326,193930,1,4,0:0:0:0:
430,59,194099,5,8,0:0:0:0:
499,317,194267,1,4,0:0:0:0:
210,182,194436,5,8,0:0:0:0:
206,140,194520,1,8,0:0:0:0:
232,108,194604,1,4,0:0:0:0:
273,104,194689,1,4,0:0:0:0:
306,130,194773,1,4,0:0:0:0:
309,172,194857,1,4,0:0:0:0:
283,204,194941,1,4,0:0:0:0:
242,208,195026,1,4,0:0:0:0:
210,182,195110,5,8,0:0:0:0:
151,178,195194,1,8,0:0:0:0:
106,216,195278,1,8,0:0:0:0:
102,275,195363,1,8,0:0:0:0:
140,320,195447,1,8,0:0:0:0:
199,324,195531,1,8,0:0:0:0:
244,285,195616,6,0,P|309:256|413:335,1,200,2|0,0:0|0:0,0:0:0:0:
485,352,196037,1,0,0:0:0:0:
486,327,196121,1,2,0:0:0:0:
488,302,196205,1,0,0:0:0:0:
490,276,196290,1,4,0:0:0:0:
492,251,196374,1,0,0:0:0:0:
494,226,196458,1,8,0:0:0:0:
494,226,196795,1,2,0:0:0:0:
492,251,196879,1,0,0:0:0:0:
490,276,196964,6,0,P|425:247|321:326,1,200
249,343,197386,1,0,0:0:0:0:
248,318,197470,1,2,0:0:0:0:
246,293,197554,1,0,0:0:0:0:
244,267,197639,1,4,0:0:0:0:
242,242,197723,1,0,0:0:0:0:
240,217,197807,1,8,0:0:0:0:
240,217,198144,1,2,0:0:0:0:
242,242,198228,1,0,0:0:0:0:
244,267,198312,6,0,P|309:238|413:317,1,200,2|0,0:0|0:0,0:0:0:0:
315,340,198734,1,0,0:0:0:0:
290,340,198818,1,2,0:0:0:0:
265,340,198902,1,0,0:0:0:0:
239,340,198987,1,4,0:0:0:0:
214,341,199071,1,0,0:0:0:0:
189,342,199155,2,0,P|130:285|171:157,1,200,8|2,0:0|0:0,0:0:0:0:
148,177,199661,5,0,0:0:0:0:
134,197,199745,1,0,0:0:0:0:
126,220,199829,1,0,0:0:0:0:
122,244,199913,1,0,0:0:0:0:
125,268,199998,2,0,P|134:294|146:312,1,50,4|0,0:0|0:0,0:0:0:0:
346,354,200166,1,10,0:0:0:0:
355,111,200335,2,0,P|329:120|311:132,1,50,4|0,0:0|0:0,0:0:0:0:
246,332,200503,1,10,0:0:0:0:
165,116,200672,5,8,0:0:0:0:
215,95,200756,1,8,0:0:0:0:
268,101,200840,1,8,0:0:0:0:
311,133,200925,1,8,0:0:0:0:
332,182,201009,6,0,B|345:213|345:242|345:242|437:178|397:86,1,239.999992675781,2|0,0:0|0:0,0:0:0:0:
235,41,201514,2,0,L|163:35,1,69.9999978637696,8|0,0:0|0:0,0:0:0:0:
123,115,201852,2,0,L|195:109,1,69.9999978637696,4|0,0:0|0:0,0:0:0:0:
267,186,202189,2,0,L|195:180,1,69.9999978637696,8|0,0:0|0:0,0:0:0:0:
156,260,202527,2,0,L|228:254,1,69.9999978637696,4|0,0:0|0:0,0:0:0:0:
299,331,202863,2,0,L|227:325,1,69.9999978637696,8|0,0:0|0:0,0:0:0:0:
105,311,203200,1,4,0:0:0:0:
341,158,203368,1,8,0:0:0:0:
214,127,203537,1,4,0:0:0:0:
451,20,203705,6,0,B|462:70|425:104|425:104|452:153|452:153|415:193|428:257,1,239.999992675781,2|0,0:0|0:0,0:0:0:0:
386,370,204211,2,0,L|377:295,1,69.9999978637696,8|0,0:0|0:0,0:0:0:0:
281,222,204548,1,4,0:0:0:0:
447,302,204717,1,4,0:0:0:0:
259,384,204885,6,0,P|299:324|272:211,1,179.999994506836,10|0,0:0|0:0,0:0:0:0:
192,162,205222,1,4,0:0:0:0:
90,320,205391,6,0,L|42:325,2,29.9999990844727,8|8|8,0:0|0:0|0:0,0:0:0:0:
136,371,205559,1,4,0:0:0:0:
134,328,205644,1,4,0:0:0:0:
132,286,205728,1,4,0:0:0:0:
130,244,205812,1,4,0:0:0:0:
128,202,205896,1,4,0:0:0:0:
237,126,206065,1,4,0:0:0:0:
225,366,206234,1,8,0:0:0:0:
426,187,206402,6,0,B|331:180|331:180|296:219|296:219|194:212,1,239.999992675781,6|0,0:0|0:0,0:0:0:0:
68,206,206823,1,0,0:0:0:0:
51,180,206908,2,0,P|47:94|188:70,1,239.999992675781,10|2,0:0|0:0,0:0:0:0:
248,235,207413,1,4,0:0:0:0:
320,7,207582,1,8,0:0:0:0:
447,158,207750,6,0,P|388:131|322:145,1,119.999996337891,0|6,0:0|0:0,0:0:0:0:
373,265,208087,1,0,0:0:0:0:
127,152,208256,2,0,P|123:66|264:42,1,239.999992675781,10|2,0:0|0:0,0:0:0:0:
335,138,208762,1,4,0:0:0:0:
89,77,208930,1,8,0:0:0:0:
79,278,209099,6,0,B|138:251|138:251|185:279|185:279|305:276,1,239.999992675781,2|0,0:0|0:0,0:0:0:0:
423,275,209520,1,0,0:0:0:0:
444,254,209604,2,0,P|448:168|307:144,1,239.999992675781,10|2,0:0|0:0,0:0:0:0:
306,276,210110,1,4,0:0:0:0:
228,58,210278,1,8,0:0:0:0:
184,216,210447,6,0,L|214:209,2,29.9999990844727,4|4|4,0:0|0:0|0:0,0:0:0:0:
153,277,210616,1,8,0:0:0:0:
151,235,210700,1,4,0:0:0:0:
149,193,210784,1,4,0:0:0:0:
147,151,210868,1,4,0:0:0:0:
145,109,210953,5,8,0:0:0:0:
70,311,211121,1,8,0:0:0:0:
235,71,211290,5,8,0:0:0:0:
310,273,211458,1,8,0:0:0:0:
52,192,211627,1,8,0:0:0:0:
364,49,211795,6,0,B|417:89|388:156|388:156|326:183|333:261,1,239.999992675781,2|0,0:0|0:0,0:0:0:0:
360,356,212217,1,0,0:0:0:0:
328,327,212301,1,8,0:0:0:0:
289,311,212385,1,0,0:0:0:0:
246,308,212470,1,0,0:0:0:0:
205,321,212554,1,0,0:0:0:0:
170,346,212638,5,4,0:0:0:0:
123,357,212722,1,0,0:0:0:0:
81,331,212807,1,0,0:0:0:0:
70,284,212890,1,0,0:0:0:0:
96,242,212975,5,8,0:0:0:0:
148,228,213059,1,0,0:0:0:0:
174,181,213144,1,0,0:0:0:0:
160,129,213227,1,0,0:0:0:0:
113,103,213312,5,4,0:0:0:0:
117,138,213396,1,0,0:0:0:0:
137,166,213481,1,0,0:0:0:0:
169,180,213564,1,0,0:0:0:0:
203,176,213649,1,8,0:0:0:0:
234,189,213734,1,0,0:0:0:0:
254,215,213818,1,0,0:0:0:0:
258,248,213902,1,0,0:0:0:0:
245,278,213986,2,0,P|239:305|246:337,1,59.9999981689454
478,251,214155,5,8,0:0:0:0:
491,198,214239,1,8,0:0:0:0:
475,145,214323,1,8,0:0:0:0:
435,107,214408,1,8,0:0:0:0:
381,95,214492,6,0,B|288:88|288:88|246:118|246:118|135:109,1,239.999992675781,2|0,0:0|0:0,0:0:0:0:
34,103,214913,1,0,0:0:0:0:
69,125,214998,2,0,P|88:172|67:263,1,119.999996337891,8|0,0:0|0:0,0:0:0:0:
30,304,215250,1,0,0:0:0:0:
67,323,215335,1,4,0:0:0:0:
108,320,215419,1,0,0:0:0:0:
142,297,215503,1,0,0:0:0:0:
160,260,215587,1,0,0:0:0:0:
157,218,215672,1,8,0:0:0:0:
175,180,215756,1,0,0:0:0:0:
209,156,215841,1,0,0:0:0:0:
251,152,215925,1,0,0:0:0:0:
289,169,216009,6,0,P|292:208|265:243,2,79.9999975585938,6|8|8,0:0|0:0|0:0,0:0:0:0:
217,80,216346,2,0,P|213:40|241:4,2,79.9999975585938,4|8|8,0:0|0:0|0:0,0:0:0:0:
321,70,216683,5,8,0:0:0:0:
308,239,216852,1,4,0:0:0:0:
315,155,217020,1,4,0:0:0:0:
77,254,217189,6,0,B|193:201|192:298|311:238,1,239.999992675781,2|0,0:0|0:0,0:0:0:0:
371,177,217610,1,0,0:0:0:0:
371,177,217694,2,0,L|374:53,1,119.999996337891,10|0,0:0|0:0,0:0:0:0:
306,0,217947,1,0,0:0:0:0:
306,0,218031,1,2,0:0:0:0:
207,197,218200,1,0,0:0:0:0:
207,197,218284,1,0,0:0:0:0:
207,197,218368,6,0,L|76:184,1,119.999996337891,10|0,0:0|0:0,0:0:0:0:
15,237,218621,1,0,0:0:0:0:
15,237,218705,1,2,0:0:0:0:
149,69,218874,1,0,0:0:0:0:
149,69,218958,1,0,0:0:0:0:
149,69,219042,6,0,L|280:56,1,119.999996337891,10|0,0:0|0:0,0:0:0:0:
341,109,219295,1,0,0:0:0:0:
341,109,219380,2,0,P|330:134|330:175,1,59.9999981689454,2|0,0:0|0:0,0:0:0:0:
219,189,219548,2,0,P|230:214|230:255,1,59.9999981689454
334,274,219717,2,0,P|323:299|323:340,1,59.9999981689454,8|0,0:0|0:0,0:0:0:0:
116,291,219885,6,0,P|91:221|104:164,1,119.999996337891,2|0,0:0|0:0,0:0:0:0:
269,54,220222,1,0,0:0:0:0:
269,54,220306,1,0,0:0:0:0:
269,54,220390,6,0,L|138:41,1,119.999996337891,10|0,0:0|0:0,0:0:0:0:
77,94,220643,1,0,0:0:0:0:
77,94,220727,1,4,0:0:0:0:
269,180,220896,1,0,0:0:0:0:
269,180,220980,1,0,0:0:0:0:
269,180,221065,6,0,L|400:167,1,119.999996337891,10|0,0:0|0:0,0:0:0:0:
461,220,221317,1,0,0:0:0:0:
461,220,221401,1,4,0:0:0:0:
269,306,221571,1,0,0:0:0:0:
269,306,221655,1,0,0:0:0:0:
269,306,221739,6,0,L|138:293,1,119.999996337891,10|0,0:0|0:0,0:0:0:0:
68,355,221992,1,0,0:0:0:0:
68,355,222076,1,4,0:0:0:0:
48,304,222161,1,4,0:0:0:0:
56,249,222245,1,4,0:0:0:0:
90,206,222329,1,4,0:0:0:0:
141,185,222413,1,8,0:0:0:0:
363,356,222582,6,0,B|368:318|344:293|344:293|374:248|374:248|320:215|332:142,1,239.999992675781,2|0,0:0|0:0,0:0:0:0:
353,37,223003,1,0,0:0:0:0:
353,37,223087,2,0,P|299:57|227:51,1,119.999996337891,8|0,0:0|0:0,0:0:0:0:
138,303,223425,2,0,P|192:283|264:289,1,119.999996337891,8|0,0:0|0:0,0:0:0:0:
458,369,223762,1,8,0:0:0:0:
207,142,223930,1,4,0:0:0:0:
207,142,224014,1,4,0:0:0:0:
207,142,224099,6,0,P|203:201|224:257,1,119.999996337891,8|0,0:0|0:0,0:0:0:0:
452,173,224436,2,0,P|455:113|434:57,1,119.999996337891,8|4,0:0|0:0,0:0:0:0:
353,0,224689,1,4,0:0:0:0:
353,0,224773,1,8,0:0:0:0:
353,345,224941,6,0,B|358:274|358:274|335:242|335:242|342:157,1,179.999994506836,2|0,0:0|0:0,0:0:0:0:
261,8,225278,2,0,B|268:102|268:102|237:145|237:145|246:257,1,239.999992675781,2|4,0:0|0:0,0:0:0:0:
256,342,225700,1,4,0:0:0:0:
256,342,225784,2,0,P|188:318|120:330,1,119.999996337891,8|0,0:0|0:0,0:0:0:0:
21,80,226121,2,0,P|89:104|157:92,1,119.999996337891,8|0,0:0|0:0,0:0:0:0:
328,18,226458,1,8,0:0:0:0:
198,290,226627,1,4,0:0:0:0:
198,290,226711,1,4,0:0:0:0:
198,290,226795,2,0,P|222:222|210:154,1,119.999996337891,8|0,0:0|0:0,0:0:0:0:
460,55,227132,2,0,P|436:123|448:191,1,119.999996337891,8|0,0:0|0:0,0:0:0:0:
503,253,227385,1,0,0:0:0:0:
503,253,227470,5,8,0:0:0:0:
453,272,227554,1,8,0:0:0:0:
400,264,227638,1,8,0:0:0:0:
358,230,227722,1,8,0:0:0:0:
339,180,227806,1,8,0:0:0:0:
347,126,227891,1,8,0:0:0:0:
381,85,227975,6,0,B|406:64|432:62|432:62|495:153|425:235,1,239.999992675781,2|0,0:0|0:0,0:0:0:0:
169,268,228481,1,10,0:0:0:0:
372,339,228649,1,0,0:0:0:0:
162,115,228818,5,0,0:0:0:0:
204,336,228986,1,0,0:0:0:0:
308,100,229155,1,10,0:0:0:0:
274,276,229323,1,0,0:0:0:0:
61,159,229492,5,0,0:0:0:0:
245,152,229661,1,0,0:0:0:0:
36,237,229829,1,10,0:0:0:0:
201,243,229998,1,0,0:0:0:0:
43,53,230166,5,10,0:0:0:0:
105,342,230335,2,0,L|246:345,1,119.999996337891,10|0,0:0|0:0,0:0:0:0:
348,80,230672,6,0,P|290:67|264:211,1,239.999992675781,2|0,0:0|0:0,0:0:0:0:
487,227,231177,1,8,0:0:0:0:
303,144,231346,1,0,0:0:0:0:
408,351,231514,1,2,0:0:0:0:
452,131,231683,2,0,P|419:132|385:143,1,59.9999981689454
229,241,231852,5,8,0:0:0:0:
375,289,232020,2,0,L|371:336,2,39.9999987792969,4|4|4,0:0|0:0|0:0,0:0:0:0:
405,264,232189,5,4,0:0:0:0:
229,241,232357,1,4,0:0:0:0:
482,71,232526,5,8,0:0:0:0:
306,48,232694,1,4,0:0:0:0:
358,355,232863,5,8,0:0:0:0:
410,366,232947,1,8,0:0:0:0:
460,349,233031,1,4,0:0:0:0:
476,331,233116,1,4,0:0:0:0:
484,308,233200,2,0,P|485:275|475:247,1,59.9999981689454,4|0,0:0|0:0,0:0:0:0:
229,174,233368,6,0,B|300:165|300:165|349:185|349:185|422:176,1,194.999991073609,2|0,0:0|0:0,0:0:0:0:
503,164,233705,1,8,0:0:0:0:
286,71,233874,2,0,P|282:105|290:140,1,64.9999970245363,4|4,0:0|0:0,0:0:0:0:
345,292,234043,1,12,0:0:0:0:
372,105,234211,1,4,0:0:0:0:
484,308,234380,1,8,0:0:0:0:
260,211,234548,1,4,0:0:0:0:
260,211,234632,1,4,0:0:0:0:
260,211,234717,6,0,P|199:191|125:291,1,194.999991073609,8|0,0:0|0:0,0:0:0:0:
138,359,235054,1,8,0:0:0:0:
340,297,235222,1,4,0:0:0:0:
340,297,235307,1,4,0:0:0:0:
340,297,235391,2,0,P|304:299|269:291,1,64.9999970245363,8|0,0:0|0:0,0:0:0:0:
66,204,235559,1,4,0:0:0:0:
229,368,235728,1,8,0:0:0:0:
276,116,235896,1,4,0:0:0:0:
276,116,235981,1,4,0:0:0:0:
276,116,236065,6,0,P|337:96|411:196,1,194.999991073609,8|0,0:0|0:0,0:0:0:0:
375,257,236402,1,8,0:0:0:0:
197,74,236571,1,4,0:0:0:0:
197,74,236655,1,4,0:0:0:0:
197,74,236739,2,0,L|204:158,1,64.9999970245363,8|0,0:0|0:0,0:0:0:0:
266,334,236908,2,0,L|273:250,1,64.9999970245363,4|0,0:0|0:0,0:0:0:0:
90,228,237076,2,0,L|97:312,1,64.9999970245363,8|0,0:0|0:0,0:0:0:0:
323,165,237245,1,4,0:0:0:0:
323,165,237329,1,4,0:0:0:0:
323,165,237413,6,0,B|223:127|224:204|125:158,1,194.999991073609,8|0,0:0|0:0,0:0:0:0:
60,106,237750,1,8,0:0:0:0:
117,316,237919,1,4,0:0:0:0:
117,316,238003,1,4,0:0:0:0:
117,316,238087,2,0,L|197:313,1,64.9999970245363,8|0,0:0|0:0,0:0:0:0:
356,285,238256,1,4,0:0:0:0:
202,150,238425,6,0,P|170:138|138:143,1,64.9999970245363,8|0,0:0|0:0,0:0:0:0:
241,358,238593,2,0,P|272:361|302:350,1,64.9999970245363,4|4,0:0|0:0,0:0:0:0:
417,85,238762,6,0,B|413:156|413:156|385:201|385:201|381:274,1,194.999991073609,10|0,0:0|0:0,0:0:0:0:
376,365,239099,1,8,0:0:0:0:
202,150,239267,2,0,L|214:229,1,64.9999970245363,4|4,0:0|0:0,0:0:0:0:
241,358,239436,1,8,0:0:0:0:
75,261,239604,1,4,0:0:0:0:
310,161,239773,1,8,0:0:0:0:
80,76,239941,1,4,0:0:0:0:
80,76,240026,1,4,0:0:0:0:
80,76,240110,6,0,P|103:16|229:22,1,194.999991073609,8|0,0:0|0:0,0:0:0:0:
286,73,240447,1,8,0:0:0:0:
193,280,240616,1,4,0:0:0:0:
193,280,240700,1,4,0:0:0:0:
193,280,240784,2,0,L|275:283,1,64.9999970245363,8|0,0:0|0:0,0:0:0:0:
484,178,240953,1,4,0:0:0:0:
211,136,241121,1,8,0:0:0:0:
422,298,241290,1,4,0:0:0:0:
422,298,241374,1,4,0:0:0:0:
422,298,241458,6,0,P|462:248|394:142,1,194.999991073609,8|0,0:0|0:0,0:0:0:0:
321,135,241795,1,8,0:0:0:0:
266,381,241964,1,4,0:0:0:0:
266,381,242048,1,4,0:0:0:0:
266,381,242132,2,0,P|230:381|188:369,1,64.9999970245363,8|0,0:0|0:0,0:0:0:0:
175,118,242301,2,0,P|211:118|253:130,1,64.9999970245363,4|0,0:0|0:0,0:0:0:0:
147,316,242470,2,0,P|115:298|85:266,1,64.9999970245363,8|0,0:0|0:0,0:0:0:0:
312,265,242638,1,4,0:0:0:0:
312,265,242722,1,4,0:0:0:0:
312,265,242807,6,0,B|315:209|356:184|356:184|371:125|326:86,1,194.999991073609,8|0,0:0|0:0,0:0:0:0:
258,40,243144,1,8,0:0:0:0:
195,221,243312,1,4,0:0:0:0:
195,221,243396,1,4,0:0:0:0:
195,221,243481,1,8,0:0:0:0:
104,81,243649,1,4,0:0:0:0:
200,358,243818,2,0,L|239:303,1,64.9999970245363,10|0,0:0|0:0,0:0:0:0:
362,136,243986,1,4,0:0:0:0:
362,136,244071,1,4,0:0:0:0:
362,136,244155,6,0,B|393:214|345:285|345:285|300:262,1,194.999991073609,10|0,0:0|0:0,0:0:0:0:
222,224,244492,1,8,0:0:0:0:
461,73,244661,1,4,0:0:0:0:
461,73,244745,1,4,0:0:0:0:
461,73,244829,2,0,P|430:73|398:65,1,64.9999970245363,8|4,0:0|0:0,0:0:0:0:
221,119,244998,2,0,P|252:110|284:110,1,64.9999970245363,4|4,0:0|0:0,0:0:0:0:
462,178,245166,2,0,P|431:178|399:170,1,64.9999970245363,8|4,0:0|0:0,0:0:0:0:
222,224,245335,2,0,P|253:215|285:215,1,64.9999970245363,4|4,0:0|0:0,0:0:0:0:
388,331,245503,6,0,P|320:369|203:342,1,194.999991073609,8|0,0:0|0:0,0:0:0:0:
147,283,245840,1,8,0:0:0:0:
401,195,246009,1,4,0:0:0:0:
401,195,246093,1,4,0:0:0:0:
401,195,246177,2,0,P|361:201|325:192,1,64.9999970245363,8|0,0:0|0:0,0:0:0:0:
153,45,246346,2,0,P|186:40|217:46,1,64.9999970245363,4|4,0:0|0:0,0:0:0:0:
284,259,246514,2,0,P|244:265|208:256,1,64.9999970245363,8|0,0:0|0:0,0:0:0:0:
321,130,246683,1,4,0:0:0:0:
321,130,246767,1,4,0:0:0:0:
321,130,246852,6,0,L|118:121,1,194.999991073609,8|0,0:0|0:0,0:0:0:0:
41,116,247189,1,8,0:0:0:0:
245,22,247357,1,4,0:0:0:0:
245,22,247441,1,4,0:0:0:0:
245,22,247526,2,0,P|250:50|246:91,1,64.9999970245363,8|0,0:0|0:0,0:0:0:0:
138,293,247694,2,0,P|135:260|141:228,1,64.9999970245363,4|4,0:0|0:0,0:0:0:0:
321,182,247863,2,0,P|326:210|322:251,1,64.9999970245363,8|0,0:0|0:0,0:0:0:0:
130,108,248031,1,4,0:0:0:0:
130,108,248116,1,4,0:0:0:0:
130,108,248200,6,0,B|225:75|225:143|326:104,1,194.999991073609,8|0,0:0|0:0,0:0:0:0:
392,56,248537,1,8,0:0:0:0:
364,247,248705,1,4,0:0:0:0:
364,247,248790,1,4,0:0:0:0:
364,247,248874,1,8,0:0:0:0:
240,22,249043,1,4,0:0:0:0:
156,262,249211,1,8,0:0:0:0:
327,124,249380,1,4,0:0:0:0:
327,124,249464,1,4,0:0:0:0:
327,124,249548,6,0,B|256:115|256:115|207:135|207:135|134:126,1,194.999991073609,10|0,0:0|0:0,0:0:0:0:
52,116,249885,1,8,0:0:0:0:
297,256,250054,1,4,0:0:0:0:
297,256,250138,1,4,0:0:0:0:
297,256,250222,2,0,P|260:248|222:255,1,64.9999970245363,8|0,0:0|0:0,0:0:0:0:
55,202,250391,2,0,P|87:204|118:197,1,64.9999970245363,4|4,0:0|0:0,0:0:0:0:
227,71,250559,2,0,P|224:103|231:134,1,64.9999970245363,8|0,0:0|0:0,0:0:0:0:
149,332,250728,2,0,P|156:295|149:257,1,64.9999970245363,4|4,0:0|0:0,0:0:0:0:
309,139,250896,6,0,P|379:117|456:223,1,194.999991073609,8|0,0:0|0:0,0:0:0:0:
450,283,251234,1,8,0:0:0:0:
159,275,251402,1,4,0:0:0:0:
159,275,251486,1,4,0:0:0:0:
159,275,251571,2,0,P|150:244|146:212,1,64.9999970245363,8|0,0:0|0:0,0:0:0:0:
343,26,251739,2,0,P|339:58|329:89,1,64.9999970245363,4|4,0:0|0:0,0:0:0:0:
118,115,251908,2,0,P|125:83|138:53,1,64.9999970245363,8|0,0:0|0:0,0:0:0:0:
345,267,252076,1,4,0:0:0:0:
345,267,252160,1,4,0:0:0:0:
345,267,252245,6,0,B|271:257|271:257|226:284|226:284|139:272,1,194.999991073609,10|0,0:0|0:0,0:0:0:0:
58,196,252582,2,0,L|133:185,1,64.9999970245363,10|0,0:0|0:0,0:0:0:0:
330,140,252750,1,4,0:0:0:0:
330,140,252835,1,4,0:0:0:0:
330,140,252919,2,0,L|255:129,1,64.9999970245363,10|0,0:0|0:0,0:0:0:0:
58,84,253087,5,4,0:0:0:0:
59,96,253172,1,4,0:0:0:0:
60,108,253256,1,4,0:0:0:0:
61,120,253340,1,4,0:0:0:0:
63,132,253425,5,8,0:0:0:0:
105,115,253509,1,8,0:0:0:0:
146,132,253593,1,8,0:0:0:0:
163,174,253678,1,8,0:0:0:0:
146,215,253762,5,4,0:0:0:0:
434,189,253930,2,0,L|447:340,1,129.999994049073,8|4,0:0|0:0,0:0:0:0:
87,143,254267,2,0,L|74:294,1,129.999994049073,8|4,0:0|0:0,0:0:0:0:
421,78,254604,1,8,0:0:0:0:
247,212,254773,6,0,L|196:222,2,43.3333313496908,4|0|0,0:0|0:0|0:0,0:0:0:0:
331,273,254941,2,0,L|382:283,2,43.3333313496908,8|0|0,0:0|0:0|0:0,0:0:0:0:
325,170,255110,6,0,B|283:150|283:150|296:296,1,165.000005035401,2|0,0:0|0:0,0:0:0:0:
303,359,255447,1,8,0:0:0:0:
441,132,255784,6,0,B|483:112|483:112|470:258,1,165.000005035401,4|4,0:0|0:0,0:0:0:0:
463,321,256121,1,8,0:0:0:0:
371,98,256290,1,0,0:0:0:0:
308,351,256458,6,0,L|136:341,1,165.000005035401,4|4,0:0|0:0,0:0:0:0:
60,336,256795,1,8,0:0:0:0:
213,157,256964,1,0,0:0:0:0:
276,246,257132,6,0,L|104:236,1,165.000005035401,4|4,0:0|0:0,0:0:0:0:
28,231,257469,1,8,0:0:0:0:
181,52,257638,1,0,0:0:0:0:
374,212,257807,6,0,B|394:253|394:253|248:243,1,165.000005035401,4|0,0:0|0:0,0:0:0:0:
186,238,258144,1,8,0:0:0:0:
28,61,258481,6,0,B|7:19|7:19|153:29,1,165.000005035401,4|4,0:0|0:0,0:0:0:0:
216,35,258818,1,8,0:0:0:0:
175,313,258986,1,0,0:0:0:0:
308,115,259155,6,0,L|322:309,1,165.000005035401,4|4,0:0|0:0,0:0:0:0:
329,374,259492,1,8,0:0:0:0:
414,216,259661,1,0,0:0:0:0:
162,168,259829,6,0,L|154:277,1,110.000003356934,4|4,0:0|0:0,0:0:0:0:
149,371,260082,1,4,0:0:0:0:
149,371,260166,2,0,P|217:338|305:357,1,165.000005035401,10|0,0:0|0:0,0:0:0:0:
404,384,260503,6,0,L|394:201,1,165.000005035401,6|0,0:0|0:0,0:0:0:0:
391,135,260840,1,8,0:0:0:0:
149,371,261177,6,0,L|159:188,1,165.000005035401,4|4,0:0|0:0,0:0:0:0:
162,122,261514,1,8,0:0:0:0:
274,274,261683,1,0,0:0:0:0:
365,43,261852,6,0,B|385:1|385:1|239:11,1,165.000005035401,4|4,0:0|0:0,0:0:0:0:
177,17,262189,1,8,0:0:0:0:
351,131,262357,1,0,0:0:0:0:
93,168,262526,6,0,B|72:209|72:209|218:199,1,165.000005035401,4|4,0:0|0:0,0:0:0:0:
281,194,262863,1,8,0:0:0:0:
135,345,263031,1,4,0:0:0:0:
135,345,263116,1,4,0:0:0:0:
135,345,263200,6,0,P|192:366|250:355,1,110.000003356934,10|4,0:0|0:0,0:0:0:0:
305,298,263453,1,4,0:0:0:0:
305,298,263537,1,0,0:0:0:0:
234,43,263705,1,10,0:0:0:0:
204,268,263874,1,4,0:0:0:0:
145,88,264043,1,4,0:0:0:0:
305,298,264211,1,10,0:0:0:0:
383,119,264380,1,4,0:0:0:0:
478,318,264548,6,0,P|400:344|452:281,1,220.000006713867,10|4,0:0|0:0,0:0:0:0:
452,281,265054,1,4,0:0:0:0:
408,109,265222,5,8,0:0:0:0:
366,80,265307,1,8,0:0:0:0:
315,75,265391,1,8,0:0:0:0:
268,96,265475,1,8,0:0:0:0:
239,138,265559,5,8,0:0:0:0:
182,147,265644,1,8,0:0:0:0:
140,118,265727,1,8,0:0:0:0:
131,61,265812,1,8,0:0:0:0:
164,15,265896,5,10,0:0:0:0:
228,251,266065,1,8,0:0:0:0:
267,258,266149,1,0,0:0:0:0:
304,244,266234,1,4,0:0:0:0:
329,213,266317,1,0,0:0:0:0:
335,174,266402,1,8,0:0:0:0:
82,176,266571,1,4,0:0:0:0:
250,55,266739,1,8,0:0:0:0:
250,55,266823,2,0,P|262:118|261:195,1,129.999994049073,4|4,0:0|0:0,0:0:0:0:
236,271,267076,1,8,0:0:0:0:
433,75,267245,5,4,0:0:0:0:
156,142,267413,1,8,0:0:0:0:
371,215,267582,1,4,0:0:0:0:
371,215,267666,1,4,0:0:0:0:
371,215,267750,1,8,0:0:0:0:
206,338,267919,1,4,0:0:0:0:
284,80,268088,1,8,0:0:0:0:
284,80,268172,2,0,P|296:143|295:220,1,129.999994049073,4|4,0:0|0:0,0:0:0:0:
267,282,268425,1,8,0:0:0:0:
129,18,268593,5,4,0:0:0:0:
379,111,268762,1,8,0:0:0:0:
150,188,268930,1,4,0:0:0:0:
150,188,269014,1,4,0:0:0:0:
150,188,269099,1,8,0:0:0:0:
365,284,269267,2,0,P|378:210|364:152,1,129.999994049073,4|8,0:0|0:0,0:0:0:0:
265,155,269520,2,0,P|253:218|267:282,1,129.999994049073,4|4,0:0|0:0,0:0:0:0:
314,364,269773,1,8,0:0:0:0:
319,73,269941,5,4,0:0:0:0:
155,201,270110,1,8,0:0:0:0:
159,239,270194,1,4,0:0:0:0:
163,277,270278,1,0,0:0:0:0:
167,316,270363,1,4,0:0:0:0:
171,355,270447,1,8,0:0:0:0:
352,189,270616,5,4,0:0:0:0:
377,191,270700,1,4,0:0:0:0:
402,193,270784,5,8,0:0:0:0:
385,150,270868,1,8,0:0:0:0:
343,132,270953,1,8,0:0:0:0:
300,149,271036,1,8,0:0:0:0:
282,191,271121,5,4,0:0:0:0:
266,203,271205,1,4,0:0:0:0:
246,208,271290,6,0,P|178:202|140:136,1,129.999994049073,6|4,0:0|0:0,0:0:0:0:
148,79,271543,1,0,0:0:0:0:
115,57,271627,1,8,0:0:0:0:
75,54,271712,1,0,0:0:0:0:
39,71,271796,1,4,0:0:0:0:
16,104,271880,1,0,0:0:0:0:
13,144,271964,5,8,0:0:0:0:
55,173,272048,1,0,0:0:0:0:
84,214,272132,1,4,0:0:0:0:
97,263,272217,1,0,0:0:0:0:
93,313,272301,5,8,0:0:0:0:
69,281,272385,1,0,0:0:0:0:
57,242,272470,1,4,0:0:0:0:
59,202,272554,1,0,0:0:0:0:
75,164,272638,5,8,0:0:0:0:
121,185,272721,1,0,0:0:0:0:
168,167,272806,1,4,0:0:0:0:
189,121,272890,1,0,0:0:0:0:
171,74,272975,5,8,0:0:0:0:
151,107,273059,1,0,0:0:0:0:
150,145,273144,1,4,0:0:0:0:
168,178,273227,1,0,0:0:0:0:
200,198,273312,6,0,L|276:193,1,64.9999970245363,8|0,0:0|0:0,0:0:0:0:
445,182,273481,1,4,0:0:0:0:
450,143,273565,1,0,0:0:0:0:
456,104,273649,5,10,0:0:0:0:
490,143,273734,1,0,0:0:0:0:
486,194,273818,1,4,0:0:0:0:
447,228,273902,1,0,0:0:0:0:
396,224,273986,6,0,L|331:219,1,64.9999970245363,10|0,0:0|0:0,0:0:0:0:
177,209,274155,1,4,0:0:0:0:
179,228,274239,1,4,0:0:0:0:
181,247,274323,1,4,0:0:0:0:
183,266,274408,1,4,0:0:0:0:
185,285,274492,6,0,P|203:255|208:214,1,64.9999970245363,14|0,0:0|0:0,0:0:0:0:
147,59,274661,1,4,0:0:0:0:
184,33,274745,1,4,0:0:0:0:
229,30,274829,1,4,0:0:0:0:
269,49,274914,1,4,0:0:0:0:
294,86,274998,1,10,0:0:0:0:
117,311,275166,1,4,0:0:0:0:
450,289,275335,5,8,0:0:0:0:
473,242,275419,1,4,0:0:0:0:
456,192,275503,1,4,0:0:0:0:
409,169,275588,1,4,0:0:0:0:
359,186,275672,6,0,P|329:199|306:200,2,43.3333313496908,4|4|4,0:0|0:0|0:0,0:0:0:0:
313,121,275840,2,0,P|281:109|257:110,2,43.3333313496908,4|4|4,0:0|0:0|0:0,0:0:0:0:
227,190,276009,5,8,0:0:0:0:
480,384,276262,1,8,0:0:0:0:
100,345,276514,1,8,0:0:0:0:
456,336,278031,6,0,P|305:353|33:268,1,419.999987182618,6|0,0:0|0:0,0:0:0:0:
239,132,279380,6,0,B|252:161|252:161|238:185|238:185|253:210|253:210|237:241,1,119.999996337891,6|0,0:0|0:0,0:0:0:0:
184,83,279885,2,0,P|231:101|307:59,1,119.999996337891
236,17,280391,1,0,0:0:0:0:
212,345,280728,6,0,P|296:328|158:277,1,419.999987182618,6|0,0:0|0:0,0:0:0:0:
240,267,282076,6,0,L|288:262,1,40,2|0,0:0|0:0,0:0:0:0:
385,318,282413,2,0,L|433:323,1,40
375,121,282750,6,0,L|383:57,2,53.3333333333333,4|4|4,0:0|0:0|0:0,0:0:0:0:
427,189,283087,1,4,0:0:0:0:
386,206,283200,1,4,0:0:0:0:
342,200,283312,1,4,0:0:0:0:
307,175,283425,6,0,P|263:166|216:174,1,80,6|0,0:0|0:0,0:0:0:0:
175,297,283762,2,0,P|219:306|266:298,1,80,4|0,0:0|0:0,0:0:0:0:
457,162,284099,2,0,P|413:153|366:161,1,80,4|0,0:0|0:0,0:0:0:0:
325,284,284436,2,0,P|369:293|416:285,1,80,4|0,0:0|0:0,0:0:0:0:
206,180,284773,6,0,L|212:278,1,80,4|0,0:0|0:0,0:0:0:0:
304,148,285110,2,0,L|310:50,1,80,4|0,0:0|0:0,0:0:0:0:
132,162,285447,6,0,L|138:260,1,80,4|0,0:0|0:0,0:0:0:0:
378,130,285784,1,4,0:0:0:0:
302,253,285953,2,0,L|307:285,2,26.6666666666667,4|4|4,0:0|0:0|0:0,0:0:0:0:
224,216,286121,6,0,L|388:223,1,160,2|4,0:0|0:0,0:0:0:0:
383,223,286627,1,4,0:0:0:0:
222,109,286795,1,8,0:0:0:0:
257,317,286964,1,4,0:0:0:0:
396,148,287132,1,8,0:0:0:0:
361,356,287301,1,4,0:0:0:0:
189,186,287470,5,8,0:0:0:0:
483,159,287638,1,4,0:0:0:0:
177,320,287807,1,8,0:0:0:0:
471,347,287975,1,4,0:0:0:0:
258,115,288144,5,8,0:0:0:0:
263,67,288228,1,8,0:0:0:0:
300,36,288312,1,8,0:0:0:0:
348,41,288397,1,8,0:0:0:0:
379,78,288481,5,4,0:0:0:0:
377,93,288565,1,4,0:0:0:0:
375,108,288649,5,4,0:0:0:0:
427,109,288734,1,4,0:0:0:0:
479,110,288818,5,6,0:0:0:0:
303,329,288986,1,8,0:0:0:0:
258,115,289155,1,4,0:0:0:0:
258,104,289239,1,4,0:0:0:0:
258,93,289323,1,8,0:0:0:0:
446,301,289492,1,4,0:0:0:0:
210,327,289661,1,8,0:0:0:0:
452,186,289829,1,4,0:0:0:0:
459,180,289913,1,4,0:0:0:0:
466,174,289998,6,0,P|445:101|318:123,1,209.999993591309,8|0,0:0|0:0,0:0:0:0:
290,183,290335,1,8,0:0:0:0:
185,0,290503,1,4,0:0:0:0:
173,312,290672,1,8,0:0:0:0:
71,93,290840,1,4,0:0:0:0:
73,82,290925,1,4,0:0:0:0:
75,71,291009,1,8,0:0:0:0:
321,112,291177,1,4,0:0:0:0:
323,123,291262,1,4,0:0:0:0:
325,134,291346,1,8,0:0:0:0:
63,311,291514,5,4,0:0:0:0:
274,367,291683,1,8,0:0:0:0:
192,123,291852,1,4,0:0:0:0:
182,118,291936,1,4,0:0:0:0:
172,113,292020,1,8,0:0:0:0:
121,384,292189,1,4,0:0:0:0:
96,112,292357,1,8,0:0:0:0:
303,279,292526,1,4,0:0:0:0:
309,286,292610,1,4,0:0:0:0:
315,293,292694,6,0,P|384:318|465:220,1,209.999993591309,8|0,0:0|0:0,0:0:0:0:
456,144,293031,1,8,0:0:0:0:
128,187,293200,1,4,0:0:0:0:
299,64,293368,1,8,0:0:0:0:
299,64,293453,1,0,0:0:0:0:
299,64,293537,2,0,L|294:142,1,69.9999978637696,4|4,0:0|0:0,0:0:0:0:
240,278,293705,6,0,P|247:204|385:182,1,209.999993591309,8|0,0:0|0:0,0:0:0:0:
448,217,294043,1,8,0:0:0:0:
446,244,294127,1,0,0:0:0:0:
444,271,294211,5,6,0:0:0:0:
188,137,294380,1,8,0:0:0:0:
246,368,294548,1,4,0:0:0:0:
256,367,294632,1,4,0:0:0:0:
266,366,294717,1,8,0:0:0:0:
314,105,294885,1,4,0:0:0:0:
148,258,295054,1,8,0:0:0:0:
457,301,295222,1,4,0:0:0:0:
464,293,295307,1,4,0:0:0:0:
471,285,295391,6,0,P|478:202|349:171,1,209.999993591309,8|0,0:0|0:0,0:0:0:0:
309,216,295728,1,8,0:0:0:0:
236,30,295896,1,4,0:0:0:0:
238,19,295981,1,4,0:0:0:0:
240,8,296065,1,8,0:0:0:0:
57,161,296234,1,4,0:0:0:0:
273,111,296402,1,8,0:0:0:0:
81,37,296571,1,4,0:0:0:0:
70,36,296655,1,4,0:0:0:0:
59,35,296739,1,8,0:0:0:0:
130,298,296908,5,4,0:0:0:0:
158,107,297076,1,8,0:0:0:0:
0,291,297245,1,4,0:0:0:0:
1,301,297329,1,4,0:0:0:0:
2,311,297413,1,8,0:0:0:0:
258,285,297582,1,4,0:0:0:0:
51,175,297750,1,8,0:0:0:0:
300,145,297919,1,4,0:0:0:0:
301,135,298003,1,4,0:0:0:0:
302,125,298087,6,0,B|220:120|220:120|180:94|180:94|99:89,1,209.999993591309,10|0,0:0|0:0,0:0:0:0:
8,84,298425,1,8,0:0:0:0:
229,205,298593,2,0,L|220:286,1,69.9999978637696,4|4,0:0|0:0,0:0:0:0:
87,349,298762,1,8,0:0:0:0:
354,372,298930,5,4,0:0:0:0:
366,355,299014,1,4,0:0:0:0:
371,334,299099,1,4,0:0:0:0:
369,313,299182,1,4,0:0:0:0:
359,293,299267,5,8,0:0:0:0:
332,246,299352,1,8,0:0:0:0:
346,193,299436,1,8,0:0:0:0:
393,166,299520,1,8,0:0:0:0:
446,180,299604,5,6,0:0:0:0:
475,149,299689,1,0,0:0:0:0:
484,107,299773,1,8,0:0:0:0:
471,66,299857,1,0,0:0:0:0:
438,38,299941,2,0,L|362:31,1,69.9999978637696,4|0,0:0|0:0,0:0:0:0:
282,126,300110,2,0,L|206:133,1,69.9999978637696,8|0,0:0|0:0,0:0:0:0:
121,27,300278,5,4,0:0:0:0:
91,56,300363,1,0,0:0:0:0:
81,96,300447,1,8,0:0:0:0:
93,136,300532,1,0,0:0:0:0:
122,165,300616,1,4,0:0:0:0:
132,203,300700,1,0,0:0:0:0:
121,241,300784,5,8,0:0:0:0:
95,199,300868,1,0,0:0:0:0:
106,150,300953,1,4,0:0:0:0:
148,124,301036,1,0,0:0:0:0:
197,135,301121,6,0,P|234:141|269:133,1,69.9999978637696,8|0,0:0|0:0,0:0:0:0:
350,0,301290,2,0,P|326:29|315:63,1,69.9999978637696,4|0,0:0|0:0,0:0:0:0:
390,200,301458,2,0,P|376:164|352:138,1,69.9999978637696,8|0,0:0|0:0,0:0:0:0:
197,135,301627,5,4,0:0:0:0:
200,183,301711,1,0,0:0:0:0:
204,231,301795,1,8,0:0:0:0:
208,280,301880,1,0,0:0:0:0:
212,328,301964,5,4,0:0:0:0:
240,297,302048,1,0,0:0:0:0:
279,284,302132,1,8,0:0:0:0:
319,292,302217,1,0,0:0:0:0:
350,320,302301,6,0,P|381:333|428:330,1,69.9999978637696,4|0,0:0|0:0,0:0:0:0:
512,190,302470,2,0,P|481:177|434:180,1,69.9999978637696,8|0,0:0|0:0,0:0:0:0:
309,240,302638,1,4,0:0:0:0:
267,235,302722,1,0,0:0:0:0:
233,209,302807,1,8,0:0:0:0:
216,170,302890,1,0,0:0:0:0:
221,127,302975,2,0,P|225:92|208:53,1,69.9999978637696,4|0,0:0|0:0,0:0:0:0:
50,137,303144,2,0,P|46:172|63:211,1,69.9999978637696,8|0,0:0|0:0,0:0:0:0:
157,295,303312,1,4,0:0:0:0:
184,293,303396,1,0,0:0:0:0:
212,291,303481,6,0,L|289:285,1,69.9999978637696,8|0,0:0|0:0,0:0:0:0:
439,211,303649,1,0,0:0:0:0:
483,247,303734,1,0,0:0:0:0:
489,302,303818,1,8,0:0:0:0:
461,350,303902,1,0,0:0:0:0:
406,363,303986,2,0,L|316:365,1,69.9999978637696,4|0,0:0|0:0,0:0:0:0:
265,200,304155,2,0,L|355:202,1,69.9999978637696,8|0,0:0|0:0,0:0:0:0:
171,319,304323,2,0,L|81:321,1,69.9999978637696
79,58,304492,6,0,B|156:53|156:53|201:84|201:84|279:81,1,209.999993591309,10|0,0:0|0:0,0:0:0:0:
393,75,304829,1,10,0:0:0:0:
389,130,304913,1,0,0:0:0:0:
386,186,304998,6,0,L|381:284,1,69.9999978637696,6|0,0:0|0:0,0:0:0:0:
279,347,305166,2,0,L|274:249,1,69.9999978637696,8|0,0:0|0:0,0:0:0:0:
194,138,305335,1,4,0:0:0:0:
153,128,305419,1,0,0:0:0:0:
112,139,305503,1,8,0:0:0:0:
82,169,305587,1,0,0:0:0:0:
71,210,305672,6,0,P|72:249|95:293,1,69.9999978637696,4|0,0:0|0:0,0:0:0:0:
264,258,305840,2,0,P|263:219|240:175,1,69.9999978637696,8|0,0:0|0:0,0:0:0:0:
154,98,306009,1,4,0:0:0:0:
174,53,306093,1,0,0:0:0:0:
216,28,306177,6,0,P|250:18|302:27,1,69.9999978637696,8|0,0:0|0:0,0:0:0:0:
395,100,306346,1,0,0:0:0:0:
411,138,306430,1,0,0:0:0:0:
399,178,306514,1,8,0:0:0:0:
363,201,306599,1,0,0:0:0:0:
322,197,306683,2,0,L|212:187,1,69.9999978637696,4|0,0:0|0:0,0:0:0:0:
154,98,306852,2,0,L|44:107,1,69.9999978637696,8|0,0:0|0:0,0:0:0:0:
64,305,307020,5,4,0:0:0:0:
112,301,307104,1,0,0:0:0:0:
161,298,307189,2,0,L|239:294,1,69.9999978637696,8|0,0:0|0:0,0:0:0:0:
288,193,307357,1,4,0:0:0:0:
322,197,307442,1,0,0:0:0:0:
356,200,307526,2,0,L|443:207,1,69.9999978637696,8|0,0:0|0:0,0:0:0:0:
326,340,307694,6,0,P|310:304|315:260,1,69.9999978637696,6|0,0:0|0:0,0:0:0:0:
346,44,307863,2,0,P|362:80|357:124,1,69.9999978637696,8|0,0:0|0:0,0:0:0:0:
218,146,308031,1,4,0:0:0:0:
175,142,308116,1,0,0:0:0:0:
133,138,308200,2,0,L|37:130,1,69.9999978637696,8|0,0:0|0:0,0:0:0:0:
178,307,308368,1,4,0:0:0:0:
221,303,308453,1,0,0:0:0:0:
263,299,308537,2,0,L|359:291,1,69.9999978637696,8|0,0:0|0:0,0:0:0:0:
467,279,308705,1,4,0:0:0:0:
487,249,308790,1,0,0:0:0:0:
487,214,308874,6,0,P|470:157|338:149,1,179.999994506836,10|0,0:0|0:0,0:0:0:0:
301,203,309211,1,4,0:0:0:0:
273,201,309295,1,4,0:0:0:0:
244,199,309380,5,8,0:0:0:0:
251,151,309464,1,8,0:0:0:0:
259,103,309548,1,8,0:0:0:0:
268,56,309632,1,8,0:0:0:0:
277,9,309717,5,4,0:0:0:0:
292,41,309801,1,4,0:0:0:0:
288,76,309885,1,4,0:0:0:0:
267,104,309970,1,4,0:0:0:0:
235,119,310054,5,4,0:0:0:0:
217,163,310138,1,4,0:0:0:0:
235,206,310222,1,4,0:0:0:0:
279,224,310307,1,4,0:0:0:0:
322,206,310391,6,0,P|355:191|408:197,1,69.9999978637696,6|0,0:0|0:0,0:0:0:0:
482,297,310559,1,8,0:0:0:0:
472,338,310644,1,0,0:0:0:0:
442,368,310728,5,4,0:0:0:0:
399,343,310812,1,0,0:0:0:0:
350,334,310896,1,8,0:0:0:0:
300,342,310981,1,0,0:0:0:0:
257,367,311065,5,4,0:0:0:0:
232,352,311149,1,0,0:0:0:0:
213,329,311234,1,8,0:0:0:0:
203,301,311317,1,0,0:0:0:0:
203,271,311402,2,0,P|208:240|237:199,1,69.9999978637696,4|0,0:0|0:0,0:0:0:0:
345,143,311571,5,8,0:0:0:0:
364,98,311655,1,0,0:0:0:0:
355,49,311739,1,4,0:0:0:0:
327,17,311823,1,0,0:0:0:0:
286,3,311908,1,8,0:0:0:0:
244,6,311992,1,0,0:0:0:0:
209,29,312076,5,4,0:0:0:0:
228,74,312161,1,0,0:0:0:0:
221,122,312245,1,8,0:0:0:0:
191,160,312329,1,0,0:0:0:0:
146,178,312413,5,4,0:0:0:0:
124,196,312498,1,0,0:0:0:0:
109,220,312582,1,8,0:0:0:0:
103,247,312666,1,0,0:0:0:0:
107,276,312750,5,4,0:0:0:0:
111,289,312835,1,0,0:0:0:0:
115,302,312919,1,8,0:0:0:0:
119,315,313003,1,0,0:0:0:0:
123,328,313087,6,0,L|206:321,1,69.9999978637696,4|0,0:0|0:0,0:0:0:0:
275,242,313256,2,0,L|358:249,1,69.9999978637696,8|0,0:0|0:0,0:0:0:0:
456,318,313425,1,4,0:0:0:0:
483,277,313509,1,0,0:0:0:0:
485,227,313593,1,8,0:0:0:0:
462,183,313678,1,0,0:0:0:0:
420,156,313762,5,4,0:0:0:0:
410,122,313846,1,0,0:0:0:0:
412,86,313930,1,8,0:0:0:0:
426,53,314015,1,0,0:0:0:0:
450,27,314099,2,0,P|459:61|452:100,1,69.9999978637696,4|0,0:0|0:0,0:0:0:0:
349,203,314267,5,8,0:0:0:0:
327,201,314352,1,0,0:0:0:0:
306,199,314436,1,4,0:0:0:0:
285,197,314520,1,0,0:0:0:0:
264,195,314604,2,0,L|272:280,1,69.9999978637696,8|0,0:0|0:0,0:0:0:0:
39,322,314773,2,0,L|47:237,1,69.9999978637696,4|0,0:0|0:0,0:0:0:0:
168,56,314941,1,8,0:0:0:0:
174,112,315026,1,0,0:0:0:0:
182,167,315110,2,0,L|190:252,1,69.9999978637696,4|0,0:0|0:0,0:0:0:0:
368,346,315278,6,0,B|373:269|373:269|342:224|342:224|345:146,1,209.999993591309,10|0,0:0|0:0,0:0:0:0:
392,52,315616,1,10,0:0:0:0:
335,53,315701,1,0,0:0:0:0:
280,56,315785,6,0,L|194:56,1,69.9999978637696,6|0,0:0|0:0,0:0:0:0:
86,159,315953,2,0,L|171:159,1,69.9999978637696,8|0,0:0|0:0,0:0:0:0:
331,197,316121,1,4,0:0:0:0:
339,252,316205,1,0,0:0:0:0:
318,303,316290,1,8,0:0:0:0:
274,337,316373,1,0,0:0:0:0:
219,344,316458,5,4,0:0:0:0:
202,312,316543,1,0,0:0:0:0:
196,276,316627,1,8,0:0:0:0:
203,240,316711,1,0,0:0:0:0:
222,209,316795,2,0,P|237:181|241:138,1,69.9999978637696,4|0,0:0|0:0,0:0:0:0:
75,61,316964,5,8,0:0:0:0:
38,93,317048,1,0,0:0:0:0:
22,140,317132,1,4,0:0:0:0:
32,187,317217,1,0,0:0:0:0:
64,223,317301,2,0,P|102:241|140:241,1,69.9999978637696,8|0,0:0|0:0,0:0:0:0:
261,114,317470,5,4,0:0:0:0:
306,97,317554,1,0,0:0:0:0:
353,104,317638,1,8,0:0:0:0:
390,134,317723,1,0,0:0:0:0:
407,178,317807,5,4,0:0:0:0:
377,215,317891,1,0,0:0:0:0:
370,262,317976,1,8,0:0:0:0:
387,306,318060,1,0,0:0:0:0:
425,337,318144,5,6,0:0:0:0:
429,288,318228,1,0,0:0:0:0:
397,250,318312,1,8,0:0:0:0:
348,246,318397,1,0,0:0:0:0:
310,278,318481,5,6,0:0:0:0:
131,117,318649,1,4,0:0:0:0:
132,102,318734,1,4,0:0:0:0:
133,88,318818,1,4,0:0:0:0:
134,74,318902,1,4,0:0:0:0:
135,60,318986,5,10,0:0:0:0:
264,154,319155,1,4,0:0:0:0:
263,168,319239,1,4,0:0:0:0:
262,183,319324,1,10,0:0:0:0:
91,255,319492,1,4,0:0:0:0:
92,269,319576,1,4,0:0:0:0:
93,284,319661,6,0,B|207:238|206:335|330:277,1,233.333333333333,10|8,0:0|0:0,0:0:0:0:
385,219,320166,1,8,0:0:0:0:
378,146,320278,1,8,0:0:0:0:
371,72,320391,1,8,0:0:0:0:
311,114,320503,6,0,P|297:144|321:180,2,66.6666666666667,8|4|4,0:0|0:0|0:0,0:0:0:0:
241,79,320840,2,0,P|255:49|231:13,2,66.6666666666667,8|4|4,0:0|0:0|0:0,0:0:0:0:
222,152,321177,6,0,L|81:145,1,129.999994049073,10|0,0:0|0:0,0:0:0:0:
93,146,321514,1,4,0:0:0:0:
220,303,321683,6,0,L|361:296,1,129.999994049073,10|0,0:0|0:0,0:0:0:0:
349,297,322020,1,4,0:0:0:0:
241,79,322189,6,0,L|100:72,1,129.999994049073,10|0,0:0|0:0,0:0:0:0:
328,150,322526,6,0,P|362:90|351:27,1,129.999994049073,10|0,0:0|0:0,0:0:0:0:
353,32,322863,1,4,0:0:0:0:
192,173,323031,6,0,P|158:233|169:296,1,129.999994049073,10|0,0:0|0:0,0:0:0:0:
166,290,323368,1,4,0:0:0:0:
350,153,323537,6,0,P|384:93|373:30,1,129.999994049073,10|0,0:0|0:0,0:0:0:0:
152,87,323874,6,0,L|294:81,1,129.999994049073,10|0,0:0|0:0,0:0:0:0:
281,82,324211,1,4,0:0:0:0:
357,313,324380,6,0,L|215:307,1,129.999994049073,10|0,0:0|0:0,0:0:0:0:
228,307,324717,1,4,0:0:0:0:
350,153,324885,6,0,L|492:147,1,129.999994049073,10|0,0:0|0:0,0:0:0:0:
479,148,325222,1,4,0:0:0:0:
426,268,325391,6,0,L|284:262,1,129.999994049073,10|0,0:0|0:0,0:0:0:0:
297,263,325728,1,4,0:0:0:0:
149,118,325896,6,0,L|279:113,1,129.999994049073,8|0,0:0|0:0,0:0:0:0:
2,262,326234,2,0,L|132:268,1,129.999994049073,8|0,0:0|0:0,0:0:0:0:
129,1,326571,6,0,P|161:57|145:125,1,129.999994049073,10|0,0:0|0:0,0:0:0:0:
150,118,326908,1,4,0:0:0:0:
246,308,327076,6,0,P|214:252|230:184,1,129.999994049073,10|0,0:0|0:0,0:0:0:0:
225,191,327413,1,4,0:0:0:0:
278,4,327582,6,0,P|310:60|294:128,1,129.999994049073,10|0,0:0|0:0,0:0:0:0:
58,261,327919,6,0,L|198:256,1,129.999994049073,10|0,0:0|0:0,0:0:0:0:
187,257,328256,1,4,0:0:0:0:
428,126,328425,6,0,L|288:121,1,129.999994049073,10|0,0:0|0:0,0:0:0:0:
299,122,328762,1,4,0:0:0:0:
271,323,328930,6,0,L|411:318,1,129.999994049073,10|0,0:0|0:0,0:0:0:0:
234,50,329267,6,0,P|202:106|218:174,1,129.999994049073,10|0,0:0|0:0,0:0:0:0:
213,167,329604,1,4,0:0:0:0:
403,192,329773,6,0,P|435:136|419:68,1,129.999994049073,10|0,0:0|0:0,0:0:0:0:
424,75,330110,1,4,0:0:0:0:
290,305,330278,1,10,0:0:0:0:
316,124,330447,1,0,0:0:0:0:
88,214,330616,5,8,0:0:0:0:
90,233,330700,1,4,0:0:0:0:
92,252,330784,1,4,0:0:0:0:
94,271,330868,1,4,0:0:0:0:
97,290,330953,2,0,L|125:225,1,64.9999970245363,4|0,0:0|0:0,0:0:0:0:
175,119,331121,1,8,0:0:0:0:
177,138,331205,1,4,0:0:0:0:
179,157,331289,1,4,0:0:0:0:
181,176,331373,1,4,0:0:0:0:
184,195,331458,2,0,L|212:130,1,64.9999970245363,4|0,0:0|0:0,0:0:0:0:
324,0,331627,6,0,B|336:70|336:70|307:115|307:115|322:201,1,194.999991073609,10|0,0:0|0:0,0:0:0:0:
424,215,331964,6,0,P|347:196|268:294,1,194.999991073609,10|0,0:0|0:0,0:0:0:0:
264,356,332301,1,8,0:0:0:0:
221,160,332470,1,4,0:0:0:0:
59,306,332638,2,0,L|206:301,1,129.999994049073,8|4,0:0|0:0,0:0:0:0:
367,298,332975,1,8,0:0:0:0:
221,160,333144,1,4,0:0:0:0:
221,160,333228,1,4,0:0:0:0:
221,160,333312,6,0,P|208:93|313:24,1,194.999991073609,8|0,0:0|0:0,0:0:0:0:
386,44,333649,1,8,0:0:0:0:
276,222,333818,1,4,0:0:0:0:
142,0,333986,1,8,0:0:0:0:
32,178,334155,1,4,0:0:0:0:
32,178,334239,1,4,0:0:0:0:
32,178,334323,1,8,0:0:0:0:
211,110,334492,1,4,0:0:0:0:
211,110,334576,1,4,0:0:0:0:
211,110,334661,6,0,L|196:253,1,129.999994049073,8|4,0:0|0:0,0:0:0:0:
103,51,334998,1,8,0:0:0:0:
319,169,335166,6,0,L|304:312,1,129.999994049073,4|8,0:0|0:0,0:0:0:0:
211,110,335503,1,4,0:0:0:0:
427,228,335672,1,8,0:0:0:0:
217,331,335840,1,4,0:0:0:0:
217,331,335925,1,4,0:0:0:0:
217,331,336009,6,0,P|154:340|99:302,1,129.999994049073,8|4,0:0|0:0,0:0:0:0:
85,94,336346,1,8,0:0:0:0:
303,120,336514,1,4,0:0:0:0:
303,120,336599,1,4,0:0:0:0:
303,120,336683,1,8,0:0:0:0:
186,345,336852,1,4,0:0:0:0:
186,345,336936,1,4,0:0:0:0:
186,345,337020,6,0,B|198:275|198:275|169:230|169:230|184:144,1,194.999991073609,10|0,0:0|0:0,0:0:0:0:
92,35,337357,6,0,B|187:75|186:5|291:48,1,194.999991073609,10|0,0:0|0:0,0:0:0:0:
361,99,337694,1,8,0:0:0:0:
181,161,337863,1,4,0:0:0:0:
474,257,338031,1,8,0:0:0:0:
294,319,338200,1,4,0:0:0:0:
384,27,338368,1,8,0:0:0:0:
375,258,338537,1,4,0:0:0:0:
375,258,338621,1,4,0:0:0:0:
375,258,338705,6,0,L|244:245,1,129.999994049073,8|4,0:0|0:0,0:0:0:0:
85,229,339043,1,8,0:0:0:0:
266,150,339211,1,4,0:0:0:0:
0,86,339380,1,8,0:0:0:0:
129,296,339548,1,4,0:0:0:0:
129,296,339632,1,4,0:0:0:0:
129,296,339717,1,8,0:0:0:0:
178,23,339885,1,4,0:0:0:0:
178,23,339969,1,4,0:0:0:0:
178,23,340054,6,0,B|248:35|248:35|293:6|293:6|379:21,1,194.999991073609,10|0,0:0|0:0,0:0:0:0:
461,45,340391,2,0,P|446:73|443:105,1,64.9999970245363,8|0,0:0|0:0,0:0:0:0:
501,212,340559,1,0,0:0:0:0:
504,231,340644,1,4,0:0:0:0:
507,250,340728,2,0,L|370:256,1,129.999994049073,8|4,0:0|0:0,0:0:0:0:
277,264,340981,1,4,0:0:0:0:
277,264,341065,1,8,0:0:0:0:
274,4,341234,1,4,0:0:0:0:
274,4,341318,1,4,0:0:0:0:
274,4,341402,5,10,0:0:0:0:
322,140,341571,1,4,0:0:0:0:
132,55,341739,5,10,0:0:0:0:
84,191,341908,1,4,0:0:0:0:
315,64,342076,5,10,0:0:0:0:
317,342,342245,1,10,0:0:0:0:
84,191,342413,2,0,P|143:144|220:144,1,129.999994049073,10|0,0:0|0:0,0:0:0:0:
406,275,342750,5,10,0:0:0:0:
423,239,342835,1,0,0:0:0:0:
419,199,342919,1,0,0:0:0:0:
396,166,343003,1,0,0:0:0:0:
359,149,343087,1,8,0:0:0:0:
319,152,343173,1,0,0:0:0:0:
286,175,343257,1,0,0:0:0:0:
269,212,343341,1,0,0:0:0:0:
273,252,343425,1,8,0:0:0:0:
277,292,343508,1,0,0:0:0:0:
260,329,343592,1,0,0:0:0:0:
227,352,343676,1,0,0:0:0:0:
187,355,343762,1,8,0:0:0:0:
150,338,343846,1,0,0:0:0:0:
127,305,343930,1,0,0:0:0:0:
123,265,344014,1,0,0:0:0:0:
140,229,344099,5,8,0:0:0:0:
176,243,344183,1,0,0:0:0:0:
214,237,344267,1,0,0:0:0:0:
244,212,344352,1,0,0:0:0:0:
258,176,344436,1,8,0:0:0:0:
272,140,344520,1,0,0:0:0:0:
302,115,344605,1,0,0:0:0:0:
340,109,344689,1,0,0:0:0:0:
376,123,344773,1,8,0:0:0:0:
400,153,344857,1,0,0:0:0:0:
406,191,344942,1,0,0:0:0:0:
393,227,345026,1,0,0:0:0:0:
362,251,345110,2,0,L|288:258,3,64.9999970245363,8|0|0|0,0:0|0:0|0:0|0:0,0:0:0:0:
271,330,345447,5,8,0:0:0:0:
236,311,345531,1,0,0:0:0:0:
215,277,345616,1,0,0:0:0:0:
214,237,345699,1,0,0:0:0:0:
233,202,345784,1,8,0:0:0:0:
252,167,345869,1,0,0:0:0:0:
251,127,345952,1,0,0:0:0:0:
230,93,346037,1,0,0:0:0:0:
195,74,346121,1,8,0:0:0:0:
155,75,346206,1,0,0:0:0:0:
121,95,346289,1,0,0:0:0:0:
102,131,346374,1,0,0:0:0:0:
103,170,346458,5,8,0:0:0:0:
138,189,346543,1,0,0:0:0:0:
177,188,346626,1,0,0:0:0:0:
212,167,346711,1,0,0:0:0:0:
230,132,346795,5,8,0:0:0:0:
265,151,346880,1,0,0:0:0:0:
304,150,346963,1,0,0:0:0:0:
339,129,347048,1,0,0:0:0:0:
357,94,347132,1,8,0:0:0:0:
355,54,347218,1,0,0:0:0:0:
335,20,347301,1,0,0:0:0:0:
299,1,347386,1,0,0:0:0:0:
260,3,347470,5,8,0:0:0:0:
262,22,347554,1,0,0:0:0:0:
264,41,347638,1,0,0:0:0:0:
266,60,347722,1,0,0:0:0:0:
268,79,347807,5,10,0:0:0:0:
224,65,347891,1,0,0:0:0:0:
182,86,347975,1,0,0:0:0:0:
168,130,348060,1,0,0:0:0:0:
189,172,348144,5,10,0:0:0:0:
150,169,348228,1,0,0:0:0:0:
114,185,348312,1,0,0:0:0:0:
91,217,348397,1,0,0:0:0:0:
87,256,348481,1,8,0:0:0:0:
103,291,348565,1,0,0:0:0:0:
135,314,348649,1,0,0:0:0:0:
174,318,348734,1,0,0:0:0:0:
210,302,348818,1,8,0:0:0:0:
246,286,348902,1,0,0:0:0:0:
285,290,348987,1,0,0:0:0:0:
317,313,349071,1,0,0:0:0:0:
333,348,349155,5,8,0:0:0:0:
349,313,349239,1,0,0:0:0:0:
381,290,349323,1,0,0:0:0:0:
420,286,349408,1,0,0:0:0:0:
456,302,349492,5,8,0:0:0:0:
488,279,349576,1,0,0:0:0:0:
504,243,349661,1,0,0:0:0:0:
500,204,349745,1,0,0:0:0:0:
478,173,349829,1,8,0:0:0:0:
442,157,349913,1,0,0:0:0:0:
402,160,349998,1,0,0:0:0:0:
371,183,350082,1,0,0:0:0:0:
355,218,350166,5,8,0:0:0:0:
339,183,350250,1,0,0:0:0:0:
308,160,350334,1,0,0:0:0:0:
268,157,350419,1,0,0:0:0:0:
232,173,350503,1,8,0:0:0:0:
200,150,350587,1,0,0:0:0:0:
184,114,350672,1,0,0:0:0:0:
188,75,350756,1,0,0:0:0:0:
210,44,350840,5,10,0:0:0:0:
242,67,350924,1,0,0:0:0:0:
258,103,351009,1,0,0:0:0:0:
254,142,351093,1,0,0:0:0:0:
232,173,351177,1,8,0:0:0:0:
196,189,351261,1,0,0:0:0:0:
156,185,351346,1,0,0:0:0:0:
125,162,351430,1,0,0:0:0:0:
109,127,351514,5,8,0:0:0:0:
140,150,351599,1,0,0:0:0:0:
157,186,351684,1,0,0:0:0:0:
152,225,351768,1,0,0:0:0:0:
130,256,351852,5,8,0:0:0:0:
169,260,351936,1,0,0:0:0:0:
202,282,352021,1,0,0:0:0:0:
216,318,352105,1,0,0:0:0:0:
213,357,352189,5,10,0:0:0:0:
196,321,352273,1,0,0:0:0:0:
199,281,352358,1,0,0:0:0:0:
223,251,352442,1,0,0:0:0:0:
258,234,352526,1,8,0:0:0:0:
241,198,352610,1,0,0:0:0:0:
244,158,352695,1,0,0:0:0:0:
268,128,352779,1,0,0:0:0:0:
303,111,352863,5,8,0:0:0:0:
292,60,352947,1,8,0:0:0:0:
248,31,353031,1,8,0:0:0:0:
197,42,353116,1,8,0:0:0:0:
168,86,353200,1,8,0:0:0:0:
179,137,353284,1,8,0:0:0:0:
223,166,353368,1,8,0:0:0:0:
274,155,353453,1,8,0:0:0:0:
303,111,353537,5,2,0:0:0:0:
348,111,353621,1,0,0:0:0:0:
386,133,353705,1,8,0:0:0:0:
408,171,353790,1,0,0:0:0:0:
408,215,353874,1,0,0:0:0:0:
385,253,353958,1,0,0:0:0:0:
347,275,354042,1,8,0:0:0:0:
303,275,354127,1,0,0:0:0:0:
265,253,354211,1,0,0:0:0:0:
227,231,354295,1,0,0:0:0:0:
183,231,354380,1,8,0:0:0:0:
145,253,354464,1,0,0:0:0:0:
122,291,354548,5,0,0:0:0:0:
160,313,354632,1,0,0:0:0:0:
204,313,354717,1,8,0:0:0:0:
242,291,354801,1,0,0:0:0:0:
265,253,354885,5,0,0:0:0:0:
303,275,354969,1,0,0:0:0:0:
347,275,355054,1,8,0:0:0:0:
385,253,355138,1,0,0:0:0:0:
408,215,355222,1,0,0:0:0:0:
408,171,355306,1,0,0:0:0:0:
386,132,355391,1,8,0:0:0:0:
348,111,355475,1,0,0:0:0:0:
303,110,355559,1,0,0:0:0:0:
265,132,355643,1,0,0:0:0:0:
242,170,355728,1,8,0:0:0:0:
243,214,355812,1,0,0:0:0:0:
265,253,355896,5,0,0:0:0:0:
226,230,355981,1,0,0:0:0:0:
180,229,356065,1,8,0:0:0:0:
140,251,356150,1,0,0:0:0:0:
116,290,356234,6,0,P|88:307|54:311,1,64.9999970245363
1,188,356402,1,8,0:0:0:0:
1,140,356486,1,0,0:0:0:0:
15,96,356571,1,0,0:0:0:0:
44,60,356655,1,0,0:0:0:0:
84,37,356739,2,0,P|115:33|161:42,1,64.9999970245363,8|0,0:0|0:0,0:0:0:0:
231,126,356908,5,0,0:0:0:0:
273,145,356992,1,0,0:0:0:0:
319,140,357076,1,8,0:0:0:0:
356,113,357161,1,0,0:0:0:0:
375,70,357245,5,0,0:0:0:0:
329,76,357329,1,0,0:0:0:0:
292,100,357413,1,8,0:0:0:0:
273,145,357498,1,0,0:0:0:0:
273,188,357582,6,0,P|285:217|306:244,1,64.9999970245363
395,321,357750,1,8,0:0:0:0:
440,321,357835,1,0,0:0:0:0:
478,298,357919,1,0,0:0:0:0:
500,259,358003,1,0,0:0:0:0:
499,214,358087,1,8,0:0:0:0:
188,228,358256,5,4,0:0:0:0:
189,240,358340,1,4,0:0:0:0:
190,253,358425,1,4,0:0:0:0:
191,265,358509,1,4,0:0:0:0:
192,277,358593,5,4,0:0:0:0:
226,247,358677,1,0,0:0:0:0:
240,204,358762,1,0,0:0:0:0:
231,159,358846,1,0,0:0:0:0:
200,125,358930,5,10,0:0:0:0:
213,175,359014,1,0,0:0:0:0:
249,210,359099,1,0,0:0:0:0:
298,223,359183,1,0,0:0:0:0:
348,210,359267,1,8,0:0:0:0:
383,173,359351,1,0,0:0:0:0:
396,123,359436,1,0,0:0:0:0:
383,74,359520,1,0,0:0:0:0:
347,38,359604,5,8,0:0:0:0:
311,76,359688,1,0,0:0:0:0:
298,125,359773,1,0,0:0:0:0:
311,174,359857,1,0,0:0:0:0:
348,210,359941,1,8,0:0:0:0:
385,246,360025,1,0,0:0:0:0:
398,295,360109,1,0,0:0:0:0:
385,344,360194,1,0,0:0:0:0:
349,382,360278,5,10,0:0:0:0:
321,336,360363,1,0,0:0:0:0:
277,312,360448,1,0,0:0:0:0:
226,312,360532,1,0,0:0:0:0:
182,338,360616,1,8,0:0:0:0:
138,364,360700,1,0,0:0:0:0:
87,364,360784,1,0,0:0:0:0:
43,339,360869,1,0,0:0:0:0:
16,294,360953,1,8,0:0:0:0:
15,242,361037,1,0,0:0:0:0:
40,198,361121,1,0,0:0:0:0:
84,173,361206,1,0,0:0:0:0:
137,173,361290,5,10,0:0:0:0:
136,121,361374,1,0,0:0:0:0:
161,77,361458,1,0,0:0:0:0:
205,52,361543,1,0,0:0:0:0:
258,52,361627,6,0,L|265:142,1,64.9999970245363,10|0,0:0|0:0,0:0:0:0:
281,297,361795,1,4,0:0:0:0:
281,297,361880,1,4,0:0:0:0:
281,297,361964,1,4,0:0:0:0:
69,43,362132,6,0,L|62:133,1,64.9999970245363,10|0,0:0|0:0,0:0:0:0:
46,288,362300,1,4,0:0:0:0:
46,288,362385,1,4,0:0:0:0:
46,288,362469,1,4,0:0:0:0:
333,21,362638,6,0,L|340:111,1,64.9999970245363,10|0,0:0|0:0,0:0:0:0:
356,266,362806,1,4,0:0:0:0:
356,266,362891,1,4,0:0:0:0:
356,266,362975,6,0,P|329:193|156:213,1,259.999988098145,6|4,0:0|0:0,0:0:0:0:
169,194,363481,1,4,0:0:0:0:
341,345,363649,5,8,0:0:0:0:
281,67,363818,1,8,0:0:0:0:
142,367,363986,5,8,0:0:0:0:
486,235,364155,1,8,0:0:0:0:
136,77,364323,5,6,0:0:0:0:
137,89,364492,1,4,0:0:0:0:
138,101,364661,1,4,0:0:0:0:
139,113,364829,1,4,0:0:0:0:
136,77,364998,1,8,0:0:0:0:
393,103,365335,5,4,0:0:0:0:
392,115,365504,1,4,0:0:0:0:
391,127,365673,1,4,0:0:0:0:
390,139,365840,2,0,L|383:86,1,40,4|0,0:0|0:0,0:0:0:0:
126,209,366346,5,8,0:0:0:0:
127,221,366515,1,4,0:0:0:0:
374,186,367020,5,4,0:0:0:0:
373,198,367189,1,4,0:0:0:0:
372,210,367358,1,4,0:0:0:0:
371,222,367526,1,4,0:0:0:0:
374,186,367695,1,8,0:0:0:0:
117,212,368032,5,4,0:0:0:0:
118,224,368201,1,4,0:0:0:0:
119,236,368368,1,4,0:0:0:0:
120,248,368537,2,0,L|127:195,1,40,4|0,0:0|0:0,0:0:0:0:
384,318,369043,5,14,0:0:0:0:
202,291,369267,1,6,0:0:0:0:
20,264,369492,1,2,0:0:0:0:
243,49,369717,5,6,0:0:0:0:
231,50,369885,1,4,0:0:0:0:
228,61,370054,1,4,0:0:0:0:
238,67,370222,1,4,0:0:0:0:
247,60,370391,1,8,0:0:0:0:
234,344,370728,5,4,0:0:0:0:
246,343,370896,1,4,0:0:0:0:
249,332,371065,1,4,0:0:0:0:
239,326,371234,2,0,P|233:341|249:331,1,40,4|0,0:0|0:0,0:0:0:0:
242,184,371739,5,8,0:0:0:0:
242,196,371908,1,4,0:0:0:0:
239,94,372245,6,0,L|240:114,1,20,4|4,0:0|0:0,0:0:0:0:
247,264,372413,1,10,0:0:0:0:
315,222,372582,1,4,0:0:0:0:
385,259,372750,1,4,0:0:0:0:
250,344,372919,1,10,0:0:0:0:
320,381,373256,1,4,0:0:0:0:
177,227,373425,5,10,0:0:0:0:
385,259,373593,1,4,0:0:0:0:
318,147,373762,1,4,0:0:0:0:
250,344,373930,1,10,0:0:0:0:
90,225,374211,2,0,L|91:185,1,26.6666666666667,4|4,0:0|0:0,0:0:0:0:
163,132,374436,6,0,L|164:172,2,26.6666666666667,4|4|4,0:0|0:0|0:0,0:0:0:0:
229,209,374773,1,4,0:0:0:0:
260,206,374885,1,4,0:0:0:0:
292,204,374998,1,4,0:0:0:0:
323,202,375110,2,0,L|318:214,1,13.3333333333333,8|8,0:0|0:0,0:0:0:0:
163,132,375784,5,6,0:0:0:0:
256,192,375868,12,0,395335,2:0:0:0:
