osu file format v14

[General]
AudioFilename: Counter-Attack of the Weak.mp3
AudioLeadIn: 0
PreviewTime: 144074
Countdown: 0
SampleSet: Normal
StackLeniency: 0.7
Mode: 0
LetterboxInBreaks: 1
WidescreenStoryboard: 1

[Editor]
Bookmarks: 6139,13965,30269,61574,92878,113748,115704,116030,116356,118638,119617,120106,122878,125161,134617,143748,165922,184183,217443,227878,268639,300922,307199,307443,308096,332226
DistanceSpacing: 0.7
BeatDivisor: 4
GridSize: 4
TimelineZoom: 3.299999

[Metadata]
Title:Counter-Attack of the Weak
TitleUnicode:「輝く針の小人族 ~ Counter-Attack of the Weak」
Artist:Demetori
ArtistUnicode:Demetori
Creator:Espeon
Version:Extra Stage
Source:Touhou
Tags:counter attack shining needle zun stream touhou marathon th 14 c88 double dealing character loli feces One Miss
BeatmapID:766466
BeatmapSetID:346929

[Difficulty]
HPDrainRate:6.5
CircleSize:4.2
OverallDifficulty:8.5
ApproachRate:9.3
SliderMultiplier:2
SliderTickRate:1

[Events]
//Background and Video events
0,0,"40526464_p0.jpg",0,0
//Break Periods
//Storyboard Layer 0 (Background)
//Storyboard Layer 1 (Fail)
//Storyboard Layer 2 (Pass)
//Storyboard Layer 3 (Foreground)
//Storyboard Sound Samples

[TimingPoints]
270,326.086956521739,4,1,0,65,1,0
270,-100,4,1,0,65,0,0
13965,-100,4,1,0,65,0,0
29454,-200,4,1,0,65,0,0
30269,-95.2380952380952,4,1,0,65,0,0
40704,-86.9565217391304,4,1,0,65,0,1
51139,-83.3333333333333,4,1,0,65,0,1
61574,-100,4,1,0,65,0,0
72009,-95.2380952380952,4,1,0,65,0,0
82443,-86.9565217391304,4,1,0,65,0,0
92878,-100,4,1,0,65,0,0
103313,-90.9090909090909,4,1,0,65,0,0
110650,-133.333333333333,4,1,0,65,0,0
111139,-100,4,1,0,65,0,0
121574,-100,4,1,0,65,0,0
144074,-80,4,1,0,65,0,1
165922,-71.4285714285714,4,1,0,65,0,0
168530,-100,4,1,0,65,0,0
192009,-133.333333333333,4,1,0,65,0,0
204726,-83.3333333333333,4,1,0,65,0,0
222335,-100,4,1,0,65,0,0
228693,-83.3333333333333,4,1,0,65,0,0
247443,-100,4,1,0,65,0,0
268639,-76.9230769230769,4,1,0,65,0,1
310052,-100,4,1,0,65,0,1
311030,-100,4,1,0,65,0,0
311353,-100,4,1,0,65,0,0
329617,-76.9230769230769,4,1,0,65,0,0
365813,-200,4,1,0,65,0,0
365813,-200,4,1,0,65,0,0

[HitObjects]
136,108,270,6,0,P|112:128|112:200,11,66.6666666666667
196,176,1574,2,0,P|200:212|172:268,11,66.6666666666667
256,108,2878,2,0,P|300:120|336:104,11,66.6666666666667
348,200,4183,2,0,P|388:180|428:196,8,66.6666666666667
308,324,5161,2,0,L|244:360,1,66.6666666666667
208,292,5378,2,0,L|272:260,1,66.6666666666667
216,200,5596,2,0,L|144:240,1,66.6666666666667
96,184,5813,2,0,L|168:148,1,66.6666666666667
236,112,6030,2,0,L|312:168,1,66.6666666666667
244,112,8096,5,0,0:0:0:0:
384,296,10052,1,0,0:0:0:0:
104,108,12009,5,0,0:0:0:0:
112,116,13965,5,0,0:0:0:0:
112,116,14047,1,0,0:0:0:0:
112,116,14128,1,0,0:0:0:0:
236,184,14291,1,0,0:0:0:0:
236,184,14373,1,0,0:0:0:0:
236,184,14454,1,0,0:0:0:0:
348,100,14617,5,0,0:0:0:0:
348,100,14699,1,0,0:0:0:0:
348,100,14780,2,0,L|360:208,1,100
492,160,15106,5,0,0:0:0:0:
492,160,15188,1,0,0:0:0:0:
492,160,15269,1,0,0:0:0:0:
376,236,15433,2,0,L|398:354,1,100
394,334,15677,1,0,0:0:0:0:
394,334,15759,1,0,0:0:0:0:
276,256,15922,1,0,0:0:0:0:
264,236,16003,1,0,0:0:0:0:
248,216,16085,2,0,B|188:212|188:212|132:192,1,100
136,180,16329,1,0,0:0:0:0:
124,156,16411,1,0,0:0:0:0:
172,24,16574,5,0,0:0:0:0:
172,24,16656,1,0,0:0:0:0:
172,24,16737,2,0,L|68:8,1,100
136,132,17063,1,0,0:0:0:0:
136,132,17145,1,0,0:0:0:0:
136,132,17226,2,0,L|272:144,1,100
80,264,17552,5,0,0:0:0:0:
90,260,17634,1,0,0:0:0:0:
99,255,17715,1,0,0:0:0:0:
212,356,17878,1,0,0:0:0:0:
222,352,17960,1,0,0:0:0:0:
231,347,18041,1,0,0:0:0:0:
300,228,18204,1,0,0:0:0:0:
310,224,18286,1,0,0:0:0:0:
319,219,18367,1,0,0:0:0:0:
472,320,18530,5,0,0:0:0:0:
482,316,18612,1,0,0:0:0:0:
491,311,18693,1,0,0:0:0:0:
408,201,18856,1,0,0:0:0:0:
420,76,19019,1,0,0:0:0:0:
420,76,19100,1,0,0:0:0:0:
420,76,19183,2,0,L|304:88,1,100
176,44,19509,1,0,0:0:0:0:
172,60,19590,1,0,0:0:0:0:
168,76,19672,1,0,0:0:0:0:
24,76,19835,5,0,0:0:0:0:
28,92,19916,1,0,0:0:0:0:
32,108,19998,1,0,0:0:0:0:
156,184,20161,1,0,0:0:0:0:
152,196,20242,1,0,0:0:0:0:
148,212,20324,1,0,0:0:0:0:
0,240,20487,5,0,0:0:0:0:
4,256,20568,1,0,0:0:0:0:
8,272,20650,1,0,0:0:0:0:
156,312,20813,1,0,0:0:0:0:
256,212,20976,1,0,0:0:0:0:
256,212,21058,1,0,0:0:0:0:
256,212,21139,5,0,0:0:0:0:
332,332,21302,2,0,L|440:320,1,100
431,320,21547,1,0,0:0:0:0:
431,320,21628,1,0,0:0:0:0:
328,140,21792,1,0,0:0:0:0:
312,152,21873,1,0,0:0:0:0:
296,164,21954,1,0,0:0:0:0:
204,28,22117,1,0,0:0:0:0:
188,40,22198,1,0,0:0:0:0:
172,52,22279,1,0,0:0:0:0:
28,240,22443,6,0,L|88:260,2,50
180,192,22769,1,0,0:0:0:0:
288,324,22933,1,0,0:0:0:0:
288,324,23014,1,0,0:0:0:0:
288,324,23096,2,0,L|392:324,1,100
308,184,23422,1,0,0:0:0:0:
308,184,23504,1,0,0:0:0:0:
308,184,23585,1,0,0:0:0:0:
200,72,23748,5,0,0:0:0:0:
176,60,23830,1,0,0:0:0:0:
157,54,23911,2,0,B|144:92|144:92|140:152,1,100
120,168,24156,1,0,0:0:0:0:
100,180,24237,1,0,0:0:0:0:
216,316,24400,1,0,0:0:0:0:
216,316,24481,1,0,0:0:0:0:
216,316,24563,2,0,L|336:328,1,100
264,152,24889,1,0,0:0:0:0:
264,152,24970,1,0,0:0:0:0:
264,152,25052,6,0,L|144:140,1,100
288,8,25378,1,0,0:0:0:0:
288,8,25460,1,0,0:0:0:0:
288,8,25541,1,0,0:0:0:0:
456,188,25704,1,0,0:0:0:0:
468,212,25786,1,0,0:0:0:0:
480,232,25867,2,0,B|420:264|420:264|392:296,1,100
412,308,26112,1,0,0:0:0:0:
428,328,26193,1,0,0:0:0:0:
252,300,26356,5,0,0:0:0:0:
252,300,26438,1,0,0:0:0:0:
252,300,26519,2,0,L|232:172,1,100
60,244,26846,1,0,0:0:0:0:
60,244,26927,1,0,0:0:0:0:
60,244,27009,2,0,L|72:368,1,100
236,201,27335,1,0,0:0:0:0:
236,201,27416,1,0,0:0:0:0:
236,201,27498,1,0,0:0:0:0:
36,32,27661,5,0,0:0:0:0:
48,56,27742,1,0,0:0:0:0:
60,80,27824,1,0,0:0:0:0:
220,68,27987,1,0,0:0:0:0:
232,92,28068,1,0,0:0:0:0:
244,116,28150,1,0,0:0:0:0:
136,232,28313,1,0,0:0:0:0:
148,256,28394,1,0,0:0:0:0:
160,280,28476,1,0,0:0:0:0:
316,316,28639,5,0,0:0:0:0:
328,340,28720,1,0,0:0:0:0:
340,364,28802,1,0,0:0:0:0:
421,203,28965,1,0,0:0:0:0:
282,101,29128,1,0,0:0:0:0:
428,23,29291,1,0,0:0:0:0:
421,203,29454,1,0,0:0:0:0:
98,83,30269,6,0,L|66:189,1,104.999996795654
208,104,30596,1,0,0:0:0:0:
214,83,30677,1,0,0:0:0:0:
221,62,30759,1,0,0:0:0:0:
290,183,30922,6,0,L|262:289,1,104.999996795654
361,376,31248,1,0,0:0:0:0:
369,354,31329,1,0,0:0:0:0:
375,331,31411,1,0,0:0:0:0:
202,196,31574,1,0,0:0:0:0:
371,170,31737,1,0,0:0:0:0:
284,336,31900,1,0,0:0:0:0:
394,184,32063,1,0,0:0:0:0:
226,103,32226,5,0,0:0:0:0:
221,80,32307,1,0,0:0:0:0:
217,56,32389,1,0,0:0:0:0:
151,211,32552,1,0,0:0:0:0:
147,188,32633,1,0,0:0:0:0:
142,165,32715,1,0,0:0:0:0:
18,270,32878,5,0,0:0:0:0:
144,364,33041,1,0,0:0:0:0:
167,357,33123,1,0,0:0:0:0:
189,353,33204,1,0,0:0:0:0:
212,346,33286,1,0,0:0:0:0:
234,342,33367,1,0,0:0:0:0:
258,334,33449,1,0,0:0:0:0:
284,328,33530,2,0,P|312:284|296:232,1,104.999996795654
152,240,33856,1,0,0:0:0:0:
175,233,33938,1,0,0:0:0:0:
198,226,34019,1,0,0:0:0:0:
348,280,34183,6,0,P|388:314|448:307,1,104.999996795654
392,188,34509,2,0,P|358:156|298:147,2,104.999996795654
221,172,34998,1,0,0:0:0:0:
287,328,35161,1,0,0:0:0:0:
265,328,35242,1,0,0:0:0:0:
243,329,35324,2,0,L|231:265,1,52.4999983978272
349,156,35487,5,0,0:0:0:0:
232,35,35650,1,0,0:0:0:0:
116,156,35813,1,0,0:0:0:0:
129,173,35894,1,0,0:0:0:0:
143,190,35976,1,0,0:0:0:0:
158,207,36058,1,0,0:0:0:0:
175,226,36139,2,0,B|202:299|202:299|241:332,1,104.999996795654
399,290,36465,5,0,0:0:0:0:
407,267,36546,1,0,0:0:0:0:
411,246,36628,1,0,0:0:0:0:
252,348,36791,1,0,0:0:0:0:
328,176,36954,1,0,0:0:0:0:
160,260,37117,1,0,0:0:0:0:
280,112,37280,1,0,0:0:0:0:
108,188,37443,2,0,P|152:220|228:224,1,104.999996795654
384,176,37769,2,0,P|340:144|264:140,1,104.999996795654
164,282,38096,5,0,0:0:0:0:
191,286,38177,1,0,0:0:0:0:
220,290,38259,1,0,0:0:0:0:
247,294,38340,1,0,0:0:0:0:
276,297,38422,1,0,0:0:0:0:
303,302,38503,1,0,0:0:0:0:
339,307,38585,2,0,L|377:262,1,52.4999983978272
402,182,38748,6,0,L|352:158,1,52.4999983978272
344,58,38911,2,0,L|283:60,1,52.4999983978272
272,173,39074,2,0,L|197:157,1,52.4999983978272
160,64,39237,2,0,L|112:109,1,52.4999983978272
32,204,39400,1,0,0:0:0:0:
35,229,39481,1,0,0:0:0:0:
43,254,39563,1,0,0:0:0:0:
55,278,39644,1,0,0:0:0:0:
71,299,39726,1,0,0:0:0:0:
90,317,39807,1,0,0:0:0:0:
112,331,39889,1,0,0:0:0:0:
136,342,39970,1,0,0:0:0:0:
161,349,40052,5,0,0:0:0:0:
187,351,40133,1,0,0:0:0:0:
214,349,40215,1,0,0:0:0:0:
239,343,40296,1,0,0:0:0:0:
263,332,40378,1,0,0:0:0:0:
288,320,40460,1,0,0:0:0:0:
312,308,40541,2,0,L|284:252,1,52.4999983978272
212,124,40704,5,0,0:0:0:0:
372,170,40867,1,0,0:0:0:0:
240,272,41031,1,0,0:0:0:0:
268,120,41193,1,0,0:0:0:0:
268,120,41275,1,0,0:0:0:0:
268,120,41357,6,0,L|282:-1,1,115.000002193451
124,80,41683,1,0,0:0:0:0:
120,108,41764,1,0,0:0:0:0:
116,133,41846,1,0,0:0:0:0:
315,177,42009,5,0,0:0:0:0:
130,237,42172,1,0,0:0:0:0:
198,35,42335,1,0,0:0:0:0:
384,204,42498,1,0,0:0:0:0:
120,136,42661,1,0,0:0:0:0:
130,161,42742,1,0,0:0:0:0:
139,187,42824,1,0,0:0:0:0:
308,208,42987,1,0,0:0:0:0:
316,233,43068,1,0,0:0:0:0:
325,259,43150,1,0,0:0:0:0:
501,253,43313,5,0,0:0:0:0:
509,61,43476,1,0,0:0:0:0:
484,73,43558,1,0,0:0:0:0:
460,82,43639,1,0,0:0:0:0:
435,94,43721,1,0,0:0:0:0:
411,102,43802,1,0,0:0:0:0:
380,117,43884,1,0,0:0:0:0:
349,132,43965,2,0,B|323:141|323:141|314:217|314:217|296:240,1,115.000002193451
100,217,44291,5,0,0:0:0:0:
87,193,44373,1,0,0:0:0:0:
75,168,44454,1,0,0:0:0:0:
75,0,44617,2,0,B|41:12|41:12|0:80|0:80|-1:103,1,115.000002193451
104,222,44944,2,0,P|148:252|218:246,2,115.000002193451
297,208,45433,1,0,0:0:0:0:
196,44,45596,1,0,0:0:0:0:
221,40,45677,1,0,0:0:0:0:
245,36,45759,2,0,L|272:109,1,57.5000010967255
220,196,45922,5,0,0:0:0:0:
372,368,46085,1,0,0:0:0:0:
456,229,46248,1,0,0:0:0:0:
450,201,46329,1,0,0:0:0:0:
444,173,46411,1,0,0:0:0:0:
364,328,46574,2,0,L|340:180,1,115.000002193451
196,300,46900,1,0,0:0:0:0:
190,329,46981,1,0,0:0:0:0:
184,357,47063,1,0,0:0:0:0:
103,202,47226,6,0,L|79:350,1,115.000002193451
24,100,47552,1,0,0:0:0:0:
24,100,47634,1,0,0:0:0:0:
24,100,47715,2,0,B|68:96|68:96|176:112,1,115.000002193451
276,208,48041,2,0,B|205:218|205:218|161:214,1,115.000002193451
161,214,48285,1,0,0:0:0:0:
161,214,48367,1,0,0:0:0:0:
328,56,48531,5,0,0:0:0:0:
296,36,48612,1,0,0:0:0:0:
256,24,48694,1,0,0:0:0:0:
216,20,48775,1,0,0:0:0:0:
176,16,48857,1,0,0:0:0:0:
136,20,48938,1,0,0:0:0:0:
100,32,49020,2,0,L|135:117,1,57.5000010967255
208,180,49183,2,0,L|156:208,1,57.5000010967255
300,132,49346,2,0,L|364:88,1,57.5000010967255
452,48,49509,6,0,L|504:8,1,57.5000010967255
480,176,49672,2,0,L|544:140,1,57.5000010967255
412,280,49835,5,0,0:0:0:0:
372,300,49916,1,0,0:0:0:0:
328,316,49998,1,0,0:0:0:0:
284,324,50079,1,0,0:0:0:0:
240,332,50161,1,0,0:0:0:0:
196,332,50242,1,0,0:0:0:0:
152,324,50324,1,0,0:0:0:0:
108,308,50405,1,0,0:0:0:0:
64,288,50487,2,0,L|44:208,1,57.5000010967255
124,136,50650,2,0,L|116:64,1,57.5000010967255
248,76,50813,2,0,L|252:4,1,57.5000010967255
372,116,50976,2,0,L|392:44,1,57.5000010967255
464,232,51139,5,0,0:0:0:0:
268,264,51302,1,0,0:0:0:0:
325,102,51466,1,0,0:0:0:0:
321,78,51547,1,0,0:0:0:0:
317,53,51629,1,0,0:0:0:0:
219,177,51792,6,0,L|231:305,1,119.999996337891
104,381,52117,1,0,0:0:0:0:
100,353,52199,1,0,0:0:0:0:
96,328,52280,1,0,0:0:0:0:
315,207,52444,1,0,0:0:0:0:
130,147,52607,1,0,0:0:0:0:
198,349,52770,1,0,0:0:0:0:
101,160,52933,1,0,0:0:0:0:
304,98,53096,5,0,0:0:0:0:
314,73,53177,1,0,0:0:0:0:
323,47,53259,1,0,0:0:0:0:
370,233,53422,1,0,0:0:0:0:
378,208,53503,1,0,0:0:0:0:
387,182,53585,1,0,0:0:0:0:
501,131,53748,5,0,0:0:0:0:
509,323,53911,1,0,0:0:0:0:
484,311,53993,1,0,0:0:0:0:
460,302,54074,1,0,0:0:0:0:
435,290,54156,1,0,0:0:0:0:
411,282,54237,1,0,0:0:0:0:
380,267,54319,1,0,0:0:0:0:
349,252,54400,2,0,B|323:243|323:243|314:167|314:167|293:137,1,119.999996337891
100,167,54726,1,0,0:0:0:0:
87,191,54808,1,0,0:0:0:0:
75,216,54889,1,0,0:0:0:0:
66,381,55052,6,0,B|41:372|41:372|24:298|24:298|5:276,1,119.999996337891
104,162,55379,2,0,P|148:132|222:139,2,119.999996337891
297,176,55868,1,0,0:0:0:0:
196,340,56031,1,0,0:0:0:0:
221,344,56112,1,0,0:0:0:0:
245,348,56194,2,0,L|275:271,1,59.9999981689454
208,160,56356,5,0,0:0:0:0:
360,240,56519,1,0,0:0:0:0:
492,120,56682,1,0,0:0:0:0:
486,150,56763,1,0,0:0:0:0:
479,179,56845,1,0,0:0:0:0:
395,16,57008,2,0,L|370:172,1,119.999996337891
192,79,57334,1,0,0:0:0:0:
185,49,57415,1,0,0:0:0:0:
179,19,57497,1,0,0:0:0:0:
94,183,57660,6,0,L|68:27,1,119.999996337891
304,232,57987,1,0,0:0:0:0:
304,232,58068,1,0,0:0:0:0:
304,232,58150,2,0,P|332:288|404:304,1,119.999996337891
480,136,58476,1,0,0:0:0:0:
480,136,58558,1,0,0:0:0:0:
480,136,58639,2,0,P|442:87|385:79,1,119.999996337891
244,328,58965,5,0,0:0:0:0:
202,318,59046,1,0,0:0:0:0:
160,303,59128,1,0,0:0:0:0:
121,276,59209,1,0,0:0:0:0:
91,247,59291,1,0,0:0:0:0:
64,212,59372,1,0,0:0:0:0:
49,171,59454,2,0,L|96:120,1,59.9999981689454
165,55,59617,5,0,0:0:0:0:
207,22,59699,1,0,0:0:0:0:
259,8,59780,1,0,0:0:0:0:
310,21,59862,1,0,0:0:0:0:
356,45,59943,1,0,0:0:0:0:
387,89,60025,1,0,0:0:0:0:
392,141,60106,1,0,0:0:0:0:
392,194,60188,1,0,0:0:0:0:
369,241,60269,5,0,0:0:0:0:
340,287,60351,1,0,0:0:0:0:
299,321,60433,1,0,0:0:0:0:
250,341,60514,1,0,0:0:0:0:
196,341,60596,1,0,0:0:0:0:
143,328,60677,1,0,0:0:0:0:
99,298,60759,1,0,0:0:0:0:
78,248,60840,1,0,0:0:0:0:
85,195,60922,5,0,0:0:0:0:
105,146,61003,1,0,0:0:0:0:
153,122,61085,1,0,0:0:0:0:
204,113,61166,1,0,0:0:0:0:
254,132,61248,1,0,0:0:0:0:
298,160,61329,1,0,0:0:0:0:
349,173,61411,1,0,0:0:0:0:
399,158,61492,1,0,0:0:0:0:
443,126,61574,6,0,P|452:68|438:8,1,100
344,124,61900,1,0,0:0:0:0:
344,124,61981,1,0,0:0:0:0:
344,124,62063,6,0,P|335:182|349:242,1,100
476,180,62389,6,0,P|485:238|471:298,1,100
478,278,62634,1,0,0:0:0:0:
478,278,62715,1,0,0:0:0:0:
364,200,62878,2,0,P|312:204|252:268,1,100
400,288,63204,1,0,0:0:0:0:
369,297,63286,1,0,0:0:0:0:
342,307,63367,1,0,0:0:0:0:
212,364,63530,2,0,P|192:312|216:256,1,100
64,272,63856,1,0,0:0:0:0:
72,244,63938,1,0,0:0:0:0:
80,216,64019,1,0,0:0:0:0:
232,268,64183,5,0,0:0:0:0:
260,112,64346,1,0,0:0:0:0:
332,256,64509,1,0,0:0:0:0:
340,228,64590,1,0,0:0:0:0:
348,200,64672,1,0,0:0:0:0:
356,172,64753,1,0,0:0:0:0:
364,144,64835,1,0,0:0:0:0:
452,276,64998,2,0,L|484:164,1,100
479,179,65242,1,0,0:0:0:0:
479,179,65324,1,0,0:0:0:0:
492,20,65487,6,0,P|440:4|368:44,1,100
320,128,65813,1,0,0:0:0:0:
208,40,65976,1,0,0:0:0:0:
100,144,66139,1,0,0:0:0:0:
100,168,66221,1,0,0:0:0:0:
100,192,66302,1,0,0:0:0:0:
264,256,66465,2,0,B|220:288|220:288|144:304,1,100
332,344,66791,5,0,0:0:0:0:
120,224,66954,1,0,0:0:0:0:
96,204,67036,1,0,0:0:0:0:
76,180,67117,1,0,0:0:0:0:
64,152,67199,1,0,0:0:0:0:
56,124,67280,2,0,B|56:88|56:88|56:88|56:88|72:56,2,50
244,160,67606,1,0,0:0:0:0:
264,0,67769,1,0,0:0:0:0:
288,20,67851,1,0,0:0:0:0:
312,36,67933,1,0,0:0:0:0:
336,52,68014,1,0,0:0:0:0:
360,68,68096,5,0,0:0:0:0:
312,200,68259,1,0,0:0:0:0:
508,232,68422,1,0,0:0:0:0:
312,200,68585,1,0,0:0:0:0:
512,240,68748,2,0,P|528:296|508:336,1,100
392,228,69074,1,0,0:0:0:0:
384,256,69155,1,0,0:0:0:0:
376,284,69237,1,0,0:0:0:0:
264,128,69400,5,0,0:0:0:0:
152,15,69563,1,0,0:0:0:0:
128,32,69644,1,0,0:0:0:0:
108,52,69726,1,0,0:0:0:0:
96,80,69808,1,0,0:0:0:0:
88,108,69889,2,0,P|88:164|120:232,1,100
152,320,70215,1,0,0:0:0:0:
360,328,70378,2,0,L|332:276,2,50
56,312,70704,5,0,0:0:0:0:
260,328,70867,1,0,0:0:0:0:
260,328,70949,1,0,0:0:0:0:
260,328,71030,2,0,L|232:280,2,50
408,328,71356,5,0,0:0:0:0:
420,307,71437,1,0,0:0:0:0:
430,285,71519,1,0,0:0:0:0:
438,263,71600,1,0,0:0:0:0:
443,239,71682,1,0,0:0:0:0:
445,215,71763,1,0,0:0:0:0:
444,191,71845,1,0,0:0:0:0:
440,167,71926,1,0,0:0:0:0:
428,144,72009,6,0,P|384:100|336:80,1,104.999996795654
240,204,72335,1,0,0:0:0:0:
240,204,72416,1,0,0:0:0:0:
240,204,72498,6,0,P|286:239|348:256,1,104.999996795654
288,80,72824,6,0,P|237:49|172:48,1,104.999996795654
192,44,73069,1,0,0:0:0:0:
192,44,73150,1,0,0:0:0:0:
364,216,73313,2,0,P|288:212|248:176,1,104.999996795654
402,80,73639,1,0,0:0:0:0:
372,68,73721,1,0,0:0:0:0:
344,56,73802,1,0,0:0:0:0:
212,4,73965,2,0,P|192:56|216:116,1,104.999996795654
45,89,74291,1,0,0:0:0:0:
54,120,74373,1,0,0:0:0:0:
63,151,74454,1,0,0:0:0:0:
282,94,74618,5,0,0:0:0:0:
251,265,74781,1,0,0:0:0:0:
172,107,74944,1,0,0:0:0:0:
163,138,75025,1,0,0:0:0:0:
154,169,75107,1,0,0:0:0:0:
145,199,75188,1,0,0:0:0:0:
137,230,75270,1,0,0:0:0:0:
60,92,75433,2,0,L|32:212,1,104.999996795654
37,195,75677,1,0,0:0:0:0:
37,195,75759,1,0,0:0:0:0:
16,356,75922,6,0,P|83:361|160:328,1,104.999996795654
203,239,76248,1,0,0:0:0:0:
324,335,76411,1,0,0:0:0:0:
441,222,76574,1,0,0:0:0:0:
440,196,76656,1,0,0:0:0:0:
440,168,76737,1,0,0:0:0:0:
248,112,76900,2,0,B|292:80|292:80|372:60,1,104.999996795654
511,98,77226,5,0,0:0:0:0:
371,149,77389,1,0,0:0:0:0:
404,164,77471,1,0,0:0:0:0:
432,184,77552,1,0,0:0:0:0:
456,212,77634,1,0,0:0:0:0:
472,248,77715,2,0,B|480:284|480:284|480:308|480:308|464:320,2,52.4999983978272
272,216,78041,1,0,0:0:0:0:
228,353,78204,1,0,0:0:0:0:
201,331,78286,1,0,0:0:0:0:
175,313,78368,1,0,0:0:0:0:
149,295,78449,1,0,0:0:0:0:
122,278,78531,5,0,0:0:0:0:
201,168,78694,1,0,0:0:0:0:
3,135,78857,1,0,0:0:0:0:
201,168,79020,1,0,0:0:0:0:
0,132,79183,2,0,P|8:72|24:28,1,104.999996795654
108,132,79509,1,0,0:0:0:0:
117,102,79590,1,0,0:0:0:0:
125,71,79672,1,0,0:0:0:0:
247,241,79835,5,0,0:0:0:0:
340,348,79998,1,0,0:0:0:0:
376,336,80079,1,0,0:0:0:0:
408,320,80161,1,0,0:0:0:0:
432,292,80243,1,0,0:0:0:0:
448,260,80324,2,0,P|460:212|448:144,1,104.999996795654
308,44,80650,1,0,0:0:0:0:
293,217,80813,2,0,L|241:245,2,52.4999983978272
416,104,81139,5,0,0:0:0:0:
252,40,81302,1,0,0:0:0:0:
252,40,81384,1,0,0:0:0:0:
252,40,81465,2,0,L|296:112,2,52.4999983978272
108,26,81791,5,0,0:0:0:0:
95,50,81872,1,0,0:0:0:0:
83,75,81954,1,0,0:0:0:0:
74,101,82035,1,0,0:0:0:0:
68,128,82117,1,0,0:0:0:0:
66,156,82198,1,0,0:0:0:0:
67,183,82280,1,0,0:0:0:0:
72,211,82361,1,0,0:0:0:0:
84,236,82443,6,0,P|124:292|192:320,1,115.000002193451
260,128,82769,1,0,0:0:0:0:
260,128,82850,1,0,0:0:0:0:
260,128,82933,2,0,B|352:108|352:108|352:136,1,115.000002193451
168,228,83259,2,0,B|168:248|168:248|260:228,1,115.000002193451
259,228,83503,1,0,0:0:0:0:
259,228,83584,1,0,0:0:0:0:
364,372,83747,6,0,P|412:313|412:256,1,115.000002193451
405,81,84073,1,0,0:0:0:0:
372,72,84155,1,0,0:0:0:0:
335,58,84236,1,0,0:0:0:0:
168,16,84399,2,0,P|148:68|172:132,1,115.000002193451
46,245,84725,1,0,0:0:0:0:
59,275,84807,1,0,0:0:0:0:
74,307,84888,1,0,0:0:0:0:
194,97,85052,5,0,0:0:0:0:
286,267,85215,1,0,0:0:0:0:
192,168,85378,1,0,0:0:0:0:
224,153,85459,1,0,0:0:0:0:
257,138,85541,1,0,0:0:0:0:
287,125,85622,1,0,0:0:0:0:
320,111,85704,1,0,0:0:0:0:
280,276,85867,2,0,B|186:312|186:312|179:299,1,115.000002193451
179,299,86111,1,0,0:0:0:0:
179,299,86193,1,0,0:0:0:0:
424,192,86356,6,0,P|460:244|432:312,1,115.000002193451
288,196,86682,1,0,0:0:0:0:
216,352,86845,1,0,0:0:0:0:
92,232,87008,1,0,0:0:0:0:
56,212,87090,1,0,0:0:0:0:
20,196,87171,1,0,0:0:0:0:
238,113,87334,2,0,B|187:96|187:96|100:104,1,115.000002193451
4,236,87660,5,0,0:0:0:0:
145,325,87823,1,0,0:0:0:0:
184,320,87905,1,0,0:0:0:0:
222,306,87986,1,0,0:0:0:0:
257,284,88068,1,0,0:0:0:0:
284,256,88149,2,0,B|301:223|301:223|308:200|308:200|300:168,2,57.5000010967255
196,80,88475,1,0,0:0:0:0:
368,100,88638,1,0,0:0:0:0:
400,124,88720,1,0,0:0:0:0:
420,160,88802,1,0,0:0:0:0:
436,196,88883,1,0,0:0:0:0:
440,236,88965,5,0,0:0:0:0:
300,152,89128,1,0,0:0:0:0:
160,256,89291,1,0,0:0:0:0:
300,152,89454,1,0,0:0:0:0:
160,256,89617,2,0,P|104:260|44:216,1,115.000002193451
128,152,89943,2,0,L|104:76,1,57.5000010967255
188,80,90106,2,0,L|192:12,1,57.5000010967255
281,32,90269,5,0,0:0:0:0:
317,21,90350,1,0,0:0:0:0:
352,22,90432,1,0,0:0:0:0:
387,29,90513,1,0,0:0:0:0:
420,44,90595,1,0,0:0:0:0:
449,64,90676,1,0,0:0:0:0:
473,90,90758,1,0,0:0:0:0:
492,120,90839,1,0,0:0:0:0:
505,153,90921,1,0,0:0:0:0:
511,188,91002,1,0,0:0:0:0:
511,223,91084,1,0,0:0:0:0:
503,258,91165,1,0,0:0:0:0:
489,290,91247,5,0,0:0:0:0:
468,319,91328,1,0,0:0:0:0:
432,344,91411,2,0,L|464:392,1,57.5000010967255
364,208,91574,6,0,L|420:200,1,57.5000010967255
288,336,91737,2,0,L|344:352,1,57.5000010967255
220,200,91900,6,0,L|304:184,1,57.5000010967255
128,324,92063,2,0,L|184:332,1,57.5000010967255
64,216,92226,6,0,L|44:148,1,57.5000010967255
116,112,92389,2,0,L|108:40,1,57.5000010967255
216,56,92552,6,0,L|224:-4,1,57.5000010967255
324,80,92715,2,0,L|340:12,1,57.5000010967255
448,152,92878,2,0,P|468:216|456:256,1,100
336,348,93204,2,0,P|316:284|328:244,1,100
200,152,93530,2,0,P|220:216|208:256,1,100
80,336,93856,2,0,P|60:272|72:232,1,100
204,152,94183,6,0,P|252:168|316:140,1,100
468,184,94509,1,0,0:0:0:0:
448,192,94590,1,0,0:0:0:0:
428,200,94672,1,0,0:0:0:0:
336,68,94835,1,0,0:0:0:0:
316,76,94916,1,0,0:0:0:0:
296,84,94998,1,0,0:0:0:0:
272,240,95161,1,0,0:0:0:0:
252,248,95242,1,0,0:0:0:0:
232,256,95324,1,0,0:0:0:0:
64,232,95487,6,0,P|44:168|56:128,1,100
176,36,95813,2,0,P|196:100|184:140,1,100
312,232,96139,2,0,P|292:168|304:128,1,100
432,48,96465,2,0,P|452:112|440:152,1,100
284,156,96791,1,0,0:0:0:0:
164,48,96954,2,0,P|144:112|156:152,1,100
151,142,97199,1,0,0:0:0:0:
151,142,97280,1,0,0:0:0:0:
304,96,97443,5,0,0:0:0:0:
332,108,97525,1,0,0:0:0:0:
352,132,97606,1,0,0:0:0:0:
364,160,97688,1,0,0:0:0:0:
368,188,97769,2,0,P|336:248|292:260,1,100
304,96,98096,2,0,P|256:83|212:104,1,100
192,116,98340,1,0,0:0:0:0:
164,127,98422,1,0,0:0:0:0:
133,124,98503,1,0,0:0:0:0:
104,113,98585,1,0,0:0:0:0:
236,4,98748,6,0,P|280:-8|344:8,1,100
464,108,99074,1,0,0:0:0:0:
464,108,99155,1,0,0:0:0:0:
464,108,99237,1,0,0:0:0:0:
440,276,99400,2,0,P|396:292|344:272,1,100
192,344,99726,2,0,P|236:328|288:348,1,100
164,224,100052,2,0,P|180:180|160:128,1,100
4,188,100378,2,0,P|-12:144|8:92,1,100
168,144,100704,5,0,0:0:0:0:
300,36,100867,1,0,0:0:0:0:
308,60,100949,1,0,0:0:0:0:
316,84,101030,1,0,0:0:0:0:
324,108,101112,1,0,0:0:0:0:
332,132,101193,1,0,0:0:0:0:
496,172,101356,2,0,P|520:224|484:292,1,100
352,204,101683,1,0,0:0:0:0:
292,364,101846,1,0,0:0:0:0:
236,204,102009,5,0,0:0:0:0:
172,360,102172,1,0,0:0:0:0:
100,204,102335,2,0,L|132:160,2,50
76,80,102661,1,0,0:0:0:0:
108,66,102742,1,0,0:0:0:0:
142,59,102824,1,0,0:0:0:0:
177,60,102905,1,0,0:0:0:0:
211,67,102987,1,0,0:0:0:0:
245,76,103068,1,0,0:0:0:0:
279,84,103150,1,0,0:0:0:0:
314,83,103231,1,0,0:0:0:0:
344,72,103313,6,0,P|400:60|460:80,1,110.000003356934
396,260,103639,1,0,0:0:0:0:
340,80,103802,1,0,0:0:0:0:
200,152,103965,2,0,P|220:216|204:264,1,110.000003356934
12,216,104291,1,0,0:0:0:0:
204,152,104454,1,0,0:0:0:0:
216,340,104618,2,0,P|264:356|336:328,1,110.000003356934
216,160,104944,1,0,0:0:0:0:
236,168,105025,1,0,0:0:0:0:
256,176,105107,1,0,0:0:0:0:
348,44,105270,5,0,0:0:0:0:
368,52,105351,1,0,0:0:0:0:
388,60,105433,1,0,0:0:0:0:
412,216,105596,1,0,0:0:0:0:
432,224,105677,1,0,0:0:0:0:
452,232,105759,1,0,0:0:0:0:
296,336,105922,2,0,P|244:356|192:344,1,110.000003356934
236,164,106248,1,0,0:0:0:0:
56,216,106411,2,0,P|36:152|56:104,1,110.000003356934
240,168,106737,1,0,0:0:0:0:
364,28,106900,6,0,P|425:53|452:96,1,110.000003356934
236,164,107226,1,0,0:0:0:0:
272,344,107389,2,0,P|336:364|380:352,1,110.000003356934
376,353,107634,1,0,0:0:0:0:
376,353,107715,1,0,0:0:0:0:
448,188,107878,2,0,L|536:208,1,55.0000016784668
444,104,108041,2,0,L|500:88,1,55.0000016784668
376,144,108204,2,0,P|336:152|260:156,1,110.000003356934
268,68,108531,2,0,P|216:56|164:80,1,110.000003356934
165,78,108775,1,0,0:0:0:0:
165,78,108856,5,0,0:0:0:0:
304,228,109019,2,0,L|347:194,1,55.0000016784668
304,228,109183,2,0,P|296:284|264:340,1,110.000003356934
100,376,109509,1,0,0:0:0:0:
76,352,109590,1,0,0:0:0:0:
60,324,109672,1,0,0:0:0:0:
52,292,109753,1,0,0:0:0:0:
48,256,109835,2,0,P|56:204|88:152,1,110.000003356934
232,248,110161,5,0,0:0:0:0:
439,153,110324,2,0,P|431:207|396:248,1,110.000003356934
224,36,110650,2,0,P|180:52|144:148,1,150.000005722046
304,88,111139,1,0,0:0:0:0:
188,212,111302,1,0,0:0:0:0:
356,236,111465,5,0,0:0:0:0:
356,236,111547,1,0,0:0:0:0:
356,236,111628,1,0,0:0:0:0:
216,316,111791,1,0,0:0:0:0:
212,156,111954,2,0,P|160:136|116:140,1,100
116,139,112199,1,0,0:0:0:0:
116,139,112280,1,0,0:0:0:0:
228,256,112443,5,0,0:0:0:0:
256,276,112525,1,0,0:0:0:0:
288,292,112606,1,0,0:0:0:0:
320,304,112688,1,0,0:0:0:0:
356,308,112769,1,0,0:0:0:0:
392,308,112851,1,0,0:0:0:0:
428,300,112933,1,0,0:0:0:0:
456,280,113014,1,0,0:0:0:0:
480,252,113096,2,0,P|496:188|488:136,1,100
328,196,113422,2,0,P|380:212|444:176,1,100
392,76,113748,5,0,0:0:0:0:
386,64,113829,1,0,0:0:0:0:
380,53,113911,1,0,0:0:0:0:
372,43,113992,1,0,0:0:0:0:
364,35,114074,1,0,0:0:0:0:
354,27,114155,1,0,0:0:0:0:
343,20,114237,1,0,0:0:0:0:
332,15,114318,1,0,0:0:0:0:
320,11,114400,5,0,0:0:0:0:
308,9,114481,1,0,0:0:0:0:
295,8,114563,1,0,0:0:0:0:
283,9,114644,1,0,0:0:0:0:
270,11,114726,1,0,0:0:0:0:
259,15,114807,1,0,0:0:0:0:
247,20,114889,1,0,0:0:0:0:
236,26,114970,1,0,0:0:0:0:
224,36,115052,6,0,L|184:4,1,50
270,152,115215,1,0,0:0:0:0:
254,161,115296,1,0,0:0:0:0:
237,170,115378,1,0,0:0:0:0:
219,174,115459,1,0,0:0:0:0:
200,179,115541,1,0,0:0:0:0:
182,179,115622,1,0,0:0:0:0:
161,173,115704,2,0,L|119:107,1,50
64,268,115867,1,0,0:0:0:0:
66,280,115949,1,0,0:0:0:0:
68,296,116030,6,0,L|136:312,1,50
272,304,116193,1,0,0:0:0:0:
270,292,116275,1,0,0:0:0:0:
268,276,116356,2,0,L|316:264,1,50
456,160,116519,1,0,0:0:0:0:
457,139,116601,1,0,0:0:0:0:
454,120,116682,1,0,0:0:0:0:
449,102,116764,1,0,0:0:0:0:
441,84,116845,1,0,0:0:0:0:
429,68,116927,1,0,0:0:0:0:
415,55,117008,5,0,0:0:0:0:
398,43,117090,1,0,0:0:0:0:
380,36,117171,1,0,0:0:0:0:
361,32,117253,1,0,0:0:0:0:
342,30,117334,1,0,0:0:0:0:
321,33,117416,1,0,0:0:0:0:
304,39,117497,1,0,0:0:0:0:
286,47,117579,1,0,0:0:0:0:
271,59,117660,5,0,0:0:0:0:
257,74,117742,1,0,0:0:0:0:
247,90,117823,1,0,0:0:0:0:
239,109,117905,1,0,0:0:0:0:
236,128,117987,1,0,0:0:0:0:
236,144,118068,1,0,0:0:0:0:
240,164,118150,1,0,0:0:0:0:
249,183,118231,1,0,0:0:0:0:
258,201,118313,1,0,0:0:0:0:
269,218,118394,1,0,0:0:0:0:
280,236,118476,6,0,L|336:204,1,50
392,296,118639,2,0,L|488:312,1,50
256,352,118802,2,0,L|320:376,1,50
144,288,118965,6,0,L|80:268,1,50
218,198,119128,1,0,0:0:0:0:
243,187,119209,1,0,0:0:0:0:
266,175,119291,1,0,0:0:0:0:
287,160,119372,1,0,0:0:0:0:
307,143,119454,1,0,0:0:0:0:
325,122,119535,1,0,0:0:0:0:
334,104,119617,2,0,L|420:136,1,50
133,27,119780,1,0,0:0:0:0:
109,35,119862,1,0,0:0:0:0:
93,51,119943,5,0,0:0:0:0:
81,69,120025,1,0,0:0:0:0:
75,90,120106,2,0,L|0:69,1,50
200,184,120269,1,0,0:0:0:0:
210,199,120351,1,0,0:0:0:0:
214,215,120432,1,0,0:0:0:0:
212,233,120514,1,0,0:0:0:0:
209,248,120595,2,0,L|163:279,1,50
384,280,120758,1,0,0:0:0:0:
379,262,120840,1,0,0:0:0:0:
372,236,120921,6,0,L|424:200,1,50
304,136,121084,2,0,L|320:64,1,50
176,116,121247,2,0,L|172:52,1,50
80,204,121410,2,0,L|72:140,1,50
168,312,121574,6,0,P|124:328|64:316,1,100
116,188,121900,1,0,0:0:0:0:
116,188,121981,1,0,0:0:0:0:
116,188,122063,1,0,0:0:0:0:
36,84,122226,2,0,L|28:24,1,50
172,96,122389,2,0,L|232:88,1,50
288,212,122552,1,0,0:0:0:0:
172,328,122715,1,0,0:0:0:0:
172,328,122797,1,0,0:0:0:0:
172,328,122878,2,0,L|248:336,1,50
248,212,123041,5,0,0:0:0:0:
280,200,123123,1,0,0:0:0:0:
312,188,123204,1,0,0:0:0:0:
344,176,123286,1,0,0:0:0:0:
376,160,123367,1,0,0:0:0:0:
408,148,123449,1,0,0:0:0:0:
440,136,123530,2,0,L|408:72,1,50
253,71,123693,5,0,0:0:0:0:
232,98,123775,1,0,0:0:0:0:
211,125,123856,1,0,0:0:0:0:
190,152,123938,1,0,0:0:0:0:
170,182,124019,1,0,0:0:0:0:
149,209,124101,1,0,0:0:0:0:
128,235,124182,2,0,L|188:274,1,50
32,152,124346,6,0,P|43:100|96:68,1,100
220,184,124672,2,0,P|249:148|254:84,1,100
364,240,124998,1,0,0:0:0:0:
216,344,125161,1,0,0:0:0:0:
192,352,125242,1,0,0:0:0:0:
168,360,125324,1,0,0:0:0:0:
40,264,125487,6,0,L|148:216,1,100
120,64,125813,1,0,0:0:0:0:
96,72,125894,1,0,0:0:0:0:
72,80,125976,1,0,0:0:0:0:
133,262,126139,1,0,0:0:0:0:
117,24,126302,1,0,0:0:0:0:
131,223,126465,5,0,0:0:0:0:
152,212,126547,1,0,0:0:0:0:
176,204,126628,1,0,0:0:0:0:
400,364,126791,1,0,0:0:0:0:
400,364,126872,1,0,0:0:0:0:
400,364,126954,1,0,0:0:0:0:
324,220,127117,1,0,0:0:0:0:
232,352,127280,1,0,0:0:0:0:
324,220,127443,5,0,0:0:0:0:
352,64,127606,2,0,P|296:64|228:95,1,100
254,78,127851,1,0,0:0:0:0:
254,78,127933,1,0,0:0:0:0:
230,230,128096,2,0,P|278:239|324:220,1,100
176,164,128422,1,0,0:0:0:0:
200,16,128585,1,0,0:0:0:0:
48,68,128748,5,0,0:0:0:0:
152,164,128911,2,0,L|144:252,1,50
48,236,129074,2,0,L|52:186,1,50
160,168,129237,2,0,L|152:256,1,50
56,240,129400,2,0,L|60:190,1,50
204,40,129563,2,0,P|256:28|304:36,1,100
256,168,129889,1,0,0:0:0:0:
52,312,130052,2,0,L|48:364,1,50
184,348,130215,2,0,L|188:288,1,50
12,204,130378,5,0,0:0:0:0:
120,296,130541,1,0,0:0:0:0:
84,88,130704,1,0,0:0:0:0:
212,144,130867,1,0,0:0:0:0:
225,116,130949,1,0,0:0:0:0:
238,89,131030,2,0,L|186:44,1,50
365,98,131193,2,0,L|413:134,1,50
249,59,131356,6,0,L|227:2,1,50
354,130,131519,2,0,L|378:186,1,50
274,19,131683,1,0,0:0:0:0:
304,164,131846,1,0,0:0:0:0:
440,52,132009,5,0,0:0:0:0:
300,168,132172,1,0,0:0:0:0:
468,268,132335,1,0,0:0:0:0:
472,292,132416,1,0,0:0:0:0:
476,316,132498,1,0,0:0:0:0:
348,256,132661,2,0,L|360:376,1,100
232,288,132987,1,0,0:0:0:0:
236,312,133068,1,0,0:0:0:0:
240,336,133150,1,0,0:0:0:0:
48,200,133313,6,0,P|88:216|144:192,1,100
88,72,133639,1,0,0:0:0:0:
105,70,133720,1,0,0:0:0:0:
122,69,133802,1,0,0:0:0:0:
140,67,133883,1,0,0:0:0:0:
157,66,133965,1,0,0:0:0:0:
175,65,134046,1,0,0:0:0:0:
192,63,134128,1,0,0:0:0:0:
210,62,134209,1,0,0:0:0:0:
227,61,134291,1,0,0:0:0:0:
248,60,134373,2,0,L|252:112,1,50
356,28,134617,5,0,0:0:0:0:
384,40,134699,1,0,0:0:0:0:
405,60,134780,1,0,0:0:0:0:
421,85,134862,1,0,0:0:0:0:
432,113,134943,1,0,0:0:0:0:
436,143,135025,1,0,0:0:0:0:
434,173,135106,1,0,0:0:0:0:
425,202,135188,1,0,0:0:0:0:
412,228,135269,2,0,L|440:288,3,50
276,308,135596,2,0,L|276:236,3,50
240,316,135922,5,0,0:0:0:0:
202,311,136003,1,0,0:0:0:0:
169,301,136085,1,0,0:0:0:0:
143,278,136166,1,0,0:0:0:0:
128,247,136248,1,0,0:0:0:0:
127,212,136329,1,0,0:0:0:0:
140,180,136411,1,0,0:0:0:0:
166,156,136492,1,0,0:0:0:0:
198,144,136574,5,0,0:0:0:0:
233,147,136655,1,0,0:0:0:0:
264,163,136737,1,0,0:0:0:0:
289,188,136818,1,0,0:0:0:0:
312,213,136899,1,0,0:0:0:0:
343,229,136981,1,0,0:0:0:0:
378,234,137062,1,0,0:0:0:0:
412,228,137144,1,0,0:0:0:0:
442,210,137226,5,0,0:0:0:0:
465,184,137307,1,0,0:0:0:0:
477,151,137388,1,0,0:0:0:0:
479,117,137470,1,0,0:0:0:0:
468,83,137551,1,0,0:0:0:0:
447,55,137633,1,0,0:0:0:0:
419,36,137714,1,0,0:0:0:0:
385,27,137796,1,0,0:0:0:0:
356,28,137878,2,0,L|356:100,3,50
256,136,138204,2,0,L|256:72,3,50
152,32,138530,2,0,L|152:96,3,50
44,144,138856,2,0,L|0:76,1,50
40,292,139019,2,0,L|0:352,1,50
137,359,139182,5,0,0:0:0:0:
172,361,139264,1,0,0:0:0:0:
206,354,139345,1,0,0:0:0:0:
237,338,139427,1,0,0:0:0:0:
263,315,139508,1,0,0:0:0:0:
281,285,139590,1,0,0:0:0:0:
292,252,139671,1,0,0:0:0:0:
293,217,139753,1,0,0:0:0:0:
284,184,139835,5,0,0:0:0:0:
268,152,139916,1,0,0:0:0:0:
240,132,139998,1,0,0:0:0:0:
208,120,140079,1,0,0:0:0:0:
172,124,140161,1,0,0:0:0:0:
144,144,140242,1,0,0:0:0:0:
128,176,140324,1,0,0:0:0:0:
124,212,140405,1,0,0:0:0:0:
132,248,140487,5,0,0:0:0:0:
156,276,140568,1,0,0:0:0:0:
184,296,140650,1,0,0:0:0:0:
220,304,140731,1,0,0:0:0:0:
256,304,140813,1,0,0:0:0:0:
292,300,140894,1,0,0:0:0:0:
324,288,140976,1,0,0:0:0:0:
348,260,141058,1,0,0:0:0:0:
360,232,141139,6,0,L|412:252,7,50
432,112,141791,2,0,L|436:52,3,50
288,120,142117,2,0,L|284:172,3,50
188,48,142443,5,0,0:0:0:0:
165,58,142524,1,0,0:0:0:0:
144,72,142606,1,0,0:0:0:0:
126,89,142687,1,0,0:0:0:0:
111,109,142769,1,0,0:0:0:0:
99,131,142850,1,0,0:0:0:0:
91,154,142932,1,0,0:0:0:0:
87,179,143013,1,0,0:0:0:0:
87,204,143095,5,0,0:0:0:0:
91,229,143176,1,0,0:0:0:0:
99,252,143258,1,0,0:0:0:0:
111,274,143339,1,0,0:0:0:0:
126,294,143421,1,0,0:0:0:0:
144,311,143502,1,0,0:0:0:0:
165,325,143584,1,0,0:0:0:0:
187,336,143665,1,0,0:0:0:0:
212,344,143748,6,0,L|272:304,1,50
356,244,143911,2,0,L|328:188,1,50
256,64,144074,5,0,0:0:0:0:
456,320,144400,1,0,0:0:0:0:
56,320,144726,1,0,0:0:0:0:
260,28,145052,5,0,0:0:0:0:
260,28,145215,1,0,0:0:0:0:
462,49,145378,1,0,0:0:0:0:
460,82,145460,1,0,0:0:0:0:
457,111,145541,1,0,0:0:0:0:
320,120,145704,5,0,0:0:0:0:
322,152,145786,1,0,0:0:0:0:
325,181,145867,1,0,0:0:0:0:
456,224,146030,1,0,0:0:0:0:
453,256,146112,1,0,0:0:0:0:
450,285,146193,1,0,0:0:0:0:
328,344,146356,2,0,P|264:344|216:296,1,125
256,176,146683,1,0,0:0:0:0:
226,186,146764,1,0,0:0:0:0:
197,197,146846,1,0,0:0:0:0:
66,252,147008,6,0,P|46:200|72:128,1,125
216,188,147334,1,0,0:0:0:0:
225,157,147416,1,0,0:0:0:0:
234,126,147497,1,0,0:0:0:0:
364,76,147661,5,0,0:0:0:0:
332,208,147824,1,0,0:0:0:0:
208,208,147987,2,0,L|112:216,1,62.5
112,328,148150,2,0,L|176:324,1,62.5
234,126,148313,1,0,0:0:0:0:
392,24,148476,2,0,L|412:152,1,125
412,147,148720,1,0,0:0:0:0:
412,147,148802,1,0,0:0:0:0:
496,356,148965,6,0,P|429:361|344:328,1,125
309,239,149291,1,0,0:0:0:0:
188,335,149454,1,0,0:0:0:0:
88,176,149617,2,0,L|164:144,2,62.5
252,88,149943,2,0,B|208:56|208:56|120:32,1,125
232,268,150269,5,0,0:0:0:0:
141,149,150432,1,0,0:0:0:0:
108,164,150514,1,0,0:0:0:0:
80,184,150595,1,0,0:0:0:0:
56,212,150677,1,0,0:0:0:0:
44,244,150758,2,0,B|36:280|36:280|36:304|36:304|52:328,2,62.5
240,216,151084,1,0,0:0:0:0:
364,272,151248,2,0,L|360:360,1,62.5
492,240,151411,2,0,L|496:172,1,62.5
252,164,151574,5,0,0:0:0:0:
336,368,151737,1,0,0:0:0:0:
492,240,151900,1,0,0:0:0:0:
252,164,152063,1,0,0:0:0:0:
252,164,152144,1,0,0:0:0:0:
252,164,152226,1,0,0:0:0:0:
492,156,152389,2,0,B|464:56|464:56|440:92,1,125
452,73,152633,1,0,0:0:0:0:
452,73,152715,1,0,0:0:0:0:
265,241,152878,5,0,0:0:0:0:
172,348,153041,1,0,0:0:0:0:
136,336,153122,1,0,0:0:0:0:
104,320,153204,1,0,0:0:0:0:
80,292,153286,1,0,0:0:0:0:
64,260,153367,2,0,P|52:212|72:136,1,125
265,241,153693,2,0,L|172:160,2,62.5
204,44,154019,1,0,0:0:0:0:
63,138,154182,5,0,0:0:0:0:
188,248,154345,1,0,0:0:0:0:
188,248,154427,1,0,0:0:0:0:
188,248,154508,2,0,L|240:200,2,62.5
364,180,154835,2,0,L|432:212,1,62.5
304,67,154998,2,0,L|248:32,1,62.5
386,157,155161,6,0,L|452:148,1,62.5
279,90,155324,2,0,L|208:96,1,62.5
408,120,155487,1,0,0:0:0:0:
188,168,155650,1,0,0:0:0:0:
256,32,155813,1,0,0:0:0:0:
316,220,155976,1,0,0:0:0:0:
192,120,156139,5,0,0:0:0:0:
190,152,156221,1,0,0:0:0:0:
187,181,156302,1,0,0:0:0:0:
56,224,156465,1,0,0:0:0:0:
59,256,156547,1,0,0:0:0:0:
62,285,156628,1,0,0:0:0:0:
184,344,156791,2,0,P|248:344|296:296,1,125
248,184,157117,1,0,0:0:0:0:
277,193,157198,1,0,0:0:0:0:
307,202,157280,1,0,0:0:0:0:
446,252,157443,6,0,P|466:200|440:128,1,125
296,188,157769,1,0,0:0:0:0:
287,157,157851,1,0,0:0:0:0:
284,128,157932,1,0,0:0:0:0:
120,160,158096,5,0,0:0:0:0:
184,300,158259,1,0,0:0:0:0:
344,192,158422,2,0,L|340:272,1,62.5
464,224,158585,2,0,L|468:160,1,62.5
240,216,158748,1,0,0:0:0:0:
128,44,158911,2,0,B|100:88|100:88|104:128|104:128|64:188,1,125
85,155,159155,1,0,0:0:0:0:
85,155,159237,1,0,0:0:0:0:
16,356,159400,6,0,P|83:361|168:328,1,125
76,208,159726,1,0,0:0:0:0:
240,292,159889,1,0,0:0:0:0:
364,176,160052,2,0,L|316:136,2,62.5
472,328,160378,2,0,B|491:260|491:260|464:200,1,125
292,272,160704,5,0,0:0:0:0:
296,100,160867,2,0,L|280:28,1,62.5
400,120,161030,2,0,L|436:68,1,62.5
328,212,161193,2,0,L|312:276,2,62.5
204,112,161519,1,0,0:0:0:0:
136,264,161683,2,0,L|140:344,1,62.5
32,256,161846,2,0,L|28:184,1,62.5
200,192,162009,5,0,0:0:0:0:
204,56,162172,1,0,0:0:0:0:
3,135,162335,1,0,0:0:0:0:
204,56,162498,1,0,0:0:0:0:
0,132,162661,2,0,P|8:72|32:8,1,125
200,92,162987,2,0,L|280:92,2,62.5
372,20,163313,5,0,0:0:0:0:
411,49,163394,1,0,0:0:0:0:
442,89,163476,1,0,0:0:0:0:
460,135,163557,1,0,0:0:0:0:
466,185,163639,1,0,0:0:0:0:
457,234,163720,1,0,0:0:0:0:
436,279,163802,1,0,0:0:0:0:
403,317,163883,1,0,0:0:0:0:
362,344,163965,5,0,0:0:0:0:
314,359,164046,1,0,0:0:0:0:
264,348,164128,1,0,0:0:0:0:
224,320,164209,1,0,0:0:0:0:
200,276,164291,1,0,0:0:0:0:
204,224,164373,1,0,0:0:0:0:
216,176,164454,1,0,0:0:0:0:
236,132,164536,1,0,0:0:0:0:
252,84,164617,5,0,0:0:0:0:
236,36,164699,1,0,0:0:0:0:
192,12,164780,1,0,0:0:0:0:
140,16,164862,1,0,0:0:0:0:
92,32,164943,1,0,0:0:0:0:
56,68,165025,1,0,0:0:0:0:
44,116,165106,1,0,0:0:0:0:
44,168,165188,1,0,0:0:0:0:
56,216,165269,5,0,0:0:0:0:
80,260,165351,1,0,0:0:0:0:
116,292,165433,1,0,0:0:0:0:
160,312,165514,1,0,0:0:0:0:
208,320,165596,1,0,0:0:0:0:
256,312,165677,1,0,0:0:0:0:
296,280,165759,1,0,0:0:0:0:
324,240,165840,1,0,0:0:0:0:
336,200,165922,6,0,P|344:144|320:88,5,93.3333304850261
252,128,166574,6,0,P|244:72|260:24,5,93.3333304850261
232,212,167226,6,0,P|176:204|128:224,5,93.3333304850261
188,292,167878,6,0,P|244:300|296:276,5,93.3333304850261
364,244,168530,6,0,P|404:196|408:136,1,100
288,148,168856,1,0,0:0:0:0:
212,256,169019,2,0,L|152:296,2,50
112,144,169346,1,0,0:0:0:0:
24,268,169509,2,0,L|12:328,2,50
148,352,169835,2,0,L|96:364,2,50
176,204,170161,2,0,L|224:192,2,50
292,296,170487,6,0,L|340:284,2,50
432,352,170813,1,0,0:0:0:0:
420,204,170976,2,0,L|476:240,2,50
388,56,171302,1,0,0:0:0:0:
268,144,171465,2,0,L|272:208,2,50
128,92,171791,2,0,L|124:42,2,50
52,220,172117,2,0,L|-12:216,2,50
104,360,172443,6,0,L|153:363,2,50
248,220,172769,1,0,0:0:0:0:
376,296,172933,2,0,L|324:352,2,50
372,148,173259,1,0,0:0:0:0:
468,36,173422,2,0,L|504:108,2,50
480,184,173748,1,0,0:0:0:0:
280,180,173911,1,0,0:0:0:0:
312,36,174074,2,0,L|400:32,2,50
188,164,174400,6,0,L|138:166,2,50
96,48,174726,1,0,0:0:0:0:
16,172,174889,2,0,L|8:224,2,50
156,228,175215,1,0,0:0:0:0:
40,324,175378,2,0,L|8:268,2,50
176,176,175704,1,0,0:0:0:0:
184,200,175786,1,0,0:0:0:0:
192,224,175867,1,0,0:0:0:0:
200,248,175949,1,0,0:0:0:0:
208,272,176030,6,0,L|260:260,4,50
288,244,176519,1,0,0:0:0:0:
276,92,176683,2,0,L|328:120,2,50
400,12,177009,1,0,0:0:0:0:
508,116,177172,2,0,L|520:48,2,50
404,224,177498,1,0,0:0:0:0:
504,336,177661,2,0,L|512:252,2,50
356,332,177987,2,0,L|364:248,2,50
324,96,178313,6,0,L|347:145,2,50
168,136,178639,1,0,0:0:0:0:
168,316,178802,2,0,L|112:276,2,50
20,332,179128,1,0,0:0:0:0:
88,196,179291,2,0,L|80:140,2,50
184,84,179617,2,0,L|176:28,2,50
328,148,179943,2,0,L|320:92,2,50
456,68,180269,6,0,L|448:12,2,50
328,152,180596,1,0,0:0:0:0:
452,236,180759,2,0,L|504:256,2,50
352,348,181085,1,0,0:0:0:0:
232,260,181248,2,0,L|204:324,2,50
44,204,181574,2,0,L|0:248,2,50
68,36,181900,2,0,L|12:4,2,50
200,148,182226,6,0,L|232:208,2,50
364,48,182552,2,0,L|424:64,1,50
352,172,182715,2,0,L|303:159,1,50
188,64,182878,5,0,0:0:0:0:
159,72,182959,1,0,0:0:0:0:
133,86,183041,1,0,0:0:0:0:
111,107,183122,1,0,0:0:0:0:
94,131,183204,1,0,0:0:0:0:
83,159,183285,1,0,0:0:0:0:
79,189,183367,1,0,0:0:0:0:
81,219,183448,1,0,0:0:0:0:
91,247,183530,5,0,0:0:0:0:
107,272,183611,1,0,0:0:0:0:
128,294,183693,1,0,0:0:0:0:
153,310,183774,1,0,0:0:0:0:
181,319,183856,1,0,0:0:0:0:
211,322,183937,1,0,0:0:0:0:
241,318,184019,1,0,0:0:0:0:
269,307,184100,1,0,0:0:0:0:
240,108,184183,5,0,0:0:0:0:
428,40,184346,1,0,0:0:0:0:
408,240,184509,1,0,0:0:0:0:
284,84,184672,5,0,0:0:0:0:
96,16,184835,1,0,0:0:0:0:
116,216,184998,1,0,0:0:0:0:
284,84,185161,5,0,0:0:0:0:
296,284,185324,1,0,0:0:0:0:
108,216,185487,1,0,0:0:0:0:
280,116,185650,5,0,0:0:0:0:
468,48,185813,1,0,0:0:0:0:
448,248,185976,1,0,0:0:0:0:
276,144,186139,5,0,0:0:0:0:
261,343,186302,1,0,0:0:0:0:
87,243,186465,1,0,0:0:0:0:
264,152,186628,5,0,0:0:0:0:
432,284,186791,1,0,0:0:0:0:
452,84,186954,1,0,0:0:0:0:
296,180,187117,1,0,0:0:0:0:
484,272,187280,1,0,0:0:0:0:
400,60,187443,5,0,0:0:0:0:
328,216,187606,1,0,0:0:0:0:
200,88,187769,1,0,0:0:0:0:
200,88,187851,1,0,0:0:0:0:
200,88,187932,1,0,0:0:0:0:
176,328,188096,6,0,P|252:300|264:280,1,100
176,148,188422,2,0,P|132:152|92:224,1,100
304,340,188748,1,0,0:0:0:0:
180,224,188911,1,0,0:0:0:0:
352,176,189074,1,0,0:0:0:0:
180,224,189237,1,0,0:0:0:0:
200,88,189400,1,0,0:0:0:0:
84,256,189563,1,0,0:0:0:0:
84,256,189726,6,0,P|108:304|180:312,1,100
264,292,190052,1,0,0:0:0:0:
298,311,190133,1,0,0:0:0:0:
337,320,190215,1,0,0:0:0:0:
377,316,190296,1,0,0:0:0:0:
413,300,190378,1,0,0:0:0:0:
443,274,190459,1,0,0:0:0:0:
463,239,190541,1,0,0:0:0:0:
472,200,190622,1,0,0:0:0:0:
472,156,190704,6,0,L|440:84,1,50
344,32,190867,2,0,L|320:80,2,50
214,46,191111,1,0,0:0:0:0:
204,69,191193,1,0,0:0:0:0:
194,92,191274,1,0,0:0:0:0:
184,115,191356,1,0,0:0:0:0:
174,138,191437,1,0,0:0:0:0:
164,161,191519,1,0,0:0:0:0:
154,184,191600,1,0,0:0:0:0:
144,207,191682,1,0,0:0:0:0:
134,230,191763,1,0,0:0:0:0:
120,252,191846,2,0,L|168:288,1,50
332,288,192009,5,0,0:0:0:0:
276,40,192498,1,0,0:0:0:0:
88,200,192987,1,0,0:0:0:0:
88,200,193965,5,0,0:0:0:0:
228,140,194128,1,0,0:0:0:0:
180,269,194291,2,0,P|198:305|262:305,1,75.0000028610231
229,317,194780,1,0,0:0:0:0:
291,223,194943,1,0,0:0:0:0:
352,129,195106,1,0,0:0:0:0:
414,35,195269,5,0,0:0:0:0:
328,48,195433,2,0,P|292:56|256:48,1,75.0000028610231
316,152,195759,1,0,0:0:0:0:
255,47,195922,1,0,0:0:0:0:
200,156,196085,1,0,0:0:0:0:
140,52,196248,1,0,0:0:0:0:
84,156,196411,1,0,0:0:0:0:
28,48,196574,6,0,P|12:72|8:144,1,75.0000028610231
124,120,196900,1,0,0:0:0:0:
64,224,197063,1,0,0:0:0:0:
136,320,197226,2,0,P|156:360|192:368,1,75.0000028610231
256,276,197552,2,0,P|236:236|200:228,1,75.0000028610231
296,144,197878,2,0,P|316:184|352:192,1,75.0000028610231
416,96,198204,1,0,0:0:0:0:
416,96,198367,1,0,0:0:0:0:
416,96,198530,5,0,0:0:0:0:
476,200,198693,2,0,P|500:288|456:332,1,150.000005722046
376,248,199183,1,0,0:0:0:0:
372,128,199346,1,0,0:0:0:0:
188,212,199509,1,0,0:0:0:0:
188,212,199835,1,0,0:0:0:0:
188,212,200161,1,0,0:0:0:0:
272,128,200324,1,0,0:0:0:0:
312,240,200487,5,0,0:0:0:0:
188,212,200650,2,0,P|132:184|152:100,1,150.000005722046
272,128,201139,1,0,0:0:0:0:
360,48,201302,1,0,0:0:0:0:
404,152,201465,1,0,0:0:0:0:
416,178,201546,1,0,0:0:0:0:
423,208,201628,1,0,0:0:0:0:
422,238,201709,1,0,0:0:0:0:
415,267,201791,5,0,0:0:0:0:
401,293,201872,1,0,0:0:0:0:
381,315,201954,1,0,0:0:0:0:
356,333,202035,1,0,0:0:0:0:
329,344,202117,1,0,0:0:0:0:
299,348,202198,1,0,0:0:0:0:
269,345,202280,1,0,0:0:0:0:
241,335,202361,1,0,0:0:0:0:
212,320,202443,6,0,L|200:256,3,37.5000014305115
116,108,202769,2,0,P|184:136|272:116,1,150.000005722046
484,32,203259,2,0,P|487:68|476:116,1,75.0000028610231
496,256,203585,1,0,0:0:0:0:
480,280,203911,5,0,0:0:0:0:
396,316,204237,1,0,0:0:0:0:
376,324,204400,1,0,0:0:0:0:
356,332,204563,1,0,0:0:0:0:
336,340,204726,2,0,L|320:268,1,59.9999981689454
188,232,204889,2,0,L|176:144,1,59.9999981689454
56,88,205052,5,0,0:0:0:0:
56,88,205134,1,0,0:0:0:0:
56,88,205215,2,0,L|60:184,1,59.9999981689454
148,232,205378,5,0,0:0:0:0:
148,232,205460,1,0,0:0:0:0:
148,232,205541,2,0,L|152:328,1,59.9999981689454
212,84,205704,5,0,0:0:0:0:
212,84,205786,1,0,0:0:0:0:
212,84,205867,2,0,L|216:180,1,59.9999981689454
308,220,206030,5,0,0:0:0:0:
308,220,206112,1,0,0:0:0:0:
308,220,206193,2,0,L|312:316,1,59.9999981689454
440,112,206356,5,0,0:0:0:0:
440,112,206438,1,0,0:0:0:0:
440,112,206519,2,0,L|344:96,1,59.9999981689454
364,256,206682,5,0,0:0:0:0:
364,256,206764,1,0,0:0:0:0:
364,256,206845,2,0,L|280:264,1,59.9999981689454
228,172,207008,5,0,0:0:0:0:
228,172,207090,1,0,0:0:0:0:
228,172,207171,2,0,L|132:156,1,59.9999981689454
132,276,207334,5,0,0:0:0:0:
132,276,207416,1,0,0:0:0:0:
132,276,207497,2,0,L|116:360,1,59.9999981689454
4,232,207661,5,0,0:0:0:0:
4,232,207743,1,0,0:0:0:0:
4,232,207824,2,0,L|8:136,1,59.9999981689454
96,88,207987,5,0,0:0:0:0:
96,88,208069,1,0,0:0:0:0:
96,88,208150,2,0,L|100:-8,1,59.9999981689454
160,236,208313,5,0,0:0:0:0:
160,236,208395,1,0,0:0:0:0:
160,236,208476,2,0,L|164:140,1,59.9999981689454
256,100,208639,5,0,0:0:0:0:
256,100,208721,1,0,0:0:0:0:
256,100,208802,2,0,L|260:4,1,59.9999981689454
388,208,208965,5,0,0:0:0:0:
388,208,209047,1,0,0:0:0:0:
388,208,209128,2,0,L|296:240,1,59.9999981689454
312,64,209291,5,0,0:0:0:0:
312,64,209373,1,0,0:0:0:0:
312,64,209454,2,0,L|228:48,1,59.9999981689454
164,208,209617,5,0,0:0:0:0:
164,208,209699,1,0,0:0:0:0:
164,208,209780,2,0,L|68:224,1,59.9999981689454
80,44,209943,5,0,0:0:0:0:
80,44,210025,1,0,0:0:0:0:
80,44,210106,2,0,L|-16:36,1,59.9999981689454
172,144,210269,1,0,0:0:0:0:
252,28,210433,1,0,0:0:0:0:
328,160,210596,2,0,L|464:128,1,119.999996337891
428,236,210922,5,0,0:0:0:0:
411,261,211003,1,0,0:0:0:0:
391,283,211085,1,0,0:0:0:0:
367,301,211166,1,0,0:0:0:0:
341,316,211248,1,0,0:0:0:0:
313,326,211329,1,0,0:0:0:0:
284,332,211411,1,0,0:0:0:0:
254,333,211492,1,0,0:0:0:0:
224,329,211574,5,0,0:0:0:0:
195,321,211655,1,0,0:0:0:0:
168,308,211737,1,0,0:0:0:0:
140,288,211818,1,0,0:0:0:0:
116,260,211900,2,0,L|136:184,1,59.9999981689454
292,128,212063,5,0,0:0:0:0:
264,104,212144,1,0,0:0:0:0:
236,81,212226,1,0,0:0:0:0:
209,58,212307,1,0,0:0:0:0:
180,36,212389,2,0,L|112:52,1,59.9999981689454
44,208,212552,5,0,0:0:0:0:
64,252,212634,1,0,0:0:0:0:
96,288,212715,1,0,0:0:0:0:
136,312,212797,1,0,0:0:0:0:
184,324,212878,2,0,L|428:356,1,239.999992675781
351,201,213367,6,0,P|284:264|376:256,1,239.999992675781
352,124,213856,6,0,P|418:60|327:69,1,239.999992675781
416,200,214346,6,0,P|340:292|284:152,1,299.999990844727
272,144,214835,6,0,L|212:132,1,59.9999981689454
292,104,214998,2,0,L|244:60,1,59.9999981689454
328,88,215161,6,0,P|420:88|448:220,1,239.999992675781
372,168,215650,6,0,L|192:336,1,239.999992675781
272,376,216139,6,0,P|258:265|147:250,1,239.999992675781
192,332,216628,6,0,P|88:364|132:176,1,359.999989013672
232,128,217280,1,0,0:0:0:0:
328,232,217443,5,0,0:0:0:0:
349,242,217524,1,0,0:0:0:0:
373,246,217606,1,0,0:0:0:0:
396,242,217687,1,0,0:0:0:0:
418,232,217769,1,0,0:0:0:0:
435,216,217850,1,0,0:0:0:0:
447,195,217932,1,0,0:0:0:0:
453,172,218013,1,0,0:0:0:0:
451,148,218095,5,0,0:0:0:0:
443,126,218176,1,0,0:0:0:0:
428,107,218258,1,0,0:0:0:0:
408,94,218339,1,0,0:0:0:0:
385,87,218421,1,0,0:0:0:0:
360,84,218503,1,0,0:0:0:0:
336,88,218585,2,0,L|304:8,3,59.9999981689454
232,108,218911,2,0,L|264:188,3,59.9999981689454
296,244,219237,1,0,0:0:0:0:
303,284,219318,1,0,0:0:0:0:
289,324,219400,5,0,0:0:0:0:
258,351,219481,1,0,0:0:0:0:
217,360,219563,1,0,0:0:0:0:
178,348,219644,1,0,0:0:0:0:
149,318,219726,1,0,0:0:0:0:
138,278,219807,1,0,0:0:0:0:
144,236,219889,2,0,L|80:232,3,59.9999981689454
156,148,220215,1,0,0:0:0:0:
179,106,220296,1,0,0:0:0:0:
215,74,220378,5,0,0:0:0:0:
259,55,220459,1,0,0:0:0:0:
306,51,220541,1,0,0:0:0:0:
353,62,220622,1,0,0:0:0:0:
394,86,220704,1,0,0:0:0:0:
425,123,220785,1,0,0:0:0:0:
443,167,220867,1,0,0:0:0:0:
446,215,220948,1,0,0:0:0:0:
434,261,221030,1,0,0:0:0:0:
408,301,221111,1,0,0:0:0:0:
376,328,221193,6,0,L|328:272,3,59.9999981689454
276,328,221519,2,0,L|228:272,3,59.9999981689454
148,172,221846,2,0,L|195:134,1,59.9999981689454
172,336,222009,2,0,L|132:290,1,59.9999981689454
304,180,222172,2,0,L|332:244,1,59.9999981689454
248,328,222335,2,0,P|188:328|148:296,1,100
36,200,222661,5,0,0:0:0:0:
36,200,222742,1,0,0:0:0:0:
36,200,222824,2,0,L|40:132,1,50
148,136,222987,5,0,0:0:0:0:
148,136,223068,1,0,0:0:0:0:
148,136,223150,2,0,L|152:68,1,50
260,96,223313,5,0,0:0:0:0:
260,96,223394,1,0,0:0:0:0:
260,96,223476,2,0,L|264:28,1,50
384,56,223639,5,0,0:0:0:0:
384,56,223720,1,0,0:0:0:0:
384,56,223802,2,0,L|392:-12,1,50
476,184,223965,5,0,0:0:0:0:
476,184,224046,1,0,0:0:0:0:
476,184,224128,2,0,L|472:252,1,50
364,248,224291,5,0,0:0:0:0:
364,248,224372,1,0,0:0:0:0:
364,248,224454,2,0,L|360:316,1,50
252,288,224617,5,0,0:0:0:0:
252,288,224698,1,0,0:0:0:0:
252,288,224780,2,0,L|248:356,1,50
128,328,224943,5,0,0:0:0:0:
128,328,225024,1,0,0:0:0:0:
128,328,225106,2,0,L|120:396,1,50
48,192,225269,5,0,0:0:0:0:
108,192,225596,1,0,0:0:0:0:
168,192,225922,1,0,0:0:0:0:
228,192,226248,1,0,0:0:0:0:
288,192,226574,1,0,0:0:0:0:
348,192,226900,1,0,0:0:0:0:
408,192,227226,1,0,0:0:0:0:
408,192,227878,1,0,0:0:0:0:
492,280,228530,5,0,0:0:0:0:
344,308,228693,1,0,0:0:0:0:
311,320,228774,1,0,0:0:0:0:
276,319,228856,1,0,0:0:0:0:
244,305,228937,1,0,0:0:0:0:
220,281,229019,1,0,0:0:0:0:
206,249,229100,1,0,0:0:0:0:
200,216,229183,2,0,L|128:232,1,59.9999981689454
36,192,229346,5,0,0:0:0:0:
12,160,229427,1,0,0:0:0:0:
12,120,229509,2,0,L|80:92,1,59.9999981689454
164,88,229672,1,0,0:0:0:0:
188,120,229753,1,0,0:0:0:0:
188,160,229835,2,0,L|100:212,1,59.9999981689454
92,273,229998,5,0,0:0:0:0:
68,305,230079,1,0,0:0:0:0:
68,345,230161,2,0,L|144:368,1,59.9999981689454
232,280,230324,2,0,L|292:300,1,59.9999981689454
440,188,230487,1,0,0:0:0:0:
108,20,230731,1,0,0:0:0:0:
192,356,230976,1,0,0:0:0:0:
420,340,231221,5,0,0:0:0:0:
446,316,231302,1,0,0:0:0:0:
464,287,231384,1,0,0:0:0:0:
474,253,231465,1,0,0:0:0:0:
474,218,231547,1,0,0:0:0:0:
465,185,231628,1,0,0:0:0:0:
447,155,231710,1,0,0:0:0:0:
424,132,231791,2,0,P|364:100|296:92,2,119.999996337891
236,240,232280,2,0,L|136:228,1,59.9999981689454
112,300,232443,6,0,B|96:228|96:228|88:212|88:212|104:192|104:192|68:144|64:92,1,179.999994506836
192,132,232933,6,0,L|216:188,1,59.9999981689454
336,124,233096,2,0,L|304:72,1,59.9999981689454
195,150,233259,2,0,L|236:196,1,59.9999981689454
332,105,233422,2,0,L|288:64,1,59.9999981689454
203,167,233585,2,0,L|256:204,1,59.9999981689454
324,88,233748,2,0,L|272:60,1,59.9999981689454
444,88,233911,6,0,L|504:56,1,59.9999981689454
464,196,234074,2,0,L|516:164,1,59.9999981689454
468,300,234237,2,0,L|532:260,1,59.9999981689454
352,188,234400,2,0,L|336:124,1,59.9999981689454
249,276,234563,2,0,L|260:336,1,59.9999981689454
88,280,234726,2,0,L|80:340,1,59.9999981689454
56,154,234889,2,0,L|-36:184,1,59.9999981689454
216,112,235052,5,0,0:0:0:0:
368,72,235215,1,0,0:0:0:0:
376,100,235297,1,0,0:0:0:0:
384,128,235378,2,0,L|492:132,1,59.9999981689454
264,272,235541,1,0,0:0:0:0:
172,104,235704,2,0,P|76:108|172:260,1,359.999989013672
264,272,236356,1,0,0:0:0:0:
285,258,236437,1,0,0:0:0:0:
308,249,236519,1,0,0:0:0:0:
332,242,236600,1,0,0:0:0:0:
357,240,236682,5,0,0:0:0:0:
382,241,236763,1,0,0:0:0:0:
406,245,236845,1,0,0:0:0:0:
430,254,236926,1,0,0:0:0:0:
456,272,237009,6,0,L|496:216,1,59.9999981689454
472,80,237172,1,0,0:0:0:0:
408,52,237253,1,0,0:0:0:0:
340,36,237335,1,0,0:0:0:0:
272,36,237416,1,0,0:0:0:0:
204,48,237498,1,0,0:0:0:0:
144,84,237579,1,0,0:0:0:0:
96,132,237661,6,0,B|80:196|80:196|104:296|208:256|208:256|260:376,1,359.999989013672
400,176,238313,1,0,0:0:0:0:
396,156,238394,1,0,0:0:0:0:
392,136,238476,1,0,0:0:0:0:
312,274,238639,1,0,0:0:0:0:
308,252,238720,1,0,0:0:0:0:
303,230,238802,1,0,0:0:0:0:
200,366,238965,5,0,0:0:0:0:
196,344,239046,1,0,0:0:0:0:
191,321,239128,1,0,0:0:0:0:
69,257,239291,1,0,0:0:0:0:
63,232,239372,1,0,0:0:0:0:
58,206,239454,1,0,0:0:0:0:
169,127,239617,5,0,0:0:0:0:
164,100,239698,1,0,0:0:0:0:
158,72,239780,1,0,0:0:0:0:
296,190,239943,1,0,0:0:0:0:
290,160,240024,1,0,0:0:0:0:
283,129,240106,1,0,0:0:0:0:
425,229,240269,5,0,0:0:0:0:
418,196,240350,1,0,0:0:0:0:
410,162,240432,1,0,0:0:0:0:
488,86,240596,1,0,0:0:0:0:
482,55,240677,1,0,0:0:0:0:
475,25,240759,1,0,0:0:0:0:
352,104,240922,5,0,0:0:0:0:
456,224,241085,5,0,0:0:0:0:
452,263,241166,1,0,0:0:0:0:
425,293,241248,2,0,L|332:258,1,59.9999981689454
280,208,241411,1,0,0:0:0:0:
281,168,241492,1,0,0:0:0:0:
306,136,241574,2,0,L|407:150,1,59.9999981689454
364,284,241737,5,0,0:0:0:0:
347,320,241818,1,0,0:0:0:0:
311,338,241900,2,0,L|255:281,1,59.9999981689454
296,216,242063,5,0,0:0:0:0:
278,179,242144,1,0,0:0:0:0:
242,161,242226,2,0,L|186:217,1,59.9999981689454
196,296,242389,5,0,0:0:0:0:
178,333,242470,1,0,0:0:0:0:
142,351,242552,2,0,L|86:294,1,59.9999981689454
225,156,242715,2,0,P|129:45|96:188,1,359.999989013672
248,316,243367,5,0,0:0:0:0:
368,136,243530,1,0,0:0:0:0:
368,136,243775,5,0,0:0:0:0:
128,56,244019,1,0,0:0:0:0:
208,352,244183,1,0,0:0:0:0:
368,136,244427,5,0,0:0:0:0:
208,352,244672,1,0,0:0:0:0:
108,132,244835,1,0,0:0:0:0:
256,192,244998,12,0,247280,0:0:0:0:
284,128,247443,5,0,0:0:0:0:
256,108,247525,1,0,0:0:0:0:
224,92,247606,1,0,0:0:0:0:
192,80,247688,1,0,0:0:0:0:
156,76,247769,1,0,0:0:0:0:
120,76,247851,1,0,0:0:0:0:
84,84,247933,1,0,0:0:0:0:
56,104,248014,1,0,0:0:0:0:
28,132,248096,6,0,L|-12:96,1,50
4,224,248259,2,0,L|56:272,1,50
184,188,248422,2,0,P|132:172|68:208,1,100
120,308,248748,5,0,0:0:0:0:
126,320,248829,1,0,0:0:0:0:
132,331,248911,1,0,0:0:0:0:
140,341,248992,1,0,0:0:0:0:
148,349,249074,1,0,0:0:0:0:
158,357,249155,1,0,0:0:0:0:
169,364,249237,1,0,0:0:0:0:
180,369,249318,1,0,0:0:0:0:
192,373,249400,5,0,0:0:0:0:
204,375,249481,1,0,0:0:0:0:
217,376,249563,1,0,0:0:0:0:
229,375,249644,1,0,0:0:0:0:
242,373,249726,1,0,0:0:0:0:
253,369,249807,1,0,0:0:0:0:
265,364,249889,1,0,0:0:0:0:
276,358,249970,1,0,0:0:0:0:
288,348,250052,6,0,L|328:380,1,50
242,232,250215,1,0,0:0:0:0:
258,223,250296,1,0,0:0:0:0:
275,214,250378,1,0,0:0:0:0:
293,210,250459,1,0,0:0:0:0:
312,205,250541,1,0,0:0:0:0:
330,205,250622,1,0,0:0:0:0:
351,211,250704,2,0,L|393:277,1,50
448,116,250867,1,0,0:0:0:0:
446,104,250949,1,0,0:0:0:0:
444,88,251030,6,0,L|376:72,1,50
240,80,251193,1,0,0:0:0:0:
242,92,251275,1,0,0:0:0:0:
244,108,251356,2,0,L|196:120,1,50
56,224,251519,1,0,0:0:0:0:
55,245,251601,1,0,0:0:0:0:
58,264,251682,1,0,0:0:0:0:
63,282,251764,1,0,0:0:0:0:
71,300,251845,1,0,0:0:0:0:
83,316,251927,1,0,0:0:0:0:
97,329,252008,5,0,0:0:0:0:
114,341,252090,1,0,0:0:0:0:
132,348,252171,1,0,0:0:0:0:
151,352,252253,1,0,0:0:0:0:
170,354,252334,1,0,0:0:0:0:
191,351,252416,1,0,0:0:0:0:
208,345,252497,1,0,0:0:0:0:
226,337,252579,1,0,0:0:0:0:
241,325,252660,5,0,0:0:0:0:
255,310,252742,1,0,0:0:0:0:
265,294,252823,1,0,0:0:0:0:
273,275,252905,1,0,0:0:0:0:
276,256,252987,1,0,0:0:0:0:
276,240,253068,1,0,0:0:0:0:
272,220,253150,1,0,0:0:0:0:
263,201,253231,1,0,0:0:0:0:
254,183,253313,5,0,0:0:0:0:
243,166,253394,1,0,0:0:0:0:
228,148,253476,2,0,L|180:184,1,50
128,80,253639,2,0,L|52:72,1,50
252,40,253802,2,0,L|204:16,1,50
360,108,253965,2,0,L|396:152,1,50
294,186,254128,1,0,0:0:0:0:
269,197,254209,1,0,0:0:0:0:
246,209,254291,5,0,0:0:0:0:
225,224,254372,1,0,0:0:0:0:
205,241,254454,1,0,0:0:0:0:
187,262,254535,1,0,0:0:0:0:
178,280,254617,2,0,L|92:248,1,50
379,357,254780,1,0,0:0:0:0:
403,349,254862,1,0,0:0:0:0:
419,333,254943,5,0,0:0:0:0:
431,315,255025,1,0,0:0:0:0:
437,294,255106,2,0,L|512:315,1,50
328,168,255269,1,0,0:0:0:0:
313,177,255351,1,0,0:0:0:0:
303,191,255432,1,0,0:0:0:0:
297,208,255514,1,0,0:0:0:0:
294,223,255595,6,0,L|216:216,1,50
128,104,255758,1,0,0:0:0:0:
133,122,255840,1,0,0:0:0:0:
140,148,255921,2,0,L|88:184,1,50
208,248,256084,2,0,L|168:316,1,50
336,268,256247,2,0,L|340:332,1,50
432,180,256410,2,0,L|484:216,1,50
344,72,256574,2,0,P|388:56|448:68,1,100
396,196,256900,5,0,0:0:0:0:
396,196,256981,1,0,0:0:0:0:
396,196,257063,1,0,0:0:0:0:
476,300,257226,2,0,L|484:360,1,50
340,288,257389,2,0,L|312:348,1,50
264,172,257552,1,0,0:0:0:0:
340,56,257715,1,0,0:0:0:0:
340,56,257797,1,0,0:0:0:0:
340,56,257878,2,0,L|336:124,1,50
268,176,258041,5,0,0:0:0:0:
232,188,258123,1,0,0:0:0:0:
199,200,258204,1,0,0:0:0:0:
166,213,258286,1,0,0:0:0:0:
133,225,258367,1,0,0:0:0:0:
101,238,258449,1,0,0:0:0:0:
68,248,258530,2,0,L|100:312,1,50
259,313,258693,5,0,0:0:0:0:
280,286,258775,1,0,0:0:0:0:
301,259,258856,1,0,0:0:0:0:
322,232,258938,1,0,0:0:0:0:
342,202,259019,1,0,0:0:0:0:
363,175,259101,1,0,0:0:0:0:
384,149,259182,2,0,L|324:110,1,50
480,232,259346,6,0,P|469:284|416:316,1,100
292,200,259672,2,0,P|263:236|258:300,1,100
148,144,259998,1,0,0:0:0:0:
296,40,260161,1,0,0:0:0:0:
320,32,260242,1,0,0:0:0:0:
344,24,260324,1,0,0:0:0:0:
472,120,260487,6,0,L|364:168,1,100
392,320,260813,1,0,0:0:0:0:
416,312,260894,1,0,0:0:0:0:
440,304,260976,1,0,0:0:0:0:
381,161,261139,1,0,0:0:0:0:
392,320,261302,1,0,0:0:0:0:
381,161,261465,1,0,0:0:0:0:
358,172,261546,1,0,0:0:0:0:
336,183,261628,1,0,0:0:0:0:
280,32,261791,5,0,0:0:0:0:
188,164,261954,1,0,0:0:0:0:
136,28,262117,1,0,0:0:0:0:
113,39,262198,1,0,0:0:0:0:
91,50,262280,1,0,0:0:0:0:
188,164,262443,5,0,0:0:0:0:
160,320,262606,2,0,P|216:320|284:289,1,100
258,306,262851,1,0,0:0:0:0:
258,306,262933,1,0,0:0:0:0:
282,154,263096,2,0,P|234:145|188:164,1,100
336,220,263422,1,0,0:0:0:0:
312,368,263585,1,0,0:0:0:0:
456,312,263748,5,0,0:0:0:0:
316,260,263911,2,0,L|248:248,1,50
320,152,264074,2,0,L|388:164,1,50
472,60,264237,2,0,L|416:44,2,50
284,44,264563,2,0,P|236:32|184:44,1,100
244,192,264889,1,0,0:0:0:0:
372,76,265052,6,0,L|340:32,2,50
496,180,265378,1,0,0:0:0:0:
336,192,265541,1,0,0:0:0:0:
476,272,265704,1,0,0:0:0:0:
300,240,265867,1,0,0:0:0:0:
287,268,265949,1,0,0:0:0:0:
274,295,266030,2,0,L|326:340,1,50
147,286,266193,2,0,L|99:250,1,50
263,325,266356,6,0,L|285:382,1,50
158,254,266519,2,0,L|134:198,1,50
238,365,266683,1,0,0:0:0:0:
208,220,266846,1,0,0:0:0:0:
72,332,267009,5,0,0:0:0:0:
188,204,267172,1,0,0:0:0:0:
52,228,267335,5,0,0:0:0:0:
264,264,267498,1,0,0:0:0:0:
148,324,267661,5,0,0:0:0:0:
264,144,267824,1,0,0:0:0:0:
300,312,267987,5,0,0:0:0:0:
144,144,268150,1,0,0:0:0:0:
92,280,268313,5,0,0:0:0:0:
336,164,268476,1,0,0:0:0:0:
88,88,268639,5,0,0:0:0:0:
300,312,268802,1,0,0:0:0:0:
76,312,268965,5,0,0:0:0:0:
304,96,269128,1,0,0:0:0:0:
140,132,269291,5,0,0:0:0:0:
364,300,269454,1,0,0:0:0:0:
304,76,269617,2,0,L|252:200,1,129.999994049073
50,335,269943,1,0,0:0:0:0:
52,302,270025,1,0,0:0:0:0:
55,273,270106,1,0,0:0:0:0:
192,264,270269,5,0,0:0:0:0:
190,232,270351,1,0,0:0:0:0:
187,203,270432,1,0,0:0:0:0:
56,160,270595,1,0,0:0:0:0:
59,128,270677,1,0,0:0:0:0:
62,99,270758,1,0,0:0:0:0:
184,40,270921,2,0,P|248:40|300:96,1,129.999994049073
256,208,271247,1,0,0:0:0:0:
290,199,271329,1,0,0:0:0:0:
319,188,271410,1,0,0:0:0:0:
446,132,271573,6,0,P|466:184|436:260,1,129.999994049073
296,196,271899,1,0,0:0:0:0:
287,227,271981,1,0,0:0:0:0:
278,258,272062,1,0,0:0:0:0:
148,308,272226,5,0,0:0:0:0:
180,176,272389,1,0,0:0:0:0:
372,148,272552,2,0,L|464:100,1,64.9999970245363
248,84,272715,2,0,L|192:124,1,64.9999970245363
278,258,272878,1,0,0:0:0:0:
120,360,273041,2,0,L|100:228,1,129.999994049073
100,231,273285,1,0,0:0:0:0:
100,231,273367,1,0,0:0:0:0:
16,28,273530,6,0,P|83:23|172:56,1,129.999994049073
203,145,273856,1,0,0:0:0:0:
324,49,274019,1,0,0:0:0:0:
432,192,274182,2,0,L|348:240,2,64.9999970245363
260,296,274508,2,0,B|304:328|304:328|396:352,1,129.999994049073
280,116,274834,5,0,0:0:0:0:
371,235,274997,1,0,0:0:0:0:
404,220,275079,1,0,0:0:0:0:
432,200,275160,1,0,0:0:0:0:
456,172,275242,1,0,0:0:0:0:
468,140,275323,2,0,B|476:104|476:104|476:80|476:80|456:52,2,64.9999970245363
272,168,275649,1,0,0:0:0:0:
136,120,275813,2,0,L|172:32,1,64.9999970245363
24,164,275976,2,0,L|0:232,1,64.9999970245363
156,312,276139,5,0,0:0:0:0:
88,100,276302,1,0,0:0:0:0:
3,249,276465,1,0,0:0:0:0:
264,200,276628,1,0,0:0:0:0:
0,252,276791,2,0,P|8:312|40:376,1,129.999994049073
136,236,277117,1,0,0:0:0:0:
145,266,277198,1,0,0:0:0:0:
153,297,277280,1,0,0:0:0:0:
247,143,277443,5,0,0:0:0:0:
344,24,277606,1,0,0:0:0:0:
380,32,277687,1,0,0:0:0:0:
412,52,277769,1,0,0:0:0:0:
436,84,277851,1,0,0:0:0:0:
448,120,277932,2,0,P|448:172|432:252,1,129.999994049073
247,143,278258,2,0,L|300:184,2,64.9999970245363
308,340,278557,1,0,0:0:0:0:
449,246,278747,5,0,0:0:0:0:
324,136,278910,1,0,0:0:0:0:
324,136,278992,1,0,0:0:0:0:
324,136,279073,2,0,L|268:192,2,64.9999970245363
148,204,279400,2,0,L|72:172,1,64.9999970245363
208,317,279563,2,0,L|268:352,1,64.9999970245363
126,227,279726,6,0,L|56:240,1,64.9999970245363
233,294,279889,2,0,L|308:288,1,64.9999970245363
104,264,280052,1,0,0:0:0:0:
324,216,280215,1,0,0:0:0:0:
256,352,280378,1,0,0:0:0:0:
152,72,280541,1,0,0:0:0:0:
320,264,280704,5,0,0:0:0:0:
322,232,280786,1,0,0:0:0:0:
325,203,280867,1,0,0:0:0:0:
456,160,281030,1,0,0:0:0:0:
453,128,281112,1,0,0:0:0:0:
450,99,281193,1,0,0:0:0:0:
328,40,281356,2,0,P|264:40|208:96,1,129.999994049073
256,208,281682,1,0,0:0:0:0:
222,199,281764,1,0,0:0:0:0:
193,188,281845,1,0,0:0:0:0:
66,132,282008,6,0,P|46:184|72:264,1,129.999994049073
216,196,282334,1,0,0:0:0:0:
225,227,282416,1,0,0:0:0:0:
234,258,282497,1,0,0:0:0:0:
364,308,282661,5,0,0:0:0:0:
332,176,282824,1,0,0:0:0:0:
140,148,282987,2,0,L|116:76,1,64.9999970245363
264,84,283150,2,0,L|280:160,1,64.9999970245363
234,258,283313,1,0,0:0:0:0:
392,360,283476,2,0,L|412:220,1,129.999994049073
410,231,283720,1,0,0:0:0:0:
410,231,283802,1,0,0:0:0:0:
496,28,283965,6,0,P|432:64|336:56,1,129.999994049073
309,145,284291,1,0,0:0:0:0:
188,49,284454,1,0,0:0:0:0:
88,208,284617,2,0,L|172:244,2,64.9999970245363
252,296,284943,2,0,B|208:328|208:328|112:352,1,129.999994049073
232,116,285269,5,0,0:0:0:0:
232,284,285432,2,0,L|240:364,1,64.9999970245363
108,272,285595,2,0,L|80:348,1,64.9999970245363
176,168,285758,2,0,L|184:92,2,64.9999970245363
308,272,286084,1,0,0:0:0:0:
376,120,286248,2,0,L|344:32,1,64.9999970245363
488,164,286411,2,0,L|508:236,1,64.9999970245363
312,192,286574,5,0,0:0:0:0:
308,328,286737,1,0,0:0:0:0:
509,249,286900,1,0,0:0:0:0:
308,328,287063,1,0,0:0:0:0:
512,252,287226,2,0,P|504:312|472:376,1,129.999994049073
312,292,287552,2,0,L|224:292,2,64.9999970245363
128,364,287878,5,0,0:0:0:0:
84,336,287959,1,0,0:0:0:0:
52,296,288041,1,0,0:0:0:0:
32,248,288122,1,0,0:0:0:0:
20,196,288204,1,0,0:0:0:0:
28,144,288285,1,0,0:0:0:0:
52,100,288367,1,0,0:0:0:0:
92,68,288448,1,0,0:0:0:0:
144,56,288530,5,0,0:0:0:0:
196,60,288611,1,0,0:0:0:0:
240,88,288693,1,0,0:0:0:0:
272,128,288774,1,0,0:0:0:0:
272,180,288856,1,0,0:0:0:0:
264,228,288938,1,0,0:0:0:0:
268,280,289019,1,0,0:0:0:0:
284,328,289101,1,0,0:0:0:0:
320,364,289182,5,0,0:0:0:0:
372,376,289264,1,0,0:0:0:0:
420,364,289345,1,0,0:0:0:0:
464,336,289427,1,0,0:0:0:0:
492,292,289508,1,0,0:0:0:0:
508,244,289590,1,0,0:0:0:0:
500,192,289671,1,0,0:0:0:0:
476,144,289753,1,0,0:0:0:0:
444,104,289834,5,0,0:0:0:0:
396,80,289916,1,0,0:0:0:0:
344,80,289998,1,0,0:0:0:0:
300,108,290079,1,0,0:0:0:0:
256,132,290161,1,0,0:0:0:0:
204,132,290242,1,0,0:0:0:0:
152,116,290324,1,0,0:0:0:0:
112,80,290405,1,0,0:0:0:0:
96,32,290487,1,0,0:0:0:0:
8,184,290650,5,0,0:0:0:0:
192,324,290813,1,0,0:0:0:0:
236,326,290894,1,0,0:0:0:0:
272,296,290976,2,0,P|258:214|230:175,1,129.999994049073
139,71,291302,1,0,0:0:0:0:
94,69,291383,1,0,0:0:0:0:
58,99,291465,2,0,P|71:180|99:219,1,129.999994049073
223,212,291791,2,0,P|159:200|97:217,1,129.999994049073,0|0,2:0|0:0,0:0:0:0:
160,308,292117,2,0,P|223:318|285:300,1,129.999994049073
360,224,292443,5,0,0:0:0:0:
375,195,292524,1,0,0:0:0:0:
383,164,292606,1,0,0:0:0:0:
382,131,292687,1,0,0:0:0:0:
372,101,292769,1,0,0:0:0:0:
354,74,292850,1,0,0:0:0:0:
329,53,292932,1,0,0:0:0:0:
300,40,293014,1,0,0:0:0:0:
268,36,293096,2,0,P|200:48|160:104,1,129.999994049073
160,124,293340,1,0,0:0:0:0:
168,156,293422,1,0,0:0:0:0:
340,136,293585,5,0,0:0:0:0:
348,40,293748,2,0,P|404:68|436:128,1,129.999994049073
256,184,294074,1,0,0:0:0:0:
256,184,294155,1,0,0:0:0:0:
256,184,294237,1,0,0:0:0:0:
144,312,294400,2,0,P|192:340|292:332,1,129.999994049073
252,180,294726,2,0,P|195:149|131:153,1,129.999994049073
144,312,295052,1,0,0:0:0:0:
106,320,295133,1,0,0:0:0:0:
71,305,295215,1,0,0:0:0:0:
50,273,295296,1,0,0:0:0:0:
44,236,295378,6,0,B|40:180|40:180|40:180|40:180|64:136|96:112,1,129.999994049073
208,216,295704,1,0,0:0:0:0:
208,216,295786,1,0,0:0:0:0:
208,216,295867,1,0,0:0:0:0:
304,368,296030,2,0,P|356:324|368:240,1,129.999994049073
376,144,296356,1,0,0:0:0:0:
369,112,296437,1,0,0:0:0:0:
354,83,296519,1,0,0:0:0:0:
330,61,296600,1,0,0:0:0:0:
296,44,296683,6,0,L|260:112,3,64.9999970245363
200,40,297009,2,0,L|164:108,3,64.9999970245363
232,204,297335,2,0,L|180:264,1,64.9999970245363
232,204,297498,2,0,P|288:272|376:284,1,129.999994049073
436,152,297824,2,0,P|384:76|312:72,1,129.999994049073
332,172,298150,1,0,0:0:0:0:
212,332,298313,1,0,0:0:0:0:
173,335,298394,1,0,0:0:0:0:
136,323,298476,1,0,0:0:0:0:
109,296,298557,1,0,0:0:0:0:
100,260,298639,6,0,P|108:184|160:128,1,129.999994049073
368,208,298965,1,0,0:0:0:0:
368,208,299047,1,0,0:0:0:0:
368,208,299128,1,0,0:0:0:0:
368,208,299210,1,0,0:0:0:0:
368,208,299291,2,0,P|360:288|332:336,1,129.999994049073
232,240,299617,1,0,0:0:0:0:
104,184,299780,5,0,0:0:0:0:
133,170,299861,1,0,0:0:0:0:
163,157,299943,1,0,0:0:0:0:
228,16,300106,1,0,0:0:0:0:
257,30,300187,1,0,0:0:0:0:
287,43,300269,1,0,0:0:0:0:
228,180,300433,1,0,0:0:0:0:
228,180,300514,1,0,0:0:0:0:
228,180,300596,2,0,P|236:240|320:284,1,129.999994049073
424,284,300922,5,0,0:0:0:0:
440,256,301003,1,0,0:0:0:0:
451,225,301085,1,0,0:0:0:0:
456,193,301166,1,0,0:0:0:0:
455,161,301248,1,0,0:0:0:0:
448,129,301329,1,0,0:0:0:0:
435,99,301411,1,0,0:0:0:0:
417,72,301492,1,0,0:0:0:0:
384,52,301574,2,0,P|312:36|240:72,1,129.999994049073
332,164,301900,1,0,0:0:0:0:
392,296,302063,2,0,P|320:312|248:276,1,129.999994049073
176,204,302389,5,0,0:0:0:0:
148,176,302471,1,0,0:0:0:0:
140,140,302552,2,0,P|164:116|208:104,1,64.9999970245363
304,128,302715,5,0,0:0:0:0:
343,126,302797,1,0,0:0:0:0:
376,144,302878,2,0,P|374:177|350:216,1,64.9999970245363
272,304,303041,5,0,0:0:0:0:
241,327,303123,1,0,0:0:0:0:
203,331,303204,2,0,P|182:304|175:259,1,64.9999970245363
192,176,303367,5,0,0:0:0:0:
191,136,303449,1,0,0:0:0:0:
171,105,303530,2,0,P|137:105|97:128,1,64.9999970245363
40,212,303693,1,0,0:0:0:0:
28,242,303774,1,0,0:0:0:0:
28,274,303856,1,0,0:0:0:0:
40,304,303937,1,0,0:0:0:0:
60,328,304019,2,0,P|100:324|132:304,1,64.9999970245363
112,216,304183,6,0,P|144:196|184:196,1,64.9999970245363
248,296,304346,1,0,0:0:0:0:
276,272,304427,1,0,0:0:0:0:
308,248,304509,1,0,0:0:0:0:
236,120,304672,1,0,0:0:0:0:
204,144,304754,1,0,0:0:0:0:
176,168,304835,1,0,0:0:0:0:
344,340,304998,5,0,0:0:0:0:
224,256,305161,2,0,P|248:196|332:180,1,129.999994049073
408,320,305487,1,0,0:0:0:0:
434,291,305568,1,0,0:0:0:0:
444,254,305650,1,0,0:0:0:0:
444,216,305731,1,0,0:0:0:0:
440,164,305813,2,0,L|416:80,1,64.9999970245363
312,124,305976,2,0,L|328:192,1,64.9999970245363
356,288,306139,5,0,0:0:0:0:
341,316,306220,1,0,0:0:0:0:
319,341,306302,1,0,0:0:0:0:
293,360,306383,1,0,0:0:0:0:
263,371,306465,1,0,0:0:0:0:
231,376,306546,1,0,0:0:0:0:
198,372,306628,1,0,0:0:0:0:
168,362,306709,1,0,0:0:0:0:
141,344,306791,5,0,0:0:0:0:
119,320,306872,1,0,0:0:0:0:
103,291,306954,1,0,0:0:0:0:
95,260,307035,1,0,0:0:0:0:
96,220,307117,6,0,L|104:136,1,64.9999970245363
216,164,307280,2,0,L|209:228,1,64.9999970245363
104,216,307443,2,0,L|112:132,1,64.9999970245363
224,160,307606,2,0,L|217:224,1,64.9999970245363
128,52,307769,5,0,0:0:0:0:
164,25,307850,1,0,0:0:0:0:
208,15,307932,1,0,0:0:0:0:
252,25,308013,1,0,0:0:0:0:
292,48,308096,2,0,P|368:68|440:32,1,129.999994049073
244,220,308422,1,0,0:0:0:0:
68,68,308585,1,0,0:0:0:0:
68,68,308666,2,0,L|56:144,1,64.9999970245363
212,144,308911,1,0,0:0:0:0:
212,144,308992,1,0,0:0:0:0:
212,144,309074,1,0,0:0:0:0:
212,144,309155,2,0,L|196:240,1,64.9999970245363
336,296,309400,1,0,0:0:0:0:
336,296,309481,1,0,0:0:0:0:
336,296,309563,1,0,0:0:0:0:
336,296,309644,2,0,L|356:176,1,64.9999970245363
212,144,309889,5,0,0:0:0:0:
308,56,310052,6,0,P|92:68|296:244,1,600
96,112,311356,5,0,0:0:0:0:
96,112,312009,5,0,0:0:0:0:
332,96,312172,1,0,0:0:0:0:
120,248,312661,5,0,0:0:0:0:
120,248,312987,1,0,0:0:0:0:
120,248,313313,1,0,0:0:0:0:
388,208,313476,1,0,0:0:0:0:
212,72,313802,5,0,0:0:0:0:
212,72,313883,1,0,0:0:0:0:
212,72,313965,1,0,0:0:0:0:
212,72,314617,1,0,0:0:0:0:
128,280,314780,1,0,0:0:0:0:
368,208,315269,5,0,0:0:0:0:
368,208,315596,1,0,0:0:0:0:
368,208,315922,1,0,0:0:0:0:
128,280,316085,1,0,0:0:0:0:
144,64,316411,2,0,L|208:56,2,50
452,80,317226,5,0,0:0:0:0:
432,272,317389,1,0,0:0:0:0:
276,132,317878,5,0,0:0:0:0:
56,132,318204,1,0,0:0:0:0:
56,132,318530,1,0,0:0:0:0:
184,316,318693,1,0,0:0:0:0:
348,204,319019,6,0,L|408:192,2,50
124,32,319835,1,0,0:0:0:0:
100,240,319998,1,0,0:0:0:0:
288,144,320487,1,0,0:0:0:0:
488,56,320813,1,0,0:0:0:0:
488,56,321139,1,0,0:0:0:0:
424,236,321302,1,0,0:0:0:0:
332,112,321465,1,0,0:0:0:0:
332,112,321547,1,0,0:0:0:0:
332,112,321628,2,0,L|320:28,1,50
192,72,321791,5,0,0:0:0:0:
176,91,321872,1,0,0:0:0:0:
163,112,321954,1,0,0:0:0:0:
153,135,322035,1,0,0:0:0:0:
146,159,322117,1,0,0:0:0:0:
140,184,322199,1,0,0:0:0:0:
143,209,322280,1,0,0:0:0:0:
146,234,322361,1,0,0:0:0:0:
153,258,322443,5,0,0:0:0:0:
163,280,322524,1,0,0:0:0:0:
176,302,322606,1,0,0:0:0:0:
192,321,322687,1,0,0:0:0:0:
212,340,322769,2,0,L|256:304,3,50
240,180,323096,2,0,L|184:244,3,50
308,252,323422,1,0,0:0:0:0:
327,223,323503,1,0,0:0:0:0:
337,190,323585,1,0,0:0:0:0:
335,155,323666,1,0,0:0:0:0:
328,120,323748,5,0,0:0:0:0:
316,88,323829,1,0,0:0:0:0:
288,64,323911,1,0,0:0:0:0:
256,48,323992,1,0,0:0:0:0:
224,36,324074,1,0,0:0:0:0:
188,36,324155,1,0,0:0:0:0:
152,44,324237,1,0,0:0:0:0:
116,64,324318,1,0,0:0:0:0:
91,93,324400,1,0,0:0:0:0:
75,124,324481,1,0,0:0:0:0:
68,159,324563,1,0,0:0:0:0:
70,193,324644,1,0,0:0:0:0:
82,226,324726,5,0,0:0:0:0:
102,255,324807,1,0,0:0:0:0:
129,277,324889,1,0,0:0:0:0:
161,291,324970,1,0,0:0:0:0:
196,300,325052,2,0,L|184:360,3,50
268,200,325378,2,0,L|280:140,3,50
308,328,325704,2,0,L|296:388,3,50
380,216,326030,2,0,L|392:156,3,50
388,316,326356,5,0,0:0:0:0:
428,296,326437,1,0,0:0:0:0:
464,268,326519,1,0,0:0:0:0:
492,232,326600,1,0,0:0:0:0:
508,188,326682,1,0,0:0:0:0:
512,144,326763,1,0,0:0:0:0:
500,100,326845,1,0,0:0:0:0:
472,64,326926,1,0,0:0:0:0:
432,40,327008,5,0,0:0:0:0:
388,28,327089,1,0,0:0:0:0:
344,24,327171,1,0,0:0:0:0:
304,44,327252,1,0,0:0:0:0:
268,72,327335,1,0,0:0:0:0:
248,112,327416,1,0,0:0:0:0:
240,156,327498,1,0,0:0:0:0:
240,200,327579,1,0,0:0:0:0:
248,244,327660,5,0,0:0:0:0:
244,288,327742,1,0,0:0:0:0:
224,328,327823,1,0,0:0:0:0:
184,348,327905,1,0,0:0:0:0:
140,360,327986,1,0,0:0:0:0:
96,352,328068,1,0,0:0:0:0:
60,328,328149,1,0,0:0:0:0:
28,296,328231,1,0,0:0:0:0:
12,252,328312,5,0,0:0:0:0:
8,208,328394,1,0,0:0:0:0:
32,168,328475,1,0,0:0:0:0:
60,132,328557,1,0,0:0:0:0:
96,104,328639,6,0,L|88:40,3,50
200,148,328965,2,0,L|208:212,3,50
284,64,329291,2,0,L|272:-12,3,50
435,191,329617,6,0,P|402:186|371:191,1,64.9999970245363
96,112,329780,2,0,P|121:132|151:141,1,64.9999970245363
366,332,329943,6,0,P|350:304|327:282,1,64.9999970245363
212,17,330106,2,0,P|217:49|230:79,1,64.9999970245363
216,366,330269,6,0,P|227:336|230:304,1,64.9999970245363
365,49,330433,2,0,P|341:72|327:101,1,64.9999970245363
95,272,330596,6,0,P|124:258|152:241,1,64.9999970245363
154,93,330759,2,0,L|159:15,1,64.9999970245363
354,90,330922,6,0,L|431:95,1,64.9999970245363
357,290,331085,2,0,L|351:367,1,64.9999970245363
157,293,331248,2,0,L|80:288,1,64.9999970245363
132,108,331411,2,0,L|128:-4,1,64.9999970245363
272,60,331574,5,0,0:0:0:0:
322,52,331655,1,0,0:0:0:0:
371,60,331737,1,0,0:0:0:0:
415,83,331818,1,0,0:0:0:0:
450,118,331900,1,0,0:0:0:0:
472,163,331981,1,0,0:0:0:0:
476,212,332063,2,0,L|416:236,1,64.9999970245363
248,296,332226,5,0,0:0:0:0:
256,192,332389,12,0,365650,0:0:0:0:
256,192,365813,6,0,P|256:256|252:192,1,175
