osu file format v14

[General]
AudioFilename: Counter-Attack of the Weak.mp3
AudioLeadIn: 0
PreviewTime: -1
Countdown: 1
SampleSet: Normal
StackLeniency: 0.7
Mode: 3
LetterboxInBreaks: 1
SpecialStyle: 1
WidescreenStoryboard: 1

[Editor]
DistanceSpacing: 1
BeatDivisor: 4
GridSize: 4
TimelineZoom: 2.799999

[Metadata]
Title:Counter-Attack of the Weak
TitleUnicode:「輝く針の小人族 ~ Counter-Attack of the Weak」
Artist:Demetori
ArtistUnicode:Demetori
Creator:Espeon
Version:All Miss 4k
Source:
Tags:holy shit
BeatmapID:766879
BeatmapSetID:346929

[Difficulty]
HPDrainRate:6
CircleSize:4
OverallDifficulty:7
ApproachRate:9.3
SliderMultiplier:2
SliderTickRate:1

[Events]
//Background and Video events
0,0,"40526464_p0.jpg",0,0
//Break Periods
//Storyboard Layer 0 (Background)
//Storyboard Layer 1 (Fail)
//Storyboard Layer 2 (Pass)
//Storyboard Layer 3 (Foreground)
//Storyboard Sound Samples

[TimingPoints]
270,326.086956521739,4,1,0,60,1,0

[HitObjects]
64,192,270,5,0,0:0:0:0:
320,192,270,1,0,0:0:0:0:
192,192,378,1,0,0:0:0:0:
320,192,487,1,0,0:0:0:0:
448,192,596,1,0,0:0:0:0:
320,192,704,1,0,0:0:0:0:
192,192,813,1,0,0:0:0:0:
320,192,922,1,0,0:0:0:0:
448,192,1030,1,0,0:0:0:0:
320,192,1139,1,0,0:0:0:0:
192,192,1248,1,0,0:0:0:0:
64,192,1356,1,0,0:0:0:0:
192,192,1465,1,0,0:0:0:0:
64,192,1574,1,0,0:0:0:0:
320,192,1574,1,0,0:0:0:0:
192,192,1683,1,0,0:0:0:0:
64,192,1791,1,0,0:0:0:0:
192,192,1900,1,0,0:0:0:0:
320,192,2009,1,0,0:0:0:0:
192,192,2117,1,0,0:0:0:0:
448,192,2226,1,0,0:0:0:0:
320,192,2226,1,0,0:0:0:0:
192,192,2335,1,0,0:0:0:0:
320,192,2443,1,0,0:0:0:0:
192,192,2552,1,0,0:0:0:0:
64,192,2661,1,0,0:0:0:0:
192,192,2769,1,0,0:0:0:0:
320,192,2878,1,0,0:0:0:0:
448,192,2878,1,0,0:0:0:0:
192,192,2987,1,0,0:0:0:0:
64,192,3096,1,0,0:0:0:0:
192,192,3204,1,0,0:0:0:0:
320,192,3313,1,0,0:0:0:0:
192,192,3422,1,0,0:0:0:0:
320,192,3530,1,0,0:0:0:0:
448,192,3639,1,0,0:0:0:0:
320,192,3748,1,0,0:0:0:0:
192,192,3856,1,0,0:0:0:0:
64,192,3965,1,0,0:0:0:0:
192,192,4074,1,0,0:0:0:0:
64,192,4183,1,0,0:0:0:0:
320,192,4183,1,0,0:0:0:0:
192,192,4291,1,0,0:0:0:0:
320,192,4400,1,0,0:0:0:0:
448,192,4509,1,0,0:0:0:0:
320,192,4617,1,0,0:0:0:0:
192,192,4726,1,0,0:0:0:0:
64,192,4835,1,0,0:0:0:0:
192,192,4943,1,0,0:0:0:0:
320,192,5052,1,0,0:0:0:0:
448,192,5161,1,0,0:0:0:0:
192,192,5161,1,0,0:0:0:0:
320,192,5269,1,0,0:0:0:0:
192,192,5378,1,0,0:0:0:0:
320,192,5487,1,0,0:0:0:0:
448,192,5596,1,0,0:0:0:0:
320,192,5704,1,0,0:0:0:0:
192,192,5813,1,0,0:0:0:0:
64,192,5922,1,0,0:0:0:0:
192,192,6030,1,0,0:0:0:0:
320,192,6139,128,0,13965:0:0:0:0:
448,192,6139,128,0,13965:0:0:0:0:
192,192,8096,128,0,10052:0:0:0:0:
64,192,10052,128,0,12009:0:0:0:0:
192,192,12009,128,0,13965:0:0:0:0:
64,192,13965,1,0,0:0:0:0:
192,192,14047,1,0,0:0:0:0:
320,192,14128,1,0,0:0:0:0:
64,192,14291,1,0,0:0:0:0:
192,192,14373,1,0,0:0:0:0:
320,192,14454,1,0,0:0:0:0:
64,192,14617,1,0,0:0:0:0:
192,192,14699,1,0,0:0:0:0:
320,192,14780,1,0,0:0:0:0:
320,192,14943,1,0,0:0:0:0:
448,192,15106,1,0,0:0:0:0:
320,192,15188,1,0,0:0:0:0:
192,192,15269,1,0,0:0:0:0:
192,192,15433,1,0,0:0:0:0:
448,192,15596,1,0,0:0:0:0:
320,192,15677,1,0,0:0:0:0:
192,192,15759,1,0,0:0:0:0:
64,192,15922,1,0,0:0:0:0:
192,192,16003,1,0,0:0:0:0:
320,192,16085,1,0,0:0:0:0:
64,192,16248,1,0,0:0:0:0:
192,192,16329,1,0,0:0:0:0:
320,192,16411,1,0,0:0:0:0:
448,192,16574,1,0,0:0:0:0:
320,192,16655,1,0,0:0:0:0:
192,192,16737,1,0,0:0:0:0:
192,192,16900,1,0,0:0:0:0:
64,192,17063,1,0,0:0:0:0:
192,192,17144,1,0,0:0:0:0:
320,192,17226,1,0,0:0:0:0:
320,192,17389,1,0,0:0:0:0:
192,192,17552,1,0,0:0:0:0:
320,192,17634,1,0,0:0:0:0:
448,192,17715,1,0,0:0:0:0:
192,192,17878,1,0,0:0:0:0:
320,192,17960,1,0,0:0:0:0:
448,192,18041,1,0,0:0:0:0:
320,192,18204,1,0,0:0:0:0:
192,192,18286,1,0,0:0:0:0:
64,192,18367,1,0,0:0:0:0:
448,192,18530,1,0,0:0:0:0:
320,192,18612,1,0,0:0:0:0:
192,192,18693,1,0,0:0:0:0:
192,192,18856,1,0,0:0:0:0:
448,192,19019,1,0,0:0:0:0:
320,192,19101,1,0,0:0:0:0:
192,192,19183,1,0,0:0:0:0:
192,192,19346,1,0,0:0:0:0:
192,192,19509,1,0,0:0:0:0:
320,192,19590,1,0,0:0:0:0:
448,192,19672,1,0,0:0:0:0:
64,192,19835,1,0,0:0:0:0:
192,192,19916,1,0,0:0:0:0:
320,192,19998,1,0,0:0:0:0:
192,192,20161,1,0,0:0:0:0:
320,192,20242,1,0,0:0:0:0:
448,192,20324,1,0,0:0:0:0:
320,192,20487,1,0,0:0:0:0:
192,192,20568,1,0,0:0:0:0:
64,192,20650,1,0,0:0:0:0:
64,192,20813,1,0,0:0:0:0:
64,192,20976,1,0,0:0:0:0:
192,192,21058,1,0,0:0:0:0:
320,192,21139,1,0,0:0:0:0:
320,192,21302,1,0,0:0:0:0:
64,192,21465,1,0,0:0:0:0:
192,192,21547,1,0,0:0:0:0:
320,192,21628,1,0,0:0:0:0:
192,192,21791,1,0,0:0:0:0:
64,192,21791,1,0,0:0:0:0:
320,192,21873,1,0,0:0:0:0:
448,192,21954,1,0,0:0:0:0:
320,192,22117,1,0,0:0:0:0:
192,192,22199,1,0,0:0:0:0:
64,192,22280,1,0,0:0:0:0:
448,192,22443,1,0,0:0:0:0:
320,192,22525,1,0,0:0:0:0:
192,192,22606,1,0,0:0:0:0:
192,192,22769,1,0,0:0:0:0:
320,192,22933,1,0,0:0:0:0:
192,192,23014,1,0,0:0:0:0:
64,192,23096,1,0,0:0:0:0:
64,192,23259,1,0,0:0:0:0:
192,192,23422,1,0,0:0:0:0:
320,192,23503,1,0,0:0:0:0:
448,192,23585,1,0,0:0:0:0:
64,192,23748,1,0,0:0:0:0:
192,192,23748,1,0,0:0:0:0:
320,192,23829,1,0,0:0:0:0:
448,192,23911,1,0,0:0:0:0:
64,192,24074,1,0,0:0:0:0:
192,192,24155,1,0,0:0:0:0:
448,192,24237,1,0,0:0:0:0:
64,192,24400,1,0,0:0:0:0:
192,192,24481,1,0,0:0:0:0:
448,192,24563,1,0,0:0:0:0:
448,192,24726,1,0,0:0:0:0:
448,192,24889,1,0,0:0:0:0:
320,192,24971,1,0,0:0:0:0:
64,192,25052,1,0,0:0:0:0:
64,192,25215,1,0,0:0:0:0:
192,192,25378,1,0,0:0:0:0:
320,192,25460,1,0,0:0:0:0:
448,192,25541,1,0,0:0:0:0:
64,192,25704,1,0,0:0:0:0:
192,192,25704,1,0,0:0:0:0:
320,192,25786,1,0,0:0:0:0:
448,192,25867,1,0,0:0:0:0:
320,192,25949,1,0,0:0:0:0:
192,192,26030,1,0,0:0:0:0:
64,192,26112,1,0,0:0:0:0:
192,192,26193,1,0,0:0:0:0:
320,192,26275,1,0,0:0:0:0:
448,192,26356,1,0,0:0:0:0:
320,192,26438,1,0,0:0:0:0:
192,192,26519,1,0,0:0:0:0:
64,192,26601,1,0,0:0:0:0:
192,192,26683,1,0,0:0:0:0:
320,192,26764,1,0,0:0:0:0:
64,192,26846,1,0,0:0:0:0:
192,192,26927,1,0,0:0:0:0:
320,192,27009,1,0,0:0:0:0:
448,192,27090,1,0,0:0:0:0:
64,192,27172,1,0,0:0:0:0:
192,192,27253,1,0,0:0:0:0:
320,192,27335,1,0,0:0:0:0:
448,192,27416,1,0,0:0:0:0:
320,192,27498,1,0,0:0:0:0:
192,192,27579,1,0,0:0:0:0:
64,192,27661,1,0,0:0:0:0:
448,192,27742,1,0,0:0:0:0:
320,192,27824,1,0,0:0:0:0:
192,192,27905,1,0,0:0:0:0:
64,192,27987,1,0,0:0:0:0:
192,192,28068,1,0,0:0:0:0:
320,192,28150,1,0,0:0:0:0:
448,192,28231,1,0,0:0:0:0:
192,192,28313,1,0,0:0:0:0:
64,192,28313,1,0,0:0:0:0:
64,192,28476,1,0,0:0:0:0:
192,192,28476,1,0,0:0:0:0:
448,192,28585,1,0,0:0:0:0:
320,192,28639,1,0,0:0:0:0:
192,192,28802,1,0,0:0:0:0:
320,192,28802,1,0,0:0:0:0:
64,192,28965,1,0,0:0:0:0:
192,192,29019,1,0,0:0:0:0:
320,192,29074,1,0,0:0:0:0:
448,192,29128,1,0,0:0:0:0:
192,192,29291,1,0,0:0:0:0:
64,192,29291,1,0,0:0:0:0:
192,192,29454,1,0,0:0:0:0:
320,192,29454,1,0,0:0:0:0:
448,192,29454,1,0,0:0:0:0:
64,192,30269,128,0,32878:0:0:0:0:
320,192,30433,1,0,0:0:0:0:
448,192,30596,1,0,0:0:0:0:
320,192,30677,1,0,0:0:0:0:
192,192,30759,1,0,0:0:0:0:
320,192,30922,1,0,0:0:0:0:
320,192,31085,1,0,0:0:0:0:
192,192,31248,1,0,0:0:0:0:
320,192,31329,1,0,0:0:0:0:
448,192,31411,1,0,0:0:0:0:
192,192,31574,128,0,31900:0:0:0:0:
448,192,31900,128,0,32226:0:0:0:0:
320,192,32226,1,0,0:0:0:0:
320,192,32389,1,0,0:0:0:0:
448,192,32552,1,0,0:0:0:0:
320,192,32634,1,0,0:0:0:0:
192,192,32715,1,0,0:0:0:0:
192,192,32878,128,0,35487:0:0:0:0:
64,192,33041,1,0,0:0:0:0:
448,192,33204,1,0,0:0:0:0:
320,192,33286,1,0,0:0:0:0:
448,192,33367,1,0,0:0:0:0:
64,192,33530,1,0,0:0:0:0:
64,192,33693,1,0,0:0:0:0:
320,192,33856,1,0,0:0:0:0:
448,192,33938,1,0,0:0:0:0:
320,192,34019,1,0,0:0:0:0:
320,192,34183,128,0,34509:0:0:0:0:
448,192,34509,128,0,34835:0:0:0:0:
64,192,34835,1,0,0:0:0:0:
64,192,34998,1,0,0:0:0:0:
448,192,35161,1,0,0:0:0:0:
320,192,35242,1,0,0:0:0:0:
448,192,35324,1,0,0:0:0:0:
320,192,35487,128,0,38096:0:0:0:0:
448,192,35650,1,0,0:0:0:0:
192,192,35813,1,0,0:0:0:0:
64,192,35894,1,0,0:0:0:0:
192,192,35976,1,0,0:0:0:0:
448,192,36139,1,0,0:0:0:0:
448,192,36302,1,0,0:0:0:0:
192,192,36465,1,0,0:0:0:0:
64,192,36547,1,0,0:0:0:0:
192,192,36628,1,0,0:0:0:0:
64,192,36791,128,0,37117:0:0:0:0:
192,192,37117,128,0,37443:0:0:0:0:
448,192,37443,1,0,0:0:0:0:
64,192,37525,1,0,0:0:0:0:
448,192,37606,1,0,0:0:0:0:
64,192,37688,1,0,0:0:0:0:
448,192,37769,1,0,0:0:0:0:
192,192,37851,1,0,0:0:0:0:
448,192,37933,1,0,0:0:0:0:
192,192,38014,1,0,0:0:0:0:
64,192,38096,128,0,38748:0:0:0:0:
448,192,38096,1,0,0:0:0:0:
192,192,38177,1,0,0:0:0:0:
320,192,38259,1,0,0:0:0:0:
448,192,38340,1,0,0:0:0:0:
320,192,38422,1,0,0:0:0:0:
192,192,38503,1,0,0:0:0:0:
320,192,38585,1,0,0:0:0:0:
448,192,38666,1,0,0:0:0:0:
192,192,38748,128,0,39400:0:0:0:0:
320,192,38748,1,0,0:0:0:0:
448,192,38829,1,0,0:0:0:0:
320,192,38911,1,0,0:0:0:0:
64,192,38992,1,0,0:0:0:0:
320,192,39074,1,0,0:0:0:0:
448,192,39155,1,0,0:0:0:0:
320,192,39237,1,0,0:0:0:0:
64,192,39318,1,0,0:0:0:0:
320,192,39400,128,0,40052:0:0:0:0:
448,192,39400,1,0,0:0:0:0:
192,192,39481,1,0,0:0:0:0:
64,192,39563,1,0,0:0:0:0:
192,192,39644,1,0,0:0:0:0:
448,192,39726,1,0,0:0:0:0:
192,192,39808,1,0,0:0:0:0:
64,192,39889,1,0,0:0:0:0:
192,192,39971,1,0,0:0:0:0:
448,192,40052,128,0,40704:0:0:0:0:
64,192,40052,1,0,0:0:0:0:
192,192,40134,1,0,0:0:0:0:
64,192,40215,1,0,0:0:0:0:
320,192,40297,1,0,0:0:0:0:
64,192,40378,1,0,0:0:0:0:
192,192,40460,1,0,0:0:0:0:
64,192,40541,1,0,0:0:0:0:
320,192,40623,1,0,0:0:0:0:
64,192,40704,1,0,0:0:0:0:
192,192,40704,1,0,0:0:0:0:
320,192,40867,1,0,0:0:0:0:
192,192,40949,1,0,0:0:0:0:
64,192,41030,1,0,0:0:0:0:
448,192,41030,1,0,0:0:0:0:
320,192,41193,1,0,0:0:0:0:
192,192,41275,1,0,0:0:0:0:
448,192,41356,1,0,0:0:0:0:
64,192,41356,1,0,0:0:0:0:
192,192,41519,1,0,0:0:0:0:
448,192,41683,1,0,0:0:0:0:
320,192,41764,1,0,0:0:0:0:
64,192,41846,1,0,0:0:0:0:
192,192,41846,1,0,0:0:0:0:
448,192,42009,1,0,0:0:0:0:
320,192,42090,1,0,0:0:0:0:
64,192,42172,1,0,0:0:0:0:
192,192,42172,1,0,0:0:0:0:
320,192,42335,1,0,0:0:0:0:
192,192,42416,1,0,0:0:0:0:
320,192,42498,1,0,0:0:0:0:
448,192,42498,1,0,0:0:0:0:
448,192,42661,1,0,0:0:0:0:
320,192,42742,1,0,0:0:0:0:
192,192,42824,1,0,0:0:0:0:
64,192,42905,1,0,0:0:0:0:
192,192,42987,1,0,0:0:0:0:
320,192,43068,1,0,0:0:0:0:
448,192,43150,1,0,0:0:0:0:
320,192,43231,1,0,0:0:0:0:
64,192,43313,1,0,0:0:0:0:
192,192,43394,1,0,0:0:0:0:
64,192,43476,1,0,0:0:0:0:
192,192,43558,1,0,0:0:0:0:
448,192,43639,1,0,0:0:0:0:
320,192,43639,1,0,0:0:0:0:
64,192,43802,1,0,0:0:0:0:
192,192,43884,1,0,0:0:0:0:
320,192,43965,1,0,0:0:0:0:
448,192,43965,1,0,0:0:0:0:
320,192,44128,1,0,0:0:0:0:
448,192,44128,1,0,0:0:0:0:
64,192,44291,1,0,0:0:0:0:
192,192,44373,1,0,0:0:0:0:
448,192,44454,1,0,0:0:0:0:
320,192,44454,1,0,0:0:0:0:
192,192,44617,1,0,0:0:0:0:
320,192,44699,1,0,0:0:0:0:
64,192,44780,1,0,0:0:0:0:
192,192,44780,1,0,0:0:0:0:
192,192,44943,1,0,0:0:0:0:
64,192,45025,1,0,0:0:0:0:
320,192,45106,1,0,0:0:0:0:
448,192,45106,1,0,0:0:0:0:
64,192,45188,1,0,0:0:0:0:
192,192,45269,1,0,0:0:0:0:
320,192,45351,1,0,0:0:0:0:
448,192,45433,1,0,0:0:0:0:
64,192,45514,1,0,0:0:0:0:
192,192,45596,1,0,0:0:0:0:
320,192,45677,1,0,0:0:0:0:
448,192,45759,1,0,0:0:0:0:
320,192,45840,1,0,0:0:0:0:
192,192,45922,1,0,0:0:0:0:
64,192,45922,1,0,0:0:0:0:
64,192,46085,1,0,0:0:0:0:
192,192,46166,1,0,0:0:0:0:
320,192,46248,1,0,0:0:0:0:
448,192,46248,1,0,0:0:0:0:
64,192,46411,1,0,0:0:0:0:
192,192,46492,1,0,0:0:0:0:
448,192,46574,1,0,0:0:0:0:
320,192,46574,1,0,0:0:0:0:
192,192,46655,1,0,0:0:0:0:
64,192,46737,1,0,0:0:0:0:
192,192,46818,1,0,0:0:0:0:
320,192,46900,1,0,0:0:0:0:
448,192,46981,1,0,0:0:0:0:
64,192,47063,1,0,0:0:0:0:
192,192,47063,1,0,0:0:0:0:
192,192,47226,1,0,0:0:0:0:
64,192,47308,1,0,0:0:0:0:
448,192,47389,1,0,0:0:0:0:
320,192,47389,1,0,0:0:0:0:
192,192,47552,1,0,0:0:0:0:
64,192,47634,1,0,0:0:0:0:
320,192,47715,1,0,0:0:0:0:
448,192,47715,1,0,0:0:0:0:
64,192,47797,1,0,0:0:0:0:
192,192,47878,1,0,0:0:0:0:
320,192,47960,1,0,0:0:0:0:
448,192,48041,1,0,0:0:0:0:
320,192,48123,1,0,0:0:0:0:
192,192,48204,1,0,0:0:0:0:
64,192,48286,1,0,0:0:0:0:
192,192,48367,1,0,0:0:0:0:
320,192,48449,1,0,0:0:0:0:
192,192,48530,1,0,0:0:0:0:
448,192,48612,1,0,0:0:0:0:
192,192,48693,1,0,0:0:0:0:
448,192,48775,1,0,0:0:0:0:
192,192,48856,1,0,0:0:0:0:
448,192,48938,1,0,0:0:0:0:
192,192,49019,1,0,0:0:0:0:
448,192,49101,1,0,0:0:0:0:
320,192,49183,1,0,0:0:0:0:
64,192,49264,1,0,0:0:0:0:
320,192,49346,1,0,0:0:0:0:
64,192,49427,1,0,0:0:0:0:
320,192,49509,1,0,0:0:0:0:
64,192,49590,1,0,0:0:0:0:
320,192,49672,1,0,0:0:0:0:
64,192,49753,1,0,0:0:0:0:
320,192,49835,1,0,0:0:0:0:
192,192,49916,1,0,0:0:0:0:
320,192,49998,1,0,0:0:0:0:
192,192,50079,1,0,0:0:0:0:
320,192,50161,1,0,0:0:0:0:
192,192,50242,1,0,0:0:0:0:
320,192,50324,1,0,0:0:0:0:
192,192,50405,1,0,0:0:0:0:
448,192,50487,1,0,0:0:0:0:
64,192,50568,1,0,0:0:0:0:
448,192,50650,1,0,0:0:0:0:
64,192,50731,1,0,0:0:0:0:
448,192,50813,1,0,0:0:0:0:
64,192,50894,1,0,0:0:0:0:
448,192,50976,1,0,0:0:0:0:
64,192,51058,1,0,0:0:0:0:
320,192,51139,1,0,0:0:0:0:
448,192,51139,1,0,0:0:0:0:
64,192,51302,1,0,0:0:0:0:
192,192,51384,1,0,0:0:0:0:
320,192,51465,1,0,0:0:0:0:
448,192,51465,1,0,0:0:0:0:
64,192,51628,1,0,0:0:0:0:
192,192,51710,1,0,0:0:0:0:
448,192,51791,1,0,0:0:0:0:
320,192,51791,1,0,0:0:0:0:
64,192,51954,1,0,0:0:0:0:
192,192,52036,1,0,0:0:0:0:
320,192,52117,1,0,0:0:0:0:
448,192,52199,1,0,0:0:0:0:
64,192,52280,1,0,0:0:0:0:
192,192,52280,1,0,0:0:0:0:
448,192,52443,1,0,0:0:0:0:
320,192,52525,1,0,0:0:0:0:
64,192,52606,1,0,0:0:0:0:
192,192,52606,1,0,0:0:0:0:
448,192,52769,1,0,0:0:0:0:
320,192,52851,1,0,0:0:0:0:
64,192,52933,1,0,0:0:0:0:
192,192,52933,1,0,0:0:0:0:
448,192,53096,1,0,0:0:0:0:
320,192,53177,1,0,0:0:0:0:
64,192,53259,1,0,0:0:0:0:
192,192,53340,1,0,0:0:0:0:
448,192,53422,1,0,0:0:0:0:
320,192,53503,1,0,0:0:0:0:
64,192,53585,1,0,0:0:0:0:
192,192,53666,1,0,0:0:0:0:
320,192,53748,1,0,0:0:0:0:
448,192,53748,1,0,0:0:0:0:
64,192,53911,1,0,0:0:0:0:
192,192,53992,1,0,0:0:0:0:
320,192,54074,1,0,0:0:0:0:
448,192,54074,1,0,0:0:0:0:
64,192,54237,1,0,0:0:0:0:
192,192,54318,1,0,0:0:0:0:
320,192,54400,1,0,0:0:0:0:
448,192,54400,1,0,0:0:0:0:
192,192,54563,1,0,0:0:0:0:
320,192,54644,1,0,0:0:0:0:
448,192,54726,1,0,0:0:0:0:
320,192,54808,1,0,0:0:0:0:
64,192,54889,1,0,0:0:0:0:
192,192,54889,1,0,0:0:0:0:
448,192,55052,1,0,0:0:0:0:
320,192,55134,1,0,0:0:0:0:
64,192,55215,1,0,0:0:0:0:
192,192,55215,1,0,0:0:0:0:
448,192,55378,1,0,0:0:0:0:
320,192,55460,1,0,0:0:0:0:
64,192,55541,1,0,0:0:0:0:
192,192,55541,1,0,0:0:0:0:
320,192,55704,1,0,0:0:0:0:
448,192,55786,1,0,0:0:0:0:
192,192,55867,1,0,0:0:0:0:
320,192,55867,1,0,0:0:0:0:
64,192,55949,1,0,0:0:0:0:
192,192,56030,1,0,0:0:0:0:
320,192,56112,1,0,0:0:0:0:
192,192,56193,1,0,0:0:0:0:
320,192,56275,1,0,0:0:0:0:
448,192,56356,1,0,0:0:0:0:
64,192,56519,1,0,0:0:0:0:
192,192,56601,1,0,0:0:0:0:
320,192,56683,1,0,0:0:0:0:
448,192,56683,1,0,0:0:0:0:
64,192,56846,1,0,0:0:0:0:
192,192,56927,1,0,0:0:0:0:
320,192,57009,1,0,0:0:0:0:
448,192,57009,1,0,0:0:0:0:
320,192,57172,1,0,0:0:0:0:
192,192,57253,1,0,0:0:0:0:
320,192,57335,1,0,0:0:0:0:
192,192,57416,1,0,0:0:0:0:
320,192,57498,1,0,0:0:0:0:
448,192,57498,1,0,0:0:0:0:
64,192,57661,1,0,0:0:0:0:
192,192,57742,1,0,0:0:0:0:
320,192,57824,1,0,0:0:0:0:
448,192,57824,1,0,0:0:0:0:
64,192,57987,1,0,0:0:0:0:
192,192,58068,1,0,0:0:0:0:
320,192,58150,1,0,0:0:0:0:
448,192,58150,1,0,0:0:0:0:
64,192,58313,1,0,0:0:0:0:
192,192,58394,1,0,0:0:0:0:
320,192,58476,1,0,0:0:0:0:
448,192,58558,1,0,0:0:0:0:
320,192,58639,1,0,0:0:0:0:
192,192,58721,1,0,0:0:0:0:
64,192,58802,1,0,0:0:0:0:
320,192,58802,1,0,0:0:0:0:
64,192,58965,1,0,0:0:0:0:
192,192,59047,1,0,0:0:0:0:
320,192,59128,1,0,0:0:0:0:
448,192,59210,1,0,0:0:0:0:
320,192,59291,1,0,0:0:0:0:
192,192,59373,1,0,0:0:0:0:
64,192,59454,1,0,0:0:0:0:
192,192,59536,1,0,0:0:0:0:
320,192,59617,1,0,0:0:0:0:
448,192,59699,1,0,0:0:0:0:
320,192,59780,1,0,0:0:0:0:
192,192,59862,1,0,0:0:0:0:
320,192,59943,1,0,0:0:0:0:
448,192,60025,1,0,0:0:0:0:
320,192,60106,1,0,0:0:0:0:
192,192,60188,1,0,0:0:0:0:
64,192,60269,1,0,0:0:0:0:
448,192,60351,1,0,0:0:0:0:
320,192,60433,1,0,0:0:0:0:
192,192,60514,1,0,0:0:0:0:
64,192,60596,1,0,0:0:0:0:
320,192,60677,1,0,0:0:0:0:
448,192,60759,1,0,0:0:0:0:
192,192,60840,1,0,0:0:0:0:
64,192,60922,1,0,0:0:0:0:
320,192,61003,1,0,0:0:0:0:
448,192,61085,1,0,0:0:0:0:
192,192,61166,1,0,0:0:0:0:
64,192,61248,1,0,0:0:0:0:
192,192,61329,1,0,0:0:0:0:
320,192,61411,1,0,0:0:0:0:
192,192,61492,1,0,0:0:0:0:
448,192,61574,128,0,62226:0:0:0:0:
64,192,61737,1,0,0:0:0:0:
320,192,61737,1,0,0:0:0:0:
192,192,61900,1,0,0:0:0:0:
64,192,62063,1,0,0:0:0:0:
320,192,62063,1,0,0:0:0:0:
64,192,62226,128,0,63204:0:0:0:0:
320,192,62389,1,0,0:0:0:0:
448,192,62389,1,0,0:0:0:0:
192,192,62552,1,0,0:0:0:0:
320,192,62715,1,0,0:0:0:0:
448,192,62715,1,0,0:0:0:0:
192,192,62878,1,0,0:0:0:0:
320,192,63041,1,0,0:0:0:0:
448,192,63041,1,0,0:0:0:0:
192,192,63204,128,0,63530:0:0:0:0:
320,192,63367,1,0,0:0:0:0:
448,192,63367,1,0,0:0:0:0:
320,192,63530,128,0,63856:0:0:0:0:
64,192,63693,1,0,0:0:0:0:
192,192,63693,1,0,0:0:0:0:
64,192,63856,128,0,64183:0:0:0:0:
320,192,64019,1,0,0:0:0:0:
448,192,64019,1,0,0:0:0:0:
448,192,64183,128,0,64835:0:0:0:0:
64,192,64346,1,0,0:0:0:0:
320,192,64346,1,0,0:0:0:0:
192,192,64509,1,0,0:0:0:0:
64,192,64672,1,0,0:0:0:0:
320,192,64672,1,0,0:0:0:0:
64,192,64835,128,0,65813:0:0:0:0:
192,192,64998,1,0,0:0:0:0:
320,192,64998,1,0,0:0:0:0:
448,192,65161,1,0,0:0:0:0:
192,192,65324,1,0,0:0:0:0:
320,192,65324,1,0,0:0:0:0:
448,192,65487,1,0,0:0:0:0:
192,192,65650,1,0,0:0:0:0:
320,192,65650,1,0,0:0:0:0:
192,192,65813,128,0,66139:0:0:0:0:
320,192,65976,1,0,0:0:0:0:
448,192,65976,1,0,0:0:0:0:
320,192,66139,128,0,66465:0:0:0:0:
64,192,66302,1,0,0:0:0:0:
192,192,66302,1,0,0:0:0:0:
448,192,66465,128,0,66791:0:0:0:0:
320,192,66628,1,0,0:0:0:0:
64,192,66628,1,0,0:0:0:0:
192,192,66791,128,0,67769:0:0:0:0:
64,192,66954,1,0,0:0:0:0:
320,192,66954,1,0,0:0:0:0:
448,192,67117,1,0,0:0:0:0:
64,192,67280,1,0,0:0:0:0:
320,192,67280,1,0,0:0:0:0:
448,192,67443,1,0,0:0:0:0:
64,192,67606,1,0,0:0:0:0:
320,192,67606,1,0,0:0:0:0:
320,192,67769,128,0,68096:0:0:0:0:
448,192,67933,1,0,0:0:0:0:
192,192,67933,1,0,0:0:0:0:
64,192,68096,128,0,68422:0:0:0:0:
192,192,68259,1,0,0:0:0:0:
320,192,68259,1,0,0:0:0:0:
448,192,68422,128,0,68748:0:0:0:0:
192,192,68585,1,0,0:0:0:0:
64,192,68585,1,0,0:0:0:0:
320,192,68748,128,0,69074:0:0:0:0:
192,192,68911,1,0,0:0:0:0:
448,192,68911,1,0,0:0:0:0:
192,192,69074,128,0,69400:0:0:0:0:
64,192,69237,1,0,0:0:0:0:
320,192,69237,1,0,0:0:0:0:
64,192,69400,128,0,70704:0:0:0:0:
320,192,69563,1,0,0:0:0:0:
448,192,69563,1,0,0:0:0:0:
192,192,69726,1,0,0:0:0:0:
320,192,69889,1,0,0:0:0:0:
448,192,69889,1,0,0:0:0:0:
192,192,70052,1,0,0:0:0:0:
320,192,70215,1,0,0:0:0:0:
448,192,70215,1,0,0:0:0:0:
192,192,70378,1,0,0:0:0:0:
320,192,70541,1,0,0:0:0:0:
448,192,70541,1,0,0:0:0:0:
192,192,70704,128,0,72009:0:0:0:0:
320,192,70786,1,0,0:0:0:0:
448,192,70867,1,0,0:0:0:0:
320,192,70949,1,0,0:0:0:0:
64,192,71030,1,0,0:0:0:0:
320,192,71112,1,0,0:0:0:0:
448,192,71193,1,0,0:0:0:0:
64,192,71275,1,0,0:0:0:0:
320,192,71356,1,0,0:0:0:0:
448,192,71438,1,0,0:0:0:0:
64,192,71519,1,0,0:0:0:0:
320,192,71601,1,0,0:0:0:0:
448,192,71683,1,0,0:0:0:0:
320,192,71764,1,0,0:0:0:0:
64,192,71846,1,0,0:0:0:0:
320,192,71927,1,0,0:0:0:0:
64,192,72009,1,0,0:0:0:0:
448,192,72009,128,0,72661:0:0:0:0:
192,192,72172,1,0,0:0:0:0:
320,192,72172,1,0,0:0:0:0:
64,192,72335,1,0,0:0:0:0:
192,192,72498,1,0,0:0:0:0:
320,192,72498,1,0,0:0:0:0:
64,192,72661,128,0,73639:0:0:0:0:
192,192,72824,1,0,0:0:0:0:
320,192,72987,1,0,0:0:0:0:
448,192,72987,1,0,0:0:0:0:
192,192,73150,1,0,0:0:0:0:
320,192,73313,1,0,0:0:0:0:
448,192,73313,1,0,0:0:0:0:
192,192,73476,1,0,0:0:0:0:
192,192,73639,128,0,73965:0:0:0:0:
64,192,73802,1,0,0:0:0:0:
320,192,73802,1,0,0:0:0:0:
320,192,73965,128,0,74291:0:0:0:0:
192,192,74128,1,0,0:0:0:0:
448,192,74128,1,0,0:0:0:0:
192,192,74291,128,0,74617:0:0:0:0:
64,192,74454,1,0,0:0:0:0:
320,192,74454,1,0,0:0:0:0:
448,192,74617,128,0,75269:0:0:0:0:
64,192,74780,1,0,0:0:0:0:
320,192,74780,1,0,0:0:0:0:
192,192,74943,1,0,0:0:0:0:
320,192,75106,1,0,0:0:0:0:
64,192,75106,1,0,0:0:0:0:
64,192,75269,128,0,76248:0:0:0:0:
192,192,75433,1,0,0:0:0:0:
448,192,75433,1,0,0:0:0:0:
320,192,75596,1,0,0:0:0:0:
192,192,75759,1,0,0:0:0:0:
448,192,75759,1,0,0:0:0:0:
320,192,75922,1,0,0:0:0:0:
192,192,76085,1,0,0:0:0:0:
448,192,76085,1,0,0:0:0:0:
192,192,76248,128,0,76574:0:0:0:0:
320,192,76411,1,0,0:0:0:0:
448,192,76411,1,0,0:0:0:0:
320,192,76574,128,0,76900:0:0:0:0:
64,192,76737,1,0,0:0:0:0:
192,192,76737,1,0,0:0:0:0:
448,192,76900,128,0,77226:0:0:0:0:
192,192,77063,1,0,0:0:0:0:
320,192,77063,1,0,0:0:0:0:
64,192,77226,128,0,78204:0:0:0:0:
192,192,77389,1,0,0:0:0:0:
448,192,77389,1,0,0:0:0:0:
320,192,77552,1,0,0:0:0:0:
192,192,77715,1,0,0:0:0:0:
448,192,77715,1,0,0:0:0:0:
320,192,77878,1,0,0:0:0:0:
192,192,78041,1,0,0:0:0:0:
448,192,78041,1,0,0:0:0:0:
448,192,78204,128,0,78530:0:0:0:0:
192,192,78367,1,0,0:0:0:0:
320,192,78367,1,0,0:0:0:0:
320,192,78530,128,0,78856:0:0:0:0:
192,192,78693,1,0,0:0:0:0:
448,192,78693,1,0,0:0:0:0:
448,192,78856,128,0,79019:0:0:0:0:
192,192,79019,128,0,79346:0:0:0:0:
320,192,79183,1,0,0:0:0:0:
64,192,79346,128,0,79835:0:0:0:0:
320,192,79509,1,0,0:0:0:0:
192,192,79672,1,0,0:0:0:0:
448,192,79672,1,0,0:0:0:0:
320,192,79835,128,0,82443:0:0:0:0:
192,192,79998,1,0,0:0:0:0:
448,192,79998,1,0,0:0:0:0:
64,192,80161,1,0,0:0:0:0:
192,192,80324,1,0,0:0:0:0:
448,192,80324,1,0,0:0:0:0:
64,192,80487,1,0,0:0:0:0:
448,192,80650,1,0,0:0:0:0:
192,192,80650,1,0,0:0:0:0:
64,192,80813,1,0,0:0:0:0:
448,192,80976,1,0,0:0:0:0:
192,192,80976,1,0,0:0:0:0:
64,192,81139,1,0,0:0:0:0:
192,192,81302,1,0,0:0:0:0:
448,192,81384,1,0,0:0:0:0:
192,192,81465,1,0,0:0:0:0:
64,192,81547,1,0,0:0:0:0:
192,192,81628,1,0,0:0:0:0:
448,192,81710,1,0,0:0:0:0:
192,192,81791,1,0,0:0:0:0:
448,192,81873,1,0,0:0:0:0:
192,192,81954,1,0,0:0:0:0:
448,192,82036,1,0,0:0:0:0:
64,192,82117,1,0,0:0:0:0:
448,192,82199,1,0,0:0:0:0:
64,192,82280,1,0,0:0:0:0:
448,192,82362,1,0,0:0:0:0:
64,192,82443,1,0,0:0:0:0:
192,192,82443,1,0,0:0:0:0:
320,192,82606,1,0,0:0:0:0:
448,192,82688,1,0,0:0:0:0:
64,192,82769,1,0,0:0:0:0:
192,192,82769,1,0,0:0:0:0:
320,192,82933,1,0,0:0:0:0:
448,192,83014,1,0,0:0:0:0:
64,192,83096,1,0,0:0:0:0:
192,192,83096,1,0,0:0:0:0:
320,192,83259,1,0,0:0:0:0:
448,192,83340,1,0,0:0:0:0:
192,192,83422,1,0,0:0:0:0:
64,192,83503,1,0,0:0:0:0:
320,192,83585,1,0,0:0:0:0:
448,192,83585,1,0,0:0:0:0:
192,192,83748,1,0,0:0:0:0:
64,192,83829,1,0,0:0:0:0:
320,192,83911,1,0,0:0:0:0:
448,192,83911,1,0,0:0:0:0:
192,192,84074,1,0,0:0:0:0:
64,192,84155,1,0,0:0:0:0:
320,192,84237,1,0,0:0:0:0:
448,192,84237,1,0,0:0:0:0:
64,192,84400,1,0,0:0:0:0:
192,192,84481,1,0,0:0:0:0:
320,192,84563,1,0,0:0:0:0:
448,192,84563,1,0,0:0:0:0:
64,192,84726,1,0,0:0:0:0:
192,192,84808,1,0,0:0:0:0:
320,192,84889,1,0,0:0:0:0:
448,192,84971,1,0,0:0:0:0:
64,192,85052,1,0,0:0:0:0:
320,192,85052,1,0,0:0:0:0:
192,192,85215,1,0,0:0:0:0:
448,192,85297,1,0,0:0:0:0:
64,192,85378,1,0,0:0:0:0:
320,192,85378,1,0,0:0:0:0:
192,192,85541,1,0,0:0:0:0:
448,192,85623,1,0,0:0:0:0:
64,192,85704,1,0,0:0:0:0:
320,192,85704,1,0,0:0:0:0:
192,192,85867,1,0,0:0:0:0:
448,192,85949,1,0,0:0:0:0:
64,192,86030,1,0,0:0:0:0:
320,192,86112,1,0,0:0:0:0:
192,192,86193,1,0,0:0:0:0:
448,192,86193,1,0,0:0:0:0:
64,192,86356,1,0,0:0:0:0:
320,192,86438,1,0,0:0:0:0:
192,192,86519,1,0,0:0:0:0:
448,192,86519,1,0,0:0:0:0:
320,192,86683,1,0,0:0:0:0:
192,192,86764,1,0,0:0:0:0:
64,192,86846,1,0,0:0:0:0:
192,192,86927,1,0,0:0:0:0:
320,192,87009,1,0,0:0:0:0:
448,192,87090,1,0,0:0:0:0:
320,192,87172,1,0,0:0:0:0:
192,192,87172,1,0,0:0:0:0:
192,192,87498,1,0,0:0:0:0:
320,192,87498,1,0,0:0:0:0:
192,192,87661,1,0,0:0:0:0:
320,192,87661,1,0,0:0:0:0:
320,192,87824,1,0,0:0:0:0:
192,192,87905,1,0,0:0:0:0:
64,192,87987,1,0,0:0:0:0:
448,192,87987,1,0,0:0:0:0:
320,192,88150,1,0,0:0:0:0:
192,192,88231,1,0,0:0:0:0:
64,192,88313,1,0,0:0:0:0:
448,192,88313,1,0,0:0:0:0:
320,192,88476,1,0,0:0:0:0:
192,192,88558,1,0,0:0:0:0:
448,192,88639,1,0,0:0:0:0:
64,192,88721,1,0,0:0:0:0:
192,192,88802,1,0,0:0:0:0:
320,192,88802,1,0,0:0:0:0:
448,192,88965,1,0,0:0:0:0:
64,192,89047,1,0,0:0:0:0:
192,192,89128,1,0,0:0:0:0:
320,192,89128,1,0,0:0:0:0:
448,192,89291,1,0,0:0:0:0:
64,192,89373,1,0,0:0:0:0:
192,192,89454,1,0,0:0:0:0:
320,192,89454,1,0,0:0:0:0:
448,192,89617,1,0,0:0:0:0:
320,192,89699,1,0,0:0:0:0:
192,192,89780,1,0,0:0:0:0:
64,192,89780,1,0,0:0:0:0:
320,192,89943,1,0,0:0:0:0:
448,192,89943,1,0,0:0:0:0:
64,192,90106,1,0,0:0:0:0:
192,192,90188,1,0,0:0:0:0:
320,192,90269,1,0,0:0:0:0:
448,192,90351,1,0,0:0:0:0:
320,192,90433,1,0,0:0:0:0:
192,192,90514,1,0,0:0:0:0:
64,192,90596,1,0,0:0:0:0:
192,192,90677,1,0,0:0:0:0:
448,192,90759,1,0,0:0:0:0:
320,192,90840,1,0,0:0:0:0:
192,192,90922,1,0,0:0:0:0:
64,192,91003,1,0,0:0:0:0:
448,192,91085,1,0,0:0:0:0:
320,192,91166,1,0,0:0:0:0:
192,192,91248,1,0,0:0:0:0:
64,192,91329,1,0,0:0:0:0:
320,192,91411,1,0,0:0:0:0:
192,192,91492,1,0,0:0:0:0:
64,192,91574,1,0,0:0:0:0:
320,192,91655,1,0,0:0:0:0:
192,192,91737,1,0,0:0:0:0:
320,192,91818,1,0,0:0:0:0:
448,192,91900,1,0,0:0:0:0:
192,192,91981,1,0,0:0:0:0:
320,192,92063,1,0,0:0:0:0:
448,192,92144,1,0,0:0:0:0:
64,192,92226,1,0,0:0:0:0:
192,192,92308,1,0,0:0:0:0:
320,192,92389,1,0,0:0:0:0:
448,192,92471,1,0,0:0:0:0:
64,192,92552,1,0,0:0:0:0:
320,192,92634,1,0,0:0:0:0:
192,192,92715,1,0,0:0:0:0:
64,192,92797,1,0,0:0:0:0:
320,192,92878,1,0,0:0:0:0:
448,192,92878,128,0,93530:0:0:0:0:
64,192,93041,1,0,0:0:0:0:
192,192,93041,1,0,0:0:0:0:
320,192,93204,1,0,0:0:0:0:
64,192,93367,1,0,0:0:0:0:
192,192,93367,1,0,0:0:0:0:
64,192,93530,128,0,94509:0:0:0:0:
192,192,93693,1,0,0:0:0:0:
448,192,93693,1,0,0:0:0:0:
320,192,93856,1,0,0:0:0:0:
192,192,94019,1,0,0:0:0:0:
448,192,94019,1,0,0:0:0:0:
320,192,94183,1,0,0:0:0:0:
192,192,94346,1,0,0:0:0:0:
448,192,94346,1,0,0:0:0:0:
192,192,94509,128,0,94835:0:0:0:0:
320,192,94672,1,0,0:0:0:0:
448,192,94672,1,0,0:0:0:0:
320,192,94835,128,0,95161:0:0:0:0:
64,192,94998,1,0,0:0:0:0:
192,192,94998,1,0,0:0:0:0:
192,192,95161,128,0,95487:0:0:0:0:
320,192,95324,1,0,0:0:0:0:
448,192,95324,1,0,0:0:0:0:
448,192,95487,128,0,96139:0:0:0:0:
64,192,95650,1,0,0:0:0:0:
320,192,95650,1,0,0:0:0:0:
64,192,95813,1,0,0:0:0:0:
192,192,95894,1,0,0:0:0:0:
320,192,95976,1,0,0:0:0:0:
192,192,96058,1,0,0:0:0:0:
64,192,96139,128,0,97117:0:0:0:0:
192,192,96302,1,0,0:0:0:0:
320,192,96302,1,0,0:0:0:0:
448,192,96465,1,0,0:0:0:0:
192,192,96628,1,0,0:0:0:0:
320,192,96628,1,0,0:0:0:0:
448,192,96791,1,0,0:0:0:0:
192,192,96954,1,0,0:0:0:0:
320,192,96954,1,0,0:0:0:0:
192,192,97117,128,0,97443:0:0:0:0:
64,192,97280,1,0,0:0:0:0:
320,192,97280,1,0,0:0:0:0:
320,192,97443,128,0,97769:0:0:0:0:
192,192,97606,1,0,0:0:0:0:
448,192,97606,1,0,0:0:0:0:
448,192,97769,128,0,98096:0:0:0:0:
64,192,97933,1,0,0:0:0:0:
320,192,97933,1,0,0:0:0:0:
320,192,98096,128,0,99074:0:0:0:0:
64,192,98259,1,0,0:0:0:0:
192,192,98259,1,0,0:0:0:0:
448,192,98422,1,0,0:0:0:0:
64,192,98585,1,0,0:0:0:0:
192,192,98585,1,0,0:0:0:0:
448,192,98748,1,0,0:0:0:0:
64,192,98911,1,0,0:0:0:0:
192,192,98911,1,0,0:0:0:0:
192,192,99074,128,0,99400:0:0:0:0:
320,192,99237,1,0,0:0:0:0:
448,192,99237,1,0,0:0:0:0:
64,192,99400,128,0,99726:0:0:0:0:
192,192,99563,1,0,0:0:0:0:
320,192,99563,1,0,0:0:0:0:
448,192,99726,128,0,100052:0:0:0:0:
64,192,99889,1,0,0:0:0:0:
192,192,99889,1,0,0:0:0:0:
320,192,100052,128,0,100378:0:0:0:0:
192,192,100215,1,0,0:0:0:0:
448,192,100215,1,0,0:0:0:0:
192,192,100378,128,0,100704:0:0:0:0:
64,192,100541,1,0,0:0:0:0:
320,192,100541,1,0,0:0:0:0:
64,192,100704,128,0,102009:0:0:0:0:
448,192,100867,1,0,0:0:0:0:
320,192,100949,1,0,0:0:0:0:
192,192,101030,1,0,0:0:0:0:
320,192,101112,1,0,0:0:0:0:
448,192,101193,1,0,0:0:0:0:
192,192,101193,1,0,0:0:0:0:
320,192,101356,1,0,0:0:0:0:
320,192,101519,1,0,0:0:0:0:
192,192,101683,1,0,0:0:0:0:
448,192,101683,1,0,0:0:0:0:
320,192,101846,1,0,0:0:0:0:
320,192,102009,128,0,103313:0:0:0:0:
64,192,102172,1,0,0:0:0:0:
192,192,102253,1,0,0:0:0:0:
448,192,102335,1,0,0:0:0:0:
64,192,102416,1,0,0:0:0:0:
192,192,102498,1,0,0:0:0:0:
448,192,102579,1,0,0:0:0:0:
192,192,102661,1,0,0:0:0:0:
64,192,102742,1,0,0:0:0:0:
192,192,102824,1,0,0:0:0:0:
448,192,102905,1,0,0:0:0:0:
192,192,102987,1,0,0:0:0:0:
64,192,103068,1,0,0:0:0:0:
192,192,103150,1,0,0:0:0:0:
448,192,103231,1,0,0:0:0:0:
64,192,103313,1,0,0:0:0:0:
192,192,103313,128,0,103965:0:0:0:0:
448,192,103476,1,0,0:0:0:0:
320,192,103476,1,0,0:0:0:0:
64,192,103639,1,0,0:0:0:0:
320,192,103802,1,0,0:0:0:0:
448,192,103802,1,0,0:0:0:0:
64,192,103965,128,0,104943:0:0:0:0:
192,192,104128,1,0,0:0:0:0:
448,192,104128,1,0,0:0:0:0:
320,192,104291,1,0,0:0:0:0:
448,192,104454,1,0,0:0:0:0:
192,192,104454,1,0,0:0:0:0:
320,192,104617,1,0,0:0:0:0:
448,192,104780,1,0,0:0:0:0:
192,192,104780,1,0,0:0:0:0:
192,192,104943,128,0,105269:0:0:0:0:
320,192,105106,1,0,0:0:0:0:
64,192,105106,1,0,0:0:0:0:
320,192,105269,128,0,105596:0:0:0:0:
448,192,105433,1,0,0:0:0:0:
192,192,105433,1,0,0:0:0:0:
192,192,105596,128,0,105922:0:0:0:0:
320,192,105759,1,0,0:0:0:0:
64,192,105759,1,0,0:0:0:0:
448,192,105922,128,0,106574:0:0:0:0:
64,192,106085,1,0,0:0:0:0:
192,192,106085,1,0,0:0:0:0:
320,192,106248,1,0,0:0:0:0:
64,192,106411,1,0,0:0:0:0:
192,192,106411,1,0,0:0:0:0:
64,192,106574,128,0,107552:0:0:0:0:
320,192,106737,1,0,0:0:0:0:
448,192,106737,1,0,0:0:0:0:
192,192,106900,1,0,0:0:0:0:
320,192,107063,1,0,0:0:0:0:
448,192,107063,1,0,0:0:0:0:
192,192,107226,1,0,0:0:0:0:
320,192,107389,1,0,0:0:0:0:
448,192,107389,1,0,0:0:0:0:
192,192,107552,128,0,107878:0:0:0:0:
320,192,107715,1,0,0:0:0:0:
448,192,107715,1,0,0:0:0:0:
320,192,107878,128,0,108204:0:0:0:0:
64,192,108041,1,0,0:0:0:0:
192,192,108041,1,0,0:0:0:0:
448,192,108204,128,0,108530:0:0:0:0:
192,192,108367,1,0,0:0:0:0:
320,192,108367,1,0,0:0:0:0:
192,192,108530,128,0,109509:0:0:0:0:
320,192,108693,1,0,0:0:0:0:
448,192,108693,1,0,0:0:0:0:
64,192,108856,1,0,0:0:0:0:
320,192,109019,1,0,0:0:0:0:
448,192,109019,1,0,0:0:0:0:
64,192,109183,1,0,0:0:0:0:
320,192,109346,1,0,0:0:0:0:
448,192,109346,1,0,0:0:0:0:
448,192,109509,128,0,109835:0:0:0:0:
320,192,109672,1,0,0:0:0:0:
64,192,109672,1,0,0:0:0:0:
192,192,109835,128,0,110161:0:0:0:0:
320,192,109998,1,0,0:0:0:0:
64,192,109998,1,0,0:0:0:0:
448,192,110161,128,0,110324:0:0:0:0:
320,192,110324,128,0,110650:0:0:0:0:
192,192,110487,1,0,0:0:0:0:
64,192,110650,128,0,110976:0:0:0:0:
448,192,110813,1,0,0:0:0:0:
320,192,110976,128,0,113748:0:0:0:0:
64,192,111139,1,0,0:0:0:0:
192,192,111139,1,0,0:0:0:0:
448,192,111302,1,0,0:0:0:0:
64,192,111547,1,0,0:0:0:0:
448,192,111628,1,0,0:0:0:0:
64,192,111791,1,0,0:0:0:0:
192,192,111791,1,0,0:0:0:0:
448,192,111954,1,0,0:0:0:0:
64,192,112199,1,0,0:0:0:0:
448,192,112280,1,0,0:0:0:0:
192,192,112443,1,0,0:0:0:0:
64,192,112525,1,0,0:0:0:0:
192,192,112606,1,0,0:0:0:0:
448,192,112688,1,0,0:0:0:0:
192,192,112769,1,0,0:0:0:0:
64,192,112851,1,0,0:0:0:0:
192,192,112933,1,0,0:0:0:0:
448,192,113014,1,0,0:0:0:0:
192,192,113096,1,0,0:0:0:0:
64,192,113177,1,0,0:0:0:0:
448,192,113259,1,0,0:0:0:0:
192,192,113340,1,0,0:0:0:0:
64,192,113422,1,0,0:0:0:0:
192,192,113503,1,0,0:0:0:0:
448,192,113585,1,0,0:0:0:0:
192,192,113666,1,0,0:0:0:0:
448,192,113748,1,0,0:0:0:0:
320,192,113829,1,0,0:0:0:0:
192,192,113911,1,0,0:0:0:0:
64,192,113992,1,0,0:0:0:0:
192,192,114074,1,0,0:0:0:0:
320,192,114155,1,0,0:0:0:0:
192,192,114237,1,0,0:0:0:0:
64,192,114318,1,0,0:0:0:0:
192,192,114400,1,0,0:0:0:0:
320,192,114481,1,0,0:0:0:0:
448,192,114563,1,0,0:0:0:0:
320,192,114644,1,0,0:0:0:0:
192,192,114726,1,0,0:0:0:0:
64,192,114808,1,0,0:0:0:0:
192,192,114889,1,0,0:0:0:0:
320,192,114971,1,0,0:0:0:0:
192,192,115052,1,0,0:0:0:0:
448,192,115052,1,0,0:0:0:0:
320,192,115134,1,0,0:0:0:0:
192,192,115215,1,0,0:0:0:0:
64,192,115297,1,0,0:0:0:0:
192,192,115378,1,0,0:0:0:0:
320,192,115460,1,0,0:0:0:0:
64,192,115541,1,0,0:0:0:0:
192,192,115623,1,0,0:0:0:0:
320,192,115704,1,0,0:0:0:0:
448,192,115704,1,0,0:0:0:0:
192,192,115786,1,0,0:0:0:0:
64,192,115867,1,0,0:0:0:0:
192,192,115949,1,0,0:0:0:0:
320,192,116030,1,0,0:0:0:0:
448,192,116030,1,0,0:0:0:0:
64,192,116112,1,0,0:0:0:0:
192,192,116193,1,0,0:0:0:0:
320,192,116275,1,0,0:0:0:0:
192,192,116356,1,0,0:0:0:0:
448,192,116356,1,0,0:0:0:0:
320,192,116438,1,0,0:0:0:0:
192,192,116519,1,0,0:0:0:0:
64,192,116601,1,0,0:0:0:0:
192,192,116683,1,0,0:0:0:0:
320,192,116764,1,0,0:0:0:0:
448,192,116846,1,0,0:0:0:0:
192,192,116927,1,0,0:0:0:0:
64,192,117009,1,0,0:0:0:0:
192,192,117090,1,0,0:0:0:0:
320,192,117172,1,0,0:0:0:0:
448,192,117253,1,0,0:0:0:0:
320,192,117335,1,0,0:0:0:0:
192,192,117416,1,0,0:0:0:0:
64,192,117498,1,0,0:0:0:0:
192,192,117579,1,0,0:0:0:0:
448,192,117661,1,0,0:0:0:0:
320,192,117661,1,0,0:0:0:0:
192,192,117742,1,0,0:0:0:0:
64,192,117824,1,0,0:0:0:0:
192,192,117905,1,0,0:0:0:0:
448,192,117987,1,0,0:0:0:0:
320,192,118068,1,0,0:0:0:0:
192,192,118150,1,0,0:0:0:0:
64,192,118150,1,0,0:0:0:0:
448,192,118231,1,0,0:0:0:0:
320,192,118313,1,0,0:0:0:0:
192,192,118394,1,0,0:0:0:0:
64,192,118476,1,0,0:0:0:0:
320,192,118476,1,0,0:0:0:0:
192,192,118558,1,0,0:0:0:0:
64,192,118639,1,0,0:0:0:0:
320,192,118639,1,0,0:0:0:0:
192,192,118721,1,0,0:0:0:0:
320,192,118802,1,0,0:0:0:0:
448,192,118884,1,0,0:0:0:0:
320,192,118965,1,0,0:0:0:0:
192,192,119047,1,0,0:0:0:0:
64,192,119128,1,0,0:0:0:0:
192,192,119210,1,0,0:0:0:0:
448,192,119291,1,0,0:0:0:0:
320,192,119373,1,0,0:0:0:0:
192,192,119454,1,0,0:0:0:0:
64,192,119536,1,0,0:0:0:0:
320,192,119617,1,0,0:0:0:0:
192,192,119699,1,0,0:0:0:0:
64,192,119780,1,0,0:0:0:0:
192,192,119862,1,0,0:0:0:0:
320,192,119943,1,0,0:0:0:0:
448,192,119943,1,0,0:0:0:0:
192,192,120025,1,0,0:0:0:0:
320,192,120106,1,0,0:0:0:0:
448,192,120188,1,0,0:0:0:0:
320,192,120269,1,0,0:0:0:0:
64,192,120269,1,0,0:0:0:0:
192,192,120351,1,0,0:0:0:0:
320,192,120433,1,0,0:0:0:0:
448,192,120514,1,0,0:0:0:0:
320,192,120596,1,0,0:0:0:0:
192,192,120677,1,0,0:0:0:0:
64,192,120759,1,0,0:0:0:0:
192,192,120840,1,0,0:0:0:0:
320,192,120922,1,0,0:0:0:0:
192,192,121003,1,0,0:0:0:0:
64,192,121085,1,0,0:0:0:0:
192,192,121166,1,0,0:0:0:0:
320,192,121248,1,0,0:0:0:0:
448,192,121329,1,0,0:0:0:0:
320,192,121411,1,0,0:0:0:0:
192,192,121492,1,0,0:0:0:0:
448,192,121574,1,0,0:0:0:0:
320,192,121574,1,0,0:0:0:0:
192,192,121655,1,0,0:0:0:0:
64,192,121737,1,0,0:0:0:0:
192,192,121818,1,0,0:0:0:0:
320,192,121900,1,0,0:0:0:0:
64,192,121981,1,0,0:0:0:0:
192,192,122063,1,0,0:0:0:0:
320,192,122144,1,0,0:0:0:0:
448,192,122226,1,0,0:0:0:0:
64,192,122308,1,0,0:0:0:0:
192,192,122389,1,0,0:0:0:0:
320,192,122471,1,0,0:0:0:0:
448,192,122552,1,0,0:0:0:0:
192,192,122552,1,0,0:0:0:0:
320,192,122634,1,0,0:0:0:0:
192,192,122715,1,0,0:0:0:0:
64,192,122797,1,0,0:0:0:0:
448,192,122878,1,0,0:0:0:0:
320,192,122960,1,0,0:0:0:0:
64,192,123041,1,0,0:0:0:0:
192,192,123123,1,0,0:0:0:0:
448,192,123204,1,0,0:0:0:0:
320,192,123286,1,0,0:0:0:0:
64,192,123367,1,0,0:0:0:0:
192,192,123449,1,0,0:0:0:0:
320,192,123530,1,0,0:0:0:0:
448,192,123612,1,0,0:0:0:0:
192,192,123693,1,0,0:0:0:0:
64,192,123775,1,0,0:0:0:0:
320,192,123856,1,0,0:0:0:0:
448,192,123938,1,0,0:0:0:0:
192,192,124019,1,0,0:0:0:0:
64,192,124101,1,0,0:0:0:0:
320,192,124183,1,0,0:0:0:0:
448,192,124183,128,0,125487:0:0:0:0:
64,192,124346,1,0,0:0:0:0:
192,192,124346,1,0,0:0:0:0:
320,192,124509,1,0,0:0:0:0:
64,192,124672,1,0,0:0:0:0:
192,192,124672,1,0,0:0:0:0:
320,192,124835,1,0,0:0:0:0:
64,192,124998,1,0,0:0:0:0:
192,192,124998,1,0,0:0:0:0:
320,192,125161,1,0,0:0:0:0:
64,192,125324,1,0,0:0:0:0:
192,192,125324,1,0,0:0:0:0:
64,192,125487,128,0,126139:0:0:0:0:
192,192,125650,1,0,0:0:0:0:
320,192,125650,1,0,0:0:0:0:
448,192,125813,1,0,0:0:0:0:
192,192,125976,1,0,0:0:0:0:
320,192,125976,1,0,0:0:0:0:
192,192,126139,128,0,126465:0:0:0:0:
320,192,126302,1,0,0:0:0:0:
448,192,126302,1,0,0:0:0:0:
320,192,126465,128,0,126791:0:0:0:0:
64,192,126628,1,0,0:0:0:0:
192,192,126628,1,0,0:0:0:0:
448,192,126791,128,0,128911:0:0:0:0:
64,192,126954,1,0,0:0:0:0:
320,192,126954,1,0,0:0:0:0:
192,192,127117,1,0,0:0:0:0:
320,192,127280,1,0,0:0:0:0:
64,192,127280,1,0,0:0:0:0:
192,192,127443,1,0,0:0:0:0:
64,192,127606,1,0,0:0:0:0:
320,192,127606,1,0,0:0:0:0:
192,192,127769,1,0,0:0:0:0:
64,192,127933,1,0,0:0:0:0:
320,192,127933,1,0,0:0:0:0:
192,192,128096,1,0,0:0:0:0:
320,192,128259,1,0,0:0:0:0:
64,192,128259,1,0,0:0:0:0:
192,192,128422,1,0,0:0:0:0:
320,192,128585,1,0,0:0:0:0:
64,192,128585,1,0,0:0:0:0:
192,192,128748,1,0,0:0:0:0:
64,192,128911,128,0,129074:0:0:0:0:
192,192,128911,1,0,0:0:0:0:
192,192,129074,128,0,129237:0:0:0:0:
320,192,129074,1,0,0:0:0:0:
320,192,129237,128,0,129400:0:0:0:0:
448,192,129237,1,0,0:0:0:0:
448,192,129400,128,0,130052:0:0:0:0:
64,192,129400,1,0,0:0:0:0:
192,192,129563,1,0,0:0:0:0:
64,192,129563,1,0,0:0:0:0:
320,192,129726,1,0,0:0:0:0:
64,192,129889,1,0,0:0:0:0:
192,192,129889,1,0,0:0:0:0:
64,192,130052,128,0,130215:0:0:0:0:
448,192,130215,128,0,130541:0:0:0:0:
192,192,130215,1,0,0:0:0:0:
320,192,130378,1,0,0:0:0:0:
320,192,130541,128,0,131030:0:0:0:0:
64,192,130541,1,0,0:0:0:0:
192,192,130541,1,0,0:0:0:0:
448,192,130704,1,0,0:0:0:0:
64,192,130867,1,0,0:0:0:0:
192,192,130867,1,0,0:0:0:0:
448,192,131030,128,0,131193:0:0:0:0:
64,192,131030,1,0,0:0:0:0:
320,192,131193,128,0,131356:0:0:0:0:
192,192,131193,1,0,0:0:0:0:
192,192,131356,128,0,131519:0:0:0:0:
64,192,131356,1,0,0:0:0:0:
320,192,131519,128,0,131683:0:0:0:0:
448,192,131519,1,0,0:0:0:0:
192,192,131683,128,0,132009:0:0:0:0:
64,192,131683,1,0,0:0:0:0:
320,192,131846,1,0,0:0:0:0:
448,192,131846,1,0,0:0:0:0:
64,192,132009,128,0,133313:0:0:0:0:
320,192,132009,1,0,0:0:0:0:
448,192,132172,1,0,0:0:0:0:
192,192,132416,1,0,0:0:0:0:
448,192,132498,1,0,0:0:0:0:
320,192,132661,1,0,0:0:0:0:
192,192,132824,1,0,0:0:0:0:
448,192,133068,1,0,0:0:0:0:
192,192,133150,1,0,0:0:0:0:
448,192,133313,1,0,0:0:0:0:
320,192,133394,1,0,0:0:0:0:
192,192,133476,1,0,0:0:0:0:
64,192,133558,1,0,0:0:0:0:
448,192,133639,1,0,0:0:0:0:
320,192,133721,1,0,0:0:0:0:
192,192,133802,1,0,0:0:0:0:
64,192,133884,1,0,0:0:0:0:
192,192,133965,1,0,0:0:0:0:
320,192,134047,1,0,0:0:0:0:
448,192,134128,1,0,0:0:0:0:
320,192,134210,1,0,0:0:0:0:
192,192,134291,1,0,0:0:0:0:
64,192,134373,1,0,0:0:0:0:
192,192,134454,1,0,0:0:0:0:
320,192,134536,1,0,0:0:0:0:
192,192,134617,1,0,0:0:0:0:
448,192,134617,1,0,0:0:0:0:
320,192,134699,1,0,0:0:0:0:
192,192,134780,1,0,0:0:0:0:
64,192,134862,1,0,0:0:0:0:
192,192,134943,1,0,0:0:0:0:
320,192,135025,1,0,0:0:0:0:
448,192,135106,1,0,0:0:0:0:
320,192,135188,1,0,0:0:0:0:
64,192,135269,1,0,0:0:0:0:
448,192,135269,1,0,0:0:0:0:
192,192,135351,1,0,0:0:0:0:
64,192,135433,1,0,0:0:0:0:
320,192,135433,1,0,0:0:0:0:
192,192,135514,1,0,0:0:0:0:
320,192,135596,1,0,0:0:0:0:
448,192,135677,1,0,0:0:0:0:
320,192,135759,1,0,0:0:0:0:
192,192,135840,1,0,0:0:0:0:
320,192,135922,1,0,0:0:0:0:
448,192,135922,1,0,0:0:0:0:
192,192,136003,1,0,0:0:0:0:
64,192,136085,1,0,0:0:0:0:
192,192,136166,1,0,0:0:0:0:
320,192,136248,1,0,0:0:0:0:
448,192,136248,1,0,0:0:0:0:
192,192,136329,1,0,0:0:0:0:
320,192,136411,1,0,0:0:0:0:
448,192,136492,1,0,0:0:0:0:
192,192,136574,1,0,0:0:0:0:
320,192,136574,1,0,0:0:0:0:
64,192,136655,1,0,0:0:0:0:
192,192,136737,1,0,0:0:0:0:
320,192,136737,1,0,0:0:0:0:
448,192,136818,1,0,0:0:0:0:
320,192,136900,1,0,0:0:0:0:
192,192,136981,1,0,0:0:0:0:
64,192,137063,1,0,0:0:0:0:
192,192,137144,1,0,0:0:0:0:
320,192,137226,1,0,0:0:0:0:
448,192,137226,1,0,0:0:0:0:
192,192,137308,1,0,0:0:0:0:
64,192,137389,1,0,0:0:0:0:
192,192,137471,1,0,0:0:0:0:
320,192,137552,1,0,0:0:0:0:
192,192,137634,1,0,0:0:0:0:
64,192,137715,1,0,0:0:0:0:
192,192,137797,1,0,0:0:0:0:
320,192,137878,1,0,0:0:0:0:
448,192,137878,1,0,0:0:0:0:
192,192,137960,1,0,0:0:0:0:
320,192,138041,1,0,0:0:0:0:
448,192,138041,1,0,0:0:0:0:
192,192,138123,1,0,0:0:0:0:
320,192,138204,1,0,0:0:0:0:
448,192,138286,1,0,0:0:0:0:
320,192,138367,1,0,0:0:0:0:
192,192,138449,1,0,0:0:0:0:
64,192,138530,1,0,0:0:0:0:
320,192,138530,1,0,0:0:0:0:
192,192,138612,1,0,0:0:0:0:
320,192,138693,1,0,0:0:0:0:
448,192,138775,1,0,0:0:0:0:
320,192,138856,1,0,0:0:0:0:
64,192,138856,1,0,0:0:0:0:
192,192,138938,1,0,0:0:0:0:
64,192,139019,1,0,0:0:0:0:
192,192,139101,1,0,0:0:0:0:
320,192,139183,1,0,0:0:0:0:
448,192,139183,1,0,0:0:0:0:
192,192,139264,1,0,0:0:0:0:
320,192,139346,1,0,0:0:0:0:
448,192,139346,1,0,0:0:0:0:
192,192,139427,1,0,0:0:0:0:
320,192,139509,1,0,0:0:0:0:
448,192,139509,1,0,0:0:0:0:
192,192,139590,1,0,0:0:0:0:
64,192,139672,1,0,0:0:0:0:
192,192,139753,1,0,0:0:0:0:
64,192,139835,1,0,0:0:0:0:
320,192,139835,1,0,0:0:0:0:
192,192,139916,1,0,0:0:0:0:
320,192,139998,1,0,0:0:0:0:
448,192,140079,1,0,0:0:0:0:
320,192,140161,1,0,0:0:0:0:
192,192,140242,1,0,0:0:0:0:
64,192,140324,1,0,0:0:0:0:
192,192,140405,1,0,0:0:0:0:
320,192,140487,1,0,0:0:0:0:
448,192,140487,1,0,0:0:0:0:
192,192,140568,1,0,0:0:0:0:
448,192,140650,1,0,0:0:0:0:
320,192,140650,1,0,0:0:0:0:
192,192,140731,1,0,0:0:0:0:
64,192,140813,1,0,0:0:0:0:
192,192,140894,1,0,0:0:0:0:
320,192,140976,1,0,0:0:0:0:
192,192,141058,1,0,0:0:0:0:
64,192,141139,1,0,0:0:0:0:
320,192,141139,1,0,0:0:0:0:
192,192,141221,1,0,0:0:0:0:
320,192,141302,1,0,0:0:0:0:
448,192,141384,1,0,0:0:0:0:
192,192,141465,1,0,0:0:0:0:
320,192,141465,1,0,0:0:0:0:
64,192,141547,1,0,0:0:0:0:
192,192,141628,1,0,0:0:0:0:
320,192,141710,1,0,0:0:0:0:
192,192,141791,1,0,0:0:0:0:
448,192,141791,1,0,0:0:0:0:
320,192,141873,1,0,0:0:0:0:
192,192,141954,1,0,0:0:0:0:
448,192,141954,1,0,0:0:0:0:
320,192,142036,1,0,0:0:0:0:
64,192,142117,1,0,0:0:0:0:
192,192,142117,1,0,0:0:0:0:
320,192,142199,1,0,0:0:0:0:
448,192,142280,1,0,0:0:0:0:
320,192,142362,1,0,0:0:0:0:
64,192,142443,1,0,0:0:0:0:
192,192,142443,1,0,0:0:0:0:
448,192,142443,1,0,0:0:0:0:
320,192,142525,1,0,0:0:0:0:
192,192,142606,1,0,0:0:0:0:
64,192,142688,1,0,0:0:0:0:
448,192,142769,1,0,0:0:0:0:
320,192,142851,1,0,0:0:0:0:
192,192,142933,1,0,0:0:0:0:
64,192,142933,1,0,0:0:0:0:
448,192,142933,1,0,0:0:0:0:
320,192,143096,1,0,0:0:0:0:
192,192,143177,1,0,0:0:0:0:
64,192,143259,1,0,0:0:0:0:
192,192,143340,1,0,0:0:0:0:
320,192,143422,1,0,0:0:0:0:
448,192,143422,1,0,0:0:0:0:
64,192,143422,1,0,0:0:0:0:
192,192,143503,1,0,0:0:0:0:
64,192,143585,1,0,0:0:0:0:
192,192,143748,1,0,0:0:0:0:
320,192,143748,1,0,0:0:0:0:
448,192,143748,1,0,0:0:0:0:
64,192,143911,1,0,0:0:0:0:
192,192,143911,1,0,0:0:0:0:
320,192,143911,1,0,0:0:0:0:
192,192,144074,1,0,0:0:0:0:
320,192,144074,1,0,0:0:0:0:
64,192,144074,128,0,144400:0:0:0:0:
192,192,144400,128,0,144726:0:0:0:0:
320,192,144726,128,0,145052:0:0:0:0:
64,192,145052,1,0,0:0:0:0:
192,192,145134,1,0,0:0:0:0:
320,192,145215,1,0,0:0:0:0:
448,192,145297,1,0,0:0:0:0:
320,192,145378,1,0,0:0:0:0:
192,192,145460,1,0,0:0:0:0:
64,192,145541,1,0,0:0:0:0:
192,192,145623,1,0,0:0:0:0:
320,192,145704,1,0,0:0:0:0:
448,192,145786,1,0,0:0:0:0:
64,192,145867,1,0,0:0:0:0:
192,192,145949,1,0,0:0:0:0:
320,192,146030,1,0,0:0:0:0:
448,192,146112,1,0,0:0:0:0:
320,192,146193,1,0,0:0:0:0:
192,192,146275,1,0,0:0:0:0:
64,192,146356,1,0,0:0:0:0:
320,192,146438,1,0,0:0:0:0:
192,192,146519,1,0,0:0:0:0:
64,192,146601,1,0,0:0:0:0:
192,192,146683,1,0,0:0:0:0:
320,192,146764,1,0,0:0:0:0:
64,192,146846,1,0,0:0:0:0:
192,192,146927,1,0,0:0:0:0:
320,192,147009,1,0,0:0:0:0:
64,192,147090,1,0,0:0:0:0:
192,192,147172,1,0,0:0:0:0:
320,192,147253,1,0,0:0:0:0:
448,192,147335,1,0,0:0:0:0:
64,192,147335,1,0,0:0:0:0:
192,192,147416,1,0,0:0:0:0:
320,192,147498,1,0,0:0:0:0:
448,192,147579,1,0,0:0:0:0:
320,192,147661,1,0,0:0:0:0:
192,192,147742,1,0,0:0:0:0:
320,192,147824,1,0,0:0:0:0:
448,192,147905,1,0,0:0:0:0:
320,192,147987,1,0,0:0:0:0:
192,192,148068,1,0,0:0:0:0:
64,192,148150,1,0,0:0:0:0:
192,192,148231,1,0,0:0:0:0:
320,192,148313,1,0,0:0:0:0:
448,192,148394,1,0,0:0:0:0:
64,192,148476,1,0,0:0:0:0:
192,192,148558,1,0,0:0:0:0:
320,192,148639,1,0,0:0:0:0:
448,192,148721,1,0,0:0:0:0:
320,192,148802,1,0,0:0:0:0:
192,192,148884,1,0,0:0:0:0:
448,192,148965,1,0,0:0:0:0:
320,192,149047,1,0,0:0:0:0:
192,192,149128,1,0,0:0:0:0:
64,192,149210,1,0,0:0:0:0:
192,192,149291,1,0,0:0:0:0:
320,192,149373,1,0,0:0:0:0:
448,192,149454,1,0,0:0:0:0:
320,192,149536,1,0,0:0:0:0:
192,192,149617,1,0,0:0:0:0:
64,192,149699,1,0,0:0:0:0:
448,192,149699,1,0,0:0:0:0:
320,192,149780,1,0,0:0:0:0:
192,192,149862,1,0,0:0:0:0:
64,192,149943,1,0,0:0:0:0:
320,192,150025,1,0,0:0:0:0:
192,192,150106,1,0,0:0:0:0:
64,192,150188,1,0,0:0:0:0:
320,192,150269,1,0,0:0:0:0:
192,192,150351,1,0,0:0:0:0:
64,192,150433,1,0,0:0:0:0:
192,192,150514,1,0,0:0:0:0:
320,192,150596,1,0,0:0:0:0:
448,192,150677,1,0,0:0:0:0:
320,192,150759,1,0,0:0:0:0:
192,192,150840,1,0,0:0:0:0:
64,192,150922,1,0,0:0:0:0:
192,192,151003,1,0,0:0:0:0:
320,192,151085,1,0,0:0:0:0:
448,192,151166,1,0,0:0:0:0:
320,192,151248,1,0,0:0:0:0:
192,192,151329,1,0,0:0:0:0:
64,192,151411,1,0,0:0:0:0:
192,192,151492,1,0,0:0:0:0:
448,192,151574,1,0,0:0:0:0:
320,192,151655,1,0,0:0:0:0:
192,192,151737,1,0,0:0:0:0:
64,192,151818,1,0,0:0:0:0:
448,192,151900,1,0,0:0:0:0:
320,192,151981,1,0,0:0:0:0:
192,192,152063,1,0,0:0:0:0:
64,192,152144,1,0,0:0:0:0:
192,192,152226,1,0,0:0:0:0:
320,192,152308,1,0,0:0:0:0:
448,192,152389,1,0,0:0:0:0:
320,192,152471,1,0,0:0:0:0:
192,192,152552,1,0,0:0:0:0:
64,192,152634,1,0,0:0:0:0:
192,192,152715,1,0,0:0:0:0:
448,192,152797,1,0,0:0:0:0:
320,192,152878,1,0,0:0:0:0:
64,192,152960,1,0,0:0:0:0:
192,192,153041,1,0,0:0:0:0:
448,192,153123,1,0,0:0:0:0:
320,192,153204,1,0,0:0:0:0:
64,192,153286,1,0,0:0:0:0:
192,192,153367,1,0,0:0:0:0:
448,192,153449,1,0,0:0:0:0:
320,192,153530,1,0,0:0:0:0:
64,192,153612,1,0,0:0:0:0:
192,192,153693,1,0,0:0:0:0:
448,192,153775,1,0,0:0:0:0:
320,192,153856,1,0,0:0:0:0:
64,192,153938,1,0,0:0:0:0:
192,192,154019,1,0,0:0:0:0:
448,192,154101,1,0,0:0:0:0:
320,192,154183,1,0,0:0:0:0:
192,192,154264,1,0,0:0:0:0:
320,192,154346,1,0,0:0:0:0:
64,192,154427,1,0,0:0:0:0:
448,192,154509,1,0,0:0:0:0:
192,192,154590,1,0,0:0:0:0:
320,192,154672,1,0,0:0:0:0:
64,192,154753,1,0,0:0:0:0:
448,192,154835,1,0,0:0:0:0:
192,192,154916,1,0,0:0:0:0:
320,192,154998,1,0,0:0:0:0:
320,192,155079,1,0,0:0:0:0:
64,192,155161,1,0,0:0:0:0:
64,192,155242,1,0,0:0:0:0:
448,192,155324,1,0,0:0:0:0:
448,192,155405,1,0,0:0:0:0:
192,192,155487,1,0,0:0:0:0:
64,192,155487,1,0,0:0:0:0:
320,192,155568,1,0,0:0:0:0:
448,192,155650,1,0,0:0:0:0:
320,192,155731,1,0,0:0:0:0:
192,192,155813,1,0,0:0:0:0:
64,192,155894,1,0,0:0:0:0:
192,192,155976,1,0,0:0:0:0:
320,192,156058,1,0,0:0:0:0:
64,192,156139,1,0,0:0:0:0:
192,192,156221,1,0,0:0:0:0:
320,192,156302,1,0,0:0:0:0:
448,192,156384,1,0,0:0:0:0:
320,192,156465,1,0,0:0:0:0:
192,192,156547,1,0,0:0:0:0:
64,192,156628,1,0,0:0:0:0:
192,192,156710,1,0,0:0:0:0:
320,192,156791,1,0,0:0:0:0:
448,192,156873,1,0,0:0:0:0:
320,192,156954,1,0,0:0:0:0:
192,192,157036,1,0,0:0:0:0:
320,192,157117,1,0,0:0:0:0:
448,192,157199,1,0,0:0:0:0:
320,192,157280,1,0,0:0:0:0:
192,192,157362,1,0,0:0:0:0:
64,192,157443,1,0,0:0:0:0:
192,192,157525,1,0,0:0:0:0:
320,192,157606,1,0,0:0:0:0:
192,192,157688,1,0,0:0:0:0:
64,192,157769,1,0,0:0:0:0:
448,192,157851,1,0,0:0:0:0:
320,192,157933,1,0,0:0:0:0:
192,192,158014,1,0,0:0:0:0:
64,192,158096,1,0,0:0:0:0:
448,192,158177,1,0,0:0:0:0:
320,192,158259,1,0,0:0:0:0:
192,192,158340,1,0,0:0:0:0:
64,192,158422,1,0,0:0:0:0:
192,192,158503,1,0,0:0:0:0:
320,192,158585,1,0,0:0:0:0:
64,192,158666,1,0,0:0:0:0:
192,192,158748,1,0,0:0:0:0:
320,192,158829,1,0,0:0:0:0:
448,192,158911,1,0,0:0:0:0:
320,192,158992,1,0,0:0:0:0:
192,192,159074,1,0,0:0:0:0:
64,192,159155,1,0,0:0:0:0:
192,192,159237,1,0,0:0:0:0:
320,192,159318,1,0,0:0:0:0:
448,192,159400,1,0,0:0:0:0:
320,192,159481,1,0,0:0:0:0:
192,192,159563,1,0,0:0:0:0:
320,192,159644,1,0,0:0:0:0:
448,192,159726,1,0,0:0:0:0:
64,192,159808,1,0,0:0:0:0:
192,192,159889,1,0,0:0:0:0:
320,192,159971,1,0,0:0:0:0:
448,192,160052,1,0,0:0:0:0:
64,192,160134,1,0,0:0:0:0:
192,192,160215,1,0,0:0:0:0:
320,192,160297,1,0,0:0:0:0:
448,192,160378,1,0,0:0:0:0:
64,192,160460,1,0,0:0:0:0:
192,192,160541,1,0,0:0:0:0:
320,192,160623,1,0,0:0:0:0:
448,192,160704,1,0,0:0:0:0:
320,192,160786,1,0,0:0:0:0:
192,192,160867,1,0,0:0:0:0:
64,192,160949,1,0,0:0:0:0:
192,192,161030,1,0,0:0:0:0:
320,192,161112,1,0,0:0:0:0:
64,192,161193,1,0,0:0:0:0:
192,192,161275,1,0,0:0:0:0:
320,192,161356,1,0,0:0:0:0:
448,192,161438,1,0,0:0:0:0:
64,192,161519,1,0,0:0:0:0:
192,192,161601,1,0,0:0:0:0:
448,192,161683,1,0,0:0:0:0:
320,192,161764,1,0,0:0:0:0:
64,192,161846,1,0,0:0:0:0:
192,192,161927,1,0,0:0:0:0:
448,192,162009,1,0,0:0:0:0:
320,192,162090,1,0,0:0:0:0:
64,192,162172,1,0,0:0:0:0:
192,192,162253,1,0,0:0:0:0:
448,192,162335,1,0,0:0:0:0:
320,192,162416,1,0,0:0:0:0:
192,192,162498,1,0,0:0:0:0:
64,192,162579,1,0,0:0:0:0:
192,192,162661,1,0,0:0:0:0:
320,192,162742,1,0,0:0:0:0:
448,192,162824,1,0,0:0:0:0:
320,192,162905,1,0,0:0:0:0:
192,192,162987,1,0,0:0:0:0:
448,192,163068,1,0,0:0:0:0:
320,192,163150,1,0,0:0:0:0:
192,192,163231,1,0,0:0:0:0:
64,192,163313,1,0,0:0:0:0:
448,192,163394,1,0,0:0:0:0:
64,192,163476,1,0,0:0:0:0:
448,192,163558,1,0,0:0:0:0:
64,192,163639,1,0,0:0:0:0:
448,192,163721,1,0,0:0:0:0:
64,192,163802,1,0,0:0:0:0:
448,192,163884,1,0,0:0:0:0:
192,192,163965,1,0,0:0:0:0:
64,192,164047,1,0,0:0:0:0:
448,192,164128,1,0,0:0:0:0:
192,192,164210,1,0,0:0:0:0:
64,192,164291,1,0,0:0:0:0:
448,192,164373,1,0,0:0:0:0:
192,192,164454,1,0,0:0:0:0:
64,192,164536,1,0,0:0:0:0:
320,192,164617,1,0,0:0:0:0:
192,192,164699,1,0,0:0:0:0:
320,192,164780,1,0,0:0:0:0:
64,192,164862,1,0,0:0:0:0:
192,192,164943,1,0,0:0:0:0:
448,192,165025,1,0,0:0:0:0:
320,192,165106,1,0,0:0:0:0:
64,192,165188,1,0,0:0:0:0:
320,192,165269,1,0,0:0:0:0:
448,192,165351,1,0,0:0:0:0:
192,192,165433,1,0,0:0:0:0:
64,192,165514,1,0,0:0:0:0:
320,192,165596,1,0,0:0:0:0:
448,192,165677,1,0,0:0:0:0:
192,192,165759,1,0,0:0:0:0:
64,192,165840,1,0,0:0:0:0:
320,192,165922,1,0,0:0:0:0:
448,192,165922,1,0,0:0:0:0:
64,192,166030,1,0,0:0:0:0:
192,192,166139,1,0,0:0:0:0:
320,192,166248,1,0,0:0:0:0:
448,192,166356,1,0,0:0:0:0:
320,192,166465,1,0,0:0:0:0:
192,192,166574,1,0,0:0:0:0:
64,192,166574,1,0,0:0:0:0:
320,192,166683,1,0,0:0:0:0:
192,192,166791,1,0,0:0:0:0:
320,192,166900,1,0,0:0:0:0:
448,192,167009,1,0,0:0:0:0:
320,192,167117,1,0,0:0:0:0:
64,192,167226,1,0,0:0:0:0:
192,192,167226,1,0,0:0:0:0:
320,192,167335,1,0,0:0:0:0:
192,192,167443,1,0,0:0:0:0:
448,192,167552,1,0,0:0:0:0:
320,192,167661,1,0,0:0:0:0:
192,192,167769,1,0,0:0:0:0:
64,192,167878,1,0,0:0:0:0:
320,192,167878,1,0,0:0:0:0:
192,192,167987,1,0,0:0:0:0:
320,192,168096,1,0,0:0:0:0:
192,192,168204,1,0,0:0:0:0:
448,192,168313,1,0,0:0:0:0:
192,192,168422,1,0,0:0:0:0:
448,192,168530,128,0,169916:0:0:0:0:
320,192,168530,1,0,0:0:0:0:
192,192,168612,1,0,0:0:0:0:
64,192,168693,1,0,0:0:0:0:
64,192,168856,1,0,0:0:0:0:
64,192,169019,1,0,0:0:0:0:
192,192,169101,1,0,0:0:0:0:
320,192,169183,1,0,0:0:0:0:
320,192,169346,1,0,0:0:0:0:
320,192,169509,1,0,0:0:0:0:
192,192,169590,1,0,0:0:0:0:
64,192,169672,1,0,0:0:0:0:
320,192,169835,1,0,0:0:0:0:
192,192,169916,1,0,0:0:0:0:
64,192,169998,1,0,0:0:0:0:
192,192,170161,1,0,0:0:0:0:
320,192,170242,1,0,0:0:0:0:
448,192,170324,1,0,0:0:0:0:
64,192,170487,1,0,0:0:0:0:
192,192,170487,1,0,0:0:0:0:
320,192,170568,1,0,0:0:0:0:
448,192,170650,1,0,0:0:0:0:
448,192,170813,1,0,0:0:0:0:
448,192,170976,1,0,0:0:0:0:
320,192,171058,1,0,0:0:0:0:
192,192,171139,1,0,0:0:0:0:
192,192,171302,1,0,0:0:0:0:
64,192,171465,1,0,0:0:0:0:
192,192,171547,1,0,0:0:0:0:
320,192,171628,1,0,0:0:0:0:
192,192,171791,1,0,0:0:0:0:
320,192,171873,1,0,0:0:0:0:
448,192,171954,1,0,0:0:0:0:
64,192,172117,1,0,0:0:0:0:
192,192,172199,1,0,0:0:0:0:
320,192,172280,1,0,0:0:0:0:
192,192,172443,1,0,0:0:0:0:
448,192,172443,1,0,0:0:0:0:
320,192,172525,1,0,0:0:0:0:
64,192,172606,1,0,0:0:0:0:
192,192,172769,1,0,0:0:0:0:
448,192,172933,1,0,0:0:0:0:
320,192,173014,1,0,0:0:0:0:
192,192,173096,1,0,0:0:0:0:
192,192,173259,1,0,0:0:0:0:
64,192,173422,1,0,0:0:0:0:
192,192,173503,1,0,0:0:0:0:
320,192,173585,1,0,0:0:0:0:
448,192,173748,1,0,0:0:0:0:
320,192,173748,1,0,0:0:0:0:
192,192,173829,1,0,0:0:0:0:
64,192,173911,1,0,0:0:0:0:
192,192,174074,1,0,0:0:0:0:
320,192,174155,1,0,0:0:0:0:
448,192,174237,1,0,0:0:0:0:
64,192,174400,1,0,0:0:0:0:
192,192,174481,1,0,0:0:0:0:
320,192,174563,1,0,0:0:0:0:
320,192,174726,1,0,0:0:0:0:
64,192,174889,1,0,0:0:0:0:
192,192,174971,1,0,0:0:0:0:
320,192,175052,1,0,0:0:0:0:
448,192,175052,1,0,0:0:0:0:
320,192,175215,1,0,0:0:0:0:
448,192,175378,1,0,0:0:0:0:
320,192,175460,1,0,0:0:0:0:
192,192,175541,1,0,0:0:0:0:
64,192,175623,1,0,0:0:0:0:
192,192,175704,1,0,0:0:0:0:
320,192,175786,1,0,0:0:0:0:
192,192,175867,1,0,0:0:0:0:
64,192,175949,1,0,0:0:0:0:
448,192,176030,1,0,0:0:0:0:
320,192,176112,1,0,0:0:0:0:
192,192,176193,1,0,0:0:0:0:
64,192,176275,1,0,0:0:0:0:
320,192,176356,1,0,0:0:0:0:
448,192,176356,1,0,0:0:0:0:
192,192,176519,1,0,0:0:0:0:
64,192,176683,1,0,0:0:0:0:
448,192,176846,1,0,0:0:0:0:
192,192,176927,1,0,0:0:0:0:
448,192,177009,1,0,0:0:0:0:
448,192,177172,1,0,0:0:0:0:
64,192,177335,1,0,0:0:0:0:
320,192,177416,1,0,0:0:0:0:
64,192,177498,1,0,0:0:0:0:
192,192,177661,1,0,0:0:0:0:
448,192,177742,1,0,0:0:0:0:
192,192,177824,1,0,0:0:0:0:
320,192,177987,1,0,0:0:0:0:
64,192,178068,1,0,0:0:0:0:
320,192,178150,1,0,0:0:0:0:
192,192,178313,1,0,0:0:0:0:
448,192,178313,1,0,0:0:0:0:
320,192,178394,1,0,0:0:0:0:
64,192,178476,1,0,0:0:0:0:
64,192,178639,1,0,0:0:0:0:
448,192,178802,1,0,0:0:0:0:
192,192,178884,1,0,0:0:0:0:
320,192,178965,1,0,0:0:0:0:
448,192,178965,1,0,0:0:0:0:
448,192,179128,1,0,0:0:0:0:
64,192,179291,1,0,0:0:0:0:
192,192,179373,1,0,0:0:0:0:
320,192,179454,1,0,0:0:0:0:
320,192,179617,1,0,0:0:0:0:
192,192,179699,1,0,0:0:0:0:
64,192,179780,1,0,0:0:0:0:
192,192,179943,1,0,0:0:0:0:
320,192,180025,1,0,0:0:0:0:
448,192,180106,1,0,0:0:0:0:
64,192,180269,1,0,0:0:0:0:
320,192,180269,1,0,0:0:0:0:
448,192,180351,1,0,0:0:0:0:
192,192,180433,1,0,0:0:0:0:
192,192,180596,1,0,0:0:0:0:
448,192,180759,1,0,0:0:0:0:
320,192,180840,1,0,0:0:0:0:
64,192,180922,1,0,0:0:0:0:
64,192,181085,1,0,0:0:0:0:
192,192,181248,1,0,0:0:0:0:
320,192,181329,1,0,0:0:0:0:
448,192,181411,1,0,0:0:0:0:
64,192,181574,1,0,0:0:0:0:
320,192,181574,1,0,0:0:0:0:
192,192,181655,1,0,0:0:0:0:
448,192,181737,1,0,0:0:0:0:
320,192,181900,1,0,0:0:0:0:
192,192,181981,1,0,0:0:0:0:
448,192,182063,1,0,0:0:0:0:
320,192,182226,1,0,0:0:0:0:
64,192,182226,1,0,0:0:0:0:
192,192,182308,1,0,0:0:0:0:
320,192,182389,1,0,0:0:0:0:
320,192,182552,1,0,0:0:0:0:
448,192,182715,1,0,0:0:0:0:
320,192,182797,1,0,0:0:0:0:
64,192,182878,1,0,0:0:0:0:
192,192,182960,1,0,0:0:0:0:
448,192,183041,1,0,0:0:0:0:
320,192,183123,1,0,0:0:0:0:
192,192,183204,1,0,0:0:0:0:
64,192,183286,1,0,0:0:0:0:
192,192,183367,1,0,0:0:0:0:
320,192,183449,1,0,0:0:0:0:
448,192,183530,1,0,0:0:0:0:
320,192,183612,1,0,0:0:0:0:
192,192,183693,1,0,0:0:0:0:
320,192,183775,1,0,0:0:0:0:
192,192,183856,1,0,0:0:0:0:
448,192,183938,1,0,0:0:0:0:
64,192,184019,1,0,0:0:0:0:
448,192,184101,1,0,0:0:0:0:
192,192,184183,1,0,0:0:0:0:
64,192,184183,128,0,184346:0:0:0:0:
320,192,184346,1,0,0:0:0:0:
448,192,184509,128,0,184672:0:0:0:0:
192,192,184509,1,0,0:0:0:0:
320,192,184672,1,0,0:0:0:0:
64,192,184835,1,0,0:0:0:0:
192,192,184835,128,0,184998:0:0:0:0:
64,192,184998,1,0,0:0:0:0:
320,192,185161,128,0,185324:0:0:0:0:
448,192,185161,1,0,0:0:0:0:
448,192,185324,1,0,0:0:0:0:
64,192,185487,128,0,185650:0:0:0:0:
192,192,185487,1,0,0:0:0:0:
320,192,185650,1,0,0:0:0:0:
192,192,185813,128,0,185976:0:0:0:0:
320,192,185813,1,0,0:0:0:0:
448,192,185976,1,0,0:0:0:0:
192,192,186139,1,0,0:0:0:0:
64,192,186139,128,0,186302:0:0:0:0:
448,192,186302,1,0,0:0:0:0:
320,192,186465,128,0,186628:0:0:0:0:
192,192,186465,1,0,0:0:0:0:
448,192,186628,1,0,0:0:0:0:
64,192,186791,1,0,0:0:0:0:
192,192,186791,128,0,186954:0:0:0:0:
320,192,186954,1,0,0:0:0:0:
448,192,187117,128,0,187280:0:0:0:0:
64,192,187117,1,0,0:0:0:0:
192,192,187280,1,0,0:0:0:0:
64,192,187443,128,0,187606:0:0:0:0:
448,192,187443,1,0,0:0:0:0:
320,192,187606,1,0,0:0:0:0:
448,192,187769,1,0,0:0:0:0:
192,192,187769,128,0,187933:0:0:0:0:
320,192,187851,1,0,0:0:0:0:
448,192,187933,1,0,0:0:0:0:
320,192,188096,128,0,188259:0:0:0:0:
64,192,188096,1,0,0:0:0:0:
448,192,188259,1,0,0:0:0:0:
192,192,188422,128,0,188585:0:0:0:0:
64,192,188422,1,0,0:0:0:0:
320,192,188585,1,0,0:0:0:0:
64,192,188748,128,0,188911:0:0:0:0:
448,192,188748,1,0,0:0:0:0:
448,192,188911,1,0,0:0:0:0:
192,192,189074,128,0,189237:0:0:0:0:
320,192,189074,1,0,0:0:0:0:
320,192,189237,1,0,0:0:0:0:
448,192,189400,128,0,189563:0:0:0:0:
64,192,189400,1,0,0:0:0:0:
64,192,189563,1,0,0:0:0:0:
320,192,189726,128,0,189889:0:0:0:0:
192,192,189726,1,0,0:0:0:0:
192,192,189889,1,0,0:0:0:0:
64,192,190052,1,0,0:0:0:0:
192,192,190134,1,0,0:0:0:0:
320,192,190215,1,0,0:0:0:0:
448,192,190297,1,0,0:0:0:0:
320,192,190378,1,0,0:0:0:0:
192,192,190460,1,0,0:0:0:0:
64,192,190541,1,0,0:0:0:0:
192,192,190623,1,0,0:0:0:0:
320,192,190704,1,0,0:0:0:0:
448,192,190786,1,0,0:0:0:0:
64,192,190867,1,0,0:0:0:0:
192,192,190949,1,0,0:0:0:0:
320,192,191030,1,0,0:0:0:0:
448,192,191112,1,0,0:0:0:0:
192,192,191193,1,0,0:0:0:0:
320,192,191275,1,0,0:0:0:0:
448,192,191356,1,0,0:0:0:0:
64,192,191438,1,0,0:0:0:0:
192,192,191519,1,0,0:0:0:0:
320,192,191601,1,0,0:0:0:0:
448,192,191683,1,0,0:0:0:0:
64,192,191764,1,0,0:0:0:0:
448,192,191846,1,0,0:0:0:0:
64,192,191927,1,0,0:0:0:0:
448,192,192009,128,0,193965:0:0:0:0:
320,192,192498,128,0,193965:0:0:0:0:
192,192,192987,128,0,193965:0:0:0:0:
64,192,193802,1,0,0:0:0:0:
64,192,193965,1,0,0:0:0:0:
192,192,194128,1,0,0:0:0:0:
448,192,194128,1,0,0:0:0:0:
64,192,194291,1,0,0:0:0:0:
320,192,194291,1,0,0:0:0:0:
192,192,194454,128,0,194780:0:0:0:0:
320,192,194454,128,0,194780:0:0:0:0:
448,192,194454,128,0,194780:0:0:0:0:
64,192,194780,1,0,0:0:0:0:
192,192,194943,1,0,0:0:0:0:
320,192,194943,1,0,0:0:0:0:
320,192,195106,1,0,0:0:0:0:
448,192,195106,1,0,0:0:0:0:
64,192,195269,128,0,195433:0:0:0:0:
192,192,195269,128,0,195433:0:0:0:0:
448,192,195269,128,0,195433:0:0:0:0:
64,192,195596,128,0,195922:0:0:0:0:
320,192,195596,128,0,195922:0:0:0:0:
448,192,195596,128,0,195922:0:0:0:0:
192,192,195922,1,0,0:0:0:0:
192,192,196085,1,0,0:0:0:0:
64,192,196085,1,0,0:0:0:0:
192,192,196248,1,0,0:0:0:0:
448,192,196248,1,0,0:0:0:0:
64,192,196411,128,0,196737:0:0:0:0:
448,192,196411,128,0,196737:0:0:0:0:
192,192,196411,128,0,196737:0:0:0:0:
320,192,196737,1,0,0:0:0:0:
64,192,196900,1,0,0:0:0:0:
448,192,196900,1,0,0:0:0:0:
192,192,197063,1,0,0:0:0:0:
320,192,197063,1,0,0:0:0:0:
64,192,197226,1,0,0:0:0:0:
192,192,197226,1,0,0:0:0:0:
320,192,197389,1,0,0:0:0:0:
448,192,197389,1,0,0:0:0:0:
64,192,197552,1,0,0:0:0:0:
192,192,197552,1,0,0:0:0:0:
192,192,197715,1,0,0:0:0:0:
320,192,197715,1,0,0:0:0:0:
64,192,197878,1,0,0:0:0:0:
320,192,197878,1,0,0:0:0:0:
192,192,198041,1,0,0:0:0:0:
448,192,198041,1,0,0:0:0:0:
64,192,198204,1,0,0:0:0:0:
192,192,198204,1,0,0:0:0:0:
448,192,198204,1,0,0:0:0:0:
192,192,198367,1,0,0:0:0:0:
320,192,198367,1,0,0:0:0:0:
64,192,198530,1,0,0:0:0:0:
192,192,198530,1,0,0:0:0:0:
320,192,198693,128,0,199019:0:0:0:0:
448,192,198693,128,0,199019:0:0:0:0:
192,192,198693,128,0,199019:0:0:0:0:
64,192,199019,1,0,0:0:0:0:
192,192,199183,1,0,0:0:0:0:
320,192,199183,1,0,0:0:0:0:
320,192,199346,1,0,0:0:0:0:
448,192,199346,1,0,0:0:0:0:
320,192,199509,128,0,199672:0:0:0:0:
64,192,199509,128,0,199672:0:0:0:0:
448,192,199509,128,0,199672:0:0:0:0:
192,192,199835,128,0,200161:0:0:0:0:
320,192,199835,128,0,200161:0:0:0:0:
448,192,199835,128,0,200161:0:0:0:0:
64,192,200161,1,0,0:0:0:0:
64,192,200324,1,0,0:0:0:0:
320,192,200324,1,0,0:0:0:0:
192,192,200487,1,0,0:0:0:0:
448,192,200487,1,0,0:0:0:0:
320,192,200650,128,0,200976:0:0:0:0:
448,192,200650,128,0,200976:0:0:0:0:
64,192,200650,128,0,200976:0:0:0:0:
192,192,201139,1,0,0:0:0:0:
320,192,201139,1,0,0:0:0:0:
64,192,201302,1,0,0:0:0:0:
192,192,201302,1,0,0:0:0:0:
64,192,201465,1,0,0:0:0:0:
320,192,201465,1,0,0:0:0:0:
192,192,201628,1,0,0:0:0:0:
320,192,201628,1,0,0:0:0:0:
64,192,201791,1,0,0:0:0:0:
320,192,201791,1,0,0:0:0:0:
448,192,201791,1,0,0:0:0:0:
192,192,201954,1,0,0:0:0:0:
448,192,201954,1,0,0:0:0:0:
192,192,202117,1,0,0:0:0:0:
320,192,202117,1,0,0:0:0:0:
64,192,202280,1,0,0:0:0:0:
448,192,202280,1,0,0:0:0:0:
192,192,202443,1,0,0:0:0:0:
320,192,202443,1,0,0:0:0:0:
448,192,202443,1,0,0:0:0:0:
64,192,202769,1,0,0:0:0:0:
192,192,202769,1,0,0:0:0:0:
320,192,202769,1,0,0:0:0:0:
448,192,202769,1,0,0:0:0:0:
320,192,202933,1,0,0:0:0:0:
192,192,203014,1,0,0:0:0:0:
64,192,203096,1,0,0:0:0:0:
192,192,203259,1,0,0:0:0:0:
320,192,203259,1,0,0:0:0:0:
64,192,203422,1,0,0:0:0:0:
448,192,203585,1,0,0:0:0:0:
192,192,203748,1,0,0:0:0:0:
448,192,203911,1,0,0:0:0:0:
320,192,203992,1,0,0:0:0:0:
64,192,204074,1,0,0:0:0:0:
192,192,204155,1,0,0:0:0:0:
448,192,204237,1,0,0:0:0:0:
320,192,204318,1,0,0:0:0:0:
64,192,204400,1,0,0:0:0:0:
192,192,204481,1,0,0:0:0:0:
448,192,204563,1,0,0:0:0:0:
320,192,204644,1,0,0:0:0:0:
64,192,204726,1,0,0:0:0:0:
192,192,204726,1,0,0:0:0:0:
320,192,204889,1,0,0:0:0:0:
448,192,204889,1,0,0:0:0:0:
192,192,205052,1,0,0:0:0:0:
64,192,205134,1,0,0:0:0:0:
320,192,205215,1,0,0:0:0:0:
448,192,205297,1,0,0:0:0:0:
192,192,205378,1,0,0:0:0:0:
64,192,205460,1,0,0:0:0:0:
320,192,205541,1,0,0:0:0:0:
448,192,205623,1,0,0:0:0:0:
192,192,205704,1,0,0:0:0:0:
64,192,205786,1,0,0:0:0:0:
192,192,205867,1,0,0:0:0:0:
320,192,205949,1,0,0:0:0:0:
448,192,206030,1,0,0:0:0:0:
320,192,206112,1,0,0:0:0:0:
192,192,206193,1,0,0:0:0:0:
64,192,206275,1,0,0:0:0:0:
192,192,206356,1,0,0:0:0:0:
320,192,206438,1,0,0:0:0:0:
192,192,206519,1,0,0:0:0:0:
320,192,206601,1,0,0:0:0:0:
192,192,206683,1,0,0:0:0:0:
448,192,206764,1,0,0:0:0:0:
64,192,206846,1,0,0:0:0:0:
448,192,206927,1,0,0:0:0:0:
64,192,207009,1,0,0:0:0:0:
448,192,207090,1,0,0:0:0:0:
192,192,207172,1,0,0:0:0:0:
320,192,207253,1,0,0:0:0:0:
192,192,207335,1,0,0:0:0:0:
320,192,207416,1,0,0:0:0:0:
192,192,207498,1,0,0:0:0:0:
448,192,207579,1,0,0:0:0:0:
64,192,207661,1,0,0:0:0:0:
448,192,207742,1,0,0:0:0:0:
64,192,207824,1,0,0:0:0:0:
448,192,207905,1,0,0:0:0:0:
320,192,207987,1,0,0:0:0:0:
192,192,208068,1,0,0:0:0:0:
64,192,208150,1,0,0:0:0:0:
448,192,208231,1,0,0:0:0:0:
320,192,208313,1,0,0:0:0:0:
192,192,208394,1,0,0:0:0:0:
64,192,208476,1,0,0:0:0:0:
192,192,208558,1,0,0:0:0:0:
320,192,208639,1,0,0:0:0:0:
448,192,208721,1,0,0:0:0:0:
320,192,208802,1,0,0:0:0:0:
192,192,208884,1,0,0:0:0:0:
64,192,208965,1,0,0:0:0:0:
192,192,209047,1,0,0:0:0:0:
320,192,209128,128,0,209780:0:0:0:0:
192,192,209780,1,0,0:0:0:0:
448,192,209780,1,0,0:0:0:0:
192,192,209943,1,0,0:0:0:0:
320,192,209943,1,0,0:0:0:0:
64,192,210106,1,0,0:0:0:0:
320,192,210106,1,0,0:0:0:0:
64,192,210269,1,0,0:0:0:0:
192,192,210269,1,0,0:0:0:0:
192,192,210433,1,0,0:0:0:0:
320,192,210433,1,0,0:0:0:0:
64,192,210596,128,0,210677:0:0:0:0:
448,192,210759,128,0,210840:0:0:0:0:
64,192,210922,1,0,0:0:0:0:
192,192,211003,1,0,0:0:0:0:
320,192,211085,1,0,0:0:0:0:
448,192,211166,1,0,0:0:0:0:
64,192,211248,1,0,0:0:0:0:
192,192,211329,1,0,0:0:0:0:
320,192,211411,1,0,0:0:0:0:
448,192,211492,1,0,0:0:0:0:
192,192,211655,1,0,0:0:0:0:
320,192,211737,1,0,0:0:0:0:
448,192,211818,1,0,0:0:0:0:
192,192,211900,1,0,0:0:0:0:
320,192,211981,1,0,0:0:0:0:
64,192,212063,1,0,0:0:0:0:
192,192,212144,1,0,0:0:0:0:
320,192,212226,1,0,0:0:0:0:
448,192,212308,1,0,0:0:0:0:
192,192,212389,1,0,0:0:0:0:
320,192,212471,1,0,0:0:0:0:
448,192,212552,1,0,0:0:0:0:
64,192,212634,1,0,0:0:0:0:
192,192,212715,1,0,0:0:0:0:
320,192,212797,1,0,0:0:0:0:
448,192,212878,128,0,213367:0:0:0:0:
64,192,212878,1,0,0:0:0:0:
192,192,212878,1,0,0:0:0:0:
320,192,213367,128,0,213856:0:0:0:0:
64,192,213367,1,0,0:0:0:0:
192,192,213367,1,0,0:0:0:0:
192,192,213856,128,0,214346:0:0:0:0:
448,192,213856,1,0,0:0:0:0:
64,192,213856,1,0,0:0:0:0:
64,192,214346,128,0,214835:0:0:0:0:
320,192,214346,1,0,0:0:0:0:
448,192,214346,1,0,0:0:0:0:
192,192,214835,1,0,0:0:0:0:
320,192,214916,1,0,0:0:0:0:
448,192,214998,1,0,0:0:0:0:
64,192,215079,1,0,0:0:0:0:
192,192,215161,1,0,0:0:0:0:
448,192,215161,128,0,215650:0:0:0:0:
320,192,215161,1,0,0:0:0:0:
320,192,215650,128,0,216139:0:0:0:0:
64,192,215650,1,0,0:0:0:0:
192,192,215650,1,0,0:0:0:0:
192,192,216139,128,0,216628:0:0:0:0:
64,192,216139,1,0,0:0:0:0:
448,192,216139,1,0,0:0:0:0:
64,192,216628,128,0,217117:0:0:0:0:
320,192,216628,1,0,0:0:0:0:
448,192,216628,1,0,0:0:0:0:
192,192,217117,1,0,0:0:0:0:
448,192,217117,1,0,0:0:0:0:
192,192,217280,1,0,0:0:0:0:
448,192,217280,1,0,0:0:0:0:
64,192,217362,1,0,0:0:0:0:
192,192,217443,1,0,0:0:0:0:
320,192,217525,1,0,0:0:0:0:
448,192,217606,1,0,0:0:0:0:
192,192,217688,1,0,0:0:0:0:
320,192,217769,1,0,0:0:0:0:
448,192,217851,1,0,0:0:0:0:
320,192,217933,1,0,0:0:0:0:
192,192,218014,1,0,0:0:0:0:
64,192,218096,1,0,0:0:0:0:
320,192,218177,1,0,0:0:0:0:
192,192,218259,1,0,0:0:0:0:
64,192,218340,1,0,0:0:0:0:
192,192,218422,1,0,0:0:0:0:
320,192,218503,1,0,0:0:0:0:
448,192,218585,1,0,0:0:0:0:
320,192,218666,1,0,0:0:0:0:
192,192,218748,1,0,0:0:0:0:
64,192,218829,1,0,0:0:0:0:
192,192,218911,1,0,0:0:0:0:
448,192,218992,1,0,0:0:0:0:
320,192,219074,1,0,0:0:0:0:
64,192,219155,1,0,0:0:0:0:
192,192,219237,1,0,0:0:0:0:
320,192,219318,1,0,0:0:0:0:
448,192,219400,1,0,0:0:0:0:
64,192,219481,1,0,0:0:0:0:
320,192,219563,1,0,0:0:0:0:
192,192,219644,1,0,0:0:0:0:
448,192,219726,1,0,0:0:0:0:
320,192,219808,1,0,0:0:0:0:
192,192,219889,1,0,0:0:0:0:
64,192,219971,1,0,0:0:0:0:
192,192,220052,1,0,0:0:0:0:
320,192,220134,1,0,0:0:0:0:
192,192,220215,1,0,0:0:0:0:
64,192,220297,1,0,0:0:0:0:
192,192,220378,1,0,0:0:0:0:
320,192,220460,1,0,0:0:0:0:
448,192,220541,1,0,0:0:0:0:
320,192,220623,1,0,0:0:0:0:
192,192,220704,1,0,0:0:0:0:
64,192,220786,1,0,0:0:0:0:
320,192,220867,1,0,0:0:0:0:
192,192,220949,1,0,0:0:0:0:
64,192,221030,1,0,0:0:0:0:
192,192,221112,1,0,0:0:0:0:
320,192,221193,1,0,0:0:0:0:
448,192,221275,1,0,0:0:0:0:
320,192,221356,1,0,0:0:0:0:
192,192,221438,1,0,0:0:0:0:
448,192,221519,1,0,0:0:0:0:
192,192,221601,1,0,0:0:0:0:
320,192,221683,1,0,0:0:0:0:
64,192,221764,1,0,0:0:0:0:
448,192,221846,1,0,0:0:0:0:
192,192,221927,1,0,0:0:0:0:
320,192,222009,1,0,0:0:0:0:
64,192,222090,1,0,0:0:0:0:
448,192,222172,1,0,0:0:0:0:
192,192,222253,1,0,0:0:0:0:
320,192,222335,128,0,222661:0:0:0:0:
64,192,222661,128,0,222987:0:0:0:0:
448,192,222661,1,0,0:0:0:0:
320,192,222742,1,0,0:0:0:0:
192,192,222824,1,0,0:0:0:0:
448,192,222905,1,0,0:0:0:0:
192,192,222987,128,0,223313:0:0:0:0:
320,192,223068,1,0,0:0:0:0:
448,192,223150,1,0,0:0:0:0:
64,192,223231,1,0,0:0:0:0:
320,192,223313,128,0,223639:0:0:0:0:
448,192,223394,1,0,0:0:0:0:
64,192,223476,1,0,0:0:0:0:
192,192,223558,1,0,0:0:0:0:
448,192,223639,128,0,223965:0:0:0:0:
192,192,223721,1,0,0:0:0:0:
64,192,223802,1,0,0:0:0:0:
192,192,223884,1,0,0:0:0:0:
320,192,223965,128,0,224291:0:0:0:0:
448,192,224047,1,0,0:0:0:0:
192,192,224128,1,0,0:0:0:0:
64,192,224210,1,0,0:0:0:0:
192,192,224291,128,0,224617:0:0:0:0:
64,192,224373,1,0,0:0:0:0:
320,192,224454,1,0,0:0:0:0:
64,192,224536,1,0,0:0:0:0:
448,192,224617,128,0,224943:0:0:0:0:
192,192,224699,1,0,0:0:0:0:
320,192,224780,1,0,0:0:0:0:
64,192,224862,1,0,0:0:0:0:
320,192,224943,128,0,225269:0:0:0:0:
192,192,224943,1,0,0:0:0:0:
448,192,225025,1,0,0:0:0:0:
64,192,225106,1,0,0:0:0:0:
192,192,225188,1,0,0:0:0:0:
448,192,225269,1,0,0:0:0:0:
64,192,225351,1,0,0:0:0:0:
192,192,225433,1,0,0:0:0:0:
320,192,225514,1,0,0:0:0:0:
448,192,225596,1,0,0:0:0:0:
64,192,225677,1,0,0:0:0:0:
192,192,225759,1,0,0:0:0:0:
320,192,225840,1,0,0:0:0:0:
448,192,225922,1,0,0:0:0:0:
192,192,226003,1,0,0:0:0:0:
320,192,226085,1,0,0:0:0:0:
64,192,226166,1,0,0:0:0:0:
192,192,226248,1,0,0:0:0:0:
320,192,226329,1,0,0:0:0:0:
448,192,226411,1,0,0:0:0:0:
320,192,226492,1,0,0:0:0:0:
192,192,226574,1,0,0:0:0:0:
64,192,226655,1,0,0:0:0:0:
320,192,226737,1,0,0:0:0:0:
448,192,226818,1,0,0:0:0:0:
192,192,226900,1,0,0:0:0:0:
64,192,226981,1,0,0:0:0:0:
320,192,227063,1,0,0:0:0:0:
448,192,227144,1,0,0:0:0:0:
64,192,227226,1,0,0:0:0:0:
192,192,227308,1,0,0:0:0:0:
320,192,227389,1,0,0:0:0:0:
448,192,227471,1,0,0:0:0:0:
320,192,227552,1,0,0:0:0:0:
192,192,227634,1,0,0:0:0:0:
64,192,227715,1,0,0:0:0:0:
192,192,227797,1,0,0:0:0:0:
320,192,227878,1,0,0:0:0:0:
448,192,227878,128,0,228693:0:0:0:0:
320,192,228693,1,0,0:0:0:0:
192,192,228775,1,0,0:0:0:0:
320,192,228856,1,0,0:0:0:0:
448,192,228938,1,0,0:0:0:0:
64,192,229019,1,0,0:0:0:0:
192,192,229101,1,0,0:0:0:0:
320,192,229183,1,0,0:0:0:0:
192,192,229264,1,0,0:0:0:0:
64,192,229346,1,0,0:0:0:0:
192,192,229427,1,0,0:0:0:0:
448,192,229509,1,0,0:0:0:0:
320,192,229590,1,0,0:0:0:0:
64,192,229672,1,0,0:0:0:0:
192,192,229753,1,0,0:0:0:0:
448,192,229835,1,0,0:0:0:0:
320,192,229916,1,0,0:0:0:0:
64,192,229998,1,0,0:0:0:0:
192,192,230079,1,0,0:0:0:0:
448,192,230161,1,0,0:0:0:0:
320,192,230242,1,0,0:0:0:0:
64,192,230324,1,0,0:0:0:0:
192,192,230405,1,0,0:0:0:0:
320,192,230487,128,0,230650:0:0:0:0:
448,192,230650,1,0,0:0:0:0:
192,192,230731,128,0,230894:0:0:0:0:
64,192,230894,1,0,0:0:0:0:
320,192,230976,128,0,231139:0:0:0:0:
448,192,231139,1,0,0:0:0:0:
192,192,231221,128,0,231384:0:0:0:0:
64,192,231384,1,0,0:0:0:0:
448,192,231465,1,0,0:0:0:0:
320,192,231547,1,0,0:0:0:0:
192,192,231628,1,0,0:0:0:0:
320,192,231710,1,0,0:0:0:0:
448,192,231791,128,0,232280:0:0:0:0:
320,192,232280,1,0,0:0:0:0:
192,192,232362,1,0,0:0:0:0:
64,192,232443,128,0,233014:0:0:0:0:
320,192,232933,128,0,233014:0:0:0:0:
448,192,233014,1,0,0:0:0:0:
192,192,233096,128,0,233177:0:0:0:0:
64,192,233177,1,0,0:0:0:0:
320,192,233259,128,0,233340:0:0:0:0:
448,192,233340,1,0,0:0:0:0:
64,192,233422,128,0,233503:0:0:0:0:
320,192,233503,1,0,0:0:0:0:
192,192,233585,128,0,233666:0:0:0:0:
64,192,233666,1,0,0:0:0:0:
320,192,233748,128,0,233829:0:0:0:0:
192,192,233829,1,0,0:0:0:0:
64,192,233911,128,0,233992:0:0:0:0:
448,192,233992,1,0,0:0:0:0:
320,192,234074,128,0,234155:0:0:0:0:
192,192,234155,1,0,0:0:0:0:
64,192,234237,128,0,234318:0:0:0:0:
192,192,234318,1,0,0:0:0:0:
320,192,234400,128,0,234481:0:0:0:0:
64,192,234481,1,0,0:0:0:0:
448,192,234563,128,0,234644:0:0:0:0:
192,192,234644,1,0,0:0:0:0:
320,192,234726,128,0,234808:0:0:0:0:
64,192,234808,1,0,0:0:0:0:
192,192,234889,128,0,234971:0:0:0:0:
448,192,234971,1,0,0:0:0:0:
320,192,235052,128,0,235215:0:0:0:0:
448,192,235215,1,0,0:0:0:0:
320,192,235297,1,0,0:0:0:0:
192,192,235378,128,0,235541:0:0:0:0:
448,192,235541,1,0,0:0:0:0:
320,192,235623,1,0,0:0:0:0:
64,192,235704,128,0,236356:0:0:0:0:
192,192,236193,1,0,0:0:0:0:
320,192,236275,1,0,0:0:0:0:
448,192,236356,1,0,0:0:0:0:
320,192,236438,1,0,0:0:0:0:
192,192,236519,1,0,0:0:0:0:
64,192,236601,1,0,0:0:0:0:
448,192,236683,1,0,0:0:0:0:
320,192,236764,1,0,0:0:0:0:
192,192,236846,1,0,0:0:0:0:
320,192,236927,1,0,0:0:0:0:
448,192,237009,1,0,0:0:0:0:
64,192,237090,1,0,0:0:0:0:
192,192,237172,1,0,0:0:0:0:
320,192,237253,1,0,0:0:0:0:
448,192,237335,1,0,0:0:0:0:
64,192,237416,1,0,0:0:0:0:
192,192,237498,1,0,0:0:0:0:
320,192,237579,1,0,0:0:0:0:
448,192,237661,128,0,238150:0:0:0:0:
64,192,238313,1,0,0:0:0:0:
192,192,238313,1,0,0:0:0:0:
320,192,238394,1,0,0:0:0:0:
448,192,238476,1,0,0:0:0:0:
64,192,238558,1,0,0:0:0:0:
192,192,238639,1,0,0:0:0:0:
320,192,238639,1,0,0:0:0:0:
448,192,238721,1,0,0:0:0:0:
320,192,238802,1,0,0:0:0:0:
192,192,238884,1,0,0:0:0:0:
64,192,238965,1,0,0:0:0:0:
320,192,238965,1,0,0:0:0:0:
192,192,239047,1,0,0:0:0:0:
64,192,239128,1,0,0:0:0:0:
192,192,239210,1,0,0:0:0:0:
320,192,239291,1,0,0:0:0:0:
448,192,239291,1,0,0:0:0:0:
192,192,239373,1,0,0:0:0:0:
320,192,239454,1,0,0:0:0:0:
192,192,239536,1,0,0:0:0:0:
64,192,239617,1,0,0:0:0:0:
448,192,239617,1,0,0:0:0:0:
320,192,239699,1,0,0:0:0:0:
192,192,239780,1,0,0:0:0:0:
64,192,239862,1,0,0:0:0:0:
192,192,239943,1,0,0:0:0:0:
320,192,239943,1,0,0:0:0:0:
448,192,240025,1,0,0:0:0:0:
320,192,240106,1,0,0:0:0:0:
192,192,240188,1,0,0:0:0:0:
64,192,240269,1,0,0:0:0:0:
320,192,240269,1,0,0:0:0:0:
192,192,240351,1,0,0:0:0:0:
320,192,240433,1,0,0:0:0:0:
448,192,240514,1,0,0:0:0:0:
64,192,240596,1,0,0:0:0:0:
192,192,240596,1,0,0:0:0:0:
320,192,240677,1,0,0:0:0:0:
448,192,240759,1,0,0:0:0:0:
192,192,240922,128,0,241085:0:0:0:0:
64,192,240922,128,0,241085:0:0:0:0:
448,192,241085,1,0,0:0:0:0:
320,192,241166,1,0,0:0:0:0:
64,192,241248,1,0,0:0:0:0:
192,192,241329,1,0,0:0:0:0:
448,192,241411,1,0,0:0:0:0:
320,192,241492,1,0,0:0:0:0:
64,192,241574,1,0,0:0:0:0:
192,192,241655,1,0,0:0:0:0:
448,192,241737,1,0,0:0:0:0:
320,192,241818,1,0,0:0:0:0:
64,192,241900,1,0,0:0:0:0:
192,192,241981,1,0,0:0:0:0:
448,192,242063,1,0,0:0:0:0:
320,192,242144,1,0,0:0:0:0:
64,192,242226,1,0,0:0:0:0:
320,192,242308,1,0,0:0:0:0:
64,192,242389,1,0,0:0:0:0:
320,192,242471,1,0,0:0:0:0:
192,192,242552,1,0,0:0:0:0:
448,192,242634,1,0,0:0:0:0:
192,192,242715,1,0,0:0:0:0:
448,192,242797,1,0,0:0:0:0:
64,192,242878,1,0,0:0:0:0:
192,192,242878,1,0,0:0:0:0:
320,192,243041,1,0,0:0:0:0:
192,192,243204,1,0,0:0:0:0:
448,192,243204,1,0,0:0:0:0:
64,192,243367,1,0,0:0:0:0:
192,192,243530,1,0,0:0:0:0:
448,192,243530,1,0,0:0:0:0:
320,192,243693,1,0,0:0:0:0:
192,192,243775,1,0,0:0:0:0:
64,192,243856,1,0,0:0:0:0:
192,192,244019,1,0,0:0:0:0:
320,192,244019,1,0,0:0:0:0:
64,192,244183,1,0,0:0:0:0:
192,192,244264,1,0,0:0:0:0:
320,192,244346,1,0,0:0:0:0:
64,192,244509,1,0,0:0:0:0:
192,192,244509,1,0,0:0:0:0:
448,192,244672,1,0,0:0:0:0:
320,192,244753,1,0,0:0:0:0:
192,192,244835,1,0,0:0:0:0:
64,192,244835,1,0,0:0:0:0:
448,192,244998,1,0,0:0:0:0:
320,192,245079,1,0,0:0:0:0:
192,192,245161,1,0,0:0:0:0:
64,192,245242,1,0,0:0:0:0:
320,192,245324,1,0,0:0:0:0:
448,192,245324,1,0,0:0:0:0:
64,192,245487,1,0,0:0:0:0:
192,192,245487,1,0,0:0:0:0:
64,192,245650,1,0,0:0:0:0:
192,192,245650,1,0,0:0:0:0:
320,192,245813,1,0,0:0:0:0:
448,192,245813,1,0,0:0:0:0:
64,192,245976,1,0,0:0:0:0:
448,192,245976,1,0,0:0:0:0:
192,192,246139,128,0,247443:0:0:0:0:
320,192,246139,128,0,247443:0:0:0:0:
64,192,246302,1,0,0:0:0:0:
64,192,246547,1,0,0:0:0:0:
448,192,246628,1,0,0:0:0:0:
64,192,246791,1,0,0:0:0:0:
448,192,246954,1,0,0:0:0:0:
64,192,247117,1,0,0:0:0:0:
448,192,247280,1,0,0:0:0:0:
448,192,247443,1,0,0:0:0:0:
320,192,247525,1,0,0:0:0:0:
192,192,247606,1,0,0:0:0:0:
64,192,247688,1,0,0:0:0:0:
192,192,247769,1,0,0:0:0:0:
320,192,247851,1,0,0:0:0:0:
448,192,247933,1,0,0:0:0:0:
320,192,248014,1,0,0:0:0:0:
192,192,248096,1,0,0:0:0:0:
64,192,248177,1,0,0:0:0:0:
448,192,248259,1,0,0:0:0:0:
320,192,248340,1,0,0:0:0:0:
64,192,248422,1,0,0:0:0:0:
192,192,248503,1,0,0:0:0:0:
320,192,248585,1,0,0:0:0:0:
448,192,248666,1,0,0:0:0:0:
64,192,248748,1,0,0:0:0:0:
320,192,248748,1,0,0:0:0:0:
192,192,248829,1,0,0:0:0:0:
320,192,248911,1,0,0:0:0:0:
448,192,248992,1,0,0:0:0:0:
320,192,249074,1,0,0:0:0:0:
192,192,249155,1,0,0:0:0:0:
64,192,249237,1,0,0:0:0:0:
192,192,249318,1,0,0:0:0:0:
320,192,249400,1,0,0:0:0:0:
448,192,249481,1,0,0:0:0:0:
320,192,249563,1,0,0:0:0:0:
192,192,249644,1,0,0:0:0:0:
64,192,249726,1,0,0:0:0:0:
448,192,249808,1,0,0:0:0:0:
320,192,249889,1,0,0:0:0:0:
192,192,249971,1,0,0:0:0:0:
64,192,250052,1,0,0:0:0:0:
320,192,250052,1,0,0:0:0:0:
192,192,250134,1,0,0:0:0:0:
320,192,250215,1,0,0:0:0:0:
448,192,250297,1,0,0:0:0:0:
320,192,250378,1,0,0:0:0:0:
192,192,250460,1,0,0:0:0:0:
64,192,250541,1,0,0:0:0:0:
192,192,250623,1,0,0:0:0:0:
320,192,250704,1,0,0:0:0:0:
448,192,250704,1,0,0:0:0:0:
192,192,250786,1,0,0:0:0:0:
64,192,250867,1,0,0:0:0:0:
192,192,250949,1,0,0:0:0:0:
320,192,251030,1,0,0:0:0:0:
448,192,251030,1,0,0:0:0:0:
64,192,251112,1,0,0:0:0:0:
192,192,251193,1,0,0:0:0:0:
320,192,251275,1,0,0:0:0:0:
192,192,251356,1,0,0:0:0:0:
448,192,251356,1,0,0:0:0:0:
320,192,251438,1,0,0:0:0:0:
192,192,251519,1,0,0:0:0:0:
64,192,251601,1,0,0:0:0:0:
448,192,251683,1,0,0:0:0:0:
320,192,251764,1,0,0:0:0:0:
192,192,251846,1,0,0:0:0:0:
64,192,251927,1,0,0:0:0:0:
320,192,252009,1,0,0:0:0:0:
192,192,252090,1,0,0:0:0:0:
64,192,252172,1,0,0:0:0:0:
192,192,252253,1,0,0:0:0:0:
320,192,252335,1,0,0:0:0:0:
448,192,252416,1,0,0:0:0:0:
320,192,252498,1,0,0:0:0:0:
192,192,252579,1,0,0:0:0:0:
320,192,252661,1,0,0:0:0:0:
448,192,252661,1,0,0:0:0:0:
64,192,252742,1,0,0:0:0:0:
192,192,252824,1,0,0:0:0:0:
320,192,252905,1,0,0:0:0:0:
448,192,252987,1,0,0:0:0:0:
320,192,253068,1,0,0:0:0:0:
64,192,253150,1,0,0:0:0:0:
192,192,253150,1,0,0:0:0:0:
320,192,253231,1,0,0:0:0:0:
448,192,253313,1,0,0:0:0:0:
320,192,253394,1,0,0:0:0:0:
192,192,253476,1,0,0:0:0:0:
64,192,253558,1,0,0:0:0:0:
192,192,253639,1,0,0:0:0:0:
320,192,253639,1,0,0:0:0:0:
448,192,253721,1,0,0:0:0:0:
320,192,253802,1,0,0:0:0:0:
192,192,253884,1,0,0:0:0:0:
64,192,253965,1,0,0:0:0:0:
448,192,253965,1,0,0:0:0:0:
192,192,254047,1,0,0:0:0:0:
320,192,254128,1,0,0:0:0:0:
448,192,254210,1,0,0:0:0:0:
320,192,254291,1,0,0:0:0:0:
192,192,254373,1,0,0:0:0:0:
64,192,254454,1,0,0:0:0:0:
192,192,254536,1,0,0:0:0:0:
320,192,254617,1,0,0:0:0:0:
448,192,254699,1,0,0:0:0:0:
320,192,254780,1,0,0:0:0:0:
192,192,254862,1,0,0:0:0:0:
64,192,254943,1,0,0:0:0:0:
448,192,255025,1,0,0:0:0:0:
320,192,255106,1,0,0:0:0:0:
192,192,255188,1,0,0:0:0:0:
64,192,255269,1,0,0:0:0:0:
320,192,255269,1,0,0:0:0:0:
448,192,255351,1,0,0:0:0:0:
320,192,255433,1,0,0:0:0:0:
192,192,255514,1,0,0:0:0:0:
64,192,255596,1,0,0:0:0:0:
192,192,255677,1,0,0:0:0:0:
320,192,255759,1,0,0:0:0:0:
448,192,255840,1,0,0:0:0:0:
320,192,255922,1,0,0:0:0:0:
64,192,256003,1,0,0:0:0:0:
192,192,256085,1,0,0:0:0:0:
448,192,256166,1,0,0:0:0:0:
320,192,256248,1,0,0:0:0:0:
64,192,256329,1,0,0:0:0:0:
192,192,256411,1,0,0:0:0:0:
448,192,256492,1,0,0:0:0:0:
320,192,256574,1,0,0:0:0:0:
192,192,256574,1,0,0:0:0:0:
64,192,256655,1,0,0:0:0:0:
192,192,256737,1,0,0:0:0:0:
320,192,256818,1,0,0:0:0:0:
448,192,256900,1,0,0:0:0:0:
64,192,256981,1,0,0:0:0:0:
192,192,257063,1,0,0:0:0:0:
320,192,257144,1,0,0:0:0:0:
448,192,257226,1,0,0:0:0:0:
320,192,257308,1,0,0:0:0:0:
192,192,257389,1,0,0:0:0:0:
64,192,257471,1,0,0:0:0:0:
192,192,257552,1,0,0:0:0:0:
448,192,257552,1,0,0:0:0:0:
320,192,257634,1,0,0:0:0:0:
192,192,257715,1,0,0:0:0:0:
64,192,257797,1,0,0:0:0:0:
320,192,257878,1,0,0:0:0:0:
64,192,257960,1,0,0:0:0:0:
448,192,258041,1,0,0:0:0:0:
192,192,258123,1,0,0:0:0:0:
320,192,258204,1,0,0:0:0:0:
64,192,258286,1,0,0:0:0:0:
448,192,258367,1,0,0:0:0:0:
192,192,258449,1,0,0:0:0:0:
320,192,258530,1,0,0:0:0:0:
64,192,258612,1,0,0:0:0:0:
448,192,258693,1,0,0:0:0:0:
192,192,258775,1,0,0:0:0:0:
320,192,258856,1,0,0:0:0:0:
192,192,258938,1,0,0:0:0:0:
320,192,259019,1,0,0:0:0:0:
192,192,259101,1,0,0:0:0:0:
320,192,259183,1,0,0:0:0:0:
448,192,259183,128,0,260487:0:0:0:0:
64,192,259346,1,0,0:0:0:0:
192,192,259346,1,0,0:0:0:0:
320,192,259509,1,0,0:0:0:0:
64,192,259672,1,0,0:0:0:0:
192,192,259672,1,0,0:0:0:0:
320,192,259835,1,0,0:0:0:0:
64,192,259998,1,0,0:0:0:0:
192,192,259998,1,0,0:0:0:0:
320,192,260161,1,0,0:0:0:0:
64,192,260324,1,0,0:0:0:0:
192,192,260324,1,0,0:0:0:0:
64,192,260487,128,0,261139:0:0:0:0:
192,192,260650,1,0,0:0:0:0:
320,192,260650,1,0,0:0:0:0:
448,192,260813,1,0,0:0:0:0:
192,192,260976,1,0,0:0:0:0:
320,192,260976,1,0,0:0:0:0:
192,192,261139,128,0,261465:0:0:0:0:
320,192,261302,1,0,0:0:0:0:
448,192,261302,1,0,0:0:0:0:
320,192,261465,128,0,261791:0:0:0:0:
64,192,261628,1,0,0:0:0:0:
192,192,261628,1,0,0:0:0:0:
448,192,261791,128,0,263911:0:0:0:0:
64,192,261954,1,0,0:0:0:0:
320,192,261954,1,0,0:0:0:0:
192,192,262117,1,0,0:0:0:0:
64,192,262280,1,0,0:0:0:0:
320,192,262280,1,0,0:0:0:0:
192,192,262443,1,0,0:0:0:0:
64,192,262606,1,0,0:0:0:0:
320,192,262606,1,0,0:0:0:0:
192,192,262769,1,0,0:0:0:0:
64,192,262933,1,0,0:0:0:0:
320,192,262933,1,0,0:0:0:0:
192,192,263096,1,0,0:0:0:0:
64,192,263259,1,0,0:0:0:0:
320,192,263259,1,0,0:0:0:0:
192,192,263422,1,0,0:0:0:0:
64,192,263585,1,0,0:0:0:0:
320,192,263585,1,0,0:0:0:0:
192,192,263748,1,0,0:0:0:0:
64,192,263911,128,0,264074:0:0:0:0:
320,192,263911,1,0,0:0:0:0:
192,192,264074,128,0,264237:0:0:0:0:
320,192,264237,128,0,264400:0:0:0:0:
64,192,264237,1,0,0:0:0:0:
448,192,264400,128,0,265052:0:0:0:0:
64,192,264563,1,0,0:0:0:0:
192,192,264563,1,0,0:0:0:0:
320,192,264726,1,0,0:0:0:0:
64,192,264889,1,0,0:0:0:0:
192,192,264889,1,0,0:0:0:0:
64,192,265052,128,0,265215:0:0:0:0:
448,192,265215,128,0,265541:0:0:0:0:
320,192,265215,1,0,0:0:0:0:
64,192,265378,1,0,0:0:0:0:
192,192,265541,128,0,266030:0:0:0:0:
320,192,265541,1,0,0:0:0:0:
64,192,265704,1,0,0:0:0:0:
320,192,265867,1,0,0:0:0:0:
448,192,265867,1,0,0:0:0:0:
448,192,266030,128,0,266356:0:0:0:0:
192,192,266193,1,0,0:0:0:0:
320,192,266193,1,0,0:0:0:0:
320,192,266356,128,0,266519:0:0:0:0:
192,192,266519,128,0,266683:0:0:0:0:
64,192,266519,1,0,0:0:0:0:
320,192,266764,1,0,0:0:0:0:
448,192,266846,128,0,269617:0:0:0:0:
320,192,266927,1,0,0:0:0:0:
192,192,267009,1,0,0:0:0:0:
64,192,267090,1,0,0:0:0:0:
320,192,267172,1,0,0:0:0:0:
192,192,267253,1,0,0:0:0:0:
64,192,267335,1,0,0:0:0:0:
320,192,267416,1,0,0:0:0:0:
192,192,267498,1,0,0:0:0:0:
64,192,267579,1,0,0:0:0:0:
320,192,267661,1,0,0:0:0:0:
192,192,267742,1,0,0:0:0:0:
64,192,267824,1,0,0:0:0:0:
320,192,267905,1,0,0:0:0:0:
192,192,267987,1,0,0:0:0:0:
64,192,268068,1,0,0:0:0:0:
192,192,268150,1,0,0:0:0:0:
320,192,268231,1,0,0:0:0:0:
64,192,268313,1,0,0:0:0:0:
192,192,268394,1,0,0:0:0:0:
320,192,268476,1,0,0:0:0:0:
192,192,268558,1,0,0:0:0:0:
64,192,268639,1,0,0:0:0:0:
192,192,268721,1,0,0:0:0:0:
320,192,268802,1,0,0:0:0:0:
192,192,268884,1,0,0:0:0:0:
64,192,268965,1,0,0:0:0:0:
192,192,269047,1,0,0:0:0:0:
320,192,269128,1,0,0:0:0:0:
192,192,269210,1,0,0:0:0:0:
64,192,269291,1,0,0:0:0:0:
192,192,269373,1,0,0:0:0:0:
320,192,269454,1,0,0:0:0:0:
192,192,269536,1,0,0:0:0:0:
64,192,269617,1,0,0:0:0:0:
320,192,269617,1,0,0:0:0:0:
192,192,269699,1,0,0:0:0:0:
320,192,269780,1,0,0:0:0:0:
448,192,269862,1,0,0:0:0:0:
64,192,269943,1,0,0:0:0:0:
192,192,270025,1,0,0:0:0:0:
320,192,270106,1,0,0:0:0:0:
448,192,270188,1,0,0:0:0:0:
320,192,270269,1,0,0:0:0:0:
192,192,270351,1,0,0:0:0:0:
64,192,270433,1,0,0:0:0:0:
192,192,270514,1,0,0:0:0:0:
320,192,270596,1,0,0:0:0:0:
448,192,270677,1,0,0:0:0:0:
320,192,270759,1,0,0:0:0:0:
192,192,270840,1,0,0:0:0:0:
64,192,270922,1,0,0:0:0:0:
192,192,271003,1,0,0:0:0:0:
320,192,271085,1,0,0:0:0:0:
192,192,271166,1,0,0:0:0:0:
448,192,271248,1,0,0:0:0:0:
320,192,271329,1,0,0:0:0:0:
192,192,271411,1,0,0:0:0:0:
64,192,271492,1,0,0:0:0:0:
448,192,271574,1,0,0:0:0:0:
320,192,271655,1,0,0:0:0:0:
192,192,271737,1,0,0:0:0:0:
64,192,271818,1,0,0:0:0:0:
448,192,271900,1,0,0:0:0:0:
320,192,271981,1,0,0:0:0:0:
192,192,272063,1,0,0:0:0:0:
320,192,272144,1,0,0:0:0:0:
448,192,272226,1,0,0:0:0:0:
64,192,272308,1,0,0:0:0:0:
192,192,272389,1,0,0:0:0:0:
320,192,272471,1,0,0:0:0:0:
448,192,272552,1,0,0:0:0:0:
64,192,272634,1,0,0:0:0:0:
192,192,272715,1,0,0:0:0:0:
320,192,272797,1,0,0:0:0:0:
448,192,272878,1,0,0:0:0:0:
192,192,272960,1,0,0:0:0:0:
320,192,273041,1,0,0:0:0:0:
448,192,273123,1,0,0:0:0:0:
320,192,273204,1,0,0:0:0:0:
192,192,273286,1,0,0:0:0:0:
448,192,273367,1,0,0:0:0:0:
320,192,273449,1,0,0:0:0:0:
192,192,273530,1,0,0:0:0:0:
64,192,273612,1,0,0:0:0:0:
192,192,273693,1,0,0:0:0:0:
320,192,273775,1,0,0:0:0:0:
448,192,273856,1,0,0:0:0:0:
320,192,273938,1,0,0:0:0:0:
192,192,274019,1,0,0:0:0:0:
64,192,274101,1,0,0:0:0:0:
448,192,274183,1,0,0:0:0:0:
320,192,274264,1,0,0:0:0:0:
192,192,274346,1,0,0:0:0:0:
64,192,274427,1,0,0:0:0:0:
448,192,274509,1,0,0:0:0:0:
320,192,274590,1,0,0:0:0:0:
192,192,274672,1,0,0:0:0:0:
64,192,274753,1,0,0:0:0:0:
192,192,274835,1,0,0:0:0:0:
320,192,274916,1,0,0:0:0:0:
448,192,274998,1,0,0:0:0:0:
320,192,275079,1,0,0:0:0:0:
64,192,275161,1,0,0:0:0:0:
192,192,275242,1,0,0:0:0:0:
320,192,275324,1,0,0:0:0:0:
448,192,275405,1,0,0:0:0:0:
64,192,275487,1,0,0:0:0:0:
192,192,275568,1,0,0:0:0:0:
320,192,275650,1,0,0:0:0:0:
448,192,275731,1,0,0:0:0:0:
64,192,275813,1,0,0:0:0:0:
192,192,275894,1,0,0:0:0:0:
320,192,275976,1,0,0:0:0:0:
192,192,276058,1,0,0:0:0:0:
320,192,276139,1,0,0:0:0:0:
448,192,276221,1,0,0:0:0:0:
320,192,276302,1,0,0:0:0:0:
192,192,276384,1,0,0:0:0:0:
64,192,276465,1,0,0:0:0:0:
192,192,276547,1,0,0:0:0:0:
320,192,276628,1,0,0:0:0:0:
448,192,276710,1,0,0:0:0:0:
320,192,276791,1,0,0:0:0:0:
64,192,276873,1,0,0:0:0:0:
192,192,276954,1,0,0:0:0:0:
320,192,277036,1,0,0:0:0:0:
448,192,277117,1,0,0:0:0:0:
64,192,277199,1,0,0:0:0:0:
192,192,277280,1,0,0:0:0:0:
448,192,277362,1,0,0:0:0:0:
320,192,277443,1,0,0:0:0:0:
64,192,277525,1,0,0:0:0:0:
192,192,277606,1,0,0:0:0:0:
448,192,277688,1,0,0:0:0:0:
320,192,277769,1,0,0:0:0:0:
64,192,277851,1,0,0:0:0:0:
192,192,277933,1,0,0:0:0:0:
448,192,278014,1,0,0:0:0:0:
320,192,278096,1,0,0:0:0:0:
192,192,278177,1,0,0:0:0:0:
64,192,278259,1,0,0:0:0:0:
192,192,278340,1,0,0:0:0:0:
320,192,278422,1,0,0:0:0:0:
448,192,278503,1,0,0:0:0:0:
320,192,278585,1,0,0:0:0:0:
192,192,278666,1,0,0:0:0:0:
64,192,278748,1,0,0:0:0:0:
320,192,278829,1,0,0:0:0:0:
64,192,278911,1,0,0:0:0:0:
320,192,278992,1,0,0:0:0:0:
64,192,279074,1,0,0:0:0:0:
320,192,279155,1,0,0:0:0:0:
64,192,279237,1,0,0:0:0:0:
320,192,279318,1,0,0:0:0:0:
192,192,279400,1,0,0:0:0:0:
448,192,279481,1,0,0:0:0:0:
192,192,279563,1,0,0:0:0:0:
448,192,279644,1,0,0:0:0:0:
192,192,279726,1,0,0:0:0:0:
448,192,279808,1,0,0:0:0:0:
192,192,279889,1,0,0:0:0:0:
448,192,279971,1,0,0:0:0:0:
192,192,280052,1,0,0:0:0:0:
448,192,280134,1,0,0:0:0:0:
320,192,280215,1,0,0:0:0:0:
192,192,280297,1,0,0:0:0:0:
64,192,280378,1,0,0:0:0:0:
448,192,280460,1,0,0:0:0:0:
320,192,280541,1,0,0:0:0:0:
192,192,280623,1,0,0:0:0:0:
64,192,280704,1,0,0:0:0:0:
192,192,280786,1,0,0:0:0:0:
320,192,280867,1,0,0:0:0:0:
448,192,280949,1,0,0:0:0:0:
64,192,281030,1,0,0:0:0:0:
192,192,281112,1,0,0:0:0:0:
448,192,281193,1,0,0:0:0:0:
320,192,281275,1,0,0:0:0:0:
64,192,281356,1,0,0:0:0:0:
192,192,281438,1,0,0:0:0:0:
320,192,281519,1,0,0:0:0:0:
448,192,281601,1,0,0:0:0:0:
192,192,281683,1,0,0:0:0:0:
64,192,281764,1,0,0:0:0:0:
320,192,281846,1,0,0:0:0:0:
448,192,281927,1,0,0:0:0:0:
192,192,282009,1,0,0:0:0:0:
64,192,282090,1,0,0:0:0:0:
192,192,282172,1,0,0:0:0:0:
320,192,282253,1,0,0:0:0:0:
448,192,282335,1,0,0:0:0:0:
320,192,282416,1,0,0:0:0:0:
192,192,282498,1,0,0:0:0:0:
64,192,282579,1,0,0:0:0:0:
192,192,282661,1,0,0:0:0:0:
320,192,282742,1,0,0:0:0:0:
448,192,282824,1,0,0:0:0:0:
192,192,282905,1,0,0:0:0:0:
64,192,282987,1,0,0:0:0:0:
320,192,283068,1,0,0:0:0:0:
448,192,283150,1,0,0:0:0:0:
192,192,283231,1,0,0:0:0:0:
64,192,283313,1,0,0:0:0:0:
192,192,283394,1,0,0:0:0:0:
320,192,283476,1,0,0:0:0:0:
448,192,283558,1,0,0:0:0:0:
64,192,283639,1,0,0:0:0:0:
192,192,283721,1,0,0:0:0:0:
320,192,283802,1,0,0:0:0:0:
448,192,283884,1,0,0:0:0:0:
320,192,283965,1,0,0:0:0:0:
64,192,284047,1,0,0:0:0:0:
192,192,284128,1,0,0:0:0:0:
448,192,284210,1,0,0:0:0:0:
320,192,284291,1,0,0:0:0:0:
64,192,284373,1,0,0:0:0:0:
192,192,284454,1,0,0:0:0:0:
448,192,284536,1,0,0:0:0:0:
320,192,284617,1,0,0:0:0:0:
192,192,284699,1,0,0:0:0:0:
64,192,284780,1,0,0:0:0:0:
448,192,284862,1,0,0:0:0:0:
320,192,284943,1,0,0:0:0:0:
192,192,285025,1,0,0:0:0:0:
64,192,285106,1,0,0:0:0:0:
192,192,285188,1,0,0:0:0:0:
320,192,285269,1,0,0:0:0:0:
448,192,285351,1,0,0:0:0:0:
64,192,285433,1,0,0:0:0:0:
192,192,285514,1,0,0:0:0:0:
320,192,285596,1,0,0:0:0:0:
448,192,285677,1,0,0:0:0:0:
64,192,285759,1,0,0:0:0:0:
192,192,285840,1,0,0:0:0:0:
64,192,285922,1,0,0:0:0:0:
192,192,286003,1,0,0:0:0:0:
320,192,286085,1,0,0:0:0:0:
448,192,286166,1,0,0:0:0:0:
320,192,286248,1,0,0:0:0:0:
448,192,286329,1,0,0:0:0:0:
320,192,286411,1,0,0:0:0:0:
192,192,286492,1,0,0:0:0:0:
64,192,286574,1,0,0:0:0:0:
192,192,286655,1,0,0:0:0:0:
448,192,286737,1,0,0:0:0:0:
320,192,286818,1,0,0:0:0:0:
192,192,286900,1,0,0:0:0:0:
64,192,286981,1,0,0:0:0:0:
192,192,287063,1,0,0:0:0:0:
320,192,287144,1,0,0:0:0:0:
448,192,287226,1,0,0:0:0:0:
320,192,287308,1,0,0:0:0:0:
192,192,287389,1,0,0:0:0:0:
64,192,287471,1,0,0:0:0:0:
192,192,287552,1,0,0:0:0:0:
320,192,287634,1,0,0:0:0:0:
448,192,287715,1,0,0:0:0:0:
320,192,287797,1,0,0:0:0:0:
192,192,287878,1,0,0:0:0:0:
320,192,287960,1,0,0:0:0:0:
192,192,288041,1,0,0:0:0:0:
320,192,288123,1,0,0:0:0:0:
192,192,288204,1,0,0:0:0:0:
320,192,288286,1,0,0:0:0:0:
192,192,288367,1,0,0:0:0:0:
320,192,288449,1,0,0:0:0:0:
448,192,288530,1,0,0:0:0:0:
320,192,288612,1,0,0:0:0:0:
192,192,288693,1,0,0:0:0:0:
64,192,288775,1,0,0:0:0:0:
448,192,288856,1,0,0:0:0:0:
64,192,288938,1,0,0:0:0:0:
448,192,289019,1,0,0:0:0:0:
64,192,289101,1,0,0:0:0:0:
448,192,289183,1,0,0:0:0:0:
320,192,289264,1,0,0:0:0:0:
192,192,289346,1,0,0:0:0:0:
64,192,289427,1,0,0:0:0:0:
320,192,289509,1,0,0:0:0:0:
64,192,289590,1,0,0:0:0:0:
320,192,289672,1,0,0:0:0:0:
64,192,289753,1,0,0:0:0:0:
320,192,289835,1,0,0:0:0:0:
448,192,289916,1,0,0:0:0:0:
320,192,289998,1,0,0:0:0:0:
192,192,290079,1,0,0:0:0:0:
448,192,290161,1,0,0:0:0:0:
192,192,290242,1,0,0:0:0:0:
448,192,290324,1,0,0:0:0:0:
192,192,290405,1,0,0:0:0:0:
448,192,290487,1,0,0:0:0:0:
320,192,290568,1,0,0:0:0:0:
192,192,290650,1,0,0:0:0:0:
64,192,290731,1,0,0:0:0:0:
448,192,290813,1,0,0:0:0:0:
320,192,290894,1,0,0:0:0:0:
192,192,290976,1,0,0:0:0:0:
64,192,291058,1,0,0:0:0:0:
192,192,291139,1,0,0:0:0:0:
320,192,291221,1,0,0:0:0:0:
448,192,291302,1,0,0:0:0:0:
64,192,291384,1,0,0:0:0:0:
192,192,291465,1,0,0:0:0:0:
320,192,291547,1,0,0:0:0:0:
64,192,291628,1,0,0:0:0:0:
192,192,291710,1,0,0:0:0:0:
320,192,291791,1,0,0:0:0:0:
448,192,291873,1,0,0:0:0:0:
64,192,291954,1,0,0:0:0:0:
192,192,292036,1,0,0:0:0:0:
320,192,292117,1,0,0:0:0:0:
448,192,292199,1,0,0:0:0:0:
320,192,292280,1,0,0:0:0:0:
192,192,292362,1,0,0:0:0:0:
64,192,292443,1,0,0:0:0:0:
448,192,292525,1,0,0:0:0:0:
320,192,292606,1,0,0:0:0:0:
192,192,292688,1,0,0:0:0:0:
64,192,292769,1,0,0:0:0:0:
448,192,292851,1,0,0:0:0:0:
320,192,292933,1,0,0:0:0:0:
192,192,293014,1,0,0:0:0:0:
64,192,293096,1,0,0:0:0:0:
192,192,293177,1,0,0:0:0:0:
448,192,293259,1,0,0:0:0:0:
320,192,293340,1,0,0:0:0:0:
64,192,293422,1,0,0:0:0:0:
192,192,293503,1,0,0:0:0:0:
448,192,293585,1,0,0:0:0:0:
320,192,293666,1,0,0:0:0:0:
192,192,293748,1,0,0:0:0:0:
64,192,293829,1,0,0:0:0:0:
192,192,293911,1,0,0:0:0:0:
320,192,293992,1,0,0:0:0:0:
64,192,294074,1,0,0:0:0:0:
192,192,294155,1,0,0:0:0:0:
320,192,294237,1,0,0:0:0:0:
448,192,294318,1,0,0:0:0:0:
320,192,294400,1,0,0:0:0:0:
192,192,294481,1,0,0:0:0:0:
320,192,294563,1,0,0:0:0:0:
448,192,294644,1,0,0:0:0:0:
320,192,294726,1,0,0:0:0:0:
192,192,294808,1,0,0:0:0:0:
64,192,294889,1,0,0:0:0:0:
192,192,294971,1,0,0:0:0:0:
320,192,295052,1,0,0:0:0:0:
192,192,295134,1,0,0:0:0:0:
64,192,295215,1,0,0:0:0:0:
320,192,295297,1,0,0:0:0:0:
448,192,295378,1,0,0:0:0:0:
192,192,295460,1,0,0:0:0:0:
64,192,295541,1,0,0:0:0:0:
320,192,295623,1,0,0:0:0:0:
448,192,295704,1,0,0:0:0:0:
320,192,295786,1,0,0:0:0:0:
192,192,295867,1,0,0:0:0:0:
64,192,295949,1,0,0:0:0:0:
448,192,296030,1,0,0:0:0:0:
320,192,296112,1,0,0:0:0:0:
192,192,296193,1,0,0:0:0:0:
64,192,296275,1,0,0:0:0:0:
448,192,296356,1,0,0:0:0:0:
320,192,296438,1,0,0:0:0:0:
192,192,296519,1,0,0:0:0:0:
64,192,296601,1,0,0:0:0:0:
192,192,296683,1,0,0:0:0:0:
64,192,296764,1,0,0:0:0:0:
192,192,296846,1,0,0:0:0:0:
320,192,296927,1,0,0:0:0:0:
448,192,297009,1,0,0:0:0:0:
320,192,297090,1,0,0:0:0:0:
448,192,297172,1,0,0:0:0:0:
320,192,297253,1,0,0:0:0:0:
192,192,297335,1,0,0:0:0:0:
64,192,297416,1,0,0:0:0:0:
320,192,297498,1,0,0:0:0:0:
192,192,297579,1,0,0:0:0:0:
64,192,297661,1,0,0:0:0:0:
192,192,297742,1,0,0:0:0:0:
448,192,297824,1,0,0:0:0:0:
320,192,297905,1,0,0:0:0:0:
192,192,297987,1,0,0:0:0:0:
64,192,298068,1,0,0:0:0:0:
192,192,298150,1,0,0:0:0:0:
320,192,298231,1,0,0:0:0:0:
448,192,298313,1,0,0:0:0:0:
320,192,298394,1,0,0:0:0:0:
192,192,298476,1,0,0:0:0:0:
320,192,298558,1,0,0:0:0:0:
192,192,298639,1,0,0:0:0:0:
320,192,298721,1,0,0:0:0:0:
192,192,298802,1,0,0:0:0:0:
320,192,298884,1,0,0:0:0:0:
192,192,298965,1,0,0:0:0:0:
320,192,299047,1,0,0:0:0:0:
192,192,299128,1,0,0:0:0:0:
320,192,299210,1,0,0:0:0:0:
448,192,299291,1,0,0:0:0:0:
320,192,299373,1,0,0:0:0:0:
192,192,299454,1,0,0:0:0:0:
64,192,299536,1,0,0:0:0:0:
448,192,299617,1,0,0:0:0:0:
64,192,299699,1,0,0:0:0:0:
320,192,299780,1,0,0:0:0:0:
64,192,299862,1,0,0:0:0:0:
448,192,299943,1,0,0:0:0:0:
64,192,300025,1,0,0:0:0:0:
320,192,300106,1,0,0:0:0:0:
64,192,300188,1,0,0:0:0:0:
448,192,300269,1,0,0:0:0:0:
64,192,300351,1,0,0:0:0:0:
320,192,300433,1,0,0:0:0:0:
64,192,300514,1,0,0:0:0:0:
448,192,300596,1,0,0:0:0:0:
320,192,300677,1,0,0:0:0:0:
192,192,300759,1,0,0:0:0:0:
64,192,300840,1,0,0:0:0:0:
192,192,300922,1,0,0:0:0:0:
448,192,301003,1,0,0:0:0:0:
320,192,301085,1,0,0:0:0:0:
192,192,301166,1,0,0:0:0:0:
64,192,301248,1,0,0:0:0:0:
192,192,301329,1,0,0:0:0:0:
320,192,301411,1,0,0:0:0:0:
448,192,301492,1,0,0:0:0:0:
320,192,301574,1,0,0:0:0:0:
64,192,301655,1,0,0:0:0:0:
192,192,301737,1,0,0:0:0:0:
320,192,301818,1,0,0:0:0:0:
448,192,301900,1,0,0:0:0:0:
192,192,301981,1,0,0:0:0:0:
64,192,302063,1,0,0:0:0:0:
320,192,302144,1,0,0:0:0:0:
448,192,302226,1,0,0:0:0:0:
192,192,302308,1,0,0:0:0:0:
64,192,302389,1,0,0:0:0:0:
192,192,302471,1,0,0:0:0:0:
320,192,302552,1,0,0:0:0:0:
448,192,302634,1,0,0:0:0:0:
64,192,302715,1,0,0:0:0:0:
192,192,302797,1,0,0:0:0:0:
320,192,302878,1,0,0:0:0:0:
448,192,302960,1,0,0:0:0:0:
64,192,303041,1,0,0:0:0:0:
192,192,303123,1,0,0:0:0:0:
320,192,303204,1,0,0:0:0:0:
448,192,303286,1,0,0:0:0:0:
64,192,303367,1,0,0:0:0:0:
192,192,303449,1,0,0:0:0:0:
320,192,303530,1,0,0:0:0:0:
448,192,303612,1,0,0:0:0:0:
320,192,303693,1,0,0:0:0:0:
192,192,303775,1,0,0:0:0:0:
64,192,303856,1,0,0:0:0:0:
192,192,303938,1,0,0:0:0:0:
320,192,304019,1,0,0:0:0:0:
192,192,304101,1,0,0:0:0:0:
64,192,304183,1,0,0:0:0:0:
448,192,304264,1,0,0:0:0:0:
320,192,304346,1,0,0:0:0:0:
192,192,304427,1,0,0:0:0:0:
320,192,304509,1,0,0:0:0:0:
448,192,304590,1,0,0:0:0:0:
64,192,304672,1,0,0:0:0:0:
192,192,304753,1,0,0:0:0:0:
320,192,304835,1,0,0:0:0:0:
448,192,304916,1,0,0:0:0:0:
320,192,304998,1,0,0:0:0:0:
192,192,305079,1,0,0:0:0:0:
64,192,305161,1,0,0:0:0:0:
448,192,305242,1,0,0:0:0:0:
320,192,305324,1,0,0:0:0:0:
192,192,305405,1,0,0:0:0:0:
64,192,305487,1,0,0:0:0:0:
448,192,305568,1,0,0:0:0:0:
320,192,305650,1,0,0:0:0:0:
192,192,305731,1,0,0:0:0:0:
64,192,305813,1,0,0:0:0:0:
448,192,305894,1,0,0:0:0:0:
320,192,305976,1,0,0:0:0:0:
192,192,306058,1,0,0:0:0:0:
64,192,306139,1,0,0:0:0:0:
192,192,306221,1,0,0:0:0:0:
320,192,306302,1,0,0:0:0:0:
448,192,306384,1,0,0:0:0:0:
320,192,306465,1,0,0:0:0:0:
192,192,306547,1,0,0:0:0:0:
320,192,306628,1,0,0:0:0:0:
448,192,306710,1,0,0:0:0:0:
64,192,306791,1,0,0:0:0:0:
192,192,306873,1,0,0:0:0:0:
320,192,306954,1,0,0:0:0:0:
192,192,307036,1,0,0:0:0:0:
64,192,307117,1,0,0:0:0:0:
448,192,307199,1,0,0:0:0:0:
320,192,307280,1,0,0:0:0:0:
192,192,307362,1,0,0:0:0:0:
64,192,307443,1,0,0:0:0:0:
192,192,307525,1,0,0:0:0:0:
320,192,307606,1,0,0:0:0:0:
448,192,307688,1,0,0:0:0:0:
320,192,307769,1,0,0:0:0:0:
64,192,307851,1,0,0:0:0:0:
192,192,307933,1,0,0:0:0:0:
448,192,308014,1,0,0:0:0:0:
320,192,308096,1,0,0:0:0:0:
192,192,308177,1,0,0:0:0:0:
64,192,308259,1,0,0:0:0:0:
320,192,308340,1,0,0:0:0:0:
448,192,308422,1,0,0:0:0:0:
192,192,308503,1,0,0:0:0:0:
64,192,308585,1,0,0:0:0:0:
320,192,308666,1,0,0:0:0:0:
448,192,308748,1,0,0:0:0:0:
64,192,308748,1,0,0:0:0:0:
320,192,308829,1,0,0:0:0:0:
192,192,308911,1,0,0:0:0:0:
320,192,308992,1,0,0:0:0:0:
192,192,309074,1,0,0:0:0:0:
320,192,309155,1,0,0:0:0:0:
448,192,309237,1,0,0:0:0:0:
64,192,309237,1,0,0:0:0:0:
320,192,309318,1,0,0:0:0:0:
192,192,309400,1,0,0:0:0:0:
320,192,309481,1,0,0:0:0:0:
192,192,309563,1,0,0:0:0:0:
320,192,309644,1,0,0:0:0:0:
64,192,309726,1,0,0:0:0:0:
448,192,309726,1,0,0:0:0:0:
192,192,309808,1,0,0:0:0:0:
320,192,309889,1,0,0:0:0:0:
448,192,309971,1,0,0:0:0:0:
64,192,310052,128,0,311030:0:0:0:0:
192,192,310052,128,0,311030:0:0:0:0:
320,192,310052,128,0,311030:0:0:0:0:
448,192,311193,1,0,0:0:0:0:
320,192,311248,1,0,0:0:0:0:
192,192,311302,1,0,0:0:0:0:
64,192,311356,1,0,0:0:0:0:
192,192,312009,1,0,0:0:0:0:
320,192,312009,1,0,0:0:0:0:
192,192,312172,1,0,0:0:0:0:
320,192,312172,1,0,0:0:0:0:
64,192,312661,1,0,0:0:0:0:
192,192,312661,1,0,0:0:0:0:
320,192,312987,1,0,0:0:0:0:
448,192,312987,1,0,0:0:0:0:
192,192,313313,1,0,0:0:0:0:
320,192,313313,1,0,0:0:0:0:
192,192,313476,1,0,0:0:0:0:
320,192,313476,1,0,0:0:0:0:
448,192,313802,1,0,0:0:0:0:
320,192,313884,1,0,0:0:0:0:
64,192,313965,1,0,0:0:0:0:
192,192,313965,1,0,0:0:0:0:
192,192,314617,1,0,0:0:0:0:
320,192,314617,1,0,0:0:0:0:
192,192,314780,1,0,0:0:0:0:
320,192,314780,1,0,0:0:0:0:
192,192,315269,1,0,0:0:0:0:
320,192,315269,1,0,0:0:0:0:
192,192,315596,1,0,0:0:0:0:
320,192,315596,1,0,0:0:0:0:
448,192,315759,1,0,0:0:0:0:
320,192,315813,1,0,0:0:0:0:
192,192,315867,1,0,0:0:0:0:
64,192,315922,1,0,0:0:0:0:
320,192,315922,1,0,0:0:0:0:
192,192,316085,1,0,0:0:0:0:
320,192,316085,1,0,0:0:0:0:
448,192,316248,1,0,0:0:0:0:
64,192,316411,1,0,0:0:0:0:
192,192,316574,1,0,0:0:0:0:
320,192,316574,1,0,0:0:0:0:
448,192,316574,1,0,0:0:0:0:
64,192,316900,1,0,0:0:0:0:
192,192,316900,1,0,0:0:0:0:
320,192,316900,1,0,0:0:0:0:
192,192,317063,1,0,0:0:0:0:
64,192,317144,1,0,0:0:0:0:
448,192,317226,1,0,0:0:0:0:
192,192,317226,1,0,0:0:0:0:
320,192,317226,1,0,0:0:0:0:
320,192,317389,1,0,0:0:0:0:
64,192,317552,1,0,0:0:0:0:
192,192,317552,1,0,0:0:0:0:
320,192,317552,1,0,0:0:0:0:
192,192,317878,1,0,0:0:0:0:
320,192,317878,1,0,0:0:0:0:
448,192,317878,1,0,0:0:0:0:
64,192,318204,1,0,0:0:0:0:
320,192,318204,1,0,0:0:0:0:
448,192,318204,1,0,0:0:0:0:
64,192,318530,1,0,0:0:0:0:
192,192,318530,1,0,0:0:0:0:
448,192,318530,1,0,0:0:0:0:
320,192,318693,1,0,0:0:0:0:
448,192,318693,1,0,0:0:0:0:
64,192,318693,1,0,0:0:0:0:
192,192,319019,1,0,0:0:0:0:
64,192,319183,1,0,0:0:0:0:
320,192,319183,1,0,0:0:0:0:
448,192,319183,1,0,0:0:0:0:
448,192,319672,1,0,0:0:0:0:
320,192,319726,1,0,0:0:0:0:
192,192,319780,1,0,0:0:0:0:
64,192,319835,1,0,0:0:0:0:
320,192,319835,1,0,0:0:0:0:
448,192,319835,1,0,0:0:0:0:
448,192,319998,1,0,0:0:0:0:
192,192,319998,1,0,0:0:0:0:
64,192,319998,1,0,0:0:0:0:
192,192,320324,1,0,0:0:0:0:
64,192,320405,1,0,0:0:0:0:
320,192,320487,1,0,0:0:0:0:
448,192,320487,1,0,0:0:0:0:
192,192,320487,1,0,0:0:0:0:
320,192,320650,1,0,0:0:0:0:
448,192,320731,1,0,0:0:0:0:
64,192,320813,1,0,0:0:0:0:
320,192,320813,1,0,0:0:0:0:
192,192,320813,1,0,0:0:0:0:
192,192,321139,1,0,0:0:0:0:
64,192,321139,1,0,0:0:0:0:
448,192,321139,1,0,0:0:0:0:
192,192,321302,1,0,0:0:0:0:
320,192,321302,1,0,0:0:0:0:
448,192,321302,1,0,0:0:0:0:
448,192,321465,1,0,0:0:0:0:
320,192,321547,1,0,0:0:0:0:
192,192,321628,1,0,0:0:0:0:
64,192,321710,1,0,0:0:0:0:
192,192,321791,1,0,0:0:0:0:
448,192,321791,1,0,0:0:0:0:
320,192,321873,1,0,0:0:0:0:
448,192,321954,1,0,0:0:0:0:
320,192,322036,1,0,0:0:0:0:
192,192,322117,1,0,0:0:0:0:
64,192,322199,1,0,0:0:0:0:
192,192,322280,1,0,0:0:0:0:
320,192,322362,1,0,0:0:0:0:
192,192,322443,1,0,0:0:0:0:
64,192,322443,1,0,0:0:0:0:
320,192,322525,1,0,0:0:0:0:
64,192,322606,1,0,0:0:0:0:
192,192,322606,1,0,0:0:0:0:
448,192,322688,1,0,0:0:0:0:
320,192,322769,1,0,0:0:0:0:
192,192,322851,1,0,0:0:0:0:
64,192,322933,1,0,0:0:0:0:
192,192,323014,1,0,0:0:0:0:
320,192,323096,1,0,0:0:0:0:
448,192,323096,1,0,0:0:0:0:
64,192,323177,1,0,0:0:0:0:
192,192,323259,1,0,0:0:0:0:
320,192,323340,1,0,0:0:0:0:
192,192,323422,1,0,0:0:0:0:
448,192,323422,1,0,0:0:0:0:
64,192,323503,1,0,0:0:0:0:
192,192,323585,1,0,0:0:0:0:
320,192,323666,1,0,0:0:0:0:
64,192,323748,1,0,0:0:0:0:
192,192,323748,1,0,0:0:0:0:
448,192,323829,1,0,0:0:0:0:
192,192,323911,1,0,0:0:0:0:
320,192,323911,1,0,0:0:0:0:
64,192,323992,1,0,0:0:0:0:
192,192,324074,1,0,0:0:0:0:
320,192,324074,1,0,0:0:0:0:
448,192,324155,1,0,0:0:0:0:
320,192,324237,1,0,0:0:0:0:
192,192,324318,1,0,0:0:0:0:
64,192,324400,1,0,0:0:0:0:
320,192,324400,1,0,0:0:0:0:
448,192,324481,1,0,0:0:0:0:
320,192,324563,1,0,0:0:0:0:
192,192,324644,1,0,0:0:0:0:
64,192,324726,1,0,0:0:0:0:
192,192,324808,1,0,0:0:0:0:
320,192,324889,1,0,0:0:0:0:
448,192,324971,1,0,0:0:0:0:
64,192,325052,1,0,0:0:0:0:
320,192,325052,1,0,0:0:0:0:
192,192,325134,1,0,0:0:0:0:
320,192,325215,1,0,0:0:0:0:
448,192,325215,1,0,0:0:0:0:
64,192,325297,1,0,0:0:0:0:
192,192,325378,1,0,0:0:0:0:
320,192,325460,1,0,0:0:0:0:
448,192,325541,1,0,0:0:0:0:
320,192,325623,1,0,0:0:0:0:
64,192,325704,1,0,0:0:0:0:
448,192,325704,1,0,0:0:0:0:
192,192,325786,1,0,0:0:0:0:
320,192,325867,1,0,0:0:0:0:
448,192,325949,1,0,0:0:0:0:
192,192,326030,1,0,0:0:0:0:
320,192,326030,1,0,0:0:0:0:
64,192,326112,1,0,0:0:0:0:
192,192,326193,1,0,0:0:0:0:
320,192,326275,1,0,0:0:0:0:
64,192,326356,1,0,0:0:0:0:
192,192,326356,1,0,0:0:0:0:
320,192,326438,1,0,0:0:0:0:
64,192,326519,1,0,0:0:0:0:
192,192,326519,1,0,0:0:0:0:
448,192,326601,1,0,0:0:0:0:
320,192,326683,1,0,0:0:0:0:
64,192,326764,1,0,0:0:0:0:
192,192,326846,1,0,0:0:0:0:
448,192,326927,1,0,0:0:0:0:
192,192,327009,1,0,0:0:0:0:
320,192,327009,1,0,0:0:0:0:
64,192,327090,1,0,0:0:0:0:
192,192,327172,1,0,0:0:0:0:
320,192,327253,1,0,0:0:0:0:
192,192,327335,1,0,0:0:0:0:
448,192,327335,1,0,0:0:0:0:
320,192,327416,1,0,0:0:0:0:
192,192,327498,1,0,0:0:0:0:
64,192,327579,1,0,0:0:0:0:
192,192,327661,1,0,0:0:0:0:
320,192,327661,1,0,0:0:0:0:
448,192,327742,1,0,0:0:0:0:
320,192,327824,1,0,0:0:0:0:
192,192,327905,1,0,0:0:0:0:
64,192,327987,1,0,0:0:0:0:
320,192,327987,1,0,0:0:0:0:
192,192,328068,1,0,0:0:0:0:
320,192,328150,1,0,0:0:0:0:
448,192,328231,1,0,0:0:0:0:
192,192,328313,1,0,0:0:0:0:
320,192,328313,1,0,0:0:0:0:
64,192,328394,1,0,0:0:0:0:
192,192,328476,1,0,0:0:0:0:
320,192,328558,1,0,0:0:0:0:
64,192,328639,1,0,0:0:0:0:
192,192,328639,1,0,0:0:0:0:
448,192,328721,1,0,0:0:0:0:
320,192,328802,1,0,0:0:0:0:
192,192,328884,1,0,0:0:0:0:
320,192,328965,1,0,0:0:0:0:
448,192,328965,1,0,0:0:0:0:
64,192,329047,1,0,0:0:0:0:
320,192,329128,1,0,0:0:0:0:
448,192,329128,1,0,0:0:0:0:
64,192,329210,1,0,0:0:0:0:
320,192,329291,1,0,0:0:0:0:
448,192,329291,1,0,0:0:0:0:
192,192,329373,1,0,0:0:0:0:
64,192,329454,1,0,0:0:0:0:
192,192,329536,1,0,0:0:0:0:
320,192,329617,1,0,0:0:0:0:
64,192,329617,1,0,0:0:0:0:
448,192,329699,1,0,0:0:0:0:
320,192,329780,1,0,0:0:0:0:
192,192,329862,1,0,0:0:0:0:
320,192,329943,1,0,0:0:0:0:
448,192,329943,1,0,0:0:0:0:
64,192,330025,1,0,0:0:0:0:
192,192,330106,1,0,0:0:0:0:
320,192,330188,1,0,0:0:0:0:
192,192,330269,1,0,0:0:0:0:
448,192,330269,1,0,0:0:0:0:
320,192,330351,1,0,0:0:0:0:
192,192,330433,1,0,0:0:0:0:
64,192,330514,1,0,0:0:0:0:
192,192,330596,1,0,0:0:0:0:
320,192,330596,1,0,0:0:0:0:
448,192,330677,1,0,0:0:0:0:
320,192,330759,1,0,0:0:0:0:
192,192,330840,1,0,0:0:0:0:
64,192,330922,1,0,0:0:0:0:
320,192,330922,1,0,0:0:0:0:
192,192,331003,1,0,0:0:0:0:
320,192,331085,1,0,0:0:0:0:
448,192,331166,1,0,0:0:0:0:
64,192,331248,1,0,0:0:0:0:
192,192,331248,1,0,0:0:0:0:
320,192,331329,1,0,0:0:0:0:
448,192,331411,1,0,0:0:0:0:
320,192,331492,1,0,0:0:0:0:
64,192,331574,1,0,0:0:0:0:
192,192,331574,1,0,0:0:0:0:
320,192,331655,1,0,0:0:0:0:
448,192,331655,1,0,0:0:0:0:
64,192,331737,1,0,0:0:0:0:
192,192,331737,1,0,0:0:0:0:
320,192,331818,1,0,0:0:0:0:
448,192,331818,1,0,0:0:0:0:
64,192,331900,1,0,0:0:0:0:
192,192,331900,1,0,0:0:0:0:
320,192,331981,1,0,0:0:0:0:
448,192,331981,1,0,0:0:0:0:
64,192,332063,1,0,0:0:0:0:
192,192,332063,1,0,0:0:0:0:
320,192,332144,1,0,0:0:0:0:
448,192,332144,1,0,0:0:0:0:
64,192,332226,128,0,363204:0:0:0:0:
192,192,332226,128,0,363204:0:0:0:0:
