osu file format v14

[General]
AudioFilename: Demetori - Necrofantasia ~ Remix.mp3
AudioLeadIn: 0
PreviewTime: 237533
Countdown: 0
SampleSet: Normal
StackLeniency: 0.7
Mode: 3
LetterboxInBreaks: 0
SpecialStyle: 0
WidescreenStoryboard: 0

[Editor]
Bookmarks: 11783
DistanceSpacing: 1
BeatDivisor: 4
GridSize: 8
TimelineZoom: 2.399999

[Metadata]
Title:[Trash-]'s Training Pack[Boss]
TitleUnicode:[Trash-]'s Training Pack[Boss]
Artist:Demetori
ArtistUnicode:Demetori
Creator:[Trash-]
Version:Necrofantasia ~ Remix
Source:
Tags:Touhou
BeatmapID:917661
BeatmapSetID:404166

[Difficulty]
HPDrainRate:7
CircleSize:4
OverallDifficulty:7
ApproachRate:5
SliderMultiplier:1.4
SliderTickRate:1

[Events]
//Background and Video events
0,0,"boss.png",0,0
//Break Periods
//Storyboard Layer 0 (Background)
//Storyboard Layer 1 (Fail)
//Storyboard Layer 2 (Pass)
//Storyboard Layer 3 (Foreground)
//Storyboard Sound Samples

[TimingPoints]
245,333.333333333333,4,1,1,52,1,0
2533,-50,4,1,1,52,0,0
2699,-400,4,1,1,52,0,0
2866,-100,4,1,1,52,0,0
4533,-50,4,1,1,52,0,0
4699,-400,4,1,1,52,0,0
4866,-100,4,1,1,52,0,0
9911,-50,4,1,1,52,0,0
10078,-400,4,1,1,52,0,0
10244,-100,4,1,1,52,0,0
10578,-50,4,1,1,52,0,0
10661,-400,4,1,1,52,0,0
10911,-100,4,1,1,52,0,0
30911,-50,4,1,1,52,0,0
31022,-400,4,1,1,52,0,0
31133,-50,4,1,1,52,0,0
31244,-400,4,1,1,52,0,0
31356,-50,4,1,1,52,0,0
31467,-400,4,1,1,52,0,0
31578,-50,4,1,1,52,0,0
31689,-400,4,1,1,52,0,0
31911,-50,4,1,1,52,0,0
32078,-400,4,1,1,52,0,0
32244,-100,4,1,1,52,0,0
56548,333.333333333333,4,1,1,52,1,0
75264,333.333333333333,4,1,1,52,1,0
80264,-50,4,1,1,52,0,0
80430,-400,4,1,1,52,0,0
80597,-100,4,1,1,52,0,0
96597,-100,4,1,1,52,0,1
139263,-100,4,1,1,52,0,0
141763,-50,4,1,1,52,0,0
141930,-400,4,1,1,52,0,0
142263,-100,4,1,1,52,0,0
143763,-50,4,1,1,52,0,0
143847,-400,4,1,1,52,0,0
143930,-50,4,1,1,52,0,0
144013,-400,4,1,1,52,0,0
144097,-50,4,1,1,52,0,0
144263,-400,4,1,1,52,0,0
144430,-100,4,1,1,52,0,0
182930,-50,4,1,1,52,0,0
183097,-400,4,1,1,52,0,0
183263,-100,4,1,1,52,0,0
220263,-50,4,1,1,52,0,0
220430,-400,4,1,1,52,0,0
220597,-100,4,1,1,52,0,0
237895,333.333333333333,4,1,1,52,1,0
237895,-100,4,1,1,52,0,1
280561,-100,4,1,1,52,0,0
283061,-50,4,1,1,52,0,0
283228,-400,4,1,1,52,0,0
283561,-100,4,1,1,52,0,0
285228,-50,4,1,1,52,0,0
285311,-400,4,1,1,52,0,0
285394,-50,4,1,1,52,0,0
285561,-400,4,1,1,52,0,0
285728,-100,4,1,1,52,0,0
301894,-100,4,1,1,52,0,1
323228,-100,4,1,1,52,0,0

[HitObjects]
320,192,244,5,2,0:0:0:0:
448,192,244,1,2,0:0:0:0:
320,192,328,1,2,0:0:0:0:
448,192,328,1,2,0:0:0:0:
64,192,411,1,2,0:0:0:0:
192,192,411,1,2,0:0:0:0:
64,192,494,1,2,0:0:0:0:
192,192,494,1,2,0:0:0:0:
320,192,577,1,2,0:0:0:0:
448,192,577,1,2,0:0:0:0:
64,192,661,1,2,0:0:0:0:
192,192,661,1,2,0:0:0:0:
320,192,744,1,2,0:0:0:0:
448,192,744,1,2,0:0:0:0:
64,192,744,1,2,0:0:0:0:
192,192,744,1,2,0:0:0:0:
320,192,2244,1,2,0:0:0:0:
448,192,2244,1,2,0:0:0:0:
192,192,2327,1,2,0:0:0:0:
320,192,2327,1,2,0:0:0:0:
64,192,2411,1,2,0:0:0:0:
192,192,2411,1,2,0:0:0:0:
320,192,2494,1,2,0:0:0:0:
448,192,2494,1,2,0:0:0:0:
64,192,2577,1,2,0:0:0:0:
192,192,2577,1,2,0:0:0:0:
320,192,2577,1,2,0:0:0:0:
448,192,2577,1,2,0:0:0:0:
64,192,2911,1,2,0:0:0:0:
192,192,2911,1,2,0:0:0:0:
64,192,2994,1,2,0:0:0:0:
192,192,2994,1,2,0:0:0:0:
320,192,3077,1,2,0:0:0:0:
448,192,3077,1,2,0:0:0:0:
320,192,3161,1,2,0:0:0:0:
448,192,3161,1,2,0:0:0:0:
64,192,3244,1,2,0:0:0:0:
192,192,3244,1,2,0:0:0:0:
320,192,3327,1,2,0:0:0:0:
448,192,3327,1,2,0:0:0:0:
64,192,3411,1,2,0:0:0:0:
192,192,3411,1,2,0:0:0:0:
320,192,3411,1,2,0:0:0:0:
448,192,3411,1,2,0:0:0:0:
320,192,3744,1,2,0:0:0:0:
192,192,3827,1,2,0:0:0:0:
64,192,3911,1,2,0:0:0:0:
448,192,3911,1,2,0:0:0:0:
192,192,3994,1,2,0:0:0:0:
320,192,4077,1,2,0:0:0:0:
64,192,4077,1,2,0:0:0:0:
448,192,4161,1,2,0:0:0:0:
64,192,4161,1,2,0:0:0:0:
448,192,4244,1,2,0:0:0:0:
192,192,4244,1,2,0:0:0:0:
320,192,4327,1,2,0:0:0:0:
192,192,4411,1,2,0:0:0:0:
64,192,4494,1,2,0:0:0:0:
64,192,4577,1,2,0:0:0:0:
192,192,4577,1,2,0:0:0:0:
320,192,4577,1,2,0:0:0:0:
448,192,4577,1,2,0:0:0:0:
448,192,4911,1,2,0:0:0:0:
320,192,4911,1,2,0:0:0:0:
192,192,4994,1,2,0:0:0:0:
64,192,5077,1,2,0:0:0:0:
448,192,5077,1,2,0:0:0:0:
320,192,5161,1,2,0:0:0:0:
192,192,5244,1,2,0:0:0:0:
64,192,5327,1,2,0:0:0:0:
448,192,5327,1,2,0:0:0:0:
320,192,5411,1,2,0:0:0:0:
192,192,5494,1,2,0:0:0:0:
64,192,5577,1,2,0:0:0:0:
448,192,5577,1,2,0:0:0:0:
320,192,5577,1,2,0:0:0:0:
320,192,5661,1,2,0:0:0:0:
448,192,5661,1,2,0:0:0:0:
320,192,5744,1,2,0:0:0:0:
448,192,5744,1,2,0:0:0:0:
320,192,5827,1,2,0:0:0:0:
448,192,5827,1,2,0:0:0:0:
64,192,5911,1,2,0:0:0:0:
192,192,5911,1,2,0:0:0:0:
64,192,5994,1,2,0:0:0:0:
192,192,5994,1,2,0:0:0:0:
64,192,6077,1,2,0:0:0:0:
192,192,6077,1,2,0:0:0:0:
64,192,6161,1,2,0:0:0:0:
192,192,6161,1,2,0:0:0:0:
320,192,6161,1,2,0:0:0:0:
448,192,6161,1,2,0:0:0:0:
64,192,6411,1,2,0:0:0:0:
192,192,6411,1,2,0:0:0:0:
320,192,6411,1,2,0:0:0:0:
448,192,6411,1,2,0:0:0:0:
192,192,6661,1,2,0:0:0:0:
448,192,6661,1,2,0:0:0:0:
320,192,6744,1,2,0:0:0:0:
64,192,6744,1,2,0:0:0:0:
192,192,6827,1,2,0:0:0:0:
448,192,6827,1,2,0:0:0:0:
64,192,6911,1,2,0:0:0:0:
320,192,6911,1,2,0:0:0:0:
448,192,6994,1,2,0:0:0:0:
320,192,7077,1,2,0:0:0:0:
192,192,7161,1,2,0:0:0:0:
64,192,7244,1,2,0:0:0:0:
448,192,7244,1,2,0:0:0:0:
320,192,7327,1,2,0:0:0:0:
192,192,7411,1,2,0:0:0:0:
448,192,7411,1,2,0:0:0:0:
320,192,7494,1,2,0:0:0:0:
64,192,7494,1,2,0:0:0:0:
64,192,7577,1,2,0:0:0:0:
192,192,7577,1,2,0:0:0:0:
320,192,7577,1,2,0:0:0:0:
448,192,7577,1,2,0:0:0:0:
320,192,7661,1,2,0:0:0:0:
64,192,7744,1,2,0:0:0:0:
448,192,7744,1,2,0:0:0:0:
192,192,7827,1,2,0:0:0:0:
320,192,7827,1,2,0:0:0:0:
64,192,7911,128,2,8078:0:0:0:0:
192,192,7911,128,2,8078:0:0:0:0:
320,192,7911,128,2,8078:0:0:0:0:
448,192,7911,128,2,8078:0:0:0:0:
64,192,8244,1,2,0:0:0:0:
320,192,8244,1,2,0:0:0:0:
192,192,8327,1,2,0:0:0:0:
448,192,8327,1,2,0:0:0:0:
64,192,8411,1,2,0:0:0:0:
320,192,8411,1,2,0:0:0:0:
192,192,8494,1,2,0:0:0:0:
448,192,8494,1,2,0:0:0:0:
64,192,8577,1,2,0:0:0:0:
192,192,8661,1,2,0:0:0:0:
320,192,8661,1,2,0:0:0:0:
64,192,8744,1,2,0:0:0:0:
448,192,8744,1,2,0:0:0:0:
192,192,8827,1,2,0:0:0:0:
320,192,8827,1,2,0:0:0:0:
448,192,8911,1,2,0:0:0:0:
320,192,8994,1,2,0:0:0:0:
64,192,8994,1,2,0:0:0:0:
192,192,9077,1,2,0:0:0:0:
448,192,9077,1,2,0:0:0:0:
64,192,9161,1,2,0:0:0:0:
320,192,9161,1,2,0:0:0:0:
448,192,9244,1,2,0:0:0:0:
320,192,9244,1,2,0:0:0:0:
64,192,9327,1,2,0:0:0:0:
192,192,9327,1,2,0:0:0:0:
320,192,9411,1,2,0:0:0:0:
448,192,9411,1,2,0:0:0:0:
192,192,9494,1,2,0:0:0:0:
64,192,9494,1,2,0:0:0:0:
192,192,9577,1,2,0:0:0:0:
64,192,9577,1,2,0:0:0:0:
192,192,9661,1,2,0:0:0:0:
64,192,9661,1,2,0:0:0:0:
192,192,9744,1,2,0:0:0:0:
64,192,9744,1,2,0:0:0:0:
192,192,9827,1,2,0:0:0:0:
64,192,9827,1,2,0:0:0:0:
64,192,9911,1,2,0:0:0:0:
192,192,9911,1,2,0:0:0:0:
320,192,9911,1,2,0:0:0:0:
448,192,9911,1,2,0:0:0:0:
192,192,10244,1,2,0:0:0:0:
320,192,10244,1,2,0:0:0:0:
64,192,10327,1,2,0:0:0:0:
192,192,10327,1,2,0:0:0:0:
320,192,10411,1,2,0:0:0:0:
448,192,10411,1,2,0:0:0:0:
192,192,10494,1,2,0:0:0:0:
320,192,10494,1,2,0:0:0:0:
64,192,10577,1,2,0:0:0:0:
192,192,10577,1,2,0:0:0:0:
320,192,10577,1,2,0:0:0:0:
448,192,10577,1,2,0:0:0:0:
192,192,10911,1,2,0:0:0:0:
448,192,10911,1,2,0:0:0:0:
320,192,10911,1,2,0:0:0:0:
64,192,10994,1,2,0:0:0:0:
320,192,11077,1,2,0:0:0:0:
192,192,11161,1,2,0:0:0:0:
64,192,11161,1,2,0:0:0:0:
320,192,11244,1,2,0:0:0:0:
64,192,11327,1,2,0:0:0:0:
192,192,11411,1,2,0:0:0:0:
320,192,11411,1,2,0:0:0:0:
448,192,11411,1,2,0:0:0:0:
320,192,11494,1,2,0:0:0:0:
64,192,11577,1,2,0:0:0:0:
192,192,11661,1,2,0:0:0:0:
448,192,11661,1,2,0:0:0:0:
320,192,11744,1,2,0:0:0:0:
64,192,11827,1,2,0:0:0:0:
448,192,11911,1,2,0:0:0:0:
192,192,11911,1,2,0:0:0:0:
320,192,11911,1,2,0:0:0:0:
320,192,11994,1,2,0:0:0:0:
64,192,12077,1,2,0:0:0:0:
192,192,12161,1,2,0:0:0:0:
320,192,12244,1,2,0:0:0:0:
448,192,12244,1,2,0:0:0:0:
64,192,12244,1,2,0:0:0:0:
192,192,12327,1,2,0:0:0:0:
448,192,12411,1,2,0:0:0:0:
320,192,12494,1,2,0:0:0:0:
448,192,12577,1,2,0:0:0:0:
192,192,12577,1,2,0:0:0:0:
64,192,12577,1,2,0:0:0:0:
320,192,12661,1,2,0:0:0:0:
64,192,12744,1,2,0:0:0:0:
192,192,12827,1,2,0:0:0:0:
320,192,12911,1,2,0:0:0:0:
64,192,12911,1,2,0:0:0:0:
448,192,12911,1,2,0:0:0:0:
192,192,12994,1,2,0:0:0:0:
448,192,13077,1,2,0:0:0:0:
320,192,13161,1,2,0:0:0:0:
64,192,13161,1,2,0:0:0:0:
320,192,13244,1,2,0:0:0:0:
448,192,13244,1,2,0:0:0:0:
192,192,13244,1,2,0:0:0:0:
64,192,13327,1,2,0:0:0:0:
320,192,13411,1,2,0:0:0:0:
448,192,13411,1,2,0:0:0:0:
64,192,13494,1,2,0:0:0:0:
320,192,13577,1,2,0:0:0:0:
64,192,13577,1,2,0:0:0:0:
192,192,13577,1,2,0:0:0:0:
448,192,13661,1,2,0:0:0:0:
192,192,13744,1,2,0:0:0:0:
64,192,13827,1,2,0:0:0:0:
320,192,13827,1,2,0:0:0:0:
320,192,13911,1,2,0:0:0:0:
192,192,13911,1,2,0:0:0:0:
448,192,13911,1,2,0:0:0:0:
64,192,13994,1,2,0:0:0:0:
192,192,14077,1,2,0:0:0:0:
448,192,14077,1,2,0:0:0:0:
320,192,14161,1,2,0:0:0:0:
448,192,14244,1,2,0:0:0:0:
64,192,14244,1,2,0:0:0:0:
192,192,14244,1,2,0:0:0:0:
320,192,14327,1,2,0:0:0:0:
64,192,14411,1,2,0:0:0:0:
448,192,14411,1,2,0:0:0:0:
192,192,14494,1,2,0:0:0:0:
448,192,14577,1,2,0:0:0:0:
320,192,14577,1,2,0:0:0:0:
64,192,14577,1,2,0:0:0:0:
192,192,14661,1,2,0:0:0:0:
448,192,14744,1,2,0:0:0:0:
64,192,14827,1,2,0:0:0:0:
320,192,14911,1,2,0:0:0:0:
192,192,14911,1,2,0:0:0:0:
448,192,14911,1,2,0:0:0:0:
320,192,14994,1,2,0:0:0:0:
448,192,15077,1,2,0:0:0:0:
64,192,15077,1,2,0:0:0:0:
192,192,15161,1,2,0:0:0:0:
320,192,15244,1,2,0:0:0:0:
64,192,15244,1,2,0:0:0:0:
448,192,15244,1,2,0:0:0:0:
192,192,15327,1,2,0:0:0:0:
448,192,15411,1,2,0:0:0:0:
320,192,15411,1,2,0:0:0:0:
64,192,15494,1,2,0:0:0:0:
192,192,15577,1,2,0:0:0:0:
320,192,15577,1,2,0:0:0:0:
448,192,15577,1,2,0:0:0:0:
64,192,15661,1,2,0:0:0:0:
192,192,15744,1,2,0:0:0:0:
448,192,15744,1,2,0:0:0:0:
320,192,15827,1,2,0:0:0:0:
192,192,15911,1,2,0:0:0:0:
64,192,15911,1,2,0:0:0:0:
320,192,15911,1,2,0:0:0:0:
448,192,15994,1,2,0:0:0:0:
320,192,16077,1,2,0:0:0:0:
192,192,16161,1,2,0:0:0:0:
64,192,16244,1,2,0:0:0:0:
448,192,16244,1,2,0:0:0:0:
192,192,16244,1,2,0:0:0:0:
320,192,16244,1,2,0:0:0:0:
192,192,16327,1,2,0:0:0:0:
64,192,16411,1,2,0:0:0:0:
192,192,16494,1,2,0:0:0:0:
64,192,16577,1,2,0:0:0:0:
192,192,16661,1,2,0:0:0:0:
64,192,16744,1,2,0:0:0:0:
192,192,16827,1,2,0:0:0:0:
64,192,16911,1,2,0:0:0:0:
192,192,16994,1,2,0:0:0:0:
320,192,16994,1,2,0:0:0:0:
64,192,17077,1,2,0:0:0:0:
192,192,17161,1,2,0:0:0:0:
64,192,17244,1,2,0:0:0:0:
448,192,17244,1,2,0:0:0:0:
192,192,17327,1,2,0:0:0:0:
64,192,17411,1,2,0:0:0:0:
192,192,17494,1,2,0:0:0:0:
320,192,17577,1,2,0:0:0:0:
64,192,17577,1,2,0:0:0:0:
192,192,17577,1,2,0:0:0:0:
448,192,17661,1,2,0:0:0:0:
320,192,17744,1,2,0:0:0:0:
448,192,17827,1,2,0:0:0:0:
320,192,17911,1,2,0:0:0:0:
448,192,17994,1,2,0:0:0:0:
320,192,18077,1,2,0:0:0:0:
192,192,18077,1,2,0:0:0:0:
448,192,18161,1,2,0:0:0:0:
320,192,18244,1,2,0:0:0:0:
64,192,18244,1,2,0:0:0:0:
448,192,18327,1,2,0:0:0:0:
320,192,18411,1,2,0:0:0:0:
448,192,18494,1,2,0:0:0:0:
320,192,18577,1,2,0:0:0:0:
192,192,18577,1,2,0:0:0:0:
64,192,18577,1,2,0:0:0:0:
448,192,18577,1,2,0:0:0:0:
320,192,18661,1,2,0:0:0:0:
192,192,18744,1,2,0:0:0:0:
320,192,18827,1,2,0:0:0:0:
192,192,18911,1,2,0:0:0:0:
64,192,18911,1,2,0:0:0:0:
448,192,18911,1,2,0:0:0:0:
320,192,18994,1,2,0:0:0:0:
64,192,19077,1,2,0:0:0:0:
448,192,19161,1,2,0:0:0:0:
192,192,19244,1,2,0:0:0:0:
320,192,19327,1,2,0:0:0:0:
64,192,19411,1,2,0:0:0:0:
192,192,19411,1,2,0:0:0:0:
448,192,19494,1,2,0:0:0:0:
192,192,19577,1,2,0:0:0:0:
320,192,19577,1,2,0:0:0:0:
320,192,19661,1,2,0:0:0:0:
64,192,19744,1,2,0:0:0:0:
448,192,19827,1,2,0:0:0:0:
192,192,19911,1,2,0:0:0:0:
320,192,19911,1,2,0:0:0:0:
448,192,19911,1,2,0:0:0:0:
64,192,19994,1,2,0:0:0:0:
320,192,20077,1,2,0:0:0:0:
192,192,20161,1,2,0:0:0:0:
64,192,20244,1,2,0:0:0:0:
448,192,20244,1,2,0:0:0:0:
320,192,20327,1,2,0:0:0:0:
192,192,20411,1,2,0:0:0:0:
64,192,20494,1,2,0:0:0:0:
320,192,20494,1,2,0:0:0:0:
448,192,20577,1,2,0:0:0:0:
192,192,20661,1,2,0:0:0:0:
320,192,20744,1,2,0:0:0:0:
448,192,20744,1,2,0:0:0:0:
192,192,20827,1,2,0:0:0:0:
448,192,20911,1,2,0:0:0:0:
64,192,20911,1,2,0:0:0:0:
192,192,20994,1,2,0:0:0:0:
320,192,20994,1,2,0:0:0:0:
64,192,21077,1,2,0:0:0:0:
448,192,21077,1,2,0:0:0:0:
192,192,21161,1,2,0:0:0:0:
320,192,21161,1,2,0:0:0:0:
64,192,21244,1,2,0:0:0:0:
448,192,21244,1,2,0:0:0:0:
192,192,21327,1,2,0:0:0:0:
320,192,21327,1,2,0:0:0:0:
64,192,21411,1,2,0:0:0:0:
448,192,21411,1,2,0:0:0:0:
320,192,21494,1,2,0:0:0:0:
192,192,21494,1,2,0:0:0:0:
64,192,21577,1,2,0:0:0:0:
192,192,21577,1,2,0:0:0:0:
448,192,21577,1,2,0:0:0:0:
320,192,21577,1,2,0:0:0:0:
448,192,21661,1,2,0:0:0:0:
192,192,21744,1,2,0:0:0:0:
320,192,21827,1,2,0:0:0:0:
448,192,21827,1,2,0:0:0:0:
192,192,21911,1,2,0:0:0:0:
448,192,21994,1,2,0:0:0:0:
320,192,22077,1,2,0:0:0:0:
192,192,22077,1,2,0:0:0:0:
64,192,22077,1,2,0:0:0:0:
192,192,22161,1,2,0:0:0:0:
448,192,22244,1,2,0:0:0:0:
64,192,22327,1,2,0:0:0:0:
320,192,22327,1,2,0:0:0:0:
192,192,22411,1,2,0:0:0:0:
448,192,22494,1,2,0:0:0:0:
64,192,22577,1,2,0:0:0:0:
320,192,22577,1,2,0:0:0:0:
192,192,22577,1,2,0:0:0:0:
192,192,22661,1,2,0:0:0:0:
448,192,22744,1,2,0:0:0:0:
320,192,22827,1,2,0:0:0:0:
192,192,22911,1,2,0:0:0:0:
64,192,22911,1,2,0:0:0:0:
448,192,22911,1,2,0:0:0:0:
320,192,22994,1,2,0:0:0:0:
64,192,23077,1,2,0:0:0:0:
192,192,23161,1,2,0:0:0:0:
448,192,23244,1,2,0:0:0:0:
64,192,23244,1,2,0:0:0:0:
320,192,23244,1,2,0:0:0:0:
192,192,23327,1,2,0:0:0:0:
448,192,23411,1,2,0:0:0:0:
320,192,23494,1,2,0:0:0:0:
64,192,23577,1,2,0:0:0:0:
448,192,23577,1,2,0:0:0:0:
192,192,23577,1,2,0:0:0:0:
320,192,23661,1,2,0:0:0:0:
64,192,23744,1,2,0:0:0:0:
448,192,23827,1,2,0:0:0:0:
192,192,23827,1,2,0:0:0:0:
192,192,23911,1,2,0:0:0:0:
320,192,23911,1,2,0:0:0:0:
64,192,23911,1,2,0:0:0:0:
448,192,23994,1,2,0:0:0:0:
192,192,24077,1,2,0:0:0:0:
64,192,24077,1,2,0:0:0:0:
448,192,24161,1,2,0:0:0:0:
448,192,24244,1,2,0:0:0:0:
320,192,24244,1,2,0:0:0:0:
192,192,24244,1,2,0:0:0:0:
64,192,24327,1,2,0:0:0:0:
320,192,24411,1,2,0:0:0:0:
448,192,24494,1,2,0:0:0:0:
192,192,24494,1,2,0:0:0:0:
64,192,24577,1,2,0:0:0:0:
320,192,24577,1,2,0:0:0:0:
192,192,24577,1,2,0:0:0:0:
448,192,24661,1,2,0:0:0:0:
64,192,24744,1,2,0:0:0:0:
320,192,24744,1,2,0:0:0:0:
192,192,24827,1,2,0:0:0:0:
64,192,24911,1,2,0:0:0:0:
448,192,24911,1,2,0:0:0:0:
320,192,24911,1,2,0:0:0:0:
192,192,24994,1,2,0:0:0:0:
448,192,25077,1,2,0:0:0:0:
64,192,25077,1,2,0:0:0:0:
320,192,25161,1,2,0:0:0:0:
448,192,25244,1,2,0:0:0:0:
64,192,25244,1,2,0:0:0:0:
192,192,25244,1,2,0:0:0:0:
320,192,25327,1,2,0:0:0:0:
64,192,25411,1,2,0:0:0:0:
448,192,25494,1,2,0:0:0:0:
64,192,25577,1,2,0:0:0:0:
320,192,25577,1,2,0:0:0:0:
192,192,25577,1,2,0:0:0:0:
192,192,25661,1,2,0:0:0:0:
64,192,25744,1,2,0:0:0:0:
448,192,25744,1,2,0:0:0:0:
320,192,25827,1,2,0:0:0:0:
64,192,25911,1,2,0:0:0:0:
192,192,25911,1,2,0:0:0:0:
448,192,25911,1,2,0:0:0:0:
320,192,25994,1,2,0:0:0:0:
64,192,26077,1,2,0:0:0:0:
192,192,26077,1,2,0:0:0:0:
448,192,26161,1,2,0:0:0:0:
64,192,26244,1,2,0:0:0:0:
192,192,26244,1,2,0:0:0:0:
320,192,26244,1,2,0:0:0:0:
448,192,26327,1,2,0:0:0:0:
64,192,26411,1,2,0:0:0:0:
320,192,26411,1,2,0:0:0:0:
192,192,26494,1,2,0:0:0:0:
64,192,26577,1,2,0:0:0:0:
320,192,26577,1,2,0:0:0:0:
448,192,26577,1,2,0:0:0:0:
192,192,26661,1,2,0:0:0:0:
64,192,26744,1,2,0:0:0:0:
320,192,26744,1,2,0:0:0:0:
448,192,26827,1,2,0:0:0:0:
448,192,26911,1,2,0:0:0:0:
192,192,26911,1,2,0:0:0:0:
64,192,26911,1,2,0:0:0:0:
320,192,26994,1,2,0:0:0:0:
448,192,27077,1,2,0:0:0:0:
320,192,27161,1,2,0:0:0:0:
448,192,27244,1,2,0:0:0:0:
320,192,27327,1,2,0:0:0:0:
448,192,27411,1,2,0:0:0:0:
320,192,27494,1,2,0:0:0:0:
448,192,27577,1,2,0:0:0:0:
192,192,27661,1,2,0:0:0:0:
320,192,27661,1,2,0:0:0:0:
448,192,27744,1,2,0:0:0:0:
320,192,27827,1,2,0:0:0:0:
64,192,27911,1,2,0:0:0:0:
448,192,27911,1,2,0:0:0:0:
320,192,27994,1,2,0:0:0:0:
448,192,28077,1,2,0:0:0:0:
320,192,28161,1,2,0:0:0:0:
448,192,28244,1,2,0:0:0:0:
192,192,28244,1,2,0:0:0:0:
320,192,28244,1,2,0:0:0:0:
64,192,28327,1,2,0:0:0:0:
192,192,28411,1,2,0:0:0:0:
64,192,28494,1,2,0:0:0:0:
192,192,28577,1,2,0:0:0:0:
64,192,28661,1,2,0:0:0:0:
320,192,28744,1,2,0:0:0:0:
192,192,28744,1,2,0:0:0:0:
64,192,28827,1,2,0:0:0:0:
192,192,28911,1,2,0:0:0:0:
448,192,28911,1,2,0:0:0:0:
64,192,28994,1,2,0:0:0:0:
192,192,29077,1,2,0:0:0:0:
64,192,29161,1,2,0:0:0:0:
448,192,29244,1,2,0:0:0:0:
64,192,29244,1,2,0:0:0:0:
320,192,29244,1,2,0:0:0:0:
192,192,29244,1,2,0:0:0:0:
320,192,29327,1,2,0:0:0:0:
192,192,29411,1,2,0:0:0:0:
320,192,29494,1,2,0:0:0:0:
448,192,29577,1,2,0:0:0:0:
192,192,29577,1,2,0:0:0:0:
64,192,29661,1,2,0:0:0:0:
320,192,29661,1,2,0:0:0:0:
192,192,29744,1,2,0:0:0:0:
448,192,29744,1,2,0:0:0:0:
320,192,29827,1,2,0:0:0:0:
64,192,29827,1,2,0:0:0:0:
192,192,29911,1,2,0:0:0:0:
320,192,29994,1,2,0:0:0:0:
448,192,29994,1,2,0:0:0:0:
64,192,30077,1,2,0:0:0:0:
192,192,30077,1,2,0:0:0:0:
320,192,30161,1,2,0:0:0:0:
448,192,30161,1,2,0:0:0:0:
192,192,30244,1,2,0:0:0:0:
64,192,30244,1,2,0:0:0:0:
448,192,30327,1,2,0:0:0:0:
320,192,30411,1,2,0:0:0:0:
192,192,30411,1,2,0:0:0:0:
64,192,30494,1,2,0:0:0:0:
448,192,30494,1,2,0:0:0:0:
192,192,30577,1,2,0:0:0:0:
320,192,30577,1,2,0:0:0:0:
448,192,30661,1,2,0:0:0:0:
64,192,30744,1,2,0:0:0:0:
192,192,30827,1,2,0:0:0:0:
320,192,30827,1,2,0:0:0:0:
64,192,30911,5,2,0:0:0:0:
192,192,30911,1,2,0:0:0:0:
320,192,30911,1,2,0:0:0:0:
448,192,30911,1,2,0:0:0:0:
192,192,31133,1,2,0:0:0:0:
320,192,31133,1,2,0:0:0:0:
448,192,31133,1,2,0:0:0:0:
64,192,31356,1,2,0:0:0:0:
192,192,31356,1,2,0:0:0:0:
320,192,31356,1,2,0:0:0:0:
64,192,31577,128,2,31910:0:0:0:0:
448,192,31577,128,2,31910:0:0:0:0:
192,192,31911,1,2,0:0:0:0:
320,192,31911,1,2,0:0:0:0:
64,192,32244,128,2,32411:0:0:0:0:
192,192,32411,128,2,32578:0:0:0:0:
320,192,32411,1,2,0:0:0:0:
448,192,32411,1,2,0:0:0:0:
448,192,32577,128,2,32743:0:0:0:0:
64,192,32577,1,2,0:0:0:0:
64,192,32744,128,2,33078:0:0:0:0:
320,192,32744,1,2,0:0:0:0:
192,192,32744,1,2,0:0:0:0:
448,192,32911,1,2,0:0:0:0:
192,192,33077,128,2,33243:0:0:0:0:
320,192,33077,1,2,0:0:0:0:
448,192,33077,1,2,0:0:0:0:
320,192,33244,128,2,33411:0:0:0:0:
64,192,33244,1,2,0:0:0:0:
192,192,33411,128,2,33744:0:0:0:0:
64,192,33411,1,2,0:0:0:0:
448,192,33411,1,2,0:0:0:0:
320,192,33577,1,2,0:0:0:0:
448,192,33744,128,2,33911:0:0:0:0:
320,192,33744,1,2,0:0:0:0:
64,192,33744,1,2,0:0:0:0:
320,192,33911,128,2,34078:0:0:0:0:
192,192,33911,1,2,0:0:0:0:
64,192,34077,128,2,34410:0:0:0:0:
192,192,34077,1,2,0:0:0:0:
448,192,34077,1,2,0:0:0:0:
320,192,34244,1,2,0:0:0:0:
320,192,34411,128,2,34578:0:0:0:0:
192,192,34411,1,2,0:0:0:0:
448,192,34411,1,2,0:0:0:0:
192,192,34577,128,2,34743:0:0:0:0:
448,192,34577,1,2,0:0:0:0:
64,192,34744,128,2,34911:0:0:0:0:
320,192,34744,1,2,0:0:0:0:
448,192,34744,1,2,0:0:0:0:
192,192,34911,128,2,35078:0:0:0:0:
320,192,34911,1,2,0:0:0:0:
320,192,35077,128,2,35243:0:0:0:0:
64,192,35077,1,2,0:0:0:0:
448,192,35077,1,2,0:0:0:0:
448,192,35244,128,2,35411:0:0:0:0:
192,192,35244,1,2,0:0:0:0:
64,192,35411,128,2,35744:0:0:0:0:
192,192,35411,1,2,0:0:0:0:
320,192,35411,1,2,0:0:0:0:
320,192,35577,1,2,0:0:0:0:
320,192,35744,128,2,35911:0:0:0:0:
192,192,35744,1,2,0:0:0:0:
448,192,35744,1,2,0:0:0:0:
192,192,35911,128,2,36078:0:0:0:0:
448,192,35911,1,2,0:0:0:0:
448,192,36077,128,2,36410:0:0:0:0:
320,192,36077,1,2,0:0:0:0:
64,192,36077,1,2,0:0:0:0:
192,192,36244,1,2,0:0:0:0:
192,192,36411,128,2,36578:0:0:0:0:
320,192,36411,1,2,0:0:0:0:
64,192,36411,1,2,0:0:0:0:
320,192,36577,128,2,36743:0:0:0:0:
448,192,36577,1,2,0:0:0:0:
448,192,36744,128,2,36911:0:0:0:0:
192,192,36744,1,2,0:0:0:0:
64,192,36744,1,2,0:0:0:0:
192,192,36911,1,2,0:0:0:0:
320,192,36911,1,2,0:0:0:0:
64,192,36994,1,2,0:0:0:0:
448,192,36994,1,2,0:0:0:0:
192,192,37077,1,2,0:0:0:0:
320,192,37077,1,2,0:0:0:0:
192,192,37244,128,2,37411:0:0:0:0:
320,192,37244,128,2,37411:0:0:0:0:
64,192,37244,1,2,0:0:0:0:
448,192,37244,1,2,0:0:0:0:
448,192,37411,128,2,37578:0:0:0:0:
64,192,37411,128,2,37578:0:0:0:0:
192,192,37577,1,2,0:0:0:0:
320,192,37577,128,2,37743:0:0:0:0:
192,192,37744,128,2,37911:0:0:0:0:
448,192,37744,1,2,0:0:0:0:
64,192,37744,1,2,0:0:0:0:
64,192,37911,128,2,38078:0:0:0:0:
320,192,37911,1,2,0:0:0:0:
320,192,38077,128,2,38410:0:0:0:0:
192,192,38077,1,2,0:0:0:0:
448,192,38077,1,2,0:0:0:0:
448,192,38244,1,2,0:0:0:0:
64,192,38411,128,2,38578:0:0:0:0:
192,192,38411,1,2,0:0:0:0:
448,192,38411,1,2,0:0:0:0:
192,192,38577,128,2,38743:0:0:0:0:
448,192,38577,1,2,0:0:0:0:
448,192,38744,128,2,39078:0:0:0:0:
320,192,38744,1,2,0:0:0:0:
64,192,38744,1,2,0:0:0:0:
192,192,38911,1,2,0:0:0:0:
64,192,39077,128,2,39243:0:0:0:0:
192,192,39077,1,2,0:0:0:0:
320,192,39077,1,2,0:0:0:0:
448,192,39244,128,2,39411:0:0:0:0:
320,192,39244,1,2,0:0:0:0:
192,192,39411,128,2,39578:0:0:0:0:
64,192,39411,1,2,0:0:0:0:
320,192,39411,1,2,0:0:0:0:
320,192,39577,1,2,0:0:0:0:
448,192,39577,1,2,0:0:0:0:
320,192,39661,1,2,0:0:0:0:
448,192,39661,1,2,0:0:0:0:
64,192,39744,1,2,0:0:0:0:
192,192,39744,1,2,0:0:0:0:
192,192,39911,1,2,0:0:0:0:
64,192,39911,1,2,0:0:0:0:
192,192,39994,1,2,0:0:0:0:
64,192,39994,1,2,0:0:0:0:
448,192,40077,1,2,0:0:0:0:
320,192,40077,1,2,0:0:0:0:
192,192,40244,128,2,40411:0:0:0:0:
64,192,40244,1,2,0:0:0:0:
320,192,40411,128,2,40578:0:0:0:0:
448,192,40411,1,2,0:0:0:0:
64,192,40411,1,2,0:0:0:0:
448,192,40577,128,2,40743:0:0:0:0:
192,192,40577,1,2,0:0:0:0:
64,192,40744,128,2,41078:0:0:0:0:
192,192,40744,1,2,0:0:0:0:
320,192,40744,1,2,0:0:0:0:
320,192,40911,1,2,0:0:0:0:
192,192,41077,1,2,0:0:0:0:
320,192,41077,1,2,0:0:0:0:
448,192,41077,1,2,0:0:0:0:
192,192,41244,1,2,0:0:0:0:
320,192,41244,1,2,0:0:0:0:
192,192,41327,1,2,0:0:0:0:
320,192,41327,1,2,0:0:0:0:
64,192,41411,1,2,0:0:0:0:
448,192,41411,1,2,0:0:0:0:
192,192,41577,1,2,0:0:0:0:
64,192,41661,1,2,0:0:0:0:
64,192,41744,1,2,0:0:0:0:
320,192,41744,1,2,0:0:0:0:
448,192,41744,1,2,0:0:0:0:
448,192,41911,1,2,0:0:0:0:
192,192,41994,1,2,0:0:0:0:
320,192,42077,1,2,0:0:0:0:
192,192,42077,1,2,0:0:0:0:
64,192,42077,1,2,0:0:0:0:
192,192,42244,1,2,0:0:0:0:
320,192,42327,1,2,0:0:0:0:
64,192,42411,1,2,0:0:0:0:
448,192,42411,1,2,0:0:0:0:
64,192,42577,1,2,0:0:0:0:
320,192,42577,1,2,0:0:0:0:
448,192,42577,1,2,0:0:0:0:
320,192,42744,1,2,0:0:0:0:
192,192,42744,1,2,0:0:0:0:
64,192,42744,1,2,0:0:0:0:
448,192,42911,128,2,43078:0:0:0:0:
64,192,42911,1,2,0:0:0:0:
192,192,42911,1,2,0:0:0:0:
320,192,42911,1,2,0:0:0:0:
320,192,43077,128,2,43243:0:0:0:0:
192,192,43077,1,2,0:0:0:0:
64,192,43077,1,2,0:0:0:0:
64,192,43244,128,2,43411:0:0:0:0:
448,192,43244,1,2,0:0:0:0:
448,192,43411,128,2,43744:0:0:0:0:
192,192,43411,1,2,0:0:0:0:
320,192,43411,1,2,0:0:0:0:
64,192,43577,1,2,0:0:0:0:
320,192,43744,128,2,43911:0:0:0:0:
192,192,43744,1,2,0:0:0:0:
64,192,43744,1,2,0:0:0:0:
192,192,43911,128,2,44078:0:0:0:0:
448,192,43911,1,2,0:0:0:0:
320,192,44077,128,2,44410:0:0:0:0:
64,192,44077,1,2,0:0:0:0:
448,192,44077,1,2,0:0:0:0:
192,192,44244,1,2,0:0:0:0:
64,192,44411,128,2,44578:0:0:0:0:
448,192,44411,1,2,0:0:0:0:
192,192,44411,1,2,0:0:0:0:
192,192,44577,128,2,44743:0:0:0:0:
320,192,44577,1,2,0:0:0:0:
448,192,44744,128,2,45078:0:0:0:0:
320,192,44744,1,2,0:0:0:0:
64,192,44744,1,2,0:0:0:0:
192,192,44911,1,2,0:0:0:0:
192,192,45077,128,2,45243:0:0:0:0:
64,192,45077,1,2,0:0:0:0:
320,192,45077,1,2,0:0:0:0:
320,192,45244,128,2,45411:0:0:0:0:
448,192,45244,1,2,0:0:0:0:
448,192,45411,128,2,45578:0:0:0:0:
192,192,45411,1,2,0:0:0:0:
64,192,45411,1,2,0:0:0:0:
320,192,45577,128,2,45743:0:0:0:0:
192,192,45577,1,2,0:0:0:0:
192,192,45744,128,2,45911:0:0:0:0:
64,192,45744,1,2,0:0:0:0:
448,192,45744,1,2,0:0:0:0:
64,192,45911,128,2,46078:0:0:0:0:
320,192,45911,1,2,0:0:0:0:
448,192,46077,128,2,46410:0:0:0:0:
320,192,46077,1,2,0:0:0:0:
192,192,46077,1,2,0:0:0:0:
192,192,46244,1,2,0:0:0:0:
192,192,46411,128,2,46578:0:0:0:0:
320,192,46411,1,2,0:0:0:0:
64,192,46411,1,2,0:0:0:0:
320,192,46577,128,2,46743:0:0:0:0:
448,192,46577,1,2,0:0:0:0:
64,192,46744,128,2,47078:0:0:0:0:
448,192,46744,1,2,0:0:0:0:
192,192,46744,1,2,0:0:0:0:
320,192,46911,1,2,0:0:0:0:
320,192,47077,128,2,47243:0:0:0:0:
192,192,47077,1,2,0:0:0:0:
448,192,47077,1,2,0:0:0:0:
192,192,47244,128,2,47411:0:0:0:0:
64,192,47244,1,2,0:0:0:0:
64,192,47411,128,2,47578:0:0:0:0:
320,192,47411,1,2,0:0:0:0:
448,192,47411,1,2,0:0:0:0:
192,192,47577,1,2,0:0:0:0:
320,192,47577,1,2,0:0:0:0:
448,192,47661,1,2,0:0:0:0:
64,192,47661,1,2,0:0:0:0:
320,192,47744,1,2,0:0:0:0:
192,192,47744,1,2,0:0:0:0:
320,192,47911,128,2,48078:0:0:0:0:
192,192,47911,128,2,48078:0:0:0:0:
448,192,47911,1,2,0:0:0:0:
64,192,47911,1,2,0:0:0:0:
64,192,48077,128,2,48243:0:0:0:0:
448,192,48077,128,2,48243:0:0:0:0:
320,192,48244,1,2,0:0:0:0:
192,192,48244,1,2,0:0:0:0:
320,192,48411,128,2,48578:0:0:0:0:
64,192,48411,1,2,0:0:0:0:
192,192,48411,1,2,0:0:0:0:
448,192,48577,128,2,48743:0:0:0:0:
192,192,48577,1,2,0:0:0:0:
192,192,48744,128,2,49078:0:0:0:0:
64,192,48744,1,2,0:0:0:0:
320,192,48744,1,2,0:0:0:0:
448,192,48911,1,2,0:0:0:0:
448,192,49077,128,2,49243:0:0:0:0:
64,192,49077,1,2,0:0:0:0:
320,192,49077,1,2,0:0:0:0:
320,192,49244,128,2,49411:0:0:0:0:
192,192,49244,1,2,0:0:0:0:
64,192,49411,128,2,49744:0:0:0:0:
192,192,49411,1,2,0:0:0:0:
448,192,49411,1,2,0:0:0:0:
320,192,49577,1,2,0:0:0:0:
448,192,49744,128,2,49911:0:0:0:0:
320,192,49744,1,2,0:0:0:0:
192,192,49744,1,2,0:0:0:0:
64,192,49911,128,2,50078:0:0:0:0:
320,192,49911,1,2,0:0:0:0:
320,192,50077,128,2,50243:0:0:0:0:
192,192,50077,1,2,0:0:0:0:
448,192,50077,1,2,0:0:0:0:
192,192,50244,128,2,50411:0:0:0:0:
64,192,50244,1,2,0:0:0:0:
320,192,50411,128,2,50578:0:0:0:0:
64,192,50411,1,2,0:0:0:0:
448,192,50411,1,2,0:0:0:0:
64,192,50577,128,2,50743:0:0:0:0:
448,192,50577,1,2,0:0:0:0:
448,192,50744,128,2,50911:0:0:0:0:
192,192,50744,1,2,0:0:0:0:
320,192,50744,1,2,0:0:0:0:
192,192,50911,128,2,51078:0:0:0:0:
64,192,50911,1,2,0:0:0:0:
320,192,51077,128,2,51243:0:0:0:0:
64,192,51077,1,2,0:0:0:0:
448,192,51077,1,2,0:0:0:0:
448,192,51244,128,2,51411:0:0:0:0:
192,192,51244,1,2,0:0:0:0:
64,192,51411,128,2,51744:0:0:0:0:
192,192,51411,1,2,0:0:0:0:
320,192,51411,1,2,0:0:0:0:
320,192,51577,1,2,0:0:0:0:
192,192,51661,1,2,0:0:0:0:
448,192,51744,1,2,0:0:0:0:
320,192,51744,1,2,0:0:0:0:
320,192,51911,1,2,0:0:0:0:
192,192,52077,1,2,0:0:0:0:
448,192,52244,1,2,0:0:0:0:
320,192,52244,1,2,0:0:0:0:
192,192,52244,1,2,0:0:0:0:
64,192,52244,1,2,0:0:0:0:
192,192,52327,1,2,0:0:0:0:
320,192,52411,1,2,0:0:0:0:
448,192,52494,1,2,0:0:0:0:
64,192,52494,1,2,0:0:0:0:
192,192,52577,1,2,0:0:0:0:
448,192,52661,1,2,0:0:0:0:
320,192,52744,1,2,0:0:0:0:
64,192,52744,1,2,0:0:0:0:
192,192,52827,1,2,0:0:0:0:
448,192,52911,1,2,0:0:0:0:
320,192,52911,1,2,0:0:0:0:
64,192,52994,1,2,0:0:0:0:
192,192,52994,1,2,0:0:0:0:
320,192,53077,1,2,0:0:0:0:
448,192,53077,1,2,0:0:0:0:
64,192,53161,1,2,0:0:0:0:
192,192,53161,1,2,0:0:0:0:
320,192,53244,1,2,0:0:0:0:
448,192,53244,1,2,0:0:0:0:
64,192,53327,1,2,0:0:0:0:
192,192,53327,1,2,0:0:0:0:
320,192,53411,1,2,0:0:0:0:
448,192,53411,1,2,0:0:0:0:
64,192,53494,1,2,0:0:0:0:
192,192,53494,1,2,0:0:0:0:
192,192,53577,5,2,0:0:0:0:
320,192,53577,1,2,0:0:0:0:
192,192,53661,1,2,0:0:0:0:
320,192,53661,1,2,0:0:0:0:
192,192,53744,1,2,0:0:0:0:
320,192,53744,1,2,0:0:0:0:
192,192,53827,1,2,0:0:0:0:
320,192,53827,1,2,0:0:0:0:
192,192,53911,1,2,0:0:0:0:
320,192,53911,1,2,0:0:0:0:
64,192,53911,128,2,54578:0:0:0:0:
448,192,53911,128,2,54578:0:0:0:0:
192,192,54244,1,2,0:0:0:0:
320,192,54244,1,2,0:0:0:0:
192,192,54577,128,2,55243:0:0:0:0:
320,192,54577,128,2,55243:0:0:0:0:
64,192,54911,1,2,0:0:0:0:
448,192,54911,1,2,0:0:0:0:
64,192,55244,128,2,55744:0:0:0:0:
448,192,55244,1,2,0:0:0:0:
320,192,55411,1,2,0:0:0:0:
192,192,55494,1,2,0:0:0:0:
448,192,55494,1,2,0:0:0:0:
448,192,55661,1,2,0:0:0:0:
448,192,55744,128,2,56244:0:0:0:0:
192,192,55744,1,2,0:0:0:0:
64,192,55911,1,2,0:0:0:0:
320,192,55911,1,2,0:0:0:0:
192,192,55994,1,2,0:0:0:0:
320,192,56077,1,2,0:0:0:0:
64,192,56161,1,2,0:0:0:0:
192,192,56244,1,2,0:0:0:0:
320,192,56244,1,2,0:0:0:0:
192,192,56548,1,2,0:0:0:0:
448,192,56548,128,2,57048:0:0:0:0:
64,192,56631,1,2,0:0:0:0:
192,192,56715,1,2,0:0:0:0:
64,192,56798,1,2,0:0:0:0:
192,192,56881,1,2,0:0:0:0:
64,192,56965,1,2,0:0:0:0:
192,192,57048,128,2,57881:0:0:0:0:
320,192,57048,1,2,0:0:0:0:
320,192,57215,1,2,0:0:0:0:
448,192,57298,1,2,0:0:0:0:
320,192,57381,1,2,0:0:0:0:
448,192,57465,1,2,0:0:0:0:
320,192,57548,1,2,0:0:0:0:
64,192,57548,128,2,57714:0:0:0:0:
64,192,57881,128,2,58381:0:0:0:0:
320,192,57881,128,2,58048:0:0:0:0:
448,192,58048,1,2,0:0:0:0:
320,192,58131,1,2,0:0:0:0:
192,192,58215,128,2,58382:0:0:0:0:
320,192,58381,128,2,58881:0:0:0:0:
448,192,58381,128,2,58881:0:0:0:0:
192,192,58548,1,2,0:0:0:0:
64,192,58715,1,2,0:0:0:0:
192,192,58715,1,2,0:0:0:0:
192,192,58881,128,2,59131:0:0:0:0:
320,192,59215,1,2,0:0:0:0:
192,192,59215,128,2,59715:0:0:0:0:
448,192,59381,1,2,0:0:0:0:
320,192,59381,1,2,0:0:0:0:
64,192,59381,1,2,0:0:0:0:
320,192,59548,1,2,0:0:0:0:
64,192,59631,1,2,0:0:0:0:
64,192,59715,128,2,60049:0:0:0:0:
320,192,59715,1,2,0:0:0:0:
448,192,59715,1,2,0:0:0:0:
320,192,59881,1,2,0:0:0:0:
448,192,60048,128,2,60547:0:0:0:0:
192,192,60048,1,2,0:0:0:0:
320,192,60048,1,2,0:0:0:0:
192,192,60214,1,2,0:0:0:0:
320,192,60298,1,2,0:0:0:0:
64,192,60381,1,2,0:0:0:0:
192,192,60381,1,2,0:0:0:0:
320,192,60381,1,2,0:0:0:0:
192,192,60548,128,2,60882:0:0:0:0:
320,192,60548,1,2,0:0:0:0:
448,192,60631,1,2,0:0:0:0:
320,192,60714,1,2,0:0:0:0:
64,192,60714,1,2,0:0:0:0:
448,192,60881,128,2,61214:0:0:0:0:
320,192,60881,1,2,0:0:0:0:
192,192,61048,1,2,0:0:0:0:
64,192,61048,1,2,0:0:0:0:
320,192,61214,1,2,0:0:0:0:
64,192,61214,128,2,61547:0:0:0:0:
192,192,61298,1,2,0:0:0:0:
320,192,61381,1,2,0:0:0:0:
448,192,61381,1,2,0:0:0:0:
192,192,61548,128,2,61882:0:0:0:0:
320,192,61548,1,2,0:0:0:0:
448,192,61548,1,2,0:0:0:0:
320,192,61631,1,2,0:0:0:0:
448,192,61631,1,2,0:0:0:0:
64,192,61714,1,2,0:0:0:0:
448,192,61881,128,2,62381:0:0:0:0:
320,192,61881,1,2,0:0:0:0:
64,192,61964,1,2,0:0:0:0:
192,192,62048,1,2,0:0:0:0:
320,192,62131,1,2,0:0:0:0:
192,192,62214,1,2,0:0:0:0:
320,192,62381,128,2,63214:0:0:0:0:
64,192,62381,128,2,62547:0:0:0:0:
192,192,62548,1,2,0:0:0:0:
448,192,62631,1,2,0:0:0:0:
64,192,62714,1,2,0:0:0:0:
192,192,62798,1,2,0:0:0:0:
64,192,62881,1,2,0:0:0:0:
448,192,62881,128,2,63047:0:0:0:0:
64,192,63214,128,2,63714:0:0:0:0:
192,192,63214,1,2,0:0:0:0:
320,192,63381,1,2,0:0:0:0:
448,192,63381,1,2,0:0:0:0:
320,192,63548,1,2,0:0:0:0:
192,192,63631,1,2,0:0:0:0:
320,192,63714,1,2,0:0:0:0:
448,192,63714,1,2,0:0:0:0:
192,192,63714,128,2,64547:0:0:0:0:
320,192,63881,1,2,0:0:0:0:
448,192,63964,1,2,0:0:0:0:
320,192,64048,1,2,0:0:0:0:
64,192,64048,1,2,0:0:0:0:
448,192,64214,1,2,0:0:0:0:
320,192,64298,1,2,0:0:0:0:
448,192,64381,1,2,0:0:0:0:
64,192,64464,1,2,0:0:0:0:
64,192,64548,128,2,65048:0:0:0:0:
320,192,64548,1,2,0:0:0:0:
448,192,64548,1,2,0:0:0:0:
320,192,64714,1,2,0:0:0:0:
192,192,64798,1,2,0:0:0:0:
320,192,64881,1,2,0:0:0:0:
448,192,64881,1,2,0:0:0:0:
448,192,65048,128,2,65882:0:0:0:0:
320,192,65048,1,2,0:0:0:0:
192,192,65048,1,2,0:0:0:0:
320,192,65214,1,2,0:0:0:0:
192,192,65298,1,2,0:0:0:0:
320,192,65381,1,2,0:0:0:0:
64,192,65464,1,2,0:0:0:0:
192,192,65548,1,2,0:0:0:0:
320,192,65631,1,2,0:0:0:0:
64,192,65714,1,2,0:0:0:0:
320,192,65798,1,2,0:0:0:0:
192,192,65881,128,2,66381:0:0:0:0:
64,192,65881,1,2,0:0:0:0:
320,192,66048,1,2,0:0:0:0:
448,192,66048,1,2,0:0:0:0:
64,192,66214,1,2,0:0:0:0:
448,192,66298,1,2,0:0:0:0:
320,192,66381,128,2,66881:0:0:0:0:
192,192,66548,1,2,0:0:0:0:
448,192,66631,1,2,0:0:0:0:
192,192,66714,1,2,0:0:0:0:
64,192,66714,1,2,0:0:0:0:
448,192,66881,128,2,67214:0:0:0:0:
192,192,66881,1,2,0:0:0:0:
192,192,66964,1,2,0:0:0:0:
64,192,67048,1,2,0:0:0:0:
320,192,67048,1,2,0:0:0:0:
192,192,67214,1,2,0:0:0:0:
320,192,67214,128,2,67714:0:0:0:0:
64,192,67381,1,2,0:0:0:0:
192,192,67381,1,2,0:0:0:0:
448,192,67381,1,2,0:0:0:0:
64,192,67548,1,2,0:0:0:0:
192,192,67631,1,2,0:0:0:0:
64,192,67714,128,2,68547:0:0:0:0:
448,192,67714,1,2,0:0:0:0:
320,192,67881,1,2,0:0:0:0:
448,192,67964,1,2,0:0:0:0:
192,192,68048,1,2,0:0:0:0:
320,192,68131,1,2,0:0:0:0:
448,192,68214,1,2,0:0:0:0:
192,192,68298,1,2,0:0:0:0:
448,192,68381,1,2,0:0:0:0:
320,192,68464,1,2,0:0:0:0:
448,192,68548,128,2,69048:0:0:0:0:
192,192,68548,1,2,0:0:0:0:
64,192,68714,1,2,0:0:0:0:
192,192,68714,1,2,0:0:0:0:
64,192,68881,1,2,0:0:0:0:
192,192,69048,128,2,69548:0:0:0:0:
64,192,69048,1,2,0:0:0:0:
320,192,69048,1,2,0:0:0:0:
448,192,69214,1,2,0:0:0:0:
320,192,69298,1,2,0:0:0:0:
64,192,69381,1,2,0:0:0:0:
448,192,69464,1,2,0:0:0:0:
320,192,69548,128,2,69798:0:0:0:0:
64,192,69548,128,2,69715:0:0:0:0:
320,192,69881,128,2,70381:0:0:0:0:
64,192,69881,1,2,0:0:0:0:
192,192,69881,1,2,0:0:0:0:
448,192,69881,1,2,0:0:0:0:
192,192,70048,1,2,0:0:0:0:
64,192,70131,1,2,0:0:0:0:
192,192,70214,1,2,0:0:0:0:
448,192,70298,1,2,0:0:0:0:
64,192,70381,128,2,70881:0:0:0:0:
192,192,70381,1,2,0:0:0:0:
448,192,70381,1,2,0:0:0:0:
320,192,70548,1,2,0:0:0:0:
192,192,70631,1,2,0:0:0:0:
448,192,70714,1,2,0:0:0:0:
320,192,70798,1,2,0:0:0:0:
448,192,70881,128,2,71214:0:0:0:0:
192,192,70881,1,2,0:0:0:0:
320,192,70964,1,2,0:0:0:0:
64,192,71048,1,2,0:0:0:0:
192,192,71131,1,2,0:0:0:0:
192,192,71214,128,2,71547:0:0:0:0:
320,192,71214,1,2,0:0:0:0:
64,192,71214,128,2,71547:0:0:0:0:
320,192,71548,128,2,71882:0:0:0:0:
64,192,71881,128,2,72214:0:0:0:0:
448,192,71881,128,2,72214:0:0:0:0:
192,192,72214,128,2,72547:0:0:0:0:
320,192,72214,128,2,72547:0:0:0:0:
448,192,72548,1,2,0:0:0:0:
320,192,72631,1,2,0:0:0:0:
448,192,72714,1,2,0:0:0:0:
64,192,72714,1,2,0:0:0:0:
192,192,72714,1,2,0:0:0:0:
320,192,72798,1,2,0:0:0:0:
448,192,72881,1,2,0:0:0:0:
192,192,72964,1,2,0:0:0:0:
64,192,73048,128,2,73382:0:0:0:0:
320,192,73048,1,2,0:0:0:0:
320,192,73381,1,2,0:0:0:0:
192,192,73464,1,2,0:0:0:0:
320,192,73548,1,2,0:0:0:0:
448,192,73548,1,2,0:0:0:0:
64,192,73631,1,2,0:0:0:0:
192,192,73714,1,2,0:0:0:0:
448,192,73798,1,2,0:0:0:0:
64,192,73798,1,2,0:0:0:0:
320,192,73881,1,2,0:0:0:0:
192,192,73881,1,2,0:0:0:0:
448,192,73964,1,2,0:0:0:0:
320,192,74048,1,2,0:0:0:0:
192,192,74131,1,2,0:0:0:0:
64,192,74214,1,2,0:0:0:0:
448,192,74214,1,2,0:0:0:0:
320,192,74298,1,2,0:0:0:0:
192,192,74381,1,2,0:0:0:0:
64,192,74464,1,2,0:0:0:0:
320,192,74464,1,2,0:0:0:0:
448,192,74464,1,2,0:0:0:0:
192,192,74548,1,2,0:0:0:0:
64,192,74548,1,2,0:0:0:0:
320,192,74631,1,2,0:0:0:0:
448,192,74631,1,2,0:0:0:0:
64,192,74714,1,2,0:0:0:0:
192,192,74714,1,2,0:0:0:0:
448,192,74798,1,2,0:0:0:0:
320,192,74798,1,2,0:0:0:0:
64,192,74881,1,2,0:0:0:0:
192,192,74881,1,2,0:0:0:0:
320,192,74964,1,2,0:0:0:0:
448,192,74964,1,2,0:0:0:0:
192,192,75048,1,2,0:0:0:0:
320,192,75048,1,2,0:0:0:0:
64,192,75048,1,2,0:0:0:0:
448,192,75048,1,2,0:0:0:0:
192,192,75264,1,2,0:0:0:0:
320,192,75264,1,2,0:0:0:0:
64,192,75347,1,2,0:0:0:0:
448,192,75431,1,2,0:0:0:0:
320,192,75514,1,2,0:0:0:0:
64,192,75514,1,2,0:0:0:0:
192,192,75597,1,2,0:0:0:0:
320,192,75681,1,2,0:0:0:0:
448,192,75764,1,2,0:0:0:0:
64,192,75764,1,2,0:0:0:0:
192,192,75764,1,2,0:0:0:0:
320,192,75847,1,2,0:0:0:0:
192,192,75931,1,2,0:0:0:0:
448,192,75931,1,2,0:0:0:0:
64,192,76014,1,2,0:0:0:0:
448,192,76097,1,2,0:0:0:0:
64,192,76097,1,2,0:0:0:0:
320,192,76097,1,2,0:0:0:0:
192,192,76181,1,2,0:0:0:0:
448,192,76264,1,2,0:0:0:0:
192,192,76347,1,2,0:0:0:0:
64,192,76431,1,2,0:0:0:0:
320,192,76431,1,2,0:0:0:0:
448,192,76514,1,2,0:0:0:0:
320,192,76597,1,2,0:0:0:0:
192,192,76597,1,2,0:0:0:0:
64,192,76597,1,2,0:0:0:0:
448,192,76681,1,2,0:0:0:0:
64,192,76764,1,2,0:0:0:0:
320,192,76847,1,2,0:0:0:0:
192,192,76847,1,2,0:0:0:0:
448,192,76931,1,2,0:0:0:0:
192,192,77014,1,2,0:0:0:0:
320,192,77097,1,2,0:0:0:0:
448,192,77097,1,2,0:0:0:0:
64,192,77097,1,2,0:0:0:0:
192,192,77181,1,2,0:0:0:0:
448,192,77264,1,2,0:0:0:0:
64,192,77264,1,2,0:0:0:0:
320,192,77347,1,2,0:0:0:0:
448,192,77431,1,2,0:0:0:0:
64,192,77431,1,2,0:0:0:0:
192,192,77431,1,2,0:0:0:0:
448,192,77597,1,2,0:0:0:0:
320,192,77597,1,2,0:0:0:0:
64,192,77597,1,2,0:0:0:0:
192,192,77681,1,2,0:0:0:0:
448,192,77764,1,2,0:0:0:0:
320,192,77847,1,2,0:0:0:0:
192,192,77931,1,2,0:0:0:0:
64,192,77931,1,2,0:0:0:0:
448,192,77931,1,2,0:0:0:0:
320,192,78014,1,2,0:0:0:0:
192,192,78097,1,2,0:0:0:0:
320,192,78181,1,2,0:0:0:0:
192,192,78264,1,2,0:0:0:0:
320,192,78347,1,2,0:0:0:0:
64,192,78431,1,2,0:0:0:0:
448,192,78431,1,2,0:0:0:0:
192,192,78514,1,2,0:0:0:0:
320,192,78597,1,2,0:0:0:0:
192,192,78681,1,2,0:0:0:0:
320,192,78764,1,2,0:0:0:0:
192,192,78847,1,2,0:0:0:0:
64,192,78931,1,2,0:0:0:0:
320,192,78931,1,2,0:0:0:0:
192,192,78931,1,2,0:0:0:0:
448,192,78931,128,2,79264:0:0:0:0:
64,192,79264,1,2,0:0:0:0:
192,192,79347,1,2,0:0:0:0:
320,192,79431,1,2,0:0:0:0:
448,192,79514,1,2,0:0:0:0:
64,192,79514,1,2,0:0:0:0:
192,192,79597,1,2,0:0:0:0:
320,192,79681,1,2,0:0:0:0:
448,192,79764,1,2,0:0:0:0:
64,192,79764,1,2,0:0:0:0:
192,192,79764,1,2,0:0:0:0:
320,192,79847,1,2,0:0:0:0:
192,192,79931,1,2,0:0:0:0:
64,192,80014,1,2,0:0:0:0:
448,192,80014,1,2,0:0:0:0:
320,192,80097,1,2,0:0:0:0:
192,192,80181,1,2,0:0:0:0:
64,192,80264,1,2,0:0:0:0:
320,192,80264,1,2,0:0:0:0:
448,192,80264,1,2,0:0:0:0:
192,192,80597,1,2,0:0:0:0:
320,192,80597,1,2,0:0:0:0:
448,192,80597,1,2,0:0:0:0:
64,192,80681,1,2,0:0:0:0:
448,192,80681,1,2,0:0:0:0:
320,192,80764,1,2,0:0:0:0:
192,192,80847,1,2,0:0:0:0:
448,192,80847,1,2,0:0:0:0:
320,192,80931,1,2,0:0:0:0:
64,192,80931,1,2,0:0:0:0:
192,192,81014,1,2,0:0:0:0:
192,192,81097,1,2,0:0:0:0:
448,192,81097,1,2,0:0:0:0:
320,192,81097,1,2,0:0:0:0:
64,192,81181,1,2,0:0:0:0:
320,192,81264,1,2,0:0:0:0:
64,192,81347,1,2,0:0:0:0:
448,192,81347,1,2,0:0:0:0:
192,192,81431,1,2,0:0:0:0:
448,192,81514,1,2,0:0:0:0:
64,192,81514,1,2,0:0:0:0:
192,192,81597,1,2,0:0:0:0:
320,192,81597,1,2,0:0:0:0:
448,192,81597,1,2,0:0:0:0:
64,192,81681,1,2,0:0:0:0:
192,192,81764,1,2,0:0:0:0:
320,192,81764,1,2,0:0:0:0:
448,192,81847,1,2,0:0:0:0:
64,192,81931,1,2,0:0:0:0:
192,192,81931,1,2,0:0:0:0:
320,192,81931,1,2,0:0:0:0:
192,192,82014,1,2,0:0:0:0:
448,192,82097,1,2,0:0:0:0:
64,192,82097,1,2,0:0:0:0:
192,192,82181,1,2,0:0:0:0:
320,192,82264,1,2,0:0:0:0:
448,192,82347,1,2,0:0:0:0:
64,192,82430,1,2,0:0:0:0:
192,192,82430,1,2,0:0:0:0:
320,192,82430,1,2,0:0:0:0:
320,192,82514,1,2,0:0:0:0:
64,192,82597,1,2,0:0:0:0:
192,192,82680,1,2,0:0:0:0:
448,192,82680,1,2,0:0:0:0:
64,192,82764,1,2,0:0:0:0:
320,192,82764,1,2,0:0:0:0:
448,192,82847,1,2,0:0:0:0:
64,192,82930,1,2,0:0:0:0:
192,192,82930,1,2,0:0:0:0:
320,192,82930,1,2,0:0:0:0:
448,192,83014,1,2,0:0:0:0:
64,192,83097,1,2,0:0:0:0:
320,192,83097,1,2,0:0:0:0:
192,192,83180,1,2,0:0:0:0:
64,192,83264,1,2,0:0:0:0:
320,192,83264,1,2,0:0:0:0:
448,192,83264,1,2,0:0:0:0:
448,192,83347,1,2,0:0:0:0:
64,192,83430,1,2,0:0:0:0:
320,192,83430,1,2,0:0:0:0:
192,192,83514,1,2,0:0:0:0:
448,192,83597,1,2,0:0:0:0:
64,192,83597,1,2,0:0:0:0:
192,192,83680,1,2,0:0:0:0:
64,192,83764,1,2,0:0:0:0:
320,192,83764,1,2,0:0:0:0:
448,192,83764,1,2,0:0:0:0:
192,192,83847,1,2,0:0:0:0:
320,192,83930,1,2,0:0:0:0:
64,192,83930,1,2,0:0:0:0:
448,192,84014,1,2,0:0:0:0:
192,192,84014,1,2,0:0:0:0:
320,192,84097,1,2,0:0:0:0:
192,192,84180,1,2,0:0:0:0:
64,192,84264,1,2,0:0:0:0:
320,192,84264,1,2,0:0:0:0:
448,192,84264,1,2,0:0:0:0:
192,192,84347,1,2,0:0:0:0:
320,192,84430,1,2,0:0:0:0:
448,192,84430,1,2,0:0:0:0:
64,192,84514,1,2,0:0:0:0:
64,192,84597,1,2,0:0:0:0:
192,192,84597,1,2,0:0:0:0:
448,192,84597,1,2,0:0:0:0:
320,192,84680,1,2,0:0:0:0:
192,192,84764,5,2,0:0:0:0:
64,192,84847,1,2,0:0:0:0:
320,192,84847,1,2,0:0:0:0:
448,192,84930,1,2,0:0:0:0:
192,192,84930,1,2,0:0:0:0:
320,192,85014,1,2,0:0:0:0:
64,192,85097,1,2,0:0:0:0:
192,192,85097,1,2,0:0:0:0:
448,192,85097,1,2,0:0:0:0:
320,192,85264,1,2,0:0:0:0:
192,192,85347,1,2,0:0:0:0:
448,192,85347,1,2,0:0:0:0:
64,192,85430,1,2,0:0:0:0:
320,192,85430,1,2,0:0:0:0:
192,192,85514,1,2,0:0:0:0:
64,192,85597,1,2,0:0:0:0:
192,192,85597,1,2,0:0:0:0:
320,192,85680,1,2,0:0:0:0:
448,192,85680,1,2,0:0:0:0:
64,192,85764,1,2,0:0:0:0:
192,192,85764,1,2,0:0:0:0:
320,192,85847,1,2,0:0:0:0:
448,192,85847,1,2,0:0:0:0:
192,192,85930,1,2,0:0:0:0:
320,192,85930,1,2,0:0:0:0:
448,192,86014,1,2,0:0:0:0:
64,192,86097,1,2,0:0:0:0:
192,192,86180,1,2,0:0:0:0:
448,192,86180,1,2,0:0:0:0:
320,192,86264,1,2,0:0:0:0:
192,192,86347,1,2,0:0:0:0:
64,192,86430,1,2,0:0:0:0:
448,192,86430,1,2,0:0:0:0:
320,192,86430,1,2,0:0:0:0:
192,192,86514,1,2,0:0:0:0:
320,192,86597,1,2,0:0:0:0:
64,192,86597,1,2,0:0:0:0:
448,192,86680,1,2,0:0:0:0:
192,192,86764,1,2,0:0:0:0:
64,192,86764,1,2,0:0:0:0:
448,192,86764,1,2,0:0:0:0:
320,192,86847,1,2,0:0:0:0:
64,192,86930,1,2,0:0:0:0:
320,192,87014,1,2,0:0:0:0:
192,192,87097,1,2,0:0:0:0:
448,192,87097,1,2,0:0:0:0:
64,192,87180,1,2,0:0:0:0:
192,192,87264,1,2,0:0:0:0:
448,192,87264,1,2,0:0:0:0:
320,192,87264,1,2,0:0:0:0:
64,192,87347,1,2,0:0:0:0:
448,192,87430,1,2,0:0:0:0:
192,192,87514,1,2,0:0:0:0:
320,192,87514,1,2,0:0:0:0:
64,192,87597,1,2,0:0:0:0:
320,192,87680,1,2,0:0:0:0:
448,192,87764,1,2,0:0:0:0:
64,192,87764,1,2,0:0:0:0:
192,192,87764,1,2,0:0:0:0:
320,192,87847,1,2,0:0:0:0:
64,192,87930,1,2,0:0:0:0:
448,192,87930,1,2,0:0:0:0:
192,192,88014,1,2,0:0:0:0:
64,192,88097,1,2,0:0:0:0:
448,192,88097,1,2,0:0:0:0:
320,192,88097,1,2,0:0:0:0:
64,192,88264,1,2,0:0:0:0:
448,192,88264,1,2,0:0:0:0:
192,192,88264,1,2,0:0:0:0:
320,192,88347,1,2,0:0:0:0:
64,192,88430,1,2,0:0:0:0:
192,192,88514,1,2,0:0:0:0:
64,192,88597,1,2,0:0:0:0:
448,192,88597,1,2,0:0:0:0:
320,192,88597,1,2,0:0:0:0:
192,192,88680,1,2,0:0:0:0:
320,192,88764,1,2,0:0:0:0:
192,192,88847,1,2,0:0:0:0:
320,192,88930,1,2,0:0:0:0:
192,192,89014,1,2,0:0:0:0:
64,192,89097,1,2,0:0:0:0:
448,192,89097,1,2,0:0:0:0:
320,192,89180,1,2,0:0:0:0:
192,192,89264,1,2,0:0:0:0:
320,192,89347,1,2,0:0:0:0:
192,192,89430,1,2,0:0:0:0:
320,192,89514,1,2,0:0:0:0:
320,192,89597,1,2,0:0:0:0:
192,192,89597,1,2,0:0:0:0:
64,192,89597,128,2,89931:0:0:0:0:
448,192,89597,1,2,0:0:0:0:
192,192,89930,1,2,0:0:0:0:
448,192,89930,1,2,0:0:0:0:
320,192,90014,1,2,0:0:0:0:
192,192,90097,1,2,0:0:0:0:
448,192,90180,1,2,0:0:0:0:
64,192,90180,1,2,0:0:0:0:
320,192,90264,1,2,0:0:0:0:
192,192,90347,1,2,0:0:0:0:
448,192,90430,1,2,0:0:0:0:
320,192,90430,1,2,0:0:0:0:
64,192,90430,1,2,0:0:0:0:
192,192,90514,1,2,0:0:0:0:
320,192,90597,1,2,0:0:0:0:
448,192,90597,1,2,0:0:0:0:
64,192,90597,1,2,0:0:0:0:
192,192,90680,1,2,0:0:0:0:
448,192,90764,1,2,0:0:0:0:
64,192,90764,1,2,0:0:0:0:
320,192,90764,1,2,0:0:0:0:
320,192,90847,1,2,0:0:0:0:
448,192,90930,1,2,0:0:0:0:
192,192,90930,1,2,0:0:0:0:
64,192,90930,1,2,0:0:0:0:
320,192,91014,1,2,0:0:0:0:
192,192,91097,1,2,0:0:0:0:
64,192,91097,1,2,0:0:0:0:
320,192,91097,1,2,0:0:0:0:
448,192,91097,1,2,0:0:0:0:
192,192,91264,1,2,0:0:0:0:
64,192,91264,1,2,0:0:0:0:
320,192,91264,1,2,0:0:0:0:
64,192,91347,1,2,0:0:0:0:
448,192,91347,1,2,0:0:0:0:
192,192,91430,1,2,0:0:0:0:
320,192,91514,1,2,0:0:0:0:
64,192,91514,1,2,0:0:0:0:
448,192,91597,1,2,0:0:0:0:
192,192,91597,1,2,0:0:0:0:
320,192,91680,1,2,0:0:0:0:
192,192,91764,1,2,0:0:0:0:
320,192,91764,1,2,0:0:0:0:
64,192,91764,1,2,0:0:0:0:
448,192,91847,1,2,0:0:0:0:
192,192,91930,1,2,0:0:0:0:
448,192,92014,1,2,0:0:0:0:
64,192,92014,1,2,0:0:0:0:
320,192,92097,1,2,0:0:0:0:
448,192,92180,1,2,0:0:0:0:
64,192,92180,1,2,0:0:0:0:
320,192,92264,1,2,0:0:0:0:
192,192,92264,1,2,0:0:0:0:
64,192,92264,1,2,0:0:0:0:
448,192,92347,1,2,0:0:0:0:
192,192,92430,1,2,0:0:0:0:
320,192,92430,1,2,0:0:0:0:
64,192,92514,1,2,0:0:0:0:
192,192,92597,1,2,0:0:0:0:
320,192,92597,1,2,0:0:0:0:
448,192,92597,1,2,0:0:0:0:
320,192,92680,1,2,0:0:0:0:
448,192,92764,1,2,0:0:0:0:
64,192,92764,1,2,0:0:0:0:
320,192,92847,1,2,0:0:0:0:
192,192,92930,1,2,0:0:0:0:
64,192,93014,1,2,0:0:0:0:
448,192,93097,1,2,0:0:0:0:
320,192,93097,1,2,0:0:0:0:
192,192,93097,1,2,0:0:0:0:
192,192,93180,1,2,0:0:0:0:
448,192,93264,1,2,0:0:0:0:
64,192,93347,1,2,0:0:0:0:
320,192,93347,1,2,0:0:0:0:
192,192,93430,1,2,0:0:0:0:
448,192,93430,1,2,0:0:0:0:
64,192,93514,1,2,0:0:0:0:
320,192,93597,1,2,0:0:0:0:
448,192,93597,1,2,0:0:0:0:
192,192,93597,1,2,0:0:0:0:
64,192,93680,1,2,0:0:0:0:
192,192,93764,1,2,0:0:0:0:
448,192,93764,1,2,0:0:0:0:
320,192,93847,1,2,0:0:0:0:
64,192,93930,1,2,0:0:0:0:
192,192,93930,1,2,0:0:0:0:
448,192,93930,1,2,0:0:0:0:
320,192,94014,1,2,0:0:0:0:
192,192,94097,1,2,0:0:0:0:
448,192,94097,1,2,0:0:0:0:
320,192,94180,1,2,0:0:0:0:
64,192,94264,1,2,0:0:0:0:
448,192,94264,1,2,0:0:0:0:
192,192,94264,1,2,0:0:0:0:
320,192,94347,1,2,0:0:0:0:
64,192,94430,1,2,0:0:0:0:
448,192,94430,1,2,0:0:0:0:
192,192,94513,1,2,0:0:0:0:
448,192,94597,1,2,0:0:0:0:
320,192,94597,1,2,0:0:0:0:
448,192,94680,1,2,0:0:0:0:
64,192,94680,1,2,0:0:0:0:
192,192,94764,1,2,0:0:0:0:
320,192,94847,1,2,0:0:0:0:
448,192,94930,1,2,0:0:0:0:
192,192,94930,1,2,0:0:0:0:
64,192,94930,1,2,0:0:0:0:
320,192,95014,1,2,0:0:0:0:
192,192,95097,1,2,0:0:0:0:
64,192,95097,1,2,0:0:0:0:
448,192,95180,1,2,0:0:0:0:
320,192,95264,1,2,0:0:0:0:
448,192,95264,1,2,0:0:0:0:
64,192,95264,1,2,0:0:0:0:
192,192,95347,1,2,0:0:0:0:
448,192,95430,1,2,0:0:0:0:
64,192,95513,1,2,0:0:0:0:
320,192,95513,1,2,0:0:0:0:
192,192,95597,1,2,0:0:0:0:
448,192,95597,1,2,0:0:0:0:
64,192,95597,1,2,0:0:0:0:
320,192,95680,1,2,0:0:0:0:
64,192,95764,1,2,0:0:0:0:
192,192,95764,1,2,0:0:0:0:
448,192,95764,1,2,0:0:0:0:
448,192,95847,1,2,0:0:0:0:
320,192,95847,1,2,0:0:0:0:
64,192,95930,1,2,0:0:0:0:
192,192,95930,1,2,0:0:0:0:
320,192,96013,1,2,0:0:0:0:
64,192,96097,1,2,0:0:0:0:
448,192,96097,1,2,0:0:0:0:
192,192,96180,1,2,0:0:0:0:
64,192,96264,1,2,0:0:0:0:
448,192,96347,1,2,0:0:0:0:
320,192,96347,1,2,0:0:0:0:
192,192,96430,1,2,0:0:0:0:
320,192,96430,1,2,0:0:0:0:
192,192,96514,1,2,0:0:0:0:
64,192,96514,1,2,0:0:0:0:
64,192,96597,1,2,0:0:0:0:
192,192,96597,1,2,0:0:0:0:
320,192,96597,1,2,0:0:0:0:
448,192,96597,128,2,96931:0:0:0:0:
64,192,96764,1,2,0:0:0:0:
192,192,96764,1,2,0:0:0:0:
320,192,96930,128,2,97263:0:0:0:0:
192,192,96930,1,2,0:0:0:0:
64,192,97014,1,2,0:0:0:0:
448,192,97097,1,2,0:0:0:0:
192,192,97097,1,2,0:0:0:0:
448,192,97264,128,2,97597:0:0:0:0:
192,192,97264,1,2,0:0:0:0:
192,192,97430,1,2,0:0:0:0:
64,192,97430,1,2,0:0:0:0:
320,192,97597,1,2,0:0:0:0:
448,192,97680,1,2,0:0:0:0:
64,192,97763,128,2,98097:0:0:0:0:
192,192,97764,1,2,0:0:0:0:
320,192,97764,1,2,0:0:0:0:
448,192,97930,1,2,0:0:0:0:
192,192,98097,1,2,0:0:0:0:
448,192,98097,1,2,0:0:0:0:
320,192,98097,1,2,0:0:0:0:
320,192,98264,1,2,0:0:0:0:
448,192,98264,1,2,0:0:0:0:
320,192,98347,1,2,0:0:0:0:
448,192,98347,1,2,0:0:0:0:
64,192,98430,1,2,0:0:0:0:
192,192,98430,1,2,0:0:0:0:
320,192,98597,1,2,0:0:0:0:
448,192,98597,1,2,0:0:0:0:
320,192,98680,1,2,0:0:0:0:
448,192,98680,1,2,0:0:0:0:
64,192,98764,1,2,0:0:0:0:
192,192,98764,1,2,0:0:0:0:
320,192,98847,1,2,0:0:0:0:
448,192,98847,1,2,0:0:0:0:
64,192,98930,1,2,0:0:0:0:
192,192,98930,1,2,0:0:0:0:
64,192,99014,1,2,0:0:0:0:
192,192,99014,1,2,0:0:0:0:
320,192,99097,1,2,0:0:0:0:
448,192,99097,128,2,99181:0:0:0:0:
448,192,99264,128,2,99597:0:0:0:0:
192,192,99264,1,2,0:0:0:0:
64,192,99430,1,2,0:0:0:0:
320,192,99430,1,2,0:0:0:0:
64,192,99597,128,2,99931:0:0:0:0:
320,192,99597,1,2,0:0:0:0:
192,192,99680,1,2,0:0:0:0:
320,192,99764,1,2,0:0:0:0:
448,192,99764,1,2,0:0:0:0:
320,192,99930,128,2,100263:0:0:0:0:
448,192,99930,1,2,0:0:0:0:
64,192,100097,1,2,0:0:0:0:
192,192,100097,1,2,0:0:0:0:
192,192,100264,1,2,0:0:0:0:
192,192,100347,1,2,0:0:0:0:
320,192,100430,128,2,100930:0:0:0:0:
64,192,100430,1,2,0:0:0:0:
448,192,100430,1,2,0:0:0:0:
192,192,100597,1,2,0:0:0:0:
448,192,100680,1,2,0:0:0:0:
64,192,100764,1,2,0:0:0:0:
192,192,100764,1,2,0:0:0:0:
448,192,100847,1,2,0:0:0:0:
192,192,100930,128,2,101263:0:0:0:0:
64,192,100930,1,2,0:0:0:0:
448,192,101014,1,2,0:0:0:0:
320,192,101097,1,2,0:0:0:0:
448,192,101180,1,2,0:0:0:0:
64,192,101264,128,2,101597:0:0:0:0:
320,192,101264,1,2,0:0:0:0:
448,192,101347,1,2,0:0:0:0:
192,192,101430,1,2,0:0:0:0:
320,192,101430,1,2,0:0:0:0:
192,192,101597,128,2,101764:0:0:0:0:
320,192,101597,1,2,0:0:0:0:
64,192,101680,1,2,0:0:0:0:
448,192,101764,128,2,102264:0:0:0:0:
64,192,101764,1,2,0:0:0:0:
320,192,101764,1,2,0:0:0:0:
192,192,101930,1,2,0:0:0:0:
64,192,102097,1,2,0:0:0:0:
192,192,102097,1,2,0:0:0:0:
320,192,102264,128,2,102597:0:0:0:0:
64,192,102264,1,2,0:0:0:0:
192,192,102347,1,2,0:0:0:0:
64,192,102430,1,2,0:0:0:0:
448,192,102430,1,2,0:0:0:0:
64,192,102597,128,2,102931:0:0:0:0:
192,192,102597,1,2,0:0:0:0:
320,192,102764,1,2,0:0:0:0:
448,192,102764,1,2,0:0:0:0:
320,192,102930,128,2,103013:0:0:0:0:
448,192,102930,1,2,0:0:0:0:
192,192,103014,1,2,0:0:0:0:
320,192,103097,128,2,103597:0:0:0:0:
64,192,103097,1,2,0:0:0:0:
448,192,103097,1,2,0:0:0:0:
192,192,103180,1,2,0:0:0:0:
64,192,103264,1,2,0:0:0:0:
192,192,103430,1,2,0:0:0:0:
448,192,103430,1,2,0:0:0:0:
192,192,103597,128,2,103931:0:0:0:0:
64,192,103597,1,2,0:0:0:0:
320,192,103680,1,2,0:0:0:0:
320,192,103764,1,2,0:0:0:0:
64,192,103764,1,2,0:0:0:0:
448,192,103847,1,2,0:0:0:0:
64,192,103930,128,2,104263:0:0:0:0:
320,192,103930,1,2,0:0:0:0:
448,192,104014,1,2,0:0:0:0:
192,192,104097,1,2,0:0:0:0:
320,192,104097,1,2,0:0:0:0:
448,192,104264,1,2,0:0:0:0:
320,192,104347,1,2,0:0:0:0:
64,192,104430,1,2,0:0:0:0:
192,192,104430,1,2,0:0:0:0:
320,192,104514,1,2,0:0:0:0:
64,192,104597,1,2,0:0:0:0:
192,192,104680,1,2,0:0:0:0:
448,192,104680,1,2,0:0:0:0:
320,192,104764,1,2,0:0:0:0:
64,192,104847,1,2,0:0:0:0:
192,192,104930,1,2,0:0:0:0:
448,192,104930,1,2,0:0:0:0:
320,192,105014,1,2,0:0:0:0:
64,192,105014,1,2,0:0:0:0:
192,192,105097,1,2,0:0:0:0:
64,192,105180,1,2,0:0:0:0:
448,192,105180,1,2,0:0:0:0:
320,192,105264,1,2,0:0:0:0:
192,192,105264,1,2,0:0:0:0:
64,192,105347,1,2,0:0:0:0:
192,192,105430,1,2,0:0:0:0:
448,192,105430,1,2,0:0:0:0:
320,192,105514,1,2,0:0:0:0:
64,192,105597,1,2,0:0:0:0:
448,192,105597,1,2,0:0:0:0:
192,192,105680,1,2,0:0:0:0:
320,192,105764,1,2,0:0:0:0:
64,192,105764,1,2,0:0:0:0:
448,192,105847,1,2,0:0:0:0:
192,192,105847,1,2,0:0:0:0:
320,192,105930,1,2,0:0:0:0:
448,192,106014,1,2,0:0:0:0:
64,192,106097,1,2,0:0:0:0:
192,192,106097,1,2,0:0:0:0:
320,192,106097,1,2,0:0:0:0:
448,192,106097,1,2,0:0:0:0:
320,192,106180,1,2,0:0:0:0:
192,192,106264,1,2,0:0:0:0:
448,192,106264,1,2,0:0:0:0:
320,192,106347,1,2,0:0:0:0:
64,192,106347,1,2,0:0:0:0:
192,192,106430,1,2,0:0:0:0:
448,192,106430,1,2,0:0:0:0:
320,192,106514,1,2,0:0:0:0:
448,192,106597,1,2,0:0:0:0:
64,192,106597,1,2,0:0:0:0:
192,192,106680,1,2,0:0:0:0:
320,192,106764,1,2,0:0:0:0:
448,192,106847,1,2,0:0:0:0:
64,192,106847,1,2,0:0:0:0:
192,192,106930,1,2,0:0:0:0:
320,192,107014,1,2,0:0:0:0:
64,192,107097,1,2,0:0:0:0:
448,192,107097,1,2,0:0:0:0:
192,192,107180,1,2,0:0:0:0:
64,192,107264,128,2,107597:0:0:0:0:
448,192,107264,1,2,0:0:0:0:
192,192,107264,1,2,0:0:0:0:
320,192,107264,1,2,0:0:0:0:
320,192,107430,1,2,0:0:0:0:
448,192,107430,1,2,0:0:0:0:
320,192,107597,1,2,0:0:0:0:
192,192,107597,128,2,107931:0:0:0:0:
448,192,107680,1,2,0:0:0:0:
320,192,107764,1,2,0:0:0:0:
64,192,107764,1,2,0:0:0:0:
64,192,107930,128,2,108263:0:0:0:0:
320,192,107930,1,2,0:0:0:0:
448,192,108097,1,2,0:0:0:0:
320,192,108097,1,2,0:0:0:0:
448,192,108264,128,2,108597:0:0:0:0:
192,192,108264,1,2,0:0:0:0:
64,192,108347,1,2,0:0:0:0:
192,192,108430,1,2,0:0:0:0:
320,192,108430,1,2,0:0:0:0:
320,192,108597,1,2,0:0:0:0:
64,192,108764,1,2,0:0:0:0:
448,192,108764,1,2,0:0:0:0:
320,192,108764,1,2,0:0:0:0:
192,192,108930,1,2,0:0:0:0:
64,192,108930,1,2,0:0:0:0:
192,192,109014,1,2,0:0:0:0:
64,192,109014,1,2,0:0:0:0:
448,192,109097,1,2,0:0:0:0:
320,192,109097,1,2,0:0:0:0:
64,192,109264,1,2,0:0:0:0:
192,192,109264,1,2,0:0:0:0:
192,192,109347,1,2,0:0:0:0:
64,192,109347,1,2,0:0:0:0:
320,192,109430,1,2,0:0:0:0:
448,192,109430,1,2,0:0:0:0:
192,192,109514,1,2,0:0:0:0:
64,192,109514,1,2,0:0:0:0:
320,192,109597,1,2,0:0:0:0:
448,192,109597,1,2,0:0:0:0:
448,192,109680,1,2,0:0:0:0:
320,192,109680,1,2,0:0:0:0:
192,192,109764,1,2,0:0:0:0:
64,192,109764,128,2,109847:0:0:0:0:
320,192,109930,1,2,0:0:0:0:
64,192,109930,128,2,110263:0:0:0:0:
192,192,110097,1,2,0:0:0:0:
448,192,110097,1,2,0:0:0:0:
192,192,110264,1,2,0:0:0:0:
448,192,110264,128,2,110597:0:0:0:0:
320,192,110347,1,2,0:0:0:0:
64,192,110430,1,2,0:0:0:0:
192,192,110430,1,2,0:0:0:0:
192,192,110597,128,2,110931:0:0:0:0:
64,192,110597,1,2,0:0:0:0:
320,192,110764,1,2,0:0:0:0:
448,192,110764,1,2,0:0:0:0:
320,192,110930,1,2,0:0:0:0:
320,192,111014,1,2,0:0:0:0:
64,192,111097,1,2,0:0:0:0:
448,192,111097,1,2,0:0:0:0:
192,192,111097,128,2,111597:0:0:0:0:
320,192,111264,1,2,0:0:0:0:
64,192,111347,1,2,0:0:0:0:
320,192,111430,1,2,0:0:0:0:
448,192,111430,1,2,0:0:0:0:
64,192,111514,1,2,0:0:0:0:
448,192,111597,1,2,0:0:0:0:
320,192,111597,128,2,111931:0:0:0:0:
64,192,111680,1,2,0:0:0:0:
192,192,111764,1,2,0:0:0:0:
64,192,111847,1,2,0:0:0:0:
192,192,111930,1,2,0:0:0:0:
448,192,111930,128,2,112263:0:0:0:0:
64,192,112014,1,2,0:0:0:0:
320,192,112097,1,2,0:0:0:0:
192,192,112097,1,2,0:0:0:0:
192,192,112264,1,2,0:0:0:0:
320,192,112264,128,2,112431:0:0:0:0:
448,192,112347,1,2,0:0:0:0:
192,192,112430,1,2,0:0:0:0:
448,192,112430,1,2,0:0:0:0:
64,192,112430,128,2,112930:0:0:0:0:
320,192,112597,1,2,0:0:0:0:
320,192,112764,1,2,0:0:0:0:
448,192,112764,1,2,0:0:0:0:
192,192,112930,128,2,113263:0:0:0:0:
448,192,112930,1,2,0:0:0:0:
320,192,113014,1,2,0:0:0:0:
448,192,113097,1,2,0:0:0:0:
64,192,113097,1,2,0:0:0:0:
448,192,113264,128,2,113597:0:0:0:0:
320,192,113264,1,2,0:0:0:0:
192,192,113430,1,2,0:0:0:0:
64,192,113430,1,2,0:0:0:0:
192,192,113597,128,2,113681:0:0:0:0:
64,192,113597,1,2,0:0:0:0:
320,192,113680,1,2,0:0:0:0:
448,192,113764,1,2,0:0:0:0:
192,192,113764,128,2,114264:0:0:0:0:
64,192,113764,1,2,0:0:0:0:
320,192,113847,1,2,0:0:0:0:
448,192,113930,1,2,0:0:0:0:
320,192,114097,1,2,0:0:0:0:
64,192,114097,1,2,0:0:0:0:
320,192,114264,128,2,114597:0:0:0:0:
448,192,114264,1,2,0:0:0:0:
192,192,114347,1,2,0:0:0:0:
64,192,114430,1,2,0:0:0:0:
448,192,114430,1,2,0:0:0:0:
64,192,114597,128,2,114931:0:0:0:0:
192,192,114597,1,2,0:0:0:0:
320,192,114680,1,2,0:0:0:0:
192,192,114764,1,2,0:0:0:0:
448,192,114764,1,2,0:0:0:0:
320,192,114930,128,2,115096:0:0:0:0:
192,192,114930,1,2,0:0:0:0:
64,192,115014,1,2,0:0:0:0:
448,192,115097,128,2,116597:0:0:0:0:
192,192,115097,1,2,0:0:0:0:
192,192,115430,1,2,0:0:0:0:
64,192,115430,1,2,0:0:0:0:
320,192,115430,1,2,0:0:0:0:
192,192,115597,1,2,0:0:0:0:
64,192,115680,1,2,0:0:0:0:
192,192,115764,1,2,0:0:0:0:
320,192,115847,1,2,0:0:0:0:
64,192,115930,1,2,0:0:0:0:
192,192,115930,1,2,0:0:0:0:
320,192,116014,1,2,0:0:0:0:
192,192,116097,1,2,0:0:0:0:
64,192,116180,1,2,0:0:0:0:
320,192,116264,1,2,0:0:0:0:
192,192,116347,1,2,0:0:0:0:
64,192,116430,1,2,0:0:0:0:
320,192,116514,1,2,0:0:0:0:
64,192,116597,1,2,0:0:0:0:
192,192,116597,1,2,0:0:0:0:
320,192,116680,1,2,0:0:0:0:
448,192,116680,1,2,0:0:0:0:
64,192,116764,1,2,0:0:0:0:
192,192,116764,1,2,0:0:0:0:
320,192,116847,1,2,0:0:0:0:
448,192,116847,1,2,0:0:0:0:
64,192,116930,1,2,0:0:0:0:
192,192,117014,1,2,0:0:0:0:
320,192,117014,1,2,0:0:0:0:
448,192,117097,1,2,0:0:0:0:
64,192,117097,1,2,0:0:0:0:
320,192,117180,1,2,0:0:0:0:
64,192,117264,1,2,0:0:0:0:
192,192,117264,1,2,0:0:0:0:
320,192,117347,1,2,0:0:0:0:
448,192,117347,1,2,0:0:0:0:
192,192,117430,1,2,0:0:0:0:
64,192,117430,1,2,0:0:0:0:
448,192,117514,1,2,0:0:0:0:
64,192,117597,1,2,0:0:0:0:
320,192,117597,1,2,0:0:0:0:
192,192,117680,1,2,0:0:0:0:
448,192,117680,1,2,0:0:0:0:
64,192,117764,1,2,0:0:0:0:
320,192,117764,1,2,0:0:0:0:
192,192,117847,1,2,0:0:0:0:
448,192,117847,1,2,0:0:0:0:
64,192,117930,128,2,118263:0:0:0:0:
320,192,117930,1,2,0:0:0:0:
192,192,118014,1,2,0:0:0:0:
448,192,118097,1,2,0:0:0:0:
320,192,118180,1,2,0:0:0:0:
448,192,118264,128,2,118597:0:0:0:0:
192,192,118264,1,2,0:0:0:0:
320,192,118347,1,2,0:0:0:0:
192,192,118430,1,2,0:0:0:0:
64,192,118514,1,2,0:0:0:0:
320,192,118597,128,2,118931:0:0:0:0:
192,192,118597,1,2,0:0:0:0:
64,192,118680,1,2,0:0:0:0:
192,192,118764,1,2,0:0:0:0:
448,192,118847,1,2,0:0:0:0:
64,192,118930,1,2,0:0:0:0:
192,192,119014,1,2,0:0:0:0:
64,192,119097,128,2,120431:0:0:0:0:
320,192,119097,1,2,0:0:0:0:
448,192,119180,1,2,0:0:0:0:
192,192,119264,1,2,0:0:0:0:
448,192,119347,1,2,0:0:0:0:
320,192,119430,1,2,0:0:0:0:
192,192,119430,1,2,0:0:0:0:
448,192,119514,1,2,0:0:0:0:
192,192,119597,1,2,0:0:0:0:
320,192,119680,1,2,0:0:0:0:
192,192,119764,1,2,0:0:0:0:
448,192,119764,1,2,0:0:0:0:
320,192,119847,1,2,0:0:0:0:
448,192,119930,1,2,0:0:0:0:
192,192,120014,1,2,0:0:0:0:
320,192,120097,1,2,0:0:0:0:
448,192,120097,1,2,0:0:0:0:
192,192,120180,1,2,0:0:0:0:
448,192,120264,1,2,0:0:0:0:
320,192,120347,1,2,0:0:0:0:
192,192,120430,1,2,0:0:0:0:
448,192,120430,128,2,120930:0:0:0:0:
64,192,120514,1,2,0:0:0:0:
320,192,120597,1,2,0:0:0:0:
64,192,120680,1,2,0:0:0:0:
192,192,120764,1,2,0:0:0:0:
320,192,120764,1,2,0:0:0:0:
192,192,120847,1,2,0:0:0:0:
64,192,120930,128,2,121263:0:0:0:0:
320,192,120930,1,2,0:0:0:0:
448,192,121014,1,2,0:0:0:0:
192,192,121097,1,2,0:0:0:0:
320,192,121180,1,2,0:0:0:0:
192,192,121264,128,2,121597:0:0:0:0:
448,192,121264,1,2,0:0:0:0:
320,192,121347,1,2,0:0:0:0:
64,192,121430,1,2,0:0:0:0:
448,192,121430,1,2,0:0:0:0:
320,192,121514,1,2,0:0:0:0:
448,192,121597,1,2,0:0:0:0:
320,192,121680,1,2,0:0:0:0:
192,192,121764,128,2,122264:0:0:0:0:
64,192,121764,1,2,0:0:0:0:
448,192,121847,1,2,0:0:0:0:
320,192,121930,1,2,0:0:0:0:
64,192,122014,1,2,0:0:0:0:
320,192,122097,1,2,0:0:0:0:
448,192,122097,1,2,0:0:0:0:
64,192,122180,1,2,0:0:0:0:
320,192,122264,128,2,122597:0:0:0:0:
448,192,122264,1,2,0:0:0:0:
64,192,122347,1,2,0:0:0:0:
192,192,122430,1,2,0:0:0:0:
448,192,122430,1,2,0:0:0:0:
64,192,122514,1,2,0:0:0:0:
448,192,122597,128,2,122931:0:0:0:0:
192,192,122597,1,2,0:0:0:0:
64,192,122680,1,2,0:0:0:0:
320,192,122764,1,2,0:0:0:0:
192,192,122847,1,2,0:0:0:0:
64,192,122930,1,2,0:0:0:0:
320,192,122930,1,2,0:0:0:0:
192,192,123014,1,2,0:0:0:0:
448,192,123097,128,2,123597:0:0:0:0:
64,192,123097,1,2,0:0:0:0:
320,192,123180,1,2,0:0:0:0:
192,192,123264,1,2,0:0:0:0:
64,192,123347,1,2,0:0:0:0:
192,192,123430,1,2,0:0:0:0:
320,192,123430,1,2,0:0:0:0:
64,192,123514,1,2,0:0:0:0:
192,192,123597,128,2,123931:0:0:0:0:
320,192,123597,1,2,0:0:0:0:
64,192,123680,1,2,0:0:0:0:
320,192,123764,1,2,0:0:0:0:
448,192,123847,1,2,0:0:0:0:
64,192,123930,128,2,124263:0:0:0:0:
320,192,123930,1,2,0:0:0:0:
192,192,124014,1,2,0:0:0:0:
448,192,124097,1,2,0:0:0:0:
192,192,124180,1,2,0:0:0:0:
320,192,124264,128,2,124431:0:0:0:0:
448,192,124264,1,2,0:0:0:0:
192,192,124347,1,2,0:0:0:0:
448,192,124430,128,2,124930:0:0:0:0:
64,192,124430,1,2,0:0:0:0:
192,192,124514,1,2,0:0:0:0:
64,192,124597,1,2,0:0:0:0:
192,192,124680,1,2,0:0:0:0:
64,192,124764,1,2,0:0:0:0:
320,192,124847,1,2,0:0:0:0:
192,192,124930,1,2,0:0:0:0:
320,192,124930,128,2,125263:0:0:0:0:
64,192,125014,1,2,0:0:0:0:
192,192,125097,1,2,0:0:0:0:
448,192,125180,1,2,0:0:0:0:
64,192,125264,128,2,125597:0:0:0:0:
192,192,125264,1,2,0:0:0:0:
448,192,125347,1,2,0:0:0:0:
192,192,125430,1,2,0:0:0:0:
320,192,125430,1,2,0:0:0:0:
448,192,125514,1,2,0:0:0:0:
320,192,125597,128,2,125764:0:0:0:0:
192,192,125597,1,2,0:0:0:0:
448,192,125680,1,2,0:0:0:0:
192,192,125764,128,2,126264:0:0:0:0:
64,192,125764,1,2,0:0:0:0:
320,192,125847,1,2,0:0:0:0:
448,192,125930,1,2,0:0:0:0:
64,192,126014,1,2,0:0:0:0:
320,192,126097,1,2,0:0:0:0:
448,192,126180,1,2,0:0:0:0:
64,192,126264,128,2,126597:0:0:0:0:
320,192,126264,1,2,0:0:0:0:
448,192,126347,1,2,0:0:0:0:
192,192,126430,1,2,0:0:0:0:
320,192,126514,1,2,0:0:0:0:
192,192,126597,128,2,126931:0:0:0:0:
448,192,126597,1,2,0:0:0:0:
320,192,126680,1,2,0:0:0:0:
448,192,126764,1,2,0:0:0:0:
64,192,126847,1,2,0:0:0:0:
448,192,126930,128,2,127096:0:0:0:0:
320,192,126930,1,2,0:0:0:0:
192,192,127014,1,2,0:0:0:0:
64,192,127097,1,2,0:0:0:0:
320,192,127097,1,2,0:0:0:0:
192,192,127180,1,2,0:0:0:0:
320,192,127264,1,2,0:0:0:0:
448,192,127347,1,2,0:0:0:0:
64,192,127347,1,2,0:0:0:0:
192,192,127430,1,2,0:0:0:0:
320,192,127430,1,2,0:0:0:0:
448,192,127514,1,2,0:0:0:0:
320,192,127597,1,2,0:0:0:0:
192,192,127680,1,2,0:0:0:0:
64,192,127764,1,2,0:0:0:0:
448,192,127764,1,2,0:0:0:0:
320,192,127847,1,2,0:0:0:0:
192,192,127930,1,2,0:0:0:0:
64,192,128014,1,2,0:0:0:0:
320,192,128014,1,2,0:0:0:0:
192,192,128097,1,2,0:0:0:0:
320,192,128180,1,2,0:0:0:0:
448,192,128263,1,2,0:0:0:0:
192,192,128264,1,2,0:0:0:0:
64,192,128264,1,2,0:0:0:0:
448,192,128347,1,2,0:0:0:0:
320,192,128347,1,2,0:0:0:0:
192,192,128430,1,2,0:0:0:0:
64,192,128430,1,2,0:0:0:0:
448,192,128513,1,2,0:0:0:0:
320,192,128513,1,2,0:0:0:0:
64,192,128597,1,2,0:0:0:0:
192,192,128597,1,2,0:0:0:0:
448,192,128597,128,2,128930:0:0:0:0:
320,192,128680,1,2,0:0:0:0:
64,192,128764,1,2,0:0:0:0:
192,192,128847,1,2,0:0:0:0:
64,192,128930,128,2,129263:0:0:0:0:
320,192,128930,1,2,0:0:0:0:
192,192,129014,1,2,0:0:0:0:
320,192,129097,1,2,0:0:0:0:
448,192,129180,1,2,0:0:0:0:
192,192,129264,128,2,129597:0:0:0:0:
320,192,129264,1,2,0:0:0:0:
448,192,129347,1,2,0:0:0:0:
320,192,129430,1,2,0:0:0:0:
64,192,129514,1,2,0:0:0:0:
448,192,129597,1,2,0:0:0:0:
320,192,129680,1,2,0:0:0:0:
448,192,129764,128,2,131097:0:0:0:0:
192,192,129764,1,2,0:0:0:0:
64,192,129847,1,2,0:0:0:0:
320,192,129930,1,2,0:0:0:0:
64,192,130014,1,2,0:0:0:0:
320,192,130097,1,2,0:0:0:0:
192,192,130097,1,2,0:0:0:0:
64,192,130180,1,2,0:0:0:0:
320,192,130264,1,2,0:0:0:0:
192,192,130347,1,2,0:0:0:0:
64,192,130430,1,2,0:0:0:0:
320,192,130430,1,2,0:0:0:0:
192,192,130514,1,2,0:0:0:0:
64,192,130597,1,2,0:0:0:0:
320,192,130680,1,2,0:0:0:0:
192,192,130764,1,2,0:0:0:0:
64,192,130764,1,2,0:0:0:0:
320,192,130847,1,2,0:0:0:0:
64,192,130930,1,2,0:0:0:0:
192,192,131014,1,2,0:0:0:0:
64,192,131097,128,2,131597:0:0:0:0:
320,192,131097,1,2,0:0:0:0:
448,192,131180,1,2,0:0:0:0:
192,192,131264,1,2,0:0:0:0:
448,192,131347,1,2,0:0:0:0:
320,192,131430,1,2,0:0:0:0:
192,192,131430,1,2,0:0:0:0:
320,192,131514,1,2,0:0:0:0:
448,192,131597,128,2,131931:0:0:0:0:
192,192,131597,1,2,0:0:0:0:
64,192,131680,1,2,0:0:0:0:
320,192,131764,1,2,0:0:0:0:
192,192,131847,1,2,0:0:0:0:
320,192,131930,128,2,132263:0:0:0:0:
64,192,131930,1,2,0:0:0:0:
192,192,132014,1,2,0:0:0:0:
448,192,132097,1,2,0:0:0:0:
64,192,132097,1,2,0:0:0:0:
192,192,132180,1,2,0:0:0:0:
64,192,132264,1,2,0:0:0:0:
192,192,132347,1,2,0:0:0:0:
320,192,132430,128,2,132930:0:0:0:0:
448,192,132430,1,2,0:0:0:0:
64,192,132514,1,2,0:0:0:0:
192,192,132597,1,2,0:0:0:0:
448,192,132680,1,2,0:0:0:0:
192,192,132764,1,2,0:0:0:0:
64,192,132764,1,2,0:0:0:0:
448,192,132847,1,2,0:0:0:0:
64,192,132930,1,2,0:0:0:0:
192,192,132930,128,2,133263:0:0:0:0:
448,192,133014,1,2,0:0:0:0:
64,192,133097,1,2,0:0:0:0:
320,192,133097,1,2,0:0:0:0:
448,192,133180,1,2,0:0:0:0:
64,192,133264,128,2,133597:0:0:0:0:
320,192,133264,1,2,0:0:0:0:
448,192,133347,1,2,0:0:0:0:
192,192,133430,1,2,0:0:0:0:
320,192,133514,1,2,0:0:0:0:
192,192,133597,1,2,0:0:0:0:
448,192,133597,1,2,0:0:0:0:
320,192,133680,1,2,0:0:0:0:
64,192,133764,128,2,134264:0:0:0:0:
448,192,133764,1,2,0:0:0:0:
192,192,133847,1,2,0:0:0:0:
320,192,133930,1,2,0:0:0:0:
448,192,134014,1,2,0:0:0:0:
192,192,134097,1,2,0:0:0:0:
320,192,134097,1,2,0:0:0:0:
448,192,134180,1,2,0:0:0:0:
192,192,134264,1,2,0:0:0:0:
320,192,134264,128,2,134597:0:0:0:0:
448,192,134347,1,2,0:0:0:0:
192,192,134430,1,2,0:0:0:0:
64,192,134514,1,2,0:0:0:0:
448,192,134597,128,2,134931:0:0:0:0:
192,192,134597,1,2,0:0:0:0:
320,192,134680,1,2,0:0:0:0:
64,192,134764,1,2,0:0:0:0:
320,192,134847,1,2,0:0:0:0:
192,192,134930,128,2,135096:0:0:0:0:
64,192,134930,1,2,0:0:0:0:
320,192,135014,1,2,0:0:0:0:
448,192,135097,1,2,0:0:0:0:
64,192,135097,128,2,135597:0:0:0:0:
320,192,135180,1,2,0:0:0:0:
448,192,135264,1,2,0:0:0:0:
320,192,135347,1,2,0:0:0:0:
448,192,135430,1,2,0:0:0:0:
192,192,135514,1,2,0:0:0:0:
192,192,135597,128,2,135931:0:0:0:0:
320,192,135597,1,2,0:0:0:0:
448,192,135680,1,2,0:0:0:0:
320,192,135764,1,2,0:0:0:0:
64,192,135847,1,2,0:0:0:0:
320,192,135930,1,2,0:0:0:0:
448,192,135930,128,2,136263:0:0:0:0:
64,192,136014,1,2,0:0:0:0:
192,192,136097,1,2,0:0:0:0:
320,192,136180,1,2,0:0:0:0:
192,192,136264,128,2,136431:0:0:0:0:
64,192,136264,1,2,0:0:0:0:
320,192,136347,1,2,0:0:0:0:
448,192,136430,1,2,0:0:0:0:
64,192,136430,1,2,0:0:0:0:
192,192,136514,1,2,0:0:0:0:
320,192,136514,1,2,0:0:0:0:
64,192,136597,1,2,0:0:0:0:
448,192,136680,1,2,0:0:0:0:
192,192,136680,1,2,0:0:0:0:
320,192,136764,1,2,0:0:0:0:
64,192,136764,1,2,0:0:0:0:
448,192,136847,1,2,0:0:0:0:
192,192,136930,1,2,0:0:0:0:
320,192,136930,1,2,0:0:0:0:
64,192,137014,1,2,0:0:0:0:
448,192,137014,1,2,0:0:0:0:
320,192,137097,1,2,0:0:0:0:
192,192,137180,1,2,0:0:0:0:
448,192,137180,1,2,0:0:0:0:
64,192,137264,1,2,0:0:0:0:
320,192,137264,1,2,0:0:0:0:
192,192,137347,1,2,0:0:0:0:
64,192,137430,1,2,0:0:0:0:
320,192,137430,1,2,0:0:0:0:
448,192,137514,1,2,0:0:0:0:
192,192,137514,1,2,0:0:0:0:
320,192,137597,1,2,0:0:0:0:
320,192,137680,1,2,0:0:0:0:
64,192,137680,1,2,0:0:0:0:
192,192,137764,1,2,0:0:0:0:
448,192,137764,1,2,0:0:0:0:
320,192,137847,1,2,0:0:0:0:
192,192,137930,1,2,0:0:0:0:
448,192,138014,1,2,0:0:0:0:
64,192,138014,1,2,0:0:0:0:
192,192,138097,1,2,0:0:0:0:
320,192,138097,1,2,0:0:0:0:
64,192,138180,1,2,0:0:0:0:
448,192,138180,1,2,0:0:0:0:
192,192,138264,1,2,0:0:0:0:
320,192,138347,1,2,0:0:0:0:
64,192,138430,1,2,0:0:0:0:
448,192,138430,1,2,0:0:0:0:
320,192,138514,1,2,0:0:0:0:
192,192,138597,1,2,0:0:0:0:
64,192,138597,128,2,139264:0:0:0:0:
320,192,138708,1,2,0:0:0:0:
448,192,138819,1,2,0:0:0:0:
320,192,138930,1,2,0:0:0:0:
192,192,138930,1,2,0:0:0:0:
448,192,139041,1,2,0:0:0:0:
320,192,139152,1,2,0:0:0:0:
192,192,139264,1,2,0:0:0:0:
320,192,139264,1,2,0:0:0:0:
448,192,139264,1,2,0:0:0:0:
192,192,139430,1,2,0:0:0:0:
448,192,139430,1,2,0:0:0:0:
320,192,139597,1,2,0:0:0:0:
64,192,139597,1,2,0:0:0:0:
192,192,139597,1,2,0:0:0:0:
192,192,139764,1,2,0:0:0:0:
448,192,139764,1,2,0:0:0:0:
64,192,139764,1,2,0:0:0:0:
320,192,139930,1,2,0:0:0:0:
448,192,139930,1,2,0:0:0:0:
64,192,139930,1,2,0:0:0:0:
192,192,140097,1,2,0:0:0:0:
64,192,140097,1,2,0:0:0:0:
320,192,140097,1,2,0:0:0:0:
64,192,140264,1,2,0:0:0:0:
192,192,140264,1,2,0:0:0:0:
448,192,140264,1,2,0:0:0:0:
192,192,140347,1,2,0:0:0:0:
64,192,140430,1,2,0:0:0:0:
320,192,140430,1,2,0:0:0:0:
448,192,140430,1,2,0:0:0:0:
320,192,140514,1,2,0:0:0:0:
192,192,140597,1,2,0:0:0:0:
64,192,140597,1,2,0:0:0:0:
448,192,140597,1,2,0:0:0:0:
320,192,140764,1,2,0:0:0:0:
192,192,140764,1,2,0:0:0:0:
448,192,140764,1,2,0:0:0:0:
64,192,140930,1,2,0:0:0:0:
320,192,140930,1,2,0:0:0:0:
448,192,140930,1,2,0:0:0:0:
64,192,141097,1,2,0:0:0:0:
192,192,141097,1,2,0:0:0:0:
448,192,141097,1,2,0:0:0:0:
192,192,141264,1,2,0:0:0:0:
320,192,141264,1,2,0:0:0:0:
448,192,141264,1,2,0:0:0:0:
64,192,141347,1,2,0:0:0:0:
192,192,141430,1,2,0:0:0:0:
448,192,141430,1,2,0:0:0:0:
64,192,141430,1,2,0:0:0:0:
320,192,141514,1,2,0:0:0:0:
320,192,141597,1,2,0:0:0:0:
448,192,141597,1,2,0:0:0:0:
64,192,141597,1,2,0:0:0:0:
192,192,141680,1,2,0:0:0:0:
64,192,141764,1,2,0:0:0:0:
192,192,141764,1,2,0:0:0:0:
448,192,141764,1,2,0:0:0:0:
64,192,142264,1,2,0:0:0:0:
448,192,142264,1,2,0:0:0:0:
320,192,142264,128,2,142431:0:0:0:0:
64,192,142430,1,2,0:0:0:0:
192,192,142430,1,2,0:0:0:0:
448,192,142430,1,2,0:0:0:0:
320,192,142597,1,2,0:0:0:0:
448,192,142597,1,2,0:0:0:0:
192,192,142597,128,2,142764:0:0:0:0:
448,192,142764,1,2,0:0:0:0:
64,192,142764,128,2,142931:0:0:0:0:
192,192,142930,1,2,0:0:0:0:
320,192,142930,1,2,0:0:0:0:
320,192,143014,1,2,0:0:0:0:
192,192,143097,1,2,0:0:0:0:
64,192,143097,1,2,0:0:0:0:
448,192,143097,1,2,0:0:0:0:
192,192,143180,1,2,0:0:0:0:
64,192,143264,1,2,0:0:0:0:
320,192,143264,1,2,0:0:0:0:
448,192,143264,1,2,0:0:0:0:
192,192,143430,1,2,0:0:0:0:
64,192,143430,1,2,0:0:0:0:
320,192,143430,1,2,0:0:0:0:
192,192,143597,1,2,0:0:0:0:
64,192,143597,1,2,0:0:0:0:
448,192,143597,128,2,143764:0:0:0:0:
320,192,143764,1,2,0:0:0:0:
192,192,143764,1,2,0:0:0:0:
192,192,143930,1,2,0:0:0:0:
64,192,143930,1,2,0:0:0:0:
448,192,143930,1,2,0:0:0:0:
64,192,144097,1,2,0:0:0:0:
192,192,144097,1,2,0:0:0:0:
320,192,144097,1,2,0:0:0:0:
448,192,144097,1,2,0:0:0:0:
64,192,144430,1,2,0:0:0:0:
192,192,144430,1,2,0:0:0:0:
320,192,144430,1,2,0:0:0:0:
448,192,144430,1,2,0:0:0:0:
192,192,144597,1,2,0:0:0:0:
448,192,144597,1,2,0:0:0:0:
320,192,144597,1,2,0:0:0:0:
64,192,144764,1,2,0:0:0:0:
320,192,144764,1,2,0:0:0:0:
448,192,144764,1,2,0:0:0:0:
192,192,144930,1,2,0:0:0:0:
320,192,144930,1,2,0:0:0:0:
64,192,144930,1,2,0:0:0:0:
192,192,145097,1,2,0:0:0:0:
320,192,145097,1,2,0:0:0:0:
64,192,145097,1,2,0:0:0:0:
192,192,145264,1,2,0:0:0:0:
64,192,145264,1,2,0:0:0:0:
448,192,145264,1,2,0:0:0:0:
192,192,145430,1,2,0:0:0:0:
320,192,145430,1,2,0:0:0:0:
448,192,145430,1,2,0:0:0:0:
64,192,145597,1,2,0:0:0:0:
448,192,145597,1,2,0:0:0:0:
192,192,145597,1,2,0:0:0:0:
192,192,145680,1,2,0:0:0:0:
64,192,145680,1,2,0:0:0:0:
320,192,145764,1,2,0:0:0:0:
448,192,145764,1,2,0:0:0:0:
320,192,145847,1,2,0:0:0:0:
448,192,145847,1,2,0:0:0:0:
64,192,145930,1,2,0:0:0:0:
192,192,145930,1,2,0:0:0:0:
448,192,145930,1,2,0:0:0:0:
320,192,146097,1,2,0:0:0:0:
192,192,146097,1,2,0:0:0:0:
64,192,146264,1,2,0:0:0:0:
320,192,146264,1,2,0:0:0:0:
448,192,146264,1,2,0:0:0:0:
320,192,146430,1,2,0:0:0:0:
192,192,146430,1,2,0:0:0:0:
64,192,146430,1,2,0:0:0:0:
64,192,146597,1,2,0:0:0:0:
320,192,146597,1,2,0:0:0:0:
448,192,146597,1,2,0:0:0:0:
320,192,146680,1,2,0:0:0:0:
64,192,146764,1,2,0:0:0:0:
192,192,146764,1,2,0:0:0:0:
448,192,146764,1,2,0:0:0:0:
192,192,146847,1,2,0:0:0:0:
448,192,146930,1,2,0:0:0:0:
320,192,146930,1,2,0:0:0:0:
64,192,146930,1,2,0:0:0:0:
448,192,147014,1,2,0:0:0:0:
64,192,147097,1,2,0:0:0:0:
192,192,147097,1,2,0:0:0:0:
320,192,147097,1,2,0:0:0:0:
448,192,147097,1,2,0:0:0:0:
192,192,147264,1,2,0:0:0:0:
448,192,147264,1,2,0:0:0:0:
64,192,147264,1,2,0:0:0:0:
192,192,147430,1,2,0:0:0:0:
320,192,147430,1,2,0:0:0:0:
448,192,147430,1,2,0:0:0:0:
64,192,147597,1,2,0:0:0:0:
192,192,147597,1,2,0:0:0:0:
320,192,147597,1,2,0:0:0:0:
192,192,147764,1,2,0:0:0:0:
448,192,147764,1,2,0:0:0:0:
64,192,147764,1,2,0:0:0:0:
320,192,147930,1,2,0:0:0:0:
448,192,147930,1,2,0:0:0:0:
64,192,147930,1,2,0:0:0:0:
320,192,148097,1,2,0:0:0:0:
192,192,148097,1,2,0:0:0:0:
64,192,148097,1,2,0:0:0:0:
192,192,148264,1,2,0:0:0:0:
64,192,148264,1,2,0:0:0:0:
448,192,148264,1,2,0:0:0:0:
192,192,148347,1,2,0:0:0:0:
320,192,148430,1,2,0:0:0:0:
448,192,148430,1,2,0:0:0:0:
64,192,148430,1,2,0:0:0:0:
192,192,148597,1,2,0:0:0:0:
64,192,148597,1,2,0:0:0:0:
320,192,148597,1,2,0:0:0:0:
448,192,148597,1,2,0:0:0:0:
448,192,148847,1,2,0:0:0:0:
64,192,148847,1,2,0:0:0:0:
320,192,148930,1,2,0:0:0:0:
192,192,149014,1,2,0:0:0:0:
64,192,149097,1,2,0:0:0:0:
320,192,149097,1,2,0:0:0:0:
448,192,149097,1,2,0:0:0:0:
448,192,149180,1,2,0:0:0:0:
320,192,149264,1,2,0:0:0:0:
64,192,149264,1,2,0:0:0:0:
192,192,149347,1,2,0:0:0:0:
448,192,149347,1,2,0:0:0:0:
320,192,149430,1,2,0:0:0:0:
64,192,149430,1,2,0:0:0:0:
192,192,149514,1,2,0:0:0:0:
448,192,149597,1,2,0:0:0:0:
320,192,149680,1,2,0:0:0:0:
64,192,149680,1,2,0:0:0:0:
192,192,149764,1,2,0:0:0:0:
320,192,149847,1,2,0:0:0:0:
192,192,149930,5,2,0:0:0:0:
320,192,149930,1,2,0:0:0:0:
64,192,149930,1,2,0:0:0:0:
448,192,149930,1,2,0:0:0:0:
448,192,150014,1,2,0:0:0:0:
320,192,150097,1,2,0:0:0:0:
192,192,150097,1,2,0:0:0:0:
448,192,150180,1,2,0:0:0:0:
192,192,150264,1,2,0:0:0:0:
64,192,150264,1,2,0:0:0:0:
320,192,150347,1,2,0:0:0:0:
64,192,150430,1,2,0:0:0:0:
192,192,150430,1,2,0:0:0:0:
448,192,150514,1,2,0:0:0:0:
64,192,150597,1,2,0:0:0:0:
192,192,150597,1,2,0:0:0:0:
320,192,150680,1,2,0:0:0:0:
64,192,150764,1,2,0:0:0:0:
192,192,150764,1,2,0:0:0:0:
448,192,150764,1,2,0:0:0:0:
320,192,150847,1,2,0:0:0:0:
192,192,150930,1,2,0:0:0:0:
64,192,150930,1,2,0:0:0:0:
448,192,150930,1,2,0:0:0:0:
320,192,151014,1,2,0:0:0:0:
64,192,151097,1,2,0:0:0:0:
192,192,151097,1,2,0:0:0:0:
320,192,151180,1,2,0:0:0:0:
448,192,151264,1,2,0:0:0:0:
64,192,151264,1,2,0:0:0:0:
192,192,151347,1,2,0:0:0:0:
320,192,151347,1,2,0:0:0:0:
448,192,151430,1,2,0:0:0:0:
192,192,151514,1,2,0:0:0:0:
64,192,151514,1,2,0:0:0:0:
320,192,151597,1,2,0:0:0:0:
448,192,151597,1,2,0:0:0:0:
192,192,151680,1,2,0:0:0:0:
320,192,151764,1,2,0:0:0:0:
448,192,151764,1,2,0:0:0:0:
64,192,151847,1,2,0:0:0:0:
320,192,151930,1,2,0:0:0:0:
448,192,151930,1,2,0:0:0:0:
192,192,152014,1,2,0:0:0:0:
64,192,152097,1,2,0:0:0:0:
320,192,152097,1,2,0:0:0:0:
448,192,152097,1,2,0:0:0:0:
192,192,152180,1,2,0:0:0:0:
320,192,152264,1,2,0:0:0:0:
448,192,152264,1,2,0:0:0:0:
192,192,152347,1,2,0:0:0:0:
320,192,152430,1,2,0:0:0:0:
448,192,152430,1,2,0:0:0:0:
64,192,152430,1,2,0:0:0:0:
192,192,152514,1,2,0:0:0:0:
448,192,152597,1,2,0:0:0:0:
320,192,152680,1,2,0:0:0:0:
192,192,152764,1,2,0:0:0:0:
64,192,152764,1,2,0:0:0:0:
320,192,152847,1,2,0:0:0:0:
448,192,152930,1,2,0:0:0:0:
64,192,152930,1,2,0:0:0:0:
192,192,153014,1,2,0:0:0:0:
320,192,153014,1,2,0:0:0:0:
448,192,153097,1,2,0:0:0:0:
192,192,153180,1,2,0:0:0:0:
320,192,153180,1,2,0:0:0:0:
448,192,153264,1,2,0:0:0:0:
192,192,153347,1,2,0:0:0:0:
320,192,153347,1,2,0:0:0:0:
64,192,153347,1,2,0:0:0:0:
448,192,153430,1,2,0:0:0:0:
192,192,153514,1,2,0:0:0:0:
320,192,153514,1,2,0:0:0:0:
64,192,153597,1,2,0:0:0:0:
192,192,153680,1,2,0:0:0:0:
320,192,153680,1,2,0:0:0:0:
448,192,153680,1,2,0:0:0:0:
64,192,153764,1,2,0:0:0:0:
448,192,153847,1,2,0:0:0:0:
64,192,153930,1,2,0:0:0:0:
192,192,153930,1,2,0:0:0:0:
320,192,154014,1,2,0:0:0:0:
192,192,154097,1,2,0:0:0:0:
448,192,154097,1,2,0:0:0:0:
64,192,154180,1,2,0:0:0:0:
320,192,154264,1,2,0:0:0:0:
192,192,154347,1,2,0:0:0:0:
448,192,154347,1,2,0:0:0:0:
320,192,154430,1,2,0:0:0:0:
64,192,154430,1,2,0:0:0:0:
192,192,154514,1,2,0:0:0:0:
448,192,154597,1,2,0:0:0:0:
64,192,154597,1,2,0:0:0:0:
320,192,154680,1,2,0:0:0:0:
192,192,154764,1,2,0:0:0:0:
448,192,154764,1,2,0:0:0:0:
320,192,154847,1,2,0:0:0:0:
448,192,154930,1,2,0:0:0:0:
192,192,154930,1,2,0:0:0:0:
64,192,155014,1,2,0:0:0:0:
192,192,155097,1,2,0:0:0:0:
448,192,155097,1,2,0:0:0:0:
320,192,155180,1,2,0:0:0:0:
448,192,155264,1,2,0:0:0:0:
64,192,155264,1,2,0:0:0:0:
192,192,155347,1,2,0:0:0:0:
320,192,155347,1,2,0:0:0:0:
448,192,155430,1,2,0:0:0:0:
64,192,155514,1,2,0:0:0:0:
320,192,155597,1,2,0:0:0:0:
448,192,155597,1,2,0:0:0:0:
64,192,155680,1,2,0:0:0:0:
320,192,155764,1,2,0:0:0:0:
192,192,155764,1,2,0:0:0:0:
448,192,155847,1,2,0:0:0:0:
64,192,155930,1,2,0:0:0:0:
448,192,155930,1,2,0:0:0:0:
320,192,156014,1,2,0:0:0:0:
64,192,156097,1,2,0:0:0:0:
192,192,156180,1,2,0:0:0:0:
448,192,156180,1,2,0:0:0:0:
320,192,156264,1,2,0:0:0:0:
64,192,156347,1,2,0:0:0:0:
192,192,156430,1,2,0:0:0:0:
448,192,156430,1,2,0:0:0:0:
320,192,156430,1,2,0:0:0:0:
64,192,156514,1,2,0:0:0:0:
320,192,156597,1,2,0:0:0:0:
448,192,156597,1,2,0:0:0:0:
64,192,156680,1,2,0:0:0:0:
320,192,156680,1,2,0:0:0:0:
192,192,156764,1,2,0:0:0:0:
448,192,156847,1,2,0:0:0:0:
64,192,156847,1,2,0:0:0:0:
320,192,156930,1,2,0:0:0:0:
192,192,156930,1,2,0:0:0:0:
448,192,157014,1,2,0:0:0:0:
64,192,157097,1,2,0:0:0:0:
320,192,157097,1,2,0:0:0:0:
192,192,157180,1,2,0:0:0:0:
320,192,157264,1,2,0:0:0:0:
64,192,157264,1,2,0:0:0:0:
448,192,157347,1,2,0:0:0:0:
192,192,157347,1,2,0:0:0:0:
320,192,157430,1,2,0:0:0:0:
448,192,157514,1,2,0:0:0:0:
64,192,157514,1,2,0:0:0:0:
192,192,157597,1,2,0:0:0:0:
448,192,157680,1,2,0:0:0:0:
320,192,157680,1,2,0:0:0:0:
64,192,157680,1,2,0:0:0:0:
192,192,157764,1,2,0:0:0:0:
448,192,157847,1,2,0:0:0:0:
64,192,157847,1,2,0:0:0:0:
320,192,157930,1,2,0:0:0:0:
192,192,158014,1,2,0:0:0:0:
64,192,158014,1,2,0:0:0:0:
448,192,158097,1,2,0:0:0:0:
192,192,158180,1,2,0:0:0:0:
320,192,158264,1,2,0:0:0:0:
64,192,158264,1,2,0:0:0:0:
192,192,158347,1,2,0:0:0:0:
320,192,158430,1,2,0:0:0:0:
448,192,158430,1,2,0:0:0:0:
192,192,158514,1,2,0:0:0:0:
64,192,158514,1,2,0:0:0:0:
448,192,158597,1,2,0:0:0:0:
192,192,158680,1,2,0:0:0:0:
64,192,158680,1,2,0:0:0:0:
320,192,158764,1,2,0:0:0:0:
448,192,158847,1,2,0:0:0:0:
64,192,158847,1,2,0:0:0:0:
192,192,158930,1,2,0:0:0:0:
320,192,158930,1,2,0:0:0:0:
64,192,159014,1,2,0:0:0:0:
448,192,159014,1,2,0:0:0:0:
192,192,159097,1,2,0:0:0:0:
320,192,159097,1,2,0:0:0:0:
448,192,159180,1,2,0:0:0:0:
64,192,159180,1,2,0:0:0:0:
320,192,159264,1,2,0:0:0:0:
192,192,159264,1,2,0:0:0:0:
64,192,159430,1,2,0:0:0:0:
320,192,159430,1,2,0:0:0:0:
448,192,159430,1,2,0:0:0:0:
64,192,159597,1,2,0:0:0:0:
192,192,159597,1,2,0:0:0:0:
448,192,159597,1,2,0:0:0:0:
64,192,159764,1,2,0:0:0:0:
192,192,159764,1,2,0:0:0:0:
320,192,159764,1,2,0:0:0:0:
448,192,159764,1,2,0:0:0:0:
448,192,159930,1,2,0:0:0:0:
64,192,159930,1,2,0:0:0:0:
320,192,160014,1,2,0:0:0:0:
192,192,160097,1,2,0:0:0:0:
64,192,160097,1,2,0:0:0:0:
448,192,160097,1,2,0:0:0:0:
320,192,160180,1,2,0:0:0:0:
192,192,160264,1,2,0:0:0:0:
320,192,160347,1,2,0:0:0:0:
448,192,160347,1,2,0:0:0:0:
64,192,160347,1,2,0:0:0:0:
192,192,160430,1,2,0:0:0:0:
64,192,160514,1,2,0:0:0:0:
448,192,160514,1,2,0:0:0:0:
192,192,160597,1,2,0:0:0:0:
320,192,160597,1,2,0:0:0:0:
320,192,160680,1,2,0:0:0:0:
64,192,160764,1,2,0:0:0:0:
192,192,160764,1,2,0:0:0:0:
448,192,160764,1,2,0:0:0:0:
192,192,160930,1,2,0:0:0:0:
64,192,160930,1,2,0:0:0:0:
64,192,161014,1,2,0:0:0:0:
192,192,161014,1,2,0:0:0:0:
192,192,161097,1,2,0:0:0:0:
448,192,161097,1,2,0:0:0:0:
320,192,161097,1,2,0:0:0:0:
192,192,161264,1,2,0:0:0:0:
320,192,161264,1,2,0:0:0:0:
64,192,161347,1,2,0:0:0:0:
192,192,161347,1,2,0:0:0:0:
320,192,161430,1,2,0:0:0:0:
448,192,161430,1,2,0:0:0:0:
192,192,161597,1,2,0:0:0:0:
320,192,161597,1,2,0:0:0:0:
320,192,161680,1,2,0:0:0:0:
448,192,161680,1,2,0:0:0:0:
64,192,161764,1,2,0:0:0:0:
192,192,161764,1,2,0:0:0:0:
320,192,161930,1,2,0:0:0:0:
448,192,161930,1,2,0:0:0:0:
64,192,162097,1,2,0:0:0:0:
192,192,162097,1,2,0:0:0:0:
64,192,162264,1,2,0:0:0:0:
320,192,162347,1,2,0:0:0:0:
448,192,162347,1,2,0:0:0:0:
448,192,162430,1,2,0:0:0:0:
64,192,162430,1,2,0:0:0:0:
320,192,162597,1,2,0:0:0:0:
448,192,162597,1,2,0:0:0:0:
64,192,162680,1,2,0:0:0:0:
192,192,162680,1,2,0:0:0:0:
192,192,162764,1,2,0:0:0:0:
448,192,162764,1,2,0:0:0:0:
64,192,162930,1,2,0:0:0:0:
448,192,162930,1,2,0:0:0:0:
192,192,163014,1,2,0:0:0:0:
320,192,163014,1,2,0:0:0:0:
64,192,163097,1,2,0:0:0:0:
448,192,163097,1,2,0:0:0:0:
320,192,163264,1,2,0:0:0:0:
448,192,163264,1,2,0:0:0:0:
64,192,163347,1,2,0:0:0:0:
192,192,163347,1,2,0:0:0:0:
64,192,163430,1,2,0:0:0:0:
192,192,163430,1,2,0:0:0:0:
64,192,163597,1,2,0:0:0:0:
192,192,163597,1,2,0:0:0:0:
64,192,163680,1,2,0:0:0:0:
192,192,163680,1,2,0:0:0:0:
320,192,163764,1,2,0:0:0:0:
448,192,163764,1,2,0:0:0:0:
64,192,163930,1,2,0:0:0:0:
192,192,163930,1,2,0:0:0:0:
320,192,164014,1,2,0:0:0:0:
448,192,164014,1,2,0:0:0:0:
192,192,164097,1,2,0:0:0:0:
320,192,164097,1,2,0:0:0:0:
448,192,164264,1,2,0:0:0:0:
64,192,164264,1,2,0:0:0:0:
192,192,164264,1,2,0:0:0:0:
320,192,164347,1,2,0:0:0:0:
64,192,164430,1,2,0:0:0:0:
192,192,164430,1,2,0:0:0:0:
192,192,164597,1,2,0:0:0:0:
448,192,164597,1,2,0:0:0:0:
64,192,164597,1,2,0:0:0:0:
192,192,164764,1,2,0:0:0:0:
320,192,164764,1,2,0:0:0:0:
448,192,164764,1,2,0:0:0:0:
192,192,164930,1,2,0:0:0:0:
448,192,164930,1,2,0:0:0:0:
320,192,165014,1,2,0:0:0:0:
192,192,165097,1,2,0:0:0:0:
64,192,165097,1,2,0:0:0:0:
64,192,165264,1,2,0:0:0:0:
64,192,165347,1,2,0:0:0:0:
192,192,165430,1,2,0:0:0:0:
320,192,165430,1,2,0:0:0:0:
448,192,165430,1,2,0:0:0:0:
192,192,165597,1,2,0:0:0:0:
320,192,165597,1,2,0:0:0:0:
64,192,165680,1,2,0:0:0:0:
448,192,165680,1,2,0:0:0:0:
192,192,165764,1,2,0:0:0:0:
320,192,165764,1,2,0:0:0:0:
192,192,165930,1,2,0:0:0:0:
448,192,165930,1,2,0:0:0:0:
64,192,165930,1,2,0:0:0:0:
320,192,165930,1,2,0:0:0:0:
64,192,166097,1,2,0:0:0:0:
192,192,166097,1,2,0:0:0:0:
448,192,166097,1,2,0:0:0:0:
320,192,166264,1,2,0:0:0:0:
192,192,166347,1,2,0:0:0:0:
64,192,166430,1,2,0:0:0:0:
448,192,166430,1,2,0:0:0:0:
448,192,166597,1,2,0:0:0:0:
64,192,166597,1,2,0:0:0:0:
320,192,166680,1,2,0:0:0:0:
192,192,166764,1,2,0:0:0:0:
64,192,166764,1,2,0:0:0:0:
64,192,166930,1,2,0:0:0:0:
448,192,166930,1,2,0:0:0:0:
192,192,167014,1,2,0:0:0:0:
320,192,167097,1,2,0:0:0:0:
448,192,167097,1,2,0:0:0:0:
192,192,167264,1,2,0:0:0:0:
448,192,167347,1,2,0:0:0:0:
320,192,167430,1,2,0:0:0:0:
64,192,167430,1,2,0:0:0:0:
320,192,167597,1,2,0:0:0:0:
64,192,167597,1,2,0:0:0:0:
448,192,167680,1,2,0:0:0:0:
192,192,167680,1,2,0:0:0:0:
320,192,167764,1,2,0:0:0:0:
320,192,167930,1,2,0:0:0:0:
64,192,167930,1,2,0:0:0:0:
448,192,168014,1,2,0:0:0:0:
192,192,168014,1,2,0:0:0:0:
320,192,168097,1,2,0:0:0:0:
64,192,168097,1,2,0:0:0:0:
448,192,168264,1,2,0:0:0:0:
192,192,168264,1,2,0:0:0:0:
320,192,168347,1,2,0:0:0:0:
64,192,168347,1,2,0:0:0:0:
448,192,168430,1,2,0:0:0:0:
192,192,168430,1,2,0:0:0:0:
320,192,168597,1,2,0:0:0:0:
448,192,168597,1,2,0:0:0:0:
320,192,168680,1,2,0:0:0:0:
448,192,168680,1,2,0:0:0:0:
64,192,168764,1,2,0:0:0:0:
192,192,168764,1,2,0:0:0:0:
64,192,168930,1,2,0:0:0:0:
192,192,168930,1,2,0:0:0:0:
64,192,169014,1,2,0:0:0:0:
192,192,169014,1,2,0:0:0:0:
320,192,169097,1,2,0:0:0:0:
448,192,169097,1,2,0:0:0:0:
320,192,169264,1,2,0:0:0:0:
448,192,169264,1,2,0:0:0:0:
192,192,169347,1,2,0:0:0:0:
320,192,169347,1,2,0:0:0:0:
64,192,169430,1,2,0:0:0:0:
192,192,169430,1,2,0:0:0:0:
64,192,169597,1,2,0:0:0:0:
192,192,169597,1,2,0:0:0:0:
320,192,169597,1,2,0:0:0:0:
448,192,169597,128,2,169931:0:0:0:0:
320,192,169930,1,2,0:0:0:0:
64,192,169930,1,2,0:0:0:0:
192,192,170014,1,2,0:0:0:0:
64,192,170097,1,2,0:0:0:0:
320,192,170180,1,2,0:0:0:0:
64,192,170264,1,2,0:0:0:0:
448,192,170347,1,2,0:0:0:0:
64,192,170430,1,2,0:0:0:0:
192,192,170514,1,2,0:0:0:0:
320,192,170514,1,2,0:0:0:0:
448,192,170597,1,2,0:0:0:0:
320,192,170680,1,2,0:0:0:0:
192,192,170680,1,2,0:0:0:0:
64,192,170764,1,2,0:0:0:0:
448,192,170764,1,2,0:0:0:0:
320,192,170847,1,2,0:0:0:0:
192,192,170847,1,2,0:0:0:0:
64,192,170930,1,2,0:0:0:0:
448,192,170930,1,2,0:0:0:0:
320,192,171014,1,2,0:0:0:0:
192,192,171014,1,2,0:0:0:0:
64,192,171097,1,2,0:0:0:0:
448,192,171097,1,2,0:0:0:0:
320,192,171180,1,2,0:0:0:0:
192,192,171180,1,2,0:0:0:0:
64,192,171264,1,2,0:0:0:0:
64,192,171430,1,2,0:0:0:0:
448,192,171430,1,2,0:0:0:0:
64,192,171597,1,2,0:0:0:0:
320,192,171680,1,2,0:0:0:0:
192,192,171764,1,2,0:0:0:0:
320,192,171764,1,2,0:0:0:0:
448,192,171764,1,2,0:0:0:0:
64,192,171930,1,2,0:0:0:0:
448,192,172014,1,2,0:0:0:0:
192,192,172097,1,2,0:0:0:0:
64,192,172097,1,2,0:0:0:0:
448,192,172097,1,2,0:0:0:0:
448,192,172264,1,2,0:0:0:0:
64,192,172264,1,2,0:0:0:0:
320,192,172347,1,2,0:0:0:0:
192,192,172430,1,2,0:0:0:0:
320,192,172430,1,2,0:0:0:0:
448,192,172430,1,2,0:0:0:0:
320,192,172597,1,2,0:0:0:0:
448,192,172597,1,2,0:0:0:0:
192,192,172680,1,2,0:0:0:0:
320,192,172764,1,2,0:0:0:0:
64,192,172764,1,2,0:0:0:0:
448,192,172764,1,2,0:0:0:0:
64,192,172930,1,2,0:0:0:0:
448,192,173014,1,2,0:0:0:0:
192,192,173097,1,2,0:0:0:0:
320,192,173097,1,2,0:0:0:0:
448,192,173264,1,2,0:0:0:0:
64,192,173347,1,2,0:0:0:0:
64,192,173430,1,2,0:0:0:0:
448,192,173430,1,2,0:0:0:0:
192,192,173597,1,2,0:0:0:0:
320,192,173597,1,2,0:0:0:0:
64,192,173680,1,2,0:0:0:0:
64,192,173764,1,2,0:0:0:0:
320,192,173764,1,2,0:0:0:0:
192,192,173764,1,2,0:0:0:0:
320,192,173930,1,2,0:0:0:0:
448,192,173930,1,2,0:0:0:0:
64,192,174014,1,2,0:0:0:0:
192,192,174014,1,2,0:0:0:0:
320,192,174097,1,2,0:0:0:0:
448,192,174097,1,2,0:0:0:0:
64,192,174264,1,2,0:0:0:0:
192,192,174264,1,2,0:0:0:0:
320,192,174347,1,2,0:0:0:0:
448,192,174347,1,2,0:0:0:0:
64,192,174430,1,2,0:0:0:0:
192,192,174430,1,2,0:0:0:0:
448,192,174597,1,2,0:0:0:0:
320,192,174680,1,2,0:0:0:0:
192,192,174680,1,2,0:0:0:0:
64,192,174764,1,2,0:0:0:0:
448,192,174764,1,2,0:0:0:0:
64,192,174930,1,2,0:0:0:0:
192,192,175014,1,2,0:0:0:0:
448,192,175097,1,2,0:0:0:0:
320,192,175097,1,2,0:0:0:0:
64,192,175264,1,2,0:0:0:0:
448,192,175264,1,2,0:0:0:0:
192,192,175347,1,2,0:0:0:0:
320,192,175347,1,2,0:0:0:0:
64,192,175430,1,2,0:0:0:0:
448,192,175430,1,2,0:0:0:0:
448,192,175597,1,2,0:0:0:0:
64,192,175597,1,2,0:0:0:0:
192,192,175680,1,2,0:0:0:0:
320,192,175680,1,2,0:0:0:0:
64,192,175764,1,2,0:0:0:0:
448,192,175764,1,2,0:0:0:0:
64,192,175930,1,2,0:0:0:0:
448,192,175930,1,2,0:0:0:0:
320,192,176014,1,2,0:0:0:0:
192,192,176097,1,2,0:0:0:0:
448,192,176180,1,2,0:0:0:0:
64,192,176180,1,2,0:0:0:0:
320,192,176264,1,2,0:0:0:0:
192,192,176347,1,2,0:0:0:0:
64,192,176347,1,2,0:0:0:0:
320,192,176430,1,2,0:0:0:0:
448,192,176430,1,2,0:0:0:0:
64,192,176514,1,2,0:0:0:0:
192,192,176597,1,2,0:0:0:0:
320,192,176597,1,2,0:0:0:0:
448,192,176597,1,2,0:0:0:0:
64,192,176597,1,2,0:0:0:0:
320,192,176680,1,2,0:0:0:0:
64,192,176764,1,2,0:0:0:0:
192,192,176847,1,2,0:0:0:0:
448,192,176847,1,2,0:0:0:0:
64,192,176930,1,2,0:0:0:0:
320,192,177014,1,2,0:0:0:0:
192,192,177014,1,2,0:0:0:0:
448,192,177097,1,2,0:0:0:0:
320,192,177180,1,2,0:0:0:0:
192,192,177264,1,2,0:0:0:0:
64,192,177264,1,2,0:0:0:0:
448,192,177347,1,2,0:0:0:0:
192,192,177430,1,2,0:0:0:0:
320,192,177430,1,2,0:0:0:0:
64,192,177514,1,2,0:0:0:0:
320,192,177597,1,2,0:0:0:0:
64,192,177680,1,2,0:0:0:0:
448,192,177680,1,2,0:0:0:0:
192,192,177764,1,2,0:0:0:0:
448,192,177847,1,2,0:0:0:0:
320,192,177930,1,2,0:0:0:0:
64,192,177930,1,2,0:0:0:0:
192,192,178014,1,2,0:0:0:0:
448,192,178097,1,2,0:0:0:0:
64,192,178180,1,2,0:0:0:0:
320,192,178180,1,2,0:0:0:0:
192,192,178264,1,2,0:0:0:0:
64,192,178347,1,2,0:0:0:0:
320,192,178347,1,2,0:0:0:0:
192,192,178430,1,2,0:0:0:0:
64,192,178514,1,2,0:0:0:0:
448,192,178514,1,2,0:0:0:0:
320,192,178597,1,2,0:0:0:0:
192,192,178680,1,2,0:0:0:0:
64,192,178764,1,2,0:0:0:0:
448,192,178764,1,2,0:0:0:0:
320,192,178847,1,2,0:0:0:0:
64,192,178930,1,2,0:0:0:0:
192,192,178930,1,2,0:0:0:0:
448,192,179014,1,2,0:0:0:0:
320,192,179014,1,2,0:0:0:0:
192,192,179097,1,2,0:0:0:0:
64,192,179097,1,2,0:0:0:0:
448,192,179180,1,2,0:0:0:0:
320,192,179180,1,2,0:0:0:0:
192,192,179264,1,2,0:0:0:0:
64,192,179264,1,2,0:0:0:0:
320,192,179347,1,2,0:0:0:0:
64,192,179430,1,2,0:0:0:0:
448,192,179430,1,2,0:0:0:0:
192,192,179514,1,2,0:0:0:0:
448,192,179514,1,2,0:0:0:0:
320,192,179597,1,2,0:0:0:0:
64,192,179597,1,2,0:0:0:0:
448,192,179680,1,2,0:0:0:0:
192,192,179680,1,2,0:0:0:0:
64,192,179680,1,2,0:0:0:0:
320,192,179764,1,2,0:0:0:0:
192,192,179847,1,2,0:0:0:0:
64,192,179930,1,2,0:0:0:0:
192,192,179930,1,2,0:0:0:0:
320,192,179930,1,2,0:0:0:0:
448,192,179930,1,2,0:0:0:0:
192,192,180014,1,2,0:0:0:0:
320,192,180097,1,2,0:0:0:0:
448,192,180180,1,2,0:0:0:0:
64,192,180264,1,2,0:0:0:0:
192,192,180264,1,2,0:0:0:0:
448,192,180264,1,2,0:0:0:0:
320,192,180347,1,2,0:0:0:0:
64,192,180430,1,2,0:0:0:0:
192,192,180514,1,2,0:0:0:0:
448,192,180597,1,2,0:0:0:0:
64,192,180597,1,2,0:0:0:0:
320,192,180680,1,2,0:0:0:0:
192,192,180680,1,2,0:0:0:0:
64,192,180764,1,2,0:0:0:0:
192,192,180764,1,2,0:0:0:0:
320,192,180805,1,2,0:0:0:0:
448,192,180847,1,2,0:0:0:0:
320,192,180888,1,2,0:0:0:0:
192,192,180930,1,2,0:0:0:0:
64,192,180972,1,2,0:0:0:0:
192,192,181014,1,2,0:0:0:0:
320,192,181055,1,2,0:0:0:0:
448,192,181097,1,2,0:0:0:0:
320,192,181138,1,2,0:0:0:0:
192,192,181180,1,2,0:0:0:0:
64,192,181222,1,2,0:0:0:0:
192,192,181264,1,2,0:0:0:0:
320,192,181305,1,2,0:0:0:0:
448,192,181347,1,2,0:0:0:0:
320,192,181388,1,2,0:0:0:0:
192,192,181430,1,2,0:0:0:0:
64,192,181472,1,2,0:0:0:0:
192,192,181514,1,2,0:0:0:0:
320,192,181555,1,2,0:0:0:0:
448,192,181597,1,2,0:0:0:0:
320,192,181638,1,2,0:0:0:0:
192,192,181680,1,2,0:0:0:0:
64,192,181722,1,2,0:0:0:0:
192,192,181764,1,2,0:0:0:0:
320,192,181805,1,2,0:0:0:0:
448,192,181847,1,2,0:0:0:0:
320,192,181888,1,2,0:0:0:0:
64,192,181930,128,2,182430:0:0:0:0:
192,192,181930,1,2,0:0:0:0:
448,192,182014,1,2,0:0:0:0:
320,192,182097,1,2,0:0:0:0:
192,192,182180,1,2,0:0:0:0:
320,192,182264,1,2,0:0:0:0:
448,192,182347,1,2,0:0:0:0:
192,192,182430,1,2,0:0:0:0:
320,192,182430,1,2,0:0:0:0:
448,192,182430,1,2,0:0:0:0:
64,192,182514,1,2,0:0:0:0:
192,192,182597,1,2,0:0:0:0:
448,192,182597,1,2,0:0:0:0:
320,192,182680,1,2,0:0:0:0:
64,192,182764,1,2,0:0:0:0:
448,192,182764,1,2,0:0:0:0:
192,192,182847,1,2,0:0:0:0:
320,192,182847,1,2,0:0:0:0:
64,192,182930,1,2,0:0:0:0:
192,192,182930,1,2,0:0:0:0:
320,192,182930,1,2,0:0:0:0:
448,192,182930,1,2,0:0:0:0:
448,192,183263,128,2,183597:0:0:0:0:
64,192,183264,1,2,0:0:0:0:
320,192,183430,1,2,0:0:0:0:
192,192,183430,1,2,0:0:0:0:
64,192,183430,1,2,0:0:0:0:
192,192,183597,1,2,0:0:0:0:
64,192,183763,128,2,184430:0:0:0:0:
448,192,183763,1,2,0:0:0:0:
192,192,183763,1,2,0:0:0:0:
320,192,183763,1,2,0:0:0:0:
320,192,183930,1,2,0:0:0:0:
192,192,184097,1,2,0:0:0:0:
320,192,184097,1,2,0:0:0:0:
448,192,184097,1,2,0:0:0:0:
448,192,184263,1,2,0:0:0:0:
320,192,184347,1,2,0:0:0:0:
192,192,184430,1,2,0:0:0:0:
448,192,184430,1,2,0:0:0:0:
192,192,184597,128,2,184930:0:0:0:0:
320,192,184597,1,2,0:0:0:0:
320,192,184763,1,2,0:0:0:0:
448,192,184763,1,2,0:0:0:0:
64,192,184763,1,2,0:0:0:0:
64,192,184930,1,2,0:0:0:0:
192,192,185013,1,2,0:0:0:0:
320,192,185097,128,2,185597:0:0:0:0:
64,192,185097,1,2,0:0:0:0:
448,192,185097,1,2,0:0:0:0:
448,192,185263,1,2,0:0:0:0:
64,192,185430,1,2,0:0:0:0:
192,192,185430,1,2,0:0:0:0:
448,192,185430,1,2,0:0:0:0:
192,192,185597,1,2,0:0:0:0:
64,192,185763,1,2,0:0:0:0:
320,192,185763,1,2,0:0:0:0:
448,192,185763,1,2,0:0:0:0:
320,192,185930,1,2,0:0:0:0:
64,192,185930,128,2,186263:0:0:0:0:
192,192,185930,128,2,186263:0:0:0:0:
448,192,186097,1,2,0:0:0:0:
320,192,186097,1,2,0:0:0:0:
320,192,186263,1,2,0:0:0:0:
448,192,186347,1,2,0:0:0:0:
192,192,186430,128,2,186930:0:0:0:0:
448,192,186430,128,2,186930:0:0:0:0:
320,192,186430,1,2,0:0:0:0:
64,192,186430,1,2,0:0:0:0:
64,192,186597,1,2,0:0:0:0:
320,192,186763,1,2,0:0:0:0:
64,192,186763,1,2,0:0:0:0:
320,192,186930,1,2,0:0:0:0:
192,192,187013,1,2,0:0:0:0:
64,192,187097,1,2,0:0:0:0:
320,192,187097,1,2,0:0:0:0:
448,192,187097,1,2,0:0:0:0:
64,192,187263,128,2,187597:0:0:0:0:
448,192,187263,128,2,187597:0:0:0:0:
192,192,187263,1,2,0:0:0:0:
192,192,187430,1,2,0:0:0:0:
320,192,187430,1,2,0:0:0:0:
320,192,187597,1,2,0:0:0:0:
192,192,187763,128,2,188263:0:0:0:0:
320,192,187763,128,2,188263:0:0:0:0:
448,192,187763,1,2,0:0:0:0:
64,192,187763,1,2,0:0:0:0:
64,192,187930,1,2,0:0:0:0:
64,192,188097,1,2,0:0:0:0:
448,192,188097,1,2,0:0:0:0:
448,192,188263,1,2,0:0:0:0:
320,192,188347,1,2,0:0:0:0:
192,192,188430,1,2,0:0:0:0:
448,192,188430,1,2,0:0:0:0:
64,192,188430,1,2,0:0:0:0:
320,192,188597,1,2,0:0:0:0:
448,192,188597,1,2,0:0:0:0:
64,192,188597,1,2,0:0:0:0:
192,192,188597,1,2,0:0:0:0:
320,192,188680,1,2,0:0:0:0:
192,192,188763,1,2,0:0:0:0:
64,192,188847,1,2,0:0:0:0:
448,192,188847,1,2,0:0:0:0:
320,192,188930,1,2,0:0:0:0:
192,192,189013,1,2,0:0:0:0:
64,192,189097,1,2,0:0:0:0:
192,192,189180,1,2,0:0:0:0:
448,192,189263,1,2,0:0:0:0:
320,192,189347,1,2,0:0:0:0:
192,192,189430,1,2,0:0:0:0:
64,192,189513,1,2,0:0:0:0:
448,192,189513,1,2,0:0:0:0:
320,192,189597,1,2,0:0:0:0:
192,192,189680,1,2,0:0:0:0:
64,192,189763,1,2,0:0:0:0:
448,192,189763,1,2,0:0:0:0:
192,192,189847,1,2,0:0:0:0:
320,192,189930,1,2,0:0:0:0:
448,192,190013,1,2,0:0:0:0:
64,192,190013,1,2,0:0:0:0:
320,192,190097,1,2,0:0:0:0:
192,192,190180,1,2,0:0:0:0:
64,192,190263,1,2,0:0:0:0:
448,192,190263,1,2,0:0:0:0:
320,192,190347,1,2,0:0:0:0:
192,192,190430,1,2,0:0:0:0:
320,192,190513,1,2,0:0:0:0:
448,192,190597,1,2,0:0:0:0:
64,192,190597,1,2,0:0:0:0:
320,192,190680,1,2,0:0:0:0:
64,192,190763,1,2,0:0:0:0:
320,192,190847,1,2,0:0:0:0:
448,192,190930,1,2,0:0:0:0:
64,192,190930,1,2,0:0:0:0:
192,192,191013,1,2,0:0:0:0:
320,192,191097,1,2,0:0:0:0:
192,192,191180,1,2,0:0:0:0:
448,192,191263,1,2,0:0:0:0:
64,192,191263,1,2,0:0:0:0:
192,192,191347,1,2,0:0:0:0:
320,192,191430,1,2,0:0:0:0:
448,192,191513,1,2,0:0:0:0:
192,192,191513,1,2,0:0:0:0:
64,192,191597,1,2,0:0:0:0:
192,192,191680,1,2,0:0:0:0:
320,192,191763,1,2,0:0:0:0:
448,192,191847,1,2,0:0:0:0:
192,192,191847,1,2,0:0:0:0:
448,192,191930,1,2,0:0:0:0:
192,192,191930,1,2,0:0:0:0:
320,192,192013,1,2,0:0:0:0:
192,192,192097,1,2,0:0:0:0:
64,192,192180,1,2,0:0:0:0:
448,192,192180,1,2,0:0:0:0:
320,192,192263,1,2,0:0:0:0:
192,192,192347,1,2,0:0:0:0:
64,192,192347,1,2,0:0:0:0:
448,192,192430,1,2,0:0:0:0:
320,192,192513,1,2,0:0:0:0:
64,192,192513,1,2,0:0:0:0:
192,192,192597,1,2,0:0:0:0:
320,192,192680,1,2,0:0:0:0:
448,192,192763,1,2,0:0:0:0:
320,192,192847,1,2,0:0:0:0:
192,192,192930,1,2,0:0:0:0:
64,192,193013,1,2,0:0:0:0:
448,192,193013,1,2,0:0:0:0:
320,192,193097,1,2,0:0:0:0:
64,192,193180,1,2,0:0:0:0:
320,192,193263,1,2,0:0:0:0:
448,192,193263,1,2,0:0:0:0:
64,192,193347,1,2,0:0:0:0:
192,192,193347,1,2,0:0:0:0:
320,192,193430,1,2,0:0:0:0:
448,192,193430,1,2,0:0:0:0:
64,192,193513,1,2,0:0:0:0:
192,192,193513,1,2,0:0:0:0:
320,192,193597,1,2,0:0:0:0:
448,192,193597,1,2,0:0:0:0:
64,192,193638,1,2,0:0:0:0:
192,192,193638,1,2,0:0:0:0:
320,192,193680,1,2,0:0:0:0:
448,192,193680,1,2,0:0:0:0:
64,192,193722,1,2,0:0:0:0:
192,192,193722,1,2,0:0:0:0:
320,192,193763,1,2,0:0:0:0:
448,192,193763,1,2,0:0:0:0:
64,192,193805,1,2,0:0:0:0:
192,192,193805,1,2,0:0:0:0:
320,192,193847,1,2,0:0:0:0:
448,192,193847,1,2,0:0:0:0:
64,192,193888,1,2,0:0:0:0:
192,192,193888,1,2,0:0:0:0:
320,192,193930,1,2,0:0:0:0:
192,192,193930,1,2,0:0:0:0:
64,192,193930,1,2,0:0:0:0:
448,192,193930,1,2,0:0:0:0:
320,192,194013,1,2,0:0:0:0:
64,192,194097,1,2,0:0:0:0:
192,192,194180,1,2,0:0:0:0:
448,192,194263,1,2,0:0:0:0:
192,192,194347,1,2,0:0:0:0:
64,192,194430,1,2,0:0:0:0:
448,192,194430,1,2,0:0:0:0:
320,192,194513,1,2,0:0:0:0:
448,192,194597,1,2,0:0:0:0:
64,192,194597,1,2,0:0:0:0:
192,192,194680,1,2,0:0:0:0:
448,192,194763,1,2,0:0:0:0:
64,192,194763,1,2,0:0:0:0:
320,192,194847,1,2,0:0:0:0:
64,192,194930,1,2,0:0:0:0:
448,192,194930,1,2,0:0:0:0:
192,192,195013,1,2,0:0:0:0:
320,192,195097,1,2,0:0:0:0:
448,192,195180,1,2,0:0:0:0:
64,192,195180,1,2,0:0:0:0:
192,192,195263,1,2,0:0:0:0:
64,192,195347,1,2,0:0:0:0:
448,192,195347,1,2,0:0:0:0:
192,192,195430,5,2,0:0:0:0:
320,192,195513,1,2,0:0:0:0:
448,192,195597,1,2,0:0:0:0:
64,192,195597,1,2,0:0:0:0:
192,192,195680,1,2,0:0:0:0:
320,192,195763,1,2,0:0:0:0:
448,192,195847,1,2,0:0:0:0:
64,192,195847,1,2,0:0:0:0:
320,192,195930,1,2,0:0:0:0:
192,192,196013,1,2,0:0:0:0:
448,192,196097,1,2,0:0:0:0:
64,192,196097,1,2,0:0:0:0:
320,192,196180,1,2,0:0:0:0:
448,192,196263,1,2,0:0:0:0:
64,192,196263,1,2,0:0:0:0:
320,192,196347,1,2,0:0:0:0:
192,192,196430,1,2,0:0:0:0:
64,192,196513,1,2,0:0:0:0:
320,192,196513,1,2,0:0:0:0:
192,192,196597,5,2,0:0:0:0:
448,192,196597,1,2,0:0:0:0:
448,192,196680,1,2,0:0:0:0:
64,192,196680,1,2,0:0:0:0:
192,192,196763,1,2,0:0:0:0:
320,192,196847,1,2,0:0:0:0:
448,192,196930,1,2,0:0:0:0:
64,192,196930,1,2,0:0:0:0:
64,192,197013,1,2,0:0:0:0:
320,192,197013,1,2,0:0:0:0:
448,192,197097,1,2,0:0:0:0:
64,192,197180,1,2,0:0:0:0:
320,192,197263,1,2,0:0:0:0:
192,192,197263,1,2,0:0:0:0:
448,192,197347,1,2,0:0:0:0:
192,192,197347,1,2,0:0:0:0:
320,192,197430,1,2,0:0:0:0:
192,192,197513,1,2,0:0:0:0:
64,192,197597,1,2,0:0:0:0:
448,192,197597,1,2,0:0:0:0:
320,192,197680,1,2,0:0:0:0:
448,192,197763,128,2,198430:0:0:0:0:
192,192,197763,1,2,0:0:0:0:
64,192,197847,1,2,0:0:0:0:
320,192,197930,1,2,0:0:0:0:
64,192,198013,1,2,0:0:0:0:
192,192,198097,1,2,0:0:0:0:
320,192,198097,1,2,0:0:0:0:
64,192,198180,1,2,0:0:0:0:
320,192,198263,1,2,0:0:0:0:
64,192,198347,1,2,0:0:0:0:
192,192,198430,1,2,0:0:0:0:
320,192,198430,1,2,0:0:0:0:
448,192,198513,1,2,0:0:0:0:
320,192,198597,1,2,0:0:0:0:
64,192,198597,1,2,0:0:0:0:
192,192,198680,1,2,0:0:0:0:
448,192,198763,1,2,0:0:0:0:
64,192,198763,1,2,0:0:0:0:
192,192,198847,1,2,0:0:0:0:
448,192,198930,1,2,0:0:0:0:
64,192,198930,1,2,0:0:0:0:
320,192,199013,1,2,0:0:0:0:
64,192,199097,1,2,0:0:0:0:
192,192,199180,1,2,0:0:0:0:
320,192,199180,1,2,0:0:0:0:
448,192,199263,1,2,0:0:0:0:
64,192,199263,1,2,0:0:0:0:
448,192,199347,1,2,0:0:0:0:
64,192,199347,1,2,0:0:0:0:
192,192,199430,1,2,0:0:0:0:
320,192,199513,1,2,0:0:0:0:
192,192,199597,1,2,0:0:0:0:
448,192,199597,1,2,0:0:0:0:
192,192,199680,1,2,0:0:0:0:
448,192,199680,1,2,0:0:0:0:
64,192,199763,1,2,0:0:0:0:
320,192,199847,1,2,0:0:0:0:
448,192,199930,1,2,0:0:0:0:
64,192,199930,1,2,0:0:0:0:
192,192,199930,1,2,0:0:0:0:
64,192,200013,1,2,0:0:0:0:
192,192,200013,1,2,0:0:0:0:
320,192,200097,1,2,0:0:0:0:
448,192,200180,1,2,0:0:0:0:
192,192,200263,1,2,0:0:0:0:
320,192,200263,1,2,0:0:0:0:
320,192,200347,1,2,0:0:0:0:
192,192,200347,1,2,0:0:0:0:
64,192,200430,1,2,0:0:0:0:
192,192,200513,1,2,0:0:0:0:
448,192,200597,1,2,0:0:0:0:
320,192,200597,1,2,0:0:0:0:
320,192,200680,1,2,0:0:0:0:
448,192,200680,1,2,0:0:0:0:
64,192,200763,1,2,0:0:0:0:
192,192,200847,1,2,0:0:0:0:
448,192,200930,1,2,0:0:0:0:
64,192,200930,1,2,0:0:0:0:
448,192,201013,1,2,0:0:0:0:
64,192,201013,1,2,0:0:0:0:
192,192,201097,1,2,0:0:0:0:
320,192,201180,1,2,0:0:0:0:
192,192,201263,1,2,0:0:0:0:
448,192,201263,1,2,0:0:0:0:
192,192,201347,1,2,0:0:0:0:
448,192,201347,1,2,0:0:0:0:
320,192,201430,1,2,0:0:0:0:
64,192,201513,1,2,0:0:0:0:
320,192,201597,128,2,201680:0:0:0:0:
192,192,201597,1,2,0:0:0:0:
448,192,201680,128,2,201763:0:0:0:0:
320,192,201763,128,2,201847:0:0:0:0:
64,192,201763,1,2,0:0:0:0:
192,192,201763,1,2,0:0:0:0:
448,192,201847,1,2,0:0:0:0:
64,192,201930,1,2,0:0:0:0:
320,192,202013,1,2,0:0:0:0:
448,192,202097,1,2,0:0:0:0:
64,192,202097,1,2,0:0:0:0:
192,192,202180,1,2,0:0:0:0:
448,192,202263,1,2,0:0:0:0:
320,192,202347,1,2,0:0:0:0:
64,192,202347,1,2,0:0:0:0:
192,192,202430,1,2,0:0:0:0:
448,192,202430,1,2,0:0:0:0:
64,192,202513,1,2,0:0:0:0:
448,192,202597,1,2,0:0:0:0:
320,192,202638,1,2,0:0:0:0:
192,192,202680,1,2,0:0:0:0:
64,192,202722,1,2,0:0:0:0:
448,192,202763,1,2,0:0:0:0:
320,192,202847,1,2,0:0:0:0:
64,192,202930,1,2,0:0:0:0:
192,192,203041,1,2,0:0:0:0:
320,192,203152,1,2,0:0:0:0:
64,192,203263,1,2,0:0:0:0:
448,192,203263,1,2,0:0:0:0:
192,192,203347,1,2,0:0:0:0:
320,192,203347,1,2,0:0:0:0:
64,192,203430,1,2,0:0:0:0:
192,192,203513,1,2,0:0:0:0:
448,192,203597,1,2,0:0:0:0:
64,192,203680,1,2,0:0:0:0:
448,192,203680,1,2,0:0:0:0:
192,192,203763,1,2,0:0:0:0:
320,192,203847,1,2,0:0:0:0:
64,192,203930,1,2,0:0:0:0:
448,192,203930,1,2,0:0:0:0:
192,192,204013,1,2,0:0:0:0:
320,192,204097,1,2,0:0:0:0:
448,192,204097,1,2,0:0:0:0:
320,192,204180,1,2,0:0:0:0:
64,192,204180,1,2,0:0:0:0:
192,192,204263,1,2,0:0:0:0:
448,192,204347,1,2,0:0:0:0:
64,192,204347,1,2,0:0:0:0:
192,192,204430,1,2,0:0:0:0:
320,192,204513,1,2,0:0:0:0:
64,192,204513,1,2,0:0:0:0:
448,192,204597,1,2,0:0:0:0:
320,192,204597,1,2,0:0:0:0:
320,192,204680,1,2,0:0:0:0:
448,192,204680,1,2,0:0:0:0:
64,192,204763,1,2,0:0:0:0:
192,192,204763,1,2,0:0:0:0:
64,192,204847,1,2,0:0:0:0:
192,192,204847,1,2,0:0:0:0:
192,192,204930,1,2,0:0:0:0:
320,192,204930,1,2,0:0:0:0:
192,192,205013,1,2,0:0:0:0:
320,192,205013,1,2,0:0:0:0:
64,192,205097,1,2,0:0:0:0:
448,192,205097,1,2,0:0:0:0:
64,192,205263,1,2,0:0:0:0:
64,192,205597,1,2,0:0:0:0:
64,192,205930,1,2,0:0:0:0:
64,192,206097,1,2,0:0:0:0:
192,192,206097,1,2,0:0:0:0:
320,192,206097,1,2,0:0:0:0:
448,192,206097,1,2,0:0:0:0:
64,192,206263,1,2,0:0:0:0:
64,192,206597,1,2,0:0:0:0:
64,192,206930,1,2,0:0:0:0:
64,192,207263,1,2,0:0:0:0:
192,192,207263,1,2,0:0:0:0:
192,192,207347,1,2,0:0:0:0:
320,192,207347,1,2,0:0:0:0:
320,192,207430,1,2,0:0:0:0:
448,192,207430,1,2,0:0:0:0:
64,192,207513,1,2,0:0:0:0:
192,192,207513,1,2,0:0:0:0:
320,192,207597,1,2,0:0:0:0:
448,192,207597,1,2,0:0:0:0:
64,192,207680,1,2,0:0:0:0:
192,192,207680,1,2,0:0:0:0:
192,192,207763,1,2,0:0:0:0:
320,192,207763,1,2,0:0:0:0:
448,192,209263,1,0,0:0:0:0:
320,192,209305,1,0,0:0:0:0:
192,192,209347,1,0,0:0:0:0:
64,192,209388,1,0,0:0:0:0:
448,192,209430,1,0,0:0:0:0:
320,192,209472,1,0,0:0:0:0:
192,192,209513,1,0,0:0:0:0:
64,192,209555,1,0,0:0:0:0:
448,192,209597,1,0,0:0:0:0:
320,192,209638,1,0,0:0:0:0:
192,192,209680,1,0,0:0:0:0:
64,192,209722,1,0,0:0:0:0:
448,192,209763,1,0,0:0:0:0:
320,192,209805,1,0,0:0:0:0:
192,192,209847,1,0,0:0:0:0:
64,192,209888,1,0,0:0:0:0:
320,192,209930,1,2,0:0:0:0:
448,192,209930,1,2,0:0:0:0:
320,192,210013,1,2,0:0:0:0:
448,192,210013,1,2,0:0:0:0:
192,192,210097,1,2,0:0:0:0:
320,192,210097,1,2,0:0:0:0:
192,192,210180,1,2,0:0:0:0:
320,192,210180,1,2,0:0:0:0:
64,192,210263,1,2,0:0:0:0:
320,192,210263,1,2,0:0:0:0:
448,192,210263,1,2,0:0:0:0:
64,192,210347,1,2,0:0:0:0:
192,192,210347,1,2,0:0:0:0:
448,192,210347,1,2,0:0:0:0:
192,192,210430,1,2,0:0:0:0:
320,192,210430,1,2,0:0:0:0:
64,192,210597,1,2,0:0:0:0:
192,192,210597,1,2,0:0:0:0:
320,192,210597,1,2,0:0:0:0:
448,192,210597,1,2,0:0:0:0:
64,192,210930,1,2,0:0:0:0:
192,192,211097,1,2,0:0:0:0:
320,192,211180,1,2,0:0:0:0:
192,192,211263,1,2,0:0:0:0:
320,192,211430,1,2,0:0:0:0:
192,192,211430,1,2,0:0:0:0:
448,192,211597,1,2,0:0:0:0:
64,192,211597,1,2,0:0:0:0:
192,192,211597,1,2,0:0:0:0:
320,192,211708,1,2,0:0:0:0:
64,192,211819,1,2,0:0:0:0:
448,192,211819,1,2,0:0:0:0:
192,192,211930,1,2,0:0:0:0:
448,192,212041,1,2,0:0:0:0:
320,192,212041,1,2,0:0:0:0:
64,192,212152,1,2,0:0:0:0:
320,192,212152,1,2,0:0:0:0:
192,192,212263,1,2,0:0:0:0:
448,192,212263,1,2,0:0:0:0:
64,192,212375,1,2,0:0:0:0:
192,192,212486,1,2,0:0:0:0:
448,192,212486,1,2,0:0:0:0:
320,192,212597,1,2,0:0:0:0:
64,192,212597,1,2,0:0:0:0:
192,192,212597,1,2,0:0:0:0:
448,192,212597,1,2,0:0:0:0:
320,192,212680,1,2,0:0:0:0:
64,192,212763,1,2,0:0:0:0:
448,192,212763,1,2,0:0:0:0:
192,192,212847,1,2,0:0:0:0:
448,192,212847,1,2,0:0:0:0:
320,192,212930,1,2,0:0:0:0:
64,192,212930,1,2,0:0:0:0:
192,192,213013,1,2,0:0:0:0:
64,192,213097,1,2,0:0:0:0:
448,192,213097,1,2,0:0:0:0:
320,192,213180,1,2,0:0:0:0:
192,192,213180,1,2,0:0:0:0:
64,192,213263,1,2,0:0:0:0:
448,192,213263,1,2,0:0:0:0:
192,192,213347,1,2,0:0:0:0:
320,192,213347,1,2,0:0:0:0:
192,192,213430,1,2,0:0:0:0:
448,192,213430,1,2,0:0:0:0:
64,192,213513,1,2,0:0:0:0:
320,192,213597,1,2,0:0:0:0:
192,192,213597,1,2,0:0:0:0:
448,192,213597,1,2,0:0:0:0:
64,192,213680,1,2,0:0:0:0:
192,192,213763,1,2,0:0:0:0:
448,192,213763,1,2,0:0:0:0:
320,192,213847,1,2,0:0:0:0:
64,192,213930,1,2,0:0:0:0:
192,192,213930,1,2,0:0:0:0:
448,192,213930,1,2,0:0:0:0:
320,192,213930,1,2,0:0:0:0:
320,192,214013,1,2,0:0:0:0:
448,192,214013,1,2,0:0:0:0:
64,192,214097,1,2,0:0:0:0:
192,192,214097,1,2,0:0:0:0:
64,192,214180,1,2,0:0:0:0:
192,192,214180,1,2,0:0:0:0:
192,192,214263,1,2,0:0:0:0:
320,192,214263,1,2,0:0:0:0:
192,192,214347,1,2,0:0:0:0:
320,192,214347,1,2,0:0:0:0:
64,192,214430,1,2,0:0:0:0:
192,192,214430,1,2,0:0:0:0:
320,192,214430,1,2,0:0:0:0:
448,192,214430,1,2,0:0:0:0:
64,192,214513,1,2,0:0:0:0:
192,192,214513,1,2,0:0:0:0:
320,192,214597,1,2,0:0:0:0:
448,192,214597,1,2,0:0:0:0:
320,192,214680,1,2,0:0:0:0:
448,192,214680,1,2,0:0:0:0:
192,192,214763,1,2,0:0:0:0:
320,192,214763,1,2,0:0:0:0:
192,192,214847,1,2,0:0:0:0:
320,192,214847,1,2,0:0:0:0:
64,192,214930,1,2,0:0:0:0:
192,192,214930,1,2,0:0:0:0:
320,192,214930,1,2,0:0:0:0:
448,192,214930,1,2,0:0:0:0:
192,192,215263,1,2,0:0:0:0:
320,192,215263,1,2,0:0:0:0:
64,192,215347,1,2,0:0:0:0:
448,192,215430,1,2,0:0:0:0:
320,192,215430,1,2,0:0:0:0:
192,192,215513,1,2,0:0:0:0:
64,192,215513,1,2,0:0:0:0:
320,192,215597,1,2,0:0:0:0:
192,192,215680,1,2,0:0:0:0:
448,192,215763,1,2,0:0:0:0:
64,192,215763,1,2,0:0:0:0:
320,192,215763,1,2,0:0:0:0:
192,192,215847,1,2,0:0:0:0:
320,192,215930,1,2,0:0:0:0:
448,192,215930,1,2,0:0:0:0:
64,192,216013,1,2,0:0:0:0:
448,192,216097,1,2,0:0:0:0:
64,192,216097,1,2,0:0:0:0:
192,192,216097,1,2,0:0:0:0:
320,192,216180,1,2,0:0:0:0:
448,192,216263,1,2,0:0:0:0:
64,192,216263,1,2,0:0:0:0:
320,192,216347,1,2,0:0:0:0:
64,192,216430,1,2,0:0:0:0:
192,192,216430,1,2,0:0:0:0:
448,192,216513,1,2,0:0:0:0:
192,192,216597,1,2,0:0:0:0:
320,192,216597,1,2,0:0:0:0:
64,192,216597,1,2,0:0:0:0:
448,192,216680,1,2,0:0:0:0:
64,192,216763,1,2,0:0:0:0:
192,192,216847,1,2,0:0:0:0:
320,192,216847,1,2,0:0:0:0:
448,192,216930,1,2,0:0:0:0:
320,192,217013,1,2,0:0:0:0:
192,192,217097,1,2,0:0:0:0:
448,192,217097,1,2,0:0:0:0:
64,192,217097,1,2,0:0:0:0:
320,192,217180,1,2,0:0:0:0:
448,192,217263,1,2,0:0:0:0:
64,192,217263,1,2,0:0:0:0:
192,192,217347,1,2,0:0:0:0:
448,192,217430,1,2,0:0:0:0:
64,192,217430,1,2,0:0:0:0:
320,192,217430,1,2,0:0:0:0:
448,192,217597,1,2,0:0:0:0:
192,192,217597,1,2,0:0:0:0:
64,192,217597,1,2,0:0:0:0:
320,192,217680,1,2,0:0:0:0:
448,192,217763,1,2,0:0:0:0:
192,192,217847,1,2,0:0:0:0:
320,192,217930,1,2,0:0:0:0:
64,192,217930,1,2,0:0:0:0:
448,192,217930,1,2,0:0:0:0:
192,192,218013,1,2,0:0:0:0:
320,192,218097,1,2,0:0:0:0:
64,192,218097,1,2,0:0:0:0:
192,192,218180,1,2,0:0:0:0:
448,192,218180,1,2,0:0:0:0:
320,192,218263,1,2,0:0:0:0:
64,192,218347,1,2,0:0:0:0:
192,192,218347,1,2,0:0:0:0:
448,192,218430,1,2,0:0:0:0:
320,192,218430,1,2,0:0:0:0:
64,192,218513,1,2,0:0:0:0:
192,192,218513,1,2,0:0:0:0:
448,192,218597,1,2,0:0:0:0:
320,192,218597,1,2,0:0:0:0:
64,192,218680,1,2,0:0:0:0:
192,192,218680,1,2,0:0:0:0:
448,192,218763,1,2,0:0:0:0:
320,192,218763,1,2,0:0:0:0:
64,192,218847,1,2,0:0:0:0:
192,192,218847,1,2,0:0:0:0:
320,192,218930,1,2,0:0:0:0:
448,192,218930,128,2,219263:0:0:0:0:
64,192,219263,1,2,0:0:0:0:
320,192,219347,1,2,0:0:0:0:
192,192,219430,1,2,0:0:0:0:
448,192,219513,1,2,0:0:0:0:
64,192,219513,1,2,0:0:0:0:
320,192,219597,1,2,0:0:0:0:
192,192,219680,1,2,0:0:0:0:
448,192,219763,1,2,0:0:0:0:
64,192,219763,1,2,0:0:0:0:
320,192,219763,1,2,0:0:0:0:
192,192,219847,1,2,0:0:0:0:
320,192,219930,1,2,0:0:0:0:
64,192,219930,1,2,0:0:0:0:
448,192,220013,1,2,0:0:0:0:
192,192,220013,1,2,0:0:0:0:
320,192,220097,1,2,0:0:0:0:
192,192,220180,1,2,0:0:0:0:
64,192,220263,1,2,0:0:0:0:
320,192,220263,1,2,0:0:0:0:
448,192,220263,1,2,0:0:0:0:
320,192,220597,1,2,0:0:0:0:
192,192,220597,1,2,0:0:0:0:
448,192,220597,1,2,0:0:0:0:
64,192,220680,1,2,0:0:0:0:
448,192,220680,1,2,0:0:0:0:
192,192,220763,1,2,0:0:0:0:
320,192,220847,1,2,0:0:0:0:
448,192,220847,1,2,0:0:0:0:
192,192,220930,1,2,0:0:0:0:
64,192,220930,1,2,0:0:0:0:
320,192,221013,1,2,0:0:0:0:
320,192,221097,1,2,0:0:0:0:
448,192,221097,1,2,0:0:0:0:
192,192,221097,1,2,0:0:0:0:
64,192,221180,1,2,0:0:0:0:
192,192,221263,1,2,0:0:0:0:
320,192,221263,1,2,0:0:0:0:
64,192,221347,1,2,0:0:0:0:
448,192,221347,1,2,0:0:0:0:
320,192,221430,1,2,0:0:0:0:
448,192,221513,1,2,0:0:0:0:
64,192,221513,1,2,0:0:0:0:
320,192,221597,1,2,0:0:0:0:
192,192,221597,1,2,0:0:0:0:
448,192,221597,1,2,0:0:0:0:
64,192,221680,1,2,0:0:0:0:
320,192,221763,1,2,0:0:0:0:
192,192,221763,1,2,0:0:0:0:
448,192,221847,1,2,0:0:0:0:
64,192,221930,1,2,0:0:0:0:
320,192,221930,1,2,0:0:0:0:
192,192,221930,1,2,0:0:0:0:
320,192,222013,1,2,0:0:0:0:
448,192,222097,1,2,0:0:0:0:
64,192,222097,1,2,0:0:0:0:
320,192,222180,1,2,0:0:0:0:
192,192,222263,1,2,0:0:0:0:
64,192,222263,1,2,0:0:0:0:
448,192,222347,1,2,0:0:0:0:
64,192,222430,1,2,0:0:0:0:
320,192,222430,1,2,0:0:0:0:
192,192,222430,1,2,0:0:0:0:
192,192,222513,1,2,0:0:0:0:
448,192,222513,1,2,0:0:0:0:
64,192,222597,1,2,0:0:0:0:
320,192,222680,1,2,0:0:0:0:
448,192,222680,1,2,0:0:0:0:
64,192,222763,1,2,0:0:0:0:
192,192,222763,1,2,0:0:0:0:
448,192,222847,1,2,0:0:0:0:
64,192,222930,1,2,0:0:0:0:
320,192,222930,1,2,0:0:0:0:
192,192,222930,1,2,0:0:0:0:
448,192,223013,1,2,0:0:0:0:
64,192,223097,1,2,0:0:0:0:
192,192,223097,1,2,0:0:0:0:
320,192,223180,1,2,0:0:0:0:
64,192,223263,1,2,0:0:0:0:
192,192,223263,1,2,0:0:0:0:
448,192,223263,1,2,0:0:0:0:
448,192,223347,1,2,0:0:0:0:
64,192,223430,1,2,0:0:0:0:
192,192,223430,1,2,0:0:0:0:
320,192,223513,1,2,0:0:0:0:
448,192,223597,1,2,0:0:0:0:
64,192,223597,1,2,0:0:0:0:
320,192,223680,1,2,0:0:0:0:
64,192,223763,1,2,0:0:0:0:
192,192,223763,1,2,0:0:0:0:
448,192,223763,1,2,0:0:0:0:
320,192,223847,1,2,0:0:0:0:
192,192,223930,1,2,0:0:0:0:
64,192,223930,1,2,0:0:0:0:
448,192,224013,1,2,0:0:0:0:
320,192,224013,1,2,0:0:0:0:
192,192,224097,1,2,0:0:0:0:
320,192,224180,1,2,0:0:0:0:
64,192,224263,1,2,0:0:0:0:
192,192,224263,1,2,0:0:0:0:
448,192,224263,1,2,0:0:0:0:
320,192,224347,1,2,0:0:0:0:
192,192,224430,1,2,0:0:0:0:
448,192,224430,1,2,0:0:0:0:
64,192,224513,1,2,0:0:0:0:
64,192,224597,1,2,0:0:0:0:
320,192,224597,1,2,0:0:0:0:
448,192,224597,1,2,0:0:0:0:
192,192,224680,1,2,0:0:0:0:
320,192,224763,5,2,0:0:0:0:
64,192,224847,1,2,0:0:0:0:
192,192,224847,1,2,0:0:0:0:
448,192,224930,1,2,0:0:0:0:
320,192,224930,1,2,0:0:0:0:
192,192,225013,1,2,0:0:0:0:
64,192,225097,1,2,0:0:0:0:
320,192,225097,1,2,0:0:0:0:
448,192,225097,1,2,0:0:0:0:
192,192,225263,1,2,0:0:0:0:
320,192,225347,1,2,0:0:0:0:
448,192,225347,1,2,0:0:0:0:
64,192,225430,1,2,0:0:0:0:
192,192,225430,1,2,0:0:0:0:
320,192,225513,1,2,0:0:0:0:
64,192,225597,1,2,0:0:0:0:
320,192,225597,1,2,0:0:0:0:
192,192,225680,1,2,0:0:0:0:
448,192,225680,1,2,0:0:0:0:
64,192,225763,1,2,0:0:0:0:
320,192,225763,1,2,0:0:0:0:
192,192,225847,1,2,0:0:0:0:
448,192,225847,1,2,0:0:0:0:
192,192,225930,1,2,0:0:0:0:
320,192,225930,1,2,0:0:0:0:
448,192,226013,1,2,0:0:0:0:
64,192,226097,1,2,0:0:0:0:
320,192,226180,1,2,0:0:0:0:
448,192,226180,1,2,0:0:0:0:
192,192,226263,1,2,0:0:0:0:
320,192,226347,1,2,0:0:0:0:
64,192,226430,1,2,0:0:0:0:
448,192,226430,1,2,0:0:0:0:
192,192,226430,1,2,0:0:0:0:
320,192,226513,1,2,0:0:0:0:
192,192,226597,1,2,0:0:0:0:
64,192,226597,1,2,0:0:0:0:
448,192,226680,1,2,0:0:0:0:
320,192,226763,1,2,0:0:0:0:
64,192,226763,1,2,0:0:0:0:
448,192,226763,1,2,0:0:0:0:
192,192,226847,1,2,0:0:0:0:
64,192,226930,1,2,0:0:0:0:
448,192,226930,1,2,0:0:0:0:
192,192,227013,1,2,0:0:0:0:
320,192,227097,1,2,0:0:0:0:
448,192,227097,1,2,0:0:0:0:
64,192,227180,1,2,0:0:0:0:
320,192,227263,1,2,0:0:0:0:
448,192,227263,1,2,0:0:0:0:
192,192,227263,1,2,0:0:0:0:
64,192,227347,1,2,0:0:0:0:
448,192,227430,1,2,0:0:0:0:
320,192,227513,1,2,0:0:0:0:
192,192,227513,1,2,0:0:0:0:
64,192,227597,1,2,0:0:0:0:
192,192,227680,1,2,0:0:0:0:
448,192,227763,1,2,0:0:0:0:
64,192,227763,1,2,0:0:0:0:
320,192,227763,1,2,0:0:0:0:
192,192,227847,1,2,0:0:0:0:
64,192,227930,1,2,0:0:0:0:
448,192,227930,1,2,0:0:0:0:
320,192,228013,1,2,0:0:0:0:
64,192,228097,1,2,0:0:0:0:
448,192,228097,1,2,0:0:0:0:
192,192,228097,1,2,0:0:0:0:
64,192,228263,1,2,0:0:0:0:
448,192,228263,1,2,0:0:0:0:
320,192,228263,1,2,0:0:0:0:
192,192,228347,1,2,0:0:0:0:
64,192,228430,1,2,0:0:0:0:
320,192,228513,1,2,0:0:0:0:
64,192,228597,1,2,0:0:0:0:
448,192,228597,1,2,0:0:0:0:
192,192,228597,1,2,0:0:0:0:
320,192,228680,1,2,0:0:0:0:
192,192,228763,1,2,0:0:0:0:
64,192,228763,1,2,0:0:0:0:
320,192,228847,1,2,0:0:0:0:
448,192,228847,1,2,0:0:0:0:
192,192,228930,1,2,0:0:0:0:
64,192,228930,1,2,0:0:0:0:
320,192,229013,1,2,0:0:0:0:
448,192,229013,1,2,0:0:0:0:
64,192,229097,1,2,0:0:0:0:
320,192,229097,1,2,0:0:0:0:
192,192,229180,1,2,0:0:0:0:
448,192,229180,1,2,0:0:0:0:
320,192,229263,1,2,0:0:0:0:
64,192,229263,1,2,0:0:0:0:
192,192,229347,1,2,0:0:0:0:
448,192,229347,1,2,0:0:0:0:
320,192,229430,1,2,0:0:0:0:
64,192,229430,1,2,0:0:0:0:
192,192,229513,1,2,0:0:0:0:
448,192,229513,1,2,0:0:0:0:
192,192,229597,1,2,0:0:0:0:
320,192,229597,1,2,0:0:0:0:
64,192,229597,128,2,229930:0:0:0:0:
448,192,229597,1,2,0:0:0:0:
320,192,229930,1,2,0:0:0:0:
448,192,229930,1,2,0:0:0:0:
192,192,230013,1,2,0:0:0:0:
320,192,230097,1,2,0:0:0:0:
448,192,230180,1,2,0:0:0:0:
64,192,230180,1,2,0:0:0:0:
192,192,230263,1,2,0:0:0:0:
320,192,230347,1,2,0:0:0:0:
448,192,230430,1,2,0:0:0:0:
192,192,230430,1,2,0:0:0:0:
64,192,230430,1,2,0:0:0:0:
320,192,230513,1,2,0:0:0:0:
192,192,230597,1,2,0:0:0:0:
448,192,230597,1,2,0:0:0:0:
64,192,230597,1,2,0:0:0:0:
320,192,230680,1,2,0:0:0:0:
448,192,230763,1,2,0:0:0:0:
64,192,230763,1,2,0:0:0:0:
192,192,230763,1,2,0:0:0:0:
192,192,230847,1,2,0:0:0:0:
448,192,230930,1,2,0:0:0:0:
320,192,230930,1,2,0:0:0:0:
64,192,230930,1,2,0:0:0:0:
192,192,231013,1,2,0:0:0:0:
320,192,231097,1,2,0:0:0:0:
64,192,231097,1,2,0:0:0:0:
192,192,231097,1,2,0:0:0:0:
448,192,231097,1,2,0:0:0:0:
320,192,231263,1,2,0:0:0:0:
64,192,231263,1,2,0:0:0:0:
192,192,231263,1,2,0:0:0:0:
64,192,231347,1,2,0:0:0:0:
448,192,231347,1,2,0:0:0:0:
320,192,231430,1,2,0:0:0:0:
192,192,231513,1,2,0:0:0:0:
64,192,231513,1,2,0:0:0:0:
448,192,231597,1,2,0:0:0:0:
320,192,231597,1,2,0:0:0:0:
192,192,231680,1,2,0:0:0:0:
320,192,231763,1,2,0:0:0:0:
192,192,231763,1,2,0:0:0:0:
64,192,231763,1,2,0:0:0:0:
448,192,231847,1,2,0:0:0:0:
320,192,231930,1,2,0:0:0:0:
448,192,232013,1,2,0:0:0:0:
64,192,232013,1,2,0:0:0:0:
192,192,232097,1,2,0:0:0:0:
448,192,232180,1,2,0:0:0:0:
64,192,232180,1,2,0:0:0:0:
192,192,232263,1,2,0:0:0:0:
320,192,232263,1,2,0:0:0:0:
64,192,232263,1,2,0:0:0:0:
448,192,232347,1,2,0:0:0:0:
320,192,232430,1,2,0:0:0:0:
192,192,232430,1,2,0:0:0:0:
64,192,232513,1,2,0:0:0:0:
320,192,232597,1,2,0:0:0:0:
192,192,232597,1,2,0:0:0:0:
448,192,232597,1,2,0:0:0:0:
192,192,232680,1,2,0:0:0:0:
448,192,232763,1,2,0:0:0:0:
64,192,232763,1,2,0:0:0:0:
192,192,232847,1,2,0:0:0:0:
320,192,232930,1,2,0:0:0:0:
64,192,233013,1,2,0:0:0:0:
448,192,233097,1,2,0:0:0:0:
192,192,233097,1,2,0:0:0:0:
320,192,233097,1,2,0:0:0:0:
320,192,233180,1,2,0:0:0:0:
448,192,233263,1,2,0:0:0:0:
64,192,233347,1,2,0:0:0:0:
192,192,233347,1,2,0:0:0:0:
320,192,233430,1,2,0:0:0:0:
448,192,233430,1,2,0:0:0:0:
64,192,233513,1,2,0:0:0:0:
192,192,233597,1,2,0:0:0:0:
448,192,233597,1,2,0:0:0:0:
320,192,233597,1,2,0:0:0:0:
64,192,233680,1,2,0:0:0:0:
320,192,233763,1,2,0:0:0:0:
448,192,233763,1,2,0:0:0:0:
192,192,233847,1,2,0:0:0:0:
64,192,233930,1,2,0:0:0:0:
320,192,233930,1,2,0:0:0:0:
448,192,233930,1,2,0:0:0:0:
192,192,233930,1,2,0:0:0:0:
320,192,234013,1,2,0:0:0:0:
448,192,234097,1,2,0:0:0:0:
64,192,234097,1,2,0:0:0:0:
192,192,234180,1,2,0:0:0:0:
64,192,234263,1,2,0:0:0:0:
448,192,234263,1,2,0:0:0:0:
320,192,234263,1,2,0:0:0:0:
192,192,234263,1,2,0:0:0:0:
320,192,234347,1,2,0:0:0:0:
64,192,234430,1,2,0:0:0:0:
448,192,234430,1,2,0:0:0:0:
320,192,234513,1,2,0:0:0:0:
448,192,234597,1,2,0:0:0:0:
192,192,234597,1,2,0:0:0:0:
64,192,234597,1,2,0:0:0:0:
320,192,234597,1,2,0:0:0:0:
448,192,234680,1,2,0:0:0:0:
64,192,234680,1,2,0:0:0:0:
320,192,234763,1,2,0:0:0:0:
448,192,234847,1,2,0:0:0:0:
448,192,234930,1,2,0:0:0:0:
320,192,234930,1,2,0:0:0:0:
64,192,234930,1,2,0:0:0:0:
192,192,234930,1,2,0:0:0:0:
192,192,235013,1,2,0:0:0:0:
320,192,235097,1,2,0:0:0:0:
64,192,235097,1,2,0:0:0:0:
448,192,235180,1,2,0:0:0:0:
192,192,235263,1,2,0:0:0:0:
448,192,235263,1,2,0:0:0:0:
64,192,235263,1,2,0:0:0:0:
320,192,235347,1,2,0:0:0:0:
448,192,235430,1,2,0:0:0:0:
64,192,235513,1,2,0:0:0:0:
192,192,235513,1,2,0:0:0:0:
320,192,235597,1,2,0:0:0:0:
448,192,235597,1,2,0:0:0:0:
64,192,235597,1,2,0:0:0:0:
192,192,235680,1,2,0:0:0:0:
64,192,235763,1,2,0:0:0:0:
320,192,235763,1,2,0:0:0:0:
448,192,235763,1,2,0:0:0:0:
448,192,235847,1,2,0:0:0:0:
192,192,235847,1,2,0:0:0:0:
64,192,235930,1,2,0:0:0:0:
320,192,235930,1,2,0:0:0:0:
192,192,236013,1,2,0:0:0:0:
64,192,236097,1,2,0:0:0:0:
448,192,236097,1,2,0:0:0:0:
320,192,236180,1,2,0:0:0:0:
64,192,236263,1,2,0:0:0:0:
448,192,236263,1,2,0:0:0:0:
448,192,237895,1,2,0:0:0:0:
192,192,237895,1,2,0:0:0:0:
320,192,237895,1,2,0:0:0:0:
64,192,237895,128,2,238228:0:0:0:0:
448,192,238061,1,2,0:0:0:0:
192,192,238061,1,2,0:0:0:0:
320,192,238228,128,2,238561:0:0:0:0:
192,192,238228,1,2,0:0:0:0:
448,192,238311,1,2,0:0:0:0:
64,192,238395,1,2,0:0:0:0:
192,192,238395,1,2,0:0:0:0:
64,192,238561,128,2,238895:0:0:0:0:
192,192,238561,1,2,0:0:0:0:
192,192,238728,1,2,0:0:0:0:
448,192,238728,1,2,0:0:0:0:
320,192,238895,1,2,0:0:0:0:
64,192,238978,1,2,0:0:0:0:
448,192,239061,128,2,239395:0:0:0:0:
192,192,239061,1,2,0:0:0:0:
320,192,239061,1,2,0:0:0:0:
64,192,239228,1,2,0:0:0:0:
192,192,239395,1,2,0:0:0:0:
64,192,239395,1,2,0:0:0:0:
320,192,239395,1,2,0:0:0:0:
320,192,239561,1,2,0:0:0:0:
64,192,239561,1,2,0:0:0:0:
320,192,239645,1,2,0:0:0:0:
64,192,239645,1,2,0:0:0:0:
448,192,239728,1,2,0:0:0:0:
192,192,239728,1,2,0:0:0:0:
320,192,239895,1,2,0:0:0:0:
64,192,239895,1,2,0:0:0:0:
320,192,239978,1,2,0:0:0:0:
64,192,239978,1,2,0:0:0:0:
448,192,240061,1,2,0:0:0:0:
192,192,240061,1,2,0:0:0:0:
320,192,240145,1,2,0:0:0:0:
64,192,240145,1,2,0:0:0:0:
448,192,240228,1,2,0:0:0:0:
192,192,240228,1,2,0:0:0:0:
448,192,240311,1,2,0:0:0:0:
192,192,240311,1,2,0:0:0:0:
320,192,240395,1,2,0:0:0:0:
64,192,240395,128,2,240478:0:0:0:0:
64,192,240561,128,2,240895:0:0:0:0:
192,192,240561,1,2,0:0:0:0:
448,192,240728,1,2,0:0:0:0:
320,192,240728,1,2,0:0:0:0:
448,192,240895,128,2,241228:0:0:0:0:
320,192,240895,1,2,0:0:0:0:
192,192,240978,1,2,0:0:0:0:
320,192,241061,1,2,0:0:0:0:
64,192,241061,1,2,0:0:0:0:
320,192,241228,128,2,241561:0:0:0:0:
64,192,241228,1,2,0:0:0:0:
448,192,241395,1,2,0:0:0:0:
192,192,241395,1,2,0:0:0:0:
192,192,241561,1,2,0:0:0:0:
192,192,241645,1,2,0:0:0:0:
320,192,241728,128,2,242228:0:0:0:0:
448,192,241728,1,2,0:0:0:0:
64,192,241728,1,2,0:0:0:0:
192,192,241895,1,2,0:0:0:0:
64,192,241978,1,2,0:0:0:0:
448,192,242061,1,2,0:0:0:0:
192,192,242061,1,2,0:0:0:0:
64,192,242145,1,2,0:0:0:0:
192,192,242228,128,2,242561:0:0:0:0:
448,192,242228,1,2,0:0:0:0:
64,192,242311,1,2,0:0:0:0:
320,192,242395,1,2,0:0:0:0:
64,192,242478,1,2,0:0:0:0:
448,192,242561,128,2,242895:0:0:0:0:
320,192,242561,1,2,0:0:0:0:
64,192,242645,1,2,0:0:0:0:
192,192,242728,1,2,0:0:0:0:
320,192,242728,1,2,0:0:0:0:
192,192,242895,128,2,243061:0:0:0:0:
320,192,242895,1,2,0:0:0:0:
448,192,242978,1,2,0:0:0:0:
64,192,243061,128,2,243561:0:0:0:0:
448,192,243061,1,2,0:0:0:0:
320,192,243061,1,2,0:0:0:0:
192,192,243228,1,2,0:0:0:0:
448,192,243395,1,2,0:0:0:0:
192,192,243395,1,2,0:0:0:0:
320,192,243561,128,2,243895:0:0:0:0:
448,192,243561,1,2,0:0:0:0:
192,192,243645,1,2,0:0:0:0:
448,192,243728,1,2,0:0:0:0:
64,192,243728,1,2,0:0:0:0:
448,192,243895,128,2,244228:0:0:0:0:
192,192,243895,1,2,0:0:0:0:
320,192,244061,1,2,0:0:0:0:
64,192,244061,1,2,0:0:0:0:
320,192,244228,128,2,244311:0:0:0:0:
64,192,244228,1,2,0:0:0:0:
192,192,244311,1,2,0:0:0:0:
320,192,244395,128,2,244895:0:0:0:0:
448,192,244395,1,2,0:0:0:0:
64,192,244395,1,2,0:0:0:0:
192,192,244478,1,2,0:0:0:0:
448,192,244561,1,2,0:0:0:0:
192,192,244728,1,2,0:0:0:0:
64,192,244728,1,2,0:0:0:0:
192,192,244895,128,2,245228:0:0:0:0:
448,192,244895,1,2,0:0:0:0:
320,192,244978,1,2,0:0:0:0:
320,192,245061,1,2,0:0:0:0:
448,192,245061,1,2,0:0:0:0:
64,192,245145,1,2,0:0:0:0:
448,192,245228,128,2,245561:0:0:0:0:
320,192,245228,1,2,0:0:0:0:
64,192,245311,1,2,0:0:0:0:
192,192,245395,1,2,0:0:0:0:
320,192,245395,1,2,0:0:0:0:
64,192,245561,1,2,0:0:0:0:
320,192,245645,1,2,0:0:0:0:
448,192,245728,1,2,0:0:0:0:
192,192,245728,1,2,0:0:0:0:
320,192,245811,1,2,0:0:0:0:
448,192,245895,1,2,0:0:0:0:
192,192,245978,1,2,0:0:0:0:
64,192,245978,1,2,0:0:0:0:
320,192,246061,1,2,0:0:0:0:
448,192,246145,1,2,0:0:0:0:
192,192,246228,1,2,0:0:0:0:
64,192,246228,1,2,0:0:0:0:
320,192,246311,1,2,0:0:0:0:
448,192,246311,1,2,0:0:0:0:
192,192,246395,1,2,0:0:0:0:
448,192,246478,1,2,0:0:0:0:
64,192,246478,1,2,0:0:0:0:
320,192,246561,1,2,0:0:0:0:
192,192,246561,1,2,0:0:0:0:
448,192,246645,1,2,0:0:0:0:
192,192,246728,1,2,0:0:0:0:
64,192,246728,1,2,0:0:0:0:
320,192,246811,1,2,0:0:0:0:
448,192,246895,1,2,0:0:0:0:
64,192,246895,1,2,0:0:0:0:
192,192,246978,1,2,0:0:0:0:
320,192,247061,1,2,0:0:0:0:
448,192,247061,1,2,0:0:0:0:
64,192,247145,1,2,0:0:0:0:
192,192,247145,1,2,0:0:0:0:
320,192,247228,1,2,0:0:0:0:
64,192,247311,1,2,0:0:0:0:
448,192,247395,1,2,0:0:0:0:
192,192,247395,1,2,0:0:0:0:
320,192,247395,1,2,0:0:0:0:
64,192,247395,1,2,0:0:0:0:
320,192,247478,1,2,0:0:0:0:
192,192,247561,1,2,0:0:0:0:
64,192,247561,1,2,0:0:0:0:
320,192,247645,1,2,0:0:0:0:
448,192,247645,1,2,0:0:0:0:
192,192,247728,1,2,0:0:0:0:
64,192,247728,1,2,0:0:0:0:
320,192,247811,1,2,0:0:0:0:
64,192,247895,1,2,0:0:0:0:
448,192,247895,1,2,0:0:0:0:
192,192,247978,1,2,0:0:0:0:
320,192,248061,1,2,0:0:0:0:
64,192,248145,1,2,0:0:0:0:
448,192,248145,1,2,0:0:0:0:
192,192,248228,1,2,0:0:0:0:
320,192,248311,1,2,0:0:0:0:
448,192,248395,1,2,0:0:0:0:
64,192,248395,1,2,0:0:0:0:
192,192,248478,1,2,0:0:0:0:
448,192,248561,128,2,248895:0:0:0:0:
64,192,248561,1,2,0:0:0:0:
192,192,248561,1,2,0:0:0:0:
320,192,248561,1,2,0:0:0:0:
320,192,248728,1,2,0:0:0:0:
64,192,248728,1,2,0:0:0:0:
320,192,248895,1,2,0:0:0:0:
192,192,248895,128,2,249228:0:0:0:0:
64,192,248978,1,2,0:0:0:0:
320,192,249061,1,2,0:0:0:0:
448,192,249061,1,2,0:0:0:0:
448,192,249228,128,2,249561:0:0:0:0:
320,192,249228,1,2,0:0:0:0:
64,192,249395,1,2,0:0:0:0:
320,192,249395,1,2,0:0:0:0:
64,192,249561,128,2,249895:0:0:0:0:
192,192,249561,1,2,0:0:0:0:
448,192,249645,1,2,0:0:0:0:
192,192,249728,1,2,0:0:0:0:
320,192,249728,1,2,0:0:0:0:
320,192,249895,1,2,0:0:0:0:
448,192,250061,1,2,0:0:0:0:
64,192,250061,1,2,0:0:0:0:
320,192,250061,1,2,0:0:0:0:
192,192,250228,1,2,0:0:0:0:
448,192,250228,1,2,0:0:0:0:
192,192,250311,1,2,0:0:0:0:
448,192,250311,1,2,0:0:0:0:
64,192,250395,1,2,0:0:0:0:
320,192,250395,1,2,0:0:0:0:
448,192,250561,1,2,0:0:0:0:
192,192,250561,1,2,0:0:0:0:
192,192,250645,1,2,0:0:0:0:
448,192,250645,1,2,0:0:0:0:
320,192,250728,1,2,0:0:0:0:
64,192,250728,1,2,0:0:0:0:
192,192,250811,1,2,0:0:0:0:
448,192,250811,1,2,0:0:0:0:
320,192,250895,1,2,0:0:0:0:
64,192,250895,1,2,0:0:0:0:
64,192,250978,1,2,0:0:0:0:
320,192,250978,1,2,0:0:0:0:
192,192,251061,1,2,0:0:0:0:
448,192,251061,128,2,251145:0:0:0:0:
320,192,251228,1,2,0:0:0:0:
448,192,251228,128,2,251561:0:0:0:0:
192,192,251395,1,2,0:0:0:0:
64,192,251395,1,2,0:0:0:0:
192,192,251561,1,2,0:0:0:0:
64,192,251561,128,2,251895:0:0:0:0:
320,192,251645,1,2,0:0:0:0:
448,192,251728,1,2,0:0:0:0:
192,192,251728,1,2,0:0:0:0:
192,192,251895,128,2,252228:0:0:0:0:
448,192,251895,1,2,0:0:0:0:
320,192,252061,1,2,0:0:0:0:
64,192,252061,1,2,0:0:0:0:
320,192,252228,1,2,0:0:0:0:
320,192,252311,1,2,0:0:0:0:
448,192,252394,1,2,0:0:0:0:
64,192,252394,1,2,0:0:0:0:
192,192,252394,128,2,252894:0:0:0:0:
320,192,252561,1,2,0:0:0:0:
448,192,252644,1,2,0:0:0:0:
320,192,252728,1,2,0:0:0:0:
64,192,252728,1,2,0:0:0:0:
448,192,252811,1,2,0:0:0:0:
64,192,252894,1,2,0:0:0:0:
320,192,252894,128,2,253228:0:0:0:0:
448,192,252978,1,2,0:0:0:0:
192,192,253061,1,2,0:0:0:0:
448,192,253144,1,2,0:0:0:0:
192,192,253228,1,2,0:0:0:0:
64,192,253228,128,2,253561:0:0:0:0:
448,192,253311,1,2,0:0:0:0:
320,192,253394,1,2,0:0:0:0:
192,192,253394,1,2,0:0:0:0:
192,192,253561,1,2,0:0:0:0:
320,192,253561,128,2,253728:0:0:0:0:
64,192,253644,1,2,0:0:0:0:
192,192,253728,1,2,0:0:0:0:
64,192,253728,1,2,0:0:0:0:
448,192,253728,128,2,254228:0:0:0:0:
320,192,253894,1,2,0:0:0:0:
320,192,254061,1,2,0:0:0:0:
64,192,254061,1,2,0:0:0:0:
192,192,254228,128,2,254561:0:0:0:0:
64,192,254228,1,2,0:0:0:0:
320,192,254311,1,2,0:0:0:0:
64,192,254394,1,2,0:0:0:0:
448,192,254394,1,2,0:0:0:0:
64,192,254561,128,2,254894:0:0:0:0:
320,192,254561,1,2,0:0:0:0:
192,192,254728,1,2,0:0:0:0:
448,192,254728,1,2,0:0:0:0:
192,192,254894,128,2,254978:0:0:0:0:
448,192,254894,1,2,0:0:0:0:
320,192,254978,1,2,0:0:0:0:
64,192,255061,1,2,0:0:0:0:
192,192,255061,128,2,255561:0:0:0:0:
448,192,255061,1,2,0:0:0:0:
320,192,255144,1,2,0:0:0:0:
64,192,255228,1,2,0:0:0:0:
320,192,255394,1,2,0:0:0:0:
448,192,255394,1,2,0:0:0:0:
320,192,255561,128,2,255894:0:0:0:0:
64,192,255561,1,2,0:0:0:0:
192,192,255644,1,2,0:0:0:0:
448,192,255728,1,2,0:0:0:0:
64,192,255728,1,2,0:0:0:0:
448,192,255894,128,2,256228:0:0:0:0:
192,192,255894,1,2,0:0:0:0:
320,192,255978,1,2,0:0:0:0:
192,192,256061,1,2,0:0:0:0:
64,192,256061,1,2,0:0:0:0:
320,192,256228,128,2,256394:0:0:0:0:
192,192,256228,1,2,0:0:0:0:
448,192,256311,1,2,0:0:0:0:
64,192,256394,128,2,257894:0:0:0:0:
192,192,256394,1,2,0:0:0:0:
192,192,256728,1,2,0:0:0:0:
448,192,256728,1,2,0:0:0:0:
320,192,256728,1,2,0:0:0:0:
192,192,256894,1,2,0:0:0:0:
448,192,256978,1,2,0:0:0:0:
192,192,257061,1,2,0:0:0:0:
320,192,257144,1,2,0:0:0:0:
448,192,257228,1,2,0:0:0:0:
192,192,257228,1,2,0:0:0:0:
320,192,257311,1,2,0:0:0:0:
192,192,257394,1,2,0:0:0:0:
448,192,257478,1,2,0:0:0:0:
320,192,257561,1,2,0:0:0:0:
192,192,257644,1,2,0:0:0:0:
448,192,257728,1,2,0:0:0:0:
320,192,257811,1,2,0:0:0:0:
448,192,257894,1,2,0:0:0:0:
192,192,257894,1,2,0:0:0:0:
320,192,257978,1,2,0:0:0:0:
64,192,257978,1,2,0:0:0:0:
448,192,258061,1,2,0:0:0:0:
192,192,258061,1,2,0:0:0:0:
320,192,258144,1,2,0:0:0:0:
64,192,258144,1,2,0:0:0:0:
448,192,258228,1,2,0:0:0:0:
192,192,258311,1,2,0:0:0:0:
320,192,258311,1,2,0:0:0:0:
64,192,258394,1,2,0:0:0:0:
448,192,258394,1,2,0:0:0:0:
320,192,258478,1,2,0:0:0:0:
448,192,258561,1,2,0:0:0:0:
192,192,258561,1,2,0:0:0:0:
320,192,258644,1,2,0:0:0:0:
64,192,258644,1,2,0:0:0:0:
192,192,258728,1,2,0:0:0:0:
448,192,258728,1,2,0:0:0:0:
64,192,258811,1,2,0:0:0:0:
448,192,258894,1,2,0:0:0:0:
320,192,258894,1,2,0:0:0:0:
192,192,258978,1,2,0:0:0:0:
64,192,258978,1,2,0:0:0:0:
448,192,259061,1,2,0:0:0:0:
320,192,259061,1,2,0:0:0:0:
192,192,259144,1,2,0:0:0:0:
64,192,259144,1,2,0:0:0:0:
448,192,259228,128,2,259561:0:0:0:0:
320,192,259228,1,2,0:0:0:0:
192,192,259311,1,2,0:0:0:0:
64,192,259394,1,2,0:0:0:0:
320,192,259478,1,2,0:0:0:0:
64,192,259561,128,2,259894:0:0:0:0:
192,192,259561,1,2,0:0:0:0:
320,192,259644,1,2,0:0:0:0:
192,192,259728,1,2,0:0:0:0:
448,192,259811,1,2,0:0:0:0:
320,192,259894,128,2,260228:0:0:0:0:
192,192,259894,1,2,0:0:0:0:
448,192,259978,1,2,0:0:0:0:
192,192,260061,1,2,0:0:0:0:
64,192,260144,1,2,0:0:0:0:
448,192,260228,1,2,0:0:0:0:
192,192,260311,1,2,0:0:0:0:
448,192,260394,128,2,261728:0:0:0:0:
320,192,260394,1,2,0:0:0:0:
64,192,260478,1,2,0:0:0:0:
192,192,260561,1,2,0:0:0:0:
64,192,260644,1,2,0:0:0:0:
320,192,260728,1,2,0:0:0:0:
192,192,260728,1,2,0:0:0:0:
64,192,260811,1,2,0:0:0:0:
192,192,260894,1,2,0:0:0:0:
320,192,260978,1,2,0:0:0:0:
192,192,261061,1,2,0:0:0:0:
64,192,261061,1,2,0:0:0:0:
320,192,261144,1,2,0:0:0:0:
64,192,261228,1,2,0:0:0:0:
192,192,261311,1,2,0:0:0:0:
320,192,261394,1,2,0:0:0:0:
64,192,261394,1,2,0:0:0:0:
192,192,261478,1,2,0:0:0:0:
64,192,261561,1,2,0:0:0:0:
320,192,261644,1,2,0:0:0:0:
192,192,261728,1,2,0:0:0:0:
64,192,261728,128,2,262228:0:0:0:0:
448,192,261811,1,2,0:0:0:0:
320,192,261894,1,2,0:0:0:0:
448,192,261978,1,2,0:0:0:0:
192,192,262061,1,2,0:0:0:0:
320,192,262061,1,2,0:0:0:0:
192,192,262145,1,2,0:0:0:0:
448,192,262228,128,2,262561:0:0:0:0:
320,192,262228,1,2,0:0:0:0:
64,192,262311,1,2,0:0:0:0:
192,192,262395,1,2,0:0:0:0:
320,192,262478,1,2,0:0:0:0:
192,192,262561,128,2,262895:0:0:0:0:
64,192,262561,1,2,0:0:0:0:
320,192,262645,1,2,0:0:0:0:
448,192,262728,1,2,0:0:0:0:
64,192,262728,1,2,0:0:0:0:
320,192,262811,1,2,0:0:0:0:
64,192,262895,1,2,0:0:0:0:
320,192,262978,1,2,0:0:0:0:
192,192,263061,128,2,263561:0:0:0:0:
448,192,263061,1,2,0:0:0:0:
64,192,263145,1,2,0:0:0:0:
320,192,263228,1,2,0:0:0:0:
448,192,263311,1,2,0:0:0:0:
320,192,263395,1,2,0:0:0:0:
64,192,263395,1,2,0:0:0:0:
448,192,263478,1,2,0:0:0:0:
320,192,263561,128,2,263895:0:0:0:0:
64,192,263561,1,2,0:0:0:0:
448,192,263645,1,2,0:0:0:0:
192,192,263728,1,2,0:0:0:0:
64,192,263728,1,2,0:0:0:0:
448,192,263811,1,2,0:0:0:0:
64,192,263895,128,2,264228:0:0:0:0:
192,192,263895,1,2,0:0:0:0:
448,192,263978,1,2,0:0:0:0:
320,192,264061,1,2,0:0:0:0:
192,192,264145,1,2,0:0:0:0:
448,192,264228,1,2,0:0:0:0:
320,192,264228,1,2,0:0:0:0:
192,192,264311,1,2,0:0:0:0:
64,192,264395,128,2,264895:0:0:0:0:
448,192,264395,1,2,0:0:0:0:
320,192,264478,1,2,0:0:0:0:
192,192,264561,1,2,0:0:0:0:
448,192,264645,1,2,0:0:0:0:
192,192,264728,1,2,0:0:0:0:
320,192,264728,1,2,0:0:0:0:
448,192,264811,1,2,0:0:0:0:
192,192,264895,128,2,265228:0:0:0:0:
320,192,264895,1,2,0:0:0:0:
448,192,264978,1,2,0:0:0:0:
320,192,265061,1,2,0:0:0:0:
64,192,265145,1,2,0:0:0:0:
448,192,265228,128,2,265561:0:0:0:0:
320,192,265228,1,2,0:0:0:0:
192,192,265311,1,2,0:0:0:0:
64,192,265395,1,2,0:0:0:0:
192,192,265478,1,2,0:0:0:0:
320,192,265561,128,2,265728:0:0:0:0:
64,192,265561,1,2,0:0:0:0:
192,192,265645,1,2,0:0:0:0:
64,192,265728,128,2,266228:0:0:0:0:
448,192,265728,1,2,0:0:0:0:
192,192,265811,1,2,0:0:0:0:
448,192,265895,1,2,0:0:0:0:
192,192,265978,1,2,0:0:0:0:
448,192,266061,1,2,0:0:0:0:
320,192,266145,1,2,0:0:0:0:
192,192,266228,1,2,0:0:0:0:
320,192,266228,128,2,266561:0:0:0:0:
448,192,266311,1,2,0:0:0:0:
192,192,266395,1,2,0:0:0:0:
64,192,266478,1,2,0:0:0:0:
448,192,266561,128,2,266894:0:0:0:0:
192,192,266561,1,2,0:0:0:0:
64,192,266644,1,2,0:0:0:0:
192,192,266728,1,2,0:0:0:0:
320,192,266728,1,2,0:0:0:0:
64,192,266811,1,2,0:0:0:0:
320,192,266894,128,2,267061:0:0:0:0:
192,192,266894,1,2,0:0:0:0:
64,192,266978,1,2,0:0:0:0:
192,192,267061,128,2,267561:0:0:0:0:
448,192,267061,1,2,0:0:0:0:
320,192,267144,1,2,0:0:0:0:
64,192,267228,1,2,0:0:0:0:
448,192,267311,1,2,0:0:0:0:
320,192,267394,1,2,0:0:0:0:
64,192,267478,1,2,0:0:0:0:
448,192,267561,128,2,267894:0:0:0:0:
320,192,267561,1,2,0:0:0:0:
64,192,267644,1,2,0:0:0:0:
192,192,267728,1,2,0:0:0:0:
320,192,267811,1,2,0:0:0:0:
192,192,267894,128,2,268228:0:0:0:0:
64,192,267894,1,2,0:0:0:0:
320,192,267978,1,2,0:0:0:0:
64,192,268061,1,2,0:0:0:0:
448,192,268144,1,2,0:0:0:0:
64,192,268228,128,2,268394:0:0:0:0:
320,192,268228,1,2,0:0:0:0:
192,192,268311,1,2,0:0:0:0:
448,192,268394,1,2,0:0:0:0:
320,192,268394,1,2,0:0:0:0:
192,192,268478,1,2,0:0:0:0:
320,192,268561,1,2,0:0:0:0:
64,192,268644,1,2,0:0:0:0:
448,192,268644,1,2,0:0:0:0:
192,192,268728,1,2,0:0:0:0:
320,192,268728,1,2,0:0:0:0:
64,192,268811,1,2,0:0:0:0:
320,192,268894,1,2,0:0:0:0:
192,192,268978,1,2,0:0:0:0:
448,192,269061,1,2,0:0:0:0:
64,192,269061,1,2,0:0:0:0:
320,192,269144,1,2,0:0:0:0:
192,192,269228,1,2,0:0:0:0:
448,192,269311,1,2,0:0:0:0:
320,192,269311,1,2,0:0:0:0:
192,192,269394,1,2,0:0:0:0:
320,192,269478,1,2,0:0:0:0:
64,192,269561,1,2,0:0:0:0:
192,192,269561,1,2,0:0:0:0:
448,192,269561,1,2,0:0:0:0:
64,192,269644,1,2,0:0:0:0:
320,192,269644,1,2,0:0:0:0:
192,192,269728,1,2,0:0:0:0:
448,192,269728,1,2,0:0:0:0:
64,192,269811,1,2,0:0:0:0:
320,192,269811,1,2,0:0:0:0:
448,192,269894,1,2,0:0:0:0:
192,192,269894,1,2,0:0:0:0:
64,192,269894,128,2,270228:0:0:0:0:
320,192,269978,1,2,0:0:0:0:
448,192,270061,1,2,0:0:0:0:
192,192,270144,1,2,0:0:0:0:
448,192,270228,128,2,270561:0:0:0:0:
320,192,270228,1,2,0:0:0:0:
192,192,270311,1,2,0:0:0:0:
320,192,270394,1,2,0:0:0:0:
64,192,270478,1,2,0:0:0:0:
192,192,270561,128,2,270894:0:0:0:0:
320,192,270561,1,2,0:0:0:0:
64,192,270644,1,2,0:0:0:0:
320,192,270728,1,2,0:0:0:0:
448,192,270811,1,2,0:0:0:0:
64,192,270894,1,2,0:0:0:0:
320,192,270978,1,2,0:0:0:0:
64,192,271061,128,2,272394:0:0:0:0:
192,192,271061,1,2,0:0:0:0:
448,192,271144,1,2,0:0:0:0:
320,192,271228,1,2,0:0:0:0:
448,192,271311,1,2,0:0:0:0:
320,192,271394,1,2,0:0:0:0:
192,192,271394,1,2,0:0:0:0:
448,192,271478,1,2,0:0:0:0:
320,192,271561,1,2,0:0:0:0:
192,192,271644,1,2,0:0:0:0:
448,192,271728,1,2,0:0:0:0:
320,192,271728,1,2,0:0:0:0:
192,192,271811,1,2,0:0:0:0:
448,192,271894,1,2,0:0:0:0:
320,192,271978,1,2,0:0:0:0:
192,192,272061,1,2,0:0:0:0:
448,192,272061,1,2,0:0:0:0:
320,192,272144,1,2,0:0:0:0:
448,192,272228,1,2,0:0:0:0:
192,192,272311,1,2,0:0:0:0:
448,192,272394,128,2,272894:0:0:0:0:
320,192,272394,1,2,0:0:0:0:
64,192,272478,1,2,0:0:0:0:
192,192,272561,1,2,0:0:0:0:
64,192,272644,1,2,0:0:0:0:
320,192,272728,1,2,0:0:0:0:
192,192,272728,1,2,0:0:0:0:
320,192,272811,1,2,0:0:0:0:
64,192,272894,128,2,273228:0:0:0:0:
192,192,272894,1,2,0:0:0:0:
448,192,272978,1,2,0:0:0:0:
320,192,273061,1,2,0:0:0:0:
192,192,273144,1,2,0:0:0:0:
320,192,273228,128,2,273561:0:0:0:0:
448,192,273228,1,2,0:0:0:0:
192,192,273311,1,2,0:0:0:0:
64,192,273394,1,2,0:0:0:0:
448,192,273394,1,2,0:0:0:0:
192,192,273478,1,2,0:0:0:0:
448,192,273561,1,2,0:0:0:0:
192,192,273644,1,2,0:0:0:0:
320,192,273728,128,2,274228:0:0:0:0:
64,192,273728,1,2,0:0:0:0:
448,192,273811,1,2,0:0:0:0:
192,192,273894,1,2,0:0:0:0:
64,192,273978,1,2,0:0:0:0:
192,192,274061,1,2,0:0:0:0:
448,192,274061,1,2,0:0:0:0:
64,192,274144,1,2,0:0:0:0:
448,192,274228,1,2,0:0:0:0:
192,192,274228,128,2,274561:0:0:0:0:
64,192,274311,1,2,0:0:0:0:
448,192,274394,1,2,0:0:0:0:
320,192,274394,1,2,0:0:0:0:
64,192,274478,1,2,0:0:0:0:
448,192,274561,128,2,274894:0:0:0:0:
320,192,274561,1,2,0:0:0:0:
64,192,274644,1,2,0:0:0:0:
192,192,274728,1,2,0:0:0:0:
320,192,274811,1,2,0:0:0:0:
192,192,274894,1,2,0:0:0:0:
64,192,274894,1,2,0:0:0:0:
320,192,274978,1,2,0:0:0:0:
448,192,275061,128,2,275561:0:0:0:0:
64,192,275061,1,2,0:0:0:0:
192,192,275144,1,2,0:0:0:0:
320,192,275228,1,2,0:0:0:0:
64,192,275311,1,2,0:0:0:0:
192,192,275394,1,2,0:0:0:0:
320,192,275394,1,2,0:0:0:0:
64,192,275478,1,2,0:0:0:0:
192,192,275561,1,2,0:0:0:0:
320,192,275561,128,2,275894:0:0:0:0:
64,192,275644,1,2,0:0:0:0:
192,192,275728,1,2,0:0:0:0:
448,192,275811,1,2,0:0:0:0:
64,192,275894,128,2,276228:0:0:0:0:
192,192,275894,1,2,0:0:0:0:
320,192,275978,1,2,0:0:0:0:
448,192,276061,1,2,0:0:0:0:
320,192,276144,1,2,0:0:0:0:
192,192,276228,128,2,276394:0:0:0:0:
448,192,276228,1,2,0:0:0:0:
320,192,276311,1,2,0:0:0:0:
64,192,276394,1,2,0:0:0:0:
448,192,276394,128,2,276894:0:0:0:0:
320,192,276478,1,2,0:0:0:0:
64,192,276561,1,2,0:0:0:0:
320,192,276644,1,2,0:0:0:0:
64,192,276728,1,2,0:0:0:0:
192,192,276811,1,2,0:0:0:0:
192,192,276894,128,2,277228:0:0:0:0:
320,192,276894,1,2,0:0:0:0:
64,192,276978,1,2,0:0:0:0:
320,192,277061,1,2,0:0:0:0:
448,192,277144,1,2,0:0:0:0:
320,192,277228,1,2,0:0:0:0:
64,192,277228,128,2,277561:0:0:0:0:
448,192,277311,1,2,0:0:0:0:
192,192,277394,1,2,0:0:0:0:
320,192,277478,1,2,0:0:0:0:
192,192,277561,128,2,277728:0:0:0:0:
448,192,277561,1,2,0:0:0:0:
320,192,277644,1,2,0:0:0:0:
64,192,277728,1,2,0:0:0:0:
448,192,277728,1,2,0:0:0:0:
192,192,277811,1,2,0:0:0:0:
320,192,277811,1,2,0:0:0:0:
448,192,277894,1,2,0:0:0:0:
64,192,277978,1,2,0:0:0:0:
192,192,277978,1,2,0:0:0:0:
320,192,278061,1,2,0:0:0:0:
448,192,278061,1,2,0:0:0:0:
64,192,278144,1,2,0:0:0:0:
192,192,278228,1,2,0:0:0:0:
320,192,278228,1,2,0:0:0:0:
448,192,278311,1,2,0:0:0:0:
64,192,278311,1,2,0:0:0:0:
320,192,278394,1,2,0:0:0:0:
192,192,278478,1,2,0:0:0:0:
64,192,278478,1,2,0:0:0:0:
448,192,278561,1,2,0:0:0:0:
320,192,278561,1,2,0:0:0:0:
192,192,278644,1,2,0:0:0:0:
448,192,278728,1,2,0:0:0:0:
320,192,278728,1,2,0:0:0:0:
64,192,278811,1,2,0:0:0:0:
192,192,278811,1,2,0:0:0:0:
320,192,278894,1,2,0:0:0:0:
320,192,278978,1,2,0:0:0:0:
448,192,278978,1,2,0:0:0:0:
192,192,279061,1,2,0:0:0:0:
64,192,279061,1,2,0:0:0:0:
320,192,279144,1,2,0:0:0:0:
192,192,279228,1,2,0:0:0:0:
64,192,279311,1,2,0:0:0:0:
448,192,279311,1,2,0:0:0:0:
192,192,279394,1,2,0:0:0:0:
320,192,279394,1,2,0:0:0:0:
448,192,279478,1,2,0:0:0:0:
64,192,279478,1,2,0:0:0:0:
192,192,279561,1,2,0:0:0:0:
320,192,279644,1,2,0:0:0:0:
448,192,279728,1,2,0:0:0:0:
64,192,279728,1,2,0:0:0:0:
320,192,279811,1,2,0:0:0:0:
192,192,279811,1,2,0:0:0:0:
64,192,279894,1,2,0:0:0:0:
192,192,279978,1,2,0:0:0:0:
448,192,279978,1,2,0:0:0:0:
320,192,280061,1,2,0:0:0:0:
64,192,280144,1,2,0:0:0:0:
448,192,280144,1,2,0:0:0:0:
192,192,280228,1,2,0:0:0:0:
448,192,280311,1,2,0:0:0:0:
64,192,280311,1,2,0:0:0:0:
320,192,280311,1,2,0:0:0:0:
192,192,280394,1,2,0:0:0:0:
320,192,280478,1,2,0:0:0:0:
64,192,280478,1,2,0:0:0:0:
192,192,280561,1,2,0:0:0:0:
320,192,280561,1,2,0:0:0:0:
448,192,280561,1,2,0:0:0:0:
64,192,280561,1,2,0:0:0:0:
192,192,280727,1,2,0:0:0:0:
64,192,280727,1,2,0:0:0:0:
320,192,280894,1,2,0:0:0:0:
448,192,280894,1,2,0:0:0:0:
192,192,280894,1,2,0:0:0:0:
192,192,281061,1,2,0:0:0:0:
64,192,281061,1,2,0:0:0:0:
448,192,281061,1,2,0:0:0:0:
320,192,281227,1,2,0:0:0:0:
64,192,281227,1,2,0:0:0:0:
448,192,281227,1,2,0:0:0:0:
192,192,281394,1,2,0:0:0:0:
448,192,281394,1,2,0:0:0:0:
320,192,281394,1,2,0:0:0:0:
448,192,281561,1,2,0:0:0:0:
192,192,281561,1,2,0:0:0:0:
64,192,281561,1,2,0:0:0:0:
192,192,281644,1,2,0:0:0:0:
448,192,281727,1,2,0:0:0:0:
320,192,281727,1,2,0:0:0:0:
64,192,281727,1,2,0:0:0:0:
320,192,281811,1,2,0:0:0:0:
192,192,281894,1,2,0:0:0:0:
448,192,281894,1,2,0:0:0:0:
64,192,281894,1,2,0:0:0:0:
320,192,282061,1,2,0:0:0:0:
192,192,282061,1,2,0:0:0:0:
64,192,282061,1,2,0:0:0:0:
448,192,282227,1,2,0:0:0:0:
320,192,282227,1,2,0:0:0:0:
64,192,282227,1,2,0:0:0:0:
448,192,282394,1,2,0:0:0:0:
192,192,282394,1,2,0:0:0:0:
64,192,282394,1,2,0:0:0:0:
192,192,282561,1,2,0:0:0:0:
320,192,282561,1,2,0:0:0:0:
64,192,282561,1,2,0:0:0:0:
448,192,282644,1,2,0:0:0:0:
192,192,282727,1,2,0:0:0:0:
64,192,282727,1,2,0:0:0:0:
448,192,282727,1,2,0:0:0:0:
320,192,282811,1,2,0:0:0:0:
320,192,282894,1,2,0:0:0:0:
64,192,282894,1,2,0:0:0:0:
448,192,282894,1,2,0:0:0:0:
192,192,282977,1,2,0:0:0:0:
448,192,283061,1,2,0:0:0:0:
192,192,283061,1,2,0:0:0:0:
64,192,283061,1,2,0:0:0:0:
448,192,283561,1,2,0:0:0:0:
64,192,283561,1,2,0:0:0:0:
320,192,283561,128,2,283728:0:0:0:0:
448,192,283727,1,2,0:0:0:0:
192,192,283727,1,2,0:0:0:0:
64,192,283727,1,2,0:0:0:0:
320,192,283894,1,2,0:0:0:0:
64,192,283894,1,2,0:0:0:0:
192,192,283894,128,2,284060:0:0:0:0:
64,192,284061,1,2,0:0:0:0:
448,192,284061,128,2,284228:0:0:0:0:
192,192,284227,1,2,0:0:0:0:
320,192,284227,1,2,0:0:0:0:
320,192,284311,1,2,0:0:0:0:
192,192,284394,1,2,0:0:0:0:
448,192,284394,1,2,0:0:0:0:
64,192,284394,1,2,0:0:0:0:
192,192,284477,1,2,0:0:0:0:
448,192,284561,1,2,0:0:0:0:
320,192,284561,1,2,0:0:0:0:
64,192,284561,1,2,0:0:0:0:
192,192,284727,1,2,0:0:0:0:
448,192,284727,1,2,0:0:0:0:
320,192,284727,1,2,0:0:0:0:
192,192,284894,1,2,0:0:0:0:
448,192,284894,1,2,0:0:0:0:
64,192,284894,128,2,285060:0:0:0:0:
320,192,285061,1,2,0:0:0:0:
192,192,285061,1,2,0:0:0:0:
192,192,285227,1,2,0:0:0:0:
448,192,285227,1,2,0:0:0:0:
64,192,285227,1,2,0:0:0:0:
448,192,285394,1,2,0:0:0:0:
192,192,285394,1,2,0:0:0:0:
320,192,285394,1,2,0:0:0:0:
64,192,285394,1,2,0:0:0:0:
448,192,285727,1,2,0:0:0:0:
192,192,285727,1,2,0:0:0:0:
320,192,285727,1,2,0:0:0:0:
64,192,285727,1,2,0:0:0:0:
192,192,285894,1,2,0:0:0:0:
64,192,285894,1,2,0:0:0:0:
320,192,285894,1,2,0:0:0:0:
448,192,286061,1,2,0:0:0:0:
320,192,286061,1,2,0:0:0:0:
64,192,286061,1,2,0:0:0:0:
192,192,286227,1,2,0:0:0:0:
320,192,286227,1,2,0:0:0:0:
448,192,286227,1,2,0:0:0:0:
192,192,286394,1,2,0:0:0:0:
320,192,286394,1,2,0:0:0:0:
448,192,286394,1,2,0:0:0:0:
192,192,286561,1,2,0:0:0:0:
448,192,286561,1,2,0:0:0:0:
64,192,286561,1,2,0:0:0:0:
192,192,286727,1,2,0:0:0:0:
320,192,286727,1,2,0:0:0:0:
64,192,286727,1,2,0:0:0:0:
448,192,286894,1,2,0:0:0:0:
64,192,286894,1,2,0:0:0:0:
192,192,286894,1,2,0:0:0:0:
192,192,286977,1,2,0:0:0:0:
448,192,286977,1,2,0:0:0:0:
320,192,287061,1,2,0:0:0:0:
64,192,287061,1,2,0:0:0:0:
320,192,287144,1,2,0:0:0:0:
64,192,287144,1,2,0:0:0:0:
448,192,287227,1,2,0:0:0:0:
192,192,287227,1,2,0:0:0:0:
64,192,287227,1,2,0:0:0:0:
320,192,287394,1,2,0:0:0:0:
192,192,287394,1,2,0:0:0:0:
448,192,287561,1,2,0:0:0:0:
320,192,287561,1,2,0:0:0:0:
64,192,287561,1,2,0:0:0:0:
320,192,287727,1,2,0:0:0:0:
192,192,287727,1,2,0:0:0:0:
448,192,287727,1,2,0:0:0:0:
448,192,287894,1,2,0:0:0:0:
320,192,287894,1,2,0:0:0:0:
64,192,287894,1,2,0:0:0:0:
320,192,287977,1,2,0:0:0:0:
448,192,288061,1,2,0:0:0:0:
192,192,288061,1,2,0:0:0:0:
64,192,288061,1,2,0:0:0:0:
192,192,288144,1,2,0:0:0:0:
64,192,288227,1,2,0:0:0:0:
320,192,288227,1,2,0:0:0:0:
448,192,288227,1,2,0:0:0:0:
64,192,288311,1,2,0:0:0:0:
448,192,288394,1,2,0:0:0:0:
192,192,288394,1,2,0:0:0:0:
320,192,288394,1,2,0:0:0:0:
64,192,288394,1,2,0:0:0:0:
192,192,288561,1,2,0:0:0:0:
64,192,288561,1,2,0:0:0:0:
448,192,288561,1,2,0:0:0:0:
192,192,288727,1,2,0:0:0:0:
320,192,288727,1,2,0:0:0:0:
64,192,288727,1,2,0:0:0:0:
448,192,288894,1,2,0:0:0:0:
192,192,288894,1,2,0:0:0:0:
320,192,288894,1,2,0:0:0:0:
192,192,289061,1,2,0:0:0:0:
64,192,289061,1,2,0:0:0:0:
448,192,289061,1,2,0:0:0:0:
320,192,289227,1,2,0:0:0:0:
64,192,289227,1,2,0:0:0:0:
448,192,289227,1,2,0:0:0:0:
320,192,289394,1,2,0:0:0:0:
192,192,289394,1,2,0:0:0:0:
448,192,289394,1,2,0:0:0:0:
192,192,289561,1,2,0:0:0:0:
448,192,289561,1,2,0:0:0:0:
64,192,289561,1,2,0:0:0:0:
192,192,289644,1,2,0:0:0:0:
320,192,289727,1,2,0:0:0:0:
64,192,289727,1,2,0:0:0:0:
448,192,289727,1,2,0:0:0:0:
192,192,289894,1,2,0:0:0:0:
448,192,289894,1,2,0:0:0:0:
320,192,289894,1,2,0:0:0:0:
64,192,289894,1,2,0:0:0:0:
64,192,290144,1,2,0:0:0:0:
448,192,290144,1,2,0:0:0:0:
320,192,290227,1,2,0:0:0:0:
192,192,290311,1,2,0:0:0:0:
448,192,290394,1,2,0:0:0:0:
320,192,290394,1,2,0:0:0:0:
64,192,290394,1,2,0:0:0:0:
64,192,290477,1,2,0:0:0:0:
320,192,290561,1,2,0:0:0:0:
448,192,290561,1,2,0:0:0:0:
192,192,290644,1,2,0:0:0:0:
64,192,290644,1,2,0:0:0:0:
320,192,290727,1,2,0:0:0:0:
448,192,290727,1,2,0:0:0:0:
192,192,290811,1,2,0:0:0:0:
64,192,290894,1,2,0:0:0:0:
320,192,290977,1,2,0:0:0:0:
448,192,290977,1,2,0:0:0:0:
192,192,291061,1,2,0:0:0:0:
320,192,291144,1,2,0:0:0:0:
192,192,291227,5,2,0:0:0:0:
448,192,291227,1,2,0:0:0:0:
320,192,291227,1,2,0:0:0:0:
64,192,291227,1,2,0:0:0:0:
64,192,291311,1,2,0:0:0:0:
320,192,291394,1,2,0:0:0:0:
192,192,291394,1,2,0:0:0:0:
64,192,291477,1,2,0:0:0:0:
192,192,291561,1,2,0:0:0:0:
448,192,291561,1,2,0:0:0:0:
320,192,291644,1,2,0:0:0:0:
448,192,291727,1,2,0:0:0:0:
192,192,291727,1,2,0:0:0:0:
64,192,291811,1,2,0:0:0:0:
448,192,291894,1,2,0:0:0:0:
192,192,291894,1,2,0:0:0:0:
320,192,291977,1,2,0:0:0:0:
448,192,292061,1,2,0:0:0:0:
192,192,292061,1,2,0:0:0:0:
64,192,292061,1,2,0:0:0:0:
320,192,292144,1,2,0:0:0:0:
192,192,292227,1,2,0:0:0:0:
448,192,292227,1,2,0:0:0:0:
64,192,292227,1,2,0:0:0:0:
320,192,292311,1,2,0:0:0:0:
448,192,292394,1,2,0:0:0:0:
192,192,292394,1,2,0:0:0:0:
320,192,292477,1,2,0:0:0:0:
64,192,292561,1,2,0:0:0:0:
448,192,292561,1,2,0:0:0:0:
192,192,292644,1,2,0:0:0:0:
320,192,292644,1,2,0:0:0:0:
64,192,292727,1,2,0:0:0:0:
192,192,292811,1,2,0:0:0:0:
448,192,292811,1,2,0:0:0:0:
320,192,292894,1,2,0:0:0:0:
64,192,292894,1,2,0:0:0:0:
192,192,292977,1,2,0:0:0:0:
320,192,293061,1,2,0:0:0:0:
64,192,293061,1,2,0:0:0:0:
448,192,293144,1,2,0:0:0:0:
320,192,293227,1,2,0:0:0:0:
64,192,293227,1,2,0:0:0:0:
192,192,293311,1,2,0:0:0:0:
448,192,293394,1,2,0:0:0:0:
320,192,293394,1,2,0:0:0:0:
64,192,293394,1,2,0:0:0:0:
192,192,293477,1,2,0:0:0:0:
320,192,293561,1,2,0:0:0:0:
64,192,293561,1,2,0:0:0:0:
192,192,293644,1,2,0:0:0:0:
320,192,293727,1,2,0:0:0:0:
64,192,293727,1,2,0:0:0:0:
448,192,293727,1,2,0:0:0:0:
192,192,293811,1,2,0:0:0:0:
64,192,293894,1,2,0:0:0:0:
320,192,293977,1,2,0:0:0:0:
192,192,294061,1,2,0:0:0:0:
448,192,294061,1,2,0:0:0:0:
320,192,294144,1,2,0:0:0:0:
64,192,294227,1,2,0:0:0:0:
448,192,294227,1,2,0:0:0:0:
192,192,294311,1,2,0:0:0:0:
320,192,294311,1,2,0:0:0:0:
64,192,294394,1,2,0:0:0:0:
192,192,294477,1,2,0:0:0:0:
320,192,294477,1,2,0:0:0:0:
64,192,294561,1,2,0:0:0:0:
192,192,294644,1,2,0:0:0:0:
320,192,294644,1,2,0:0:0:0:
448,192,294644,1,2,0:0:0:0:
64,192,294727,1,2,0:0:0:0:
192,192,294811,1,2,0:0:0:0:
320,192,294811,1,2,0:0:0:0:
448,192,294894,1,2,0:0:0:0:
192,192,294977,1,2,0:0:0:0:
320,192,294977,1,2,0:0:0:0:
64,192,294977,1,2,0:0:0:0:
448,192,295061,1,2,0:0:0:0:
64,192,295144,1,2,0:0:0:0:
448,192,295227,1,2,0:0:0:0:
192,192,295227,1,2,0:0:0:0:
320,192,295311,1,2,0:0:0:0:
192,192,295394,1,2,0:0:0:0:
64,192,295394,1,2,0:0:0:0:
448,192,295477,1,2,0:0:0:0:
320,192,295561,1,2,0:0:0:0:
192,192,295644,1,2,0:0:0:0:
64,192,295644,1,2,0:0:0:0:
320,192,295727,1,2,0:0:0:0:
448,192,295727,1,2,0:0:0:0:
192,192,295811,1,2,0:0:0:0:
64,192,295894,1,2,0:0:0:0:
448,192,295894,1,2,0:0:0:0:
320,192,295977,1,2,0:0:0:0:
192,192,296061,1,2,0:0:0:0:
64,192,296061,1,2,0:0:0:0:
320,192,296144,1,2,0:0:0:0:
64,192,296227,1,2,0:0:0:0:
192,192,296227,1,2,0:0:0:0:
448,192,296311,1,2,0:0:0:0:
192,192,296394,1,2,0:0:0:0:
64,192,296394,1,2,0:0:0:0:
320,192,296477,1,2,0:0:0:0:
64,192,296561,1,2,0:0:0:0:
448,192,296561,1,2,0:0:0:0:
192,192,296644,1,2,0:0:0:0:
320,192,296644,1,2,0:0:0:0:
64,192,296727,1,2,0:0:0:0:
448,192,296811,1,2,0:0:0:0:
320,192,296894,1,2,0:0:0:0:
64,192,296894,1,2,0:0:0:0:
448,192,296977,1,2,0:0:0:0:
320,192,297061,1,2,0:0:0:0:
192,192,297061,1,2,0:0:0:0:
64,192,297144,1,2,0:0:0:0:
448,192,297227,1,2,0:0:0:0:
64,192,297227,1,2,0:0:0:0:
320,192,297311,1,2,0:0:0:0:
448,192,297394,1,2,0:0:0:0:
192,192,297477,1,2,0:0:0:0:
64,192,297477,1,2,0:0:0:0:
320,192,297561,1,2,0:0:0:0:
448,192,297644,1,2,0:0:0:0:
192,192,297727,1,2,0:0:0:0:
64,192,297727,1,2,0:0:0:0:
320,192,297727,1,2,0:0:0:0:
448,192,297811,1,2,0:0:0:0:
320,192,297894,1,2,0:0:0:0:
64,192,297894,1,2,0:0:0:0:
448,192,297977,1,2,0:0:0:0:
320,192,297977,1,2,0:0:0:0:
192,192,298061,1,2,0:0:0:0:
64,192,298144,1,2,0:0:0:0:
448,192,298144,1,2,0:0:0:0:
320,192,298227,1,2,0:0:0:0:
192,192,298227,1,2,0:0:0:0:
64,192,298311,1,2,0:0:0:0:
448,192,298394,1,2,0:0:0:0:
320,192,298394,1,2,0:0:0:0:
192,192,298477,1,2,0:0:0:0:
320,192,298561,1,2,0:0:0:0:
448,192,298561,1,2,0:0:0:0:
64,192,298644,1,2,0:0:0:0:
192,192,298644,1,2,0:0:0:0:
320,192,298727,1,2,0:0:0:0:
64,192,298811,1,2,0:0:0:0:
448,192,298811,1,2,0:0:0:0:
192,192,298894,1,2,0:0:0:0:
64,192,298977,1,2,0:0:0:0:
320,192,298977,1,2,0:0:0:0:
448,192,298977,1,2,0:0:0:0:
192,192,299061,1,2,0:0:0:0:
64,192,299144,1,2,0:0:0:0:
448,192,299144,1,2,0:0:0:0:
320,192,299227,1,2,0:0:0:0:
192,192,299311,1,2,0:0:0:0:
448,192,299311,1,2,0:0:0:0:
64,192,299394,1,2,0:0:0:0:
192,192,299477,1,2,0:0:0:0:
320,192,299561,1,2,0:0:0:0:
448,192,299561,1,2,0:0:0:0:
192,192,299644,1,2,0:0:0:0:
320,192,299727,1,2,0:0:0:0:
64,192,299727,1,2,0:0:0:0:
192,192,299811,1,2,0:0:0:0:
448,192,299811,1,2,0:0:0:0:
64,192,299894,1,2,0:0:0:0:
192,192,299977,1,2,0:0:0:0:
448,192,299977,1,2,0:0:0:0:
320,192,300061,1,2,0:0:0:0:
64,192,300144,1,2,0:0:0:0:
448,192,300144,1,2,0:0:0:0:
192,192,300227,1,2,0:0:0:0:
320,192,300227,1,2,0:0:0:0:
448,192,300311,1,2,0:0:0:0:
64,192,300311,1,2,0:0:0:0:
192,192,300394,1,2,0:0:0:0:
320,192,300394,1,2,0:0:0:0:
64,192,300477,1,2,0:0:0:0:
448,192,300477,1,2,0:0:0:0:
320,192,300561,1,2,0:0:0:0:
192,192,300561,1,2,0:0:0:0:
448,192,300727,1,2,0:0:0:0:
320,192,300727,1,2,0:0:0:0:
64,192,300727,1,2,0:0:0:0:
448,192,300894,1,2,0:0:0:0:
192,192,300894,1,2,0:0:0:0:
64,192,300894,1,2,0:0:0:0:
448,192,301061,1,2,0:0:0:0:
192,192,301061,1,2,0:0:0:0:
320,192,301061,1,2,0:0:0:0:
64,192,301061,1,2,0:0:0:0:
64,192,301227,1,2,0:0:0:0:
448,192,301227,1,2,0:0:0:0:
320,192,301311,1,2,0:0:0:0:
192,192,301394,1,2,0:0:0:0:
448,192,301394,1,2,0:0:0:0:
64,192,301394,1,2,0:0:0:0:
320,192,301477,1,2,0:0:0:0:
192,192,301561,1,2,0:0:0:0:
320,192,301644,1,2,0:0:0:0:
64,192,301644,1,2,0:0:0:0:
448,192,301644,1,2,0:0:0:0:
192,192,301727,1,2,0:0:0:0:
448,192,301811,1,2,0:0:0:0:
64,192,301811,1,2,0:0:0:0:
64,192,301894,128,2,302228:0:0:0:0:
448,192,301894,128,2,302228:0:0:0:0:
192,192,301894,1,2,0:0:0:0:
192,192,302061,1,2,0:0:0:0:
320,192,302061,1,2,0:0:0:0:
192,192,302228,128,2,302561:0:0:0:0:
320,192,302228,1,2,0:0:0:0:
448,192,302311,1,2,0:0:0:0:
64,192,302394,1,2,0:0:0:0:
320,192,302394,1,2,0:0:0:0:
64,192,302561,128,2,302894:0:0:0:0:
448,192,302561,1,2,0:0:0:0:
320,192,302728,1,2,0:0:0:0:
448,192,302728,1,2,0:0:0:0:
320,192,302894,128,2,303228:0:0:0:0:
448,192,302894,1,2,0:0:0:0:
192,192,302978,1,2,0:0:0:0:
64,192,303061,1,2,0:0:0:0:
448,192,303061,1,2,0:0:0:0:
64,192,303228,1,2,0:0:0:0:
192,192,303311,1,2,0:0:0:0:
448,192,303311,1,2,0:0:0:0:
64,192,303394,1,2,0:0:0:0:
320,192,303478,1,2,0:0:0:0:
192,192,303478,1,2,0:0:0:0:
64,192,303561,1,2,0:0:0:0:
448,192,303561,1,2,0:0:0:0:
192,192,303644,1,2,0:0:0:0:
320,192,303644,1,2,0:0:0:0:
64,192,303728,1,2,0:0:0:0:
192,192,303811,1,2,0:0:0:0:
320,192,303811,1,2,0:0:0:0:
448,192,303894,1,2,0:0:0:0:
320,192,303978,1,2,0:0:0:0:
64,192,303978,1,2,0:0:0:0:
192,192,303978,1,2,0:0:0:0:
448,192,304061,1,2,0:0:0:0:
64,192,304144,1,2,0:0:0:0:
192,192,304144,1,2,0:0:0:0:
320,192,304144,1,2,0:0:0:0:
448,192,304228,1,2,0:0:0:0:
64,192,304311,1,2,0:0:0:0:
192,192,304311,1,2,0:0:0:0:
320,192,304394,1,2,0:0:0:0:
64,192,304478,1,2,0:0:0:0:
448,192,304478,1,2,0:0:0:0:
64,192,304561,128,2,304894:0:0:0:0:
320,192,304561,128,2,304894:0:0:0:0:
192,192,304561,1,2,0:0:0:0:
448,192,304561,1,2,0:0:0:0:
448,192,304728,1,2,0:0:0:0:
192,192,304728,1,2,0:0:0:0:
448,192,304894,1,2,0:0:0:0:
192,192,304894,128,2,305228:0:0:0:0:
320,192,305061,1,2,0:0:0:0:
448,192,305061,1,2,0:0:0:0:
64,192,305061,1,2,0:0:0:0:
320,192,305228,128,2,305561:0:0:0:0:
448,192,305228,1,2,0:0:0:0:
64,192,305394,1,2,0:0:0:0:
192,192,305394,1,2,0:0:0:0:
448,192,305394,1,2,0:0:0:0:
192,192,305561,128,2,305728:0:0:0:0:
64,192,305561,1,2,0:0:0:0:
64,192,305728,128,2,306228:0:0:0:0:
320,192,305728,128,2,306228:0:0:0:0:
448,192,305728,1,2,0:0:0:0:
192,192,305894,1,2,0:0:0:0:
192,192,306061,1,2,0:0:0:0:
448,192,306061,1,2,0:0:0:0:
192,192,306228,128,2,306561:0:0:0:0:
448,192,306228,128,2,306561:0:0:0:0:
320,192,306394,1,2,0:0:0:0:
64,192,306394,1,2,0:0:0:0:
320,192,306561,128,2,306894:0:0:0:0:
64,192,306561,1,2,0:0:0:0:
64,192,306728,1,2,0:0:0:0:
192,192,306728,1,2,0:0:0:0:
448,192,306728,1,2,0:0:0:0:
448,192,306894,128,2,306978:0:0:0:0:
192,192,306894,1,2,0:0:0:0:
64,192,307061,128,2,307561:0:0:0:0:
448,192,307061,128,2,307561:0:0:0:0:
192,192,307061,1,2,0:0:0:0:
320,192,307061,1,2,0:0:0:0:
192,192,307228,1,2,0:0:0:0:
320,192,307394,1,2,0:0:0:0:
192,192,307394,1,2,0:0:0:0:
192,192,307561,128,2,307894:0:0:0:0:
320,192,307561,1,2,0:0:0:0:
320,192,307728,1,2,0:0:0:0:
448,192,307728,1,2,0:0:0:0:
64,192,307728,1,2,0:0:0:0:
64,192,307894,128,2,308228:0:0:0:0:
320,192,307894,1,2,0:0:0:0:
192,192,308061,1,2,0:0:0:0:
448,192,308061,1,2,0:0:0:0:
320,192,308061,1,2,0:0:0:0:
320,192,308228,128,2,308394:0:0:0:0:
448,192,308228,1,2,0:0:0:0:
64,192,308311,1,2,0:0:0:0:
448,192,308394,128,2,308894:0:0:0:0:
64,192,308394,128,2,308894:0:0:0:0:
192,192,308394,1,2,0:0:0:0:
320,192,308561,1,2,0:0:0:0:
192,192,308728,1,2,0:0:0:0:
320,192,308728,1,2,0:0:0:0:
320,192,308894,128,2,309228:0:0:0:0:
192,192,308894,1,2,0:0:0:0:
64,192,308978,1,2,0:0:0:0:
192,192,309061,1,2,0:0:0:0:
448,192,309061,1,2,0:0:0:0:
64,192,309228,128,2,309561:0:0:0:0:
192,192,309228,1,2,0:0:0:0:
320,192,309394,1,2,0:0:0:0:
192,192,309394,1,2,0:0:0:0:
448,192,309394,1,2,0:0:0:0:
192,192,309561,1,2,0:0:0:0:
320,192,309561,128,2,309728:0:0:0:0:
64,192,309728,128,2,310228:0:0:0:0:
192,192,309728,1,2,0:0:0:0:
448,192,309728,1,2,0:0:0:0:
320,192,309894,1,2,0:0:0:0:
192,192,310061,1,2,0:0:0:0:
320,192,310061,1,2,0:0:0:0:
448,192,310061,1,2,0:0:0:0:
192,192,310228,128,2,310561:0:0:0:0:
320,192,310228,1,2,0:0:0:0:
448,192,310311,1,2,0:0:0:0:
320,192,310394,1,2,0:0:0:0:
64,192,310394,1,2,0:0:0:0:
320,192,310561,128,2,310894:0:0:0:0:
64,192,310561,1,2,0:0:0:0:
192,192,310728,1,2,0:0:0:0:
64,192,310728,1,2,0:0:0:0:
448,192,310728,1,2,0:0:0:0:
448,192,310894,128,2,311061:0:0:0:0:
64,192,310894,1,2,0:0:0:0:
192,192,310978,1,2,0:0:0:0:
64,192,311061,1,2,0:0:0:0:
192,192,311061,1,2,0:0:0:0:
320,192,311061,1,2,0:0:0:0:
64,192,311228,1,2,0:0:0:0:
192,192,311228,1,2,0:0:0:0:
320,192,311228,1,2,0:0:0:0:
448,192,311228,1,2,0:0:0:0:
320,192,311311,1,2,0:0:0:0:
192,192,311394,1,2,0:0:0:0:
64,192,311394,1,2,0:0:0:0:
320,192,311478,1,2,0:0:0:0:
448,192,311561,1,2,0:0:0:0:
64,192,311561,1,2,0:0:0:0:
192,192,311561,1,2,0:0:0:0:
320,192,311644,1,2,0:0:0:0:
64,192,311728,1,2,0:0:0:0:
192,192,311728,1,2,0:0:0:0:
448,192,311811,1,2,0:0:0:0:
320,192,311894,1,2,0:0:0:0:
64,192,311894,1,2,0:0:0:0:
192,192,311978,1,2,0:0:0:0:
64,192,312061,1,2,0:0:0:0:
320,192,312061,1,2,0:0:0:0:
448,192,312061,1,2,0:0:0:0:
192,192,312144,1,2,0:0:0:0:
320,192,312228,1,2,0:0:0:0:
448,192,312228,1,2,0:0:0:0:
64,192,312228,1,2,0:0:0:0:
192,192,312311,1,2,0:0:0:0:
448,192,312394,1,2,0:0:0:0:
64,192,312394,1,2,0:0:0:0:
192,192,312478,1,2,0:0:0:0:
320,192,312478,1,2,0:0:0:0:
448,192,312561,128,2,312894:0:0:0:0:
64,192,312561,128,2,312894:0:0:0:0:
192,192,312561,1,2,0:0:0:0:
192,192,312728,1,2,0:0:0:0:
320,192,312728,1,2,0:0:0:0:
192,192,312894,128,2,313228:0:0:0:0:
320,192,312894,1,2,0:0:0:0:
64,192,312978,1,2,0:0:0:0:
448,192,313061,1,2,0:0:0:0:
320,192,313061,1,2,0:0:0:0:
448,192,313228,128,2,313561:0:0:0:0:
64,192,313228,1,2,0:0:0:0:
320,192,313394,1,2,0:0:0:0:
64,192,313394,1,2,0:0:0:0:
320,192,313561,128,2,313894:0:0:0:0:
64,192,313561,1,2,0:0:0:0:
192,192,313644,1,2,0:0:0:0:
448,192,313728,1,2,0:0:0:0:
64,192,313728,1,2,0:0:0:0:
448,192,313894,1,2,0:0:0:0:
192,192,313978,1,2,0:0:0:0:
64,192,313978,1,2,0:0:0:0:
448,192,314061,1,2,0:0:0:0:
320,192,314144,1,2,0:0:0:0:
192,192,314144,1,2,0:0:0:0:
448,192,314228,1,2,0:0:0:0:
64,192,314228,1,2,0:0:0:0:
192,192,314311,1,2,0:0:0:0:
320,192,314311,1,2,0:0:0:0:
448,192,314394,1,2,0:0:0:0:
192,192,314478,1,2,0:0:0:0:
320,192,314478,1,2,0:0:0:0:
64,192,314561,1,2,0:0:0:0:
320,192,314644,1,2,0:0:0:0:
448,192,314644,1,2,0:0:0:0:
192,192,314644,1,2,0:0:0:0:
64,192,314728,1,2,0:0:0:0:
448,192,314811,1,2,0:0:0:0:
192,192,314811,1,2,0:0:0:0:
320,192,314811,1,2,0:0:0:0:
64,192,314894,1,2,0:0:0:0:
448,192,314978,1,2,0:0:0:0:
192,192,314978,1,2,0:0:0:0:
320,192,315061,1,2,0:0:0:0:
448,192,315144,1,2,0:0:0:0:
64,192,315144,1,2,0:0:0:0:
448,192,315228,128,2,315561:0:0:0:0:
320,192,315228,128,2,315561:0:0:0:0:
192,192,315228,1,2,0:0:0:0:
64,192,315228,1,2,0:0:0:0:
64,192,315394,1,2,0:0:0:0:
192,192,315394,1,2,0:0:0:0:
64,192,315561,1,2,0:0:0:0:
192,192,315561,128,2,315894:0:0:0:0:
320,192,315728,1,2,0:0:0:0:
64,192,315728,1,2,0:0:0:0:
448,192,315728,1,2,0:0:0:0:
320,192,315894,128,2,316228:0:0:0:0:
64,192,315894,1,2,0:0:0:0:
448,192,316061,1,2,0:0:0:0:
192,192,316061,1,2,0:0:0:0:
64,192,316061,1,2,0:0:0:0:
192,192,316228,128,2,316394:0:0:0:0:
448,192,316228,1,2,0:0:0:0:
448,192,316394,128,2,316894:0:0:0:0:
320,192,316394,128,2,316894:0:0:0:0:
64,192,316394,1,2,0:0:0:0:
192,192,316561,1,2,0:0:0:0:
192,192,316728,1,2,0:0:0:0:
64,192,316728,1,2,0:0:0:0:
192,192,316894,128,2,317228:0:0:0:0:
64,192,316894,128,2,317228:0:0:0:0:
320,192,317061,1,2,0:0:0:0:
448,192,317061,1,2,0:0:0:0:
320,192,317228,128,2,317561:0:0:0:0:
448,192,317228,1,2,0:0:0:0:
448,192,317394,1,2,0:0:0:0:
192,192,317394,1,2,0:0:0:0:
64,192,317394,1,2,0:0:0:0:
64,192,317561,128,2,317644:0:0:0:0:
192,192,317561,1,2,0:0:0:0:
448,192,317728,128,2,318228:0:0:0:0:
64,192,317728,128,2,318228:0:0:0:0:
192,192,317728,1,2,0:0:0:0:
320,192,317728,1,2,0:0:0:0:
192,192,317894,1,2,0:0:0:0:
320,192,318061,1,2,0:0:0:0:
192,192,318061,1,2,0:0:0:0:
192,192,318228,128,2,318561:0:0:0:0:
320,192,318228,1,2,0:0:0:0:
320,192,318394,1,2,0:0:0:0:
64,192,318394,1,2,0:0:0:0:
448,192,318394,1,2,0:0:0:0:
448,192,318561,128,2,318894:0:0:0:0:
320,192,318561,1,2,0:0:0:0:
192,192,318728,1,2,0:0:0:0:
64,192,318728,1,2,0:0:0:0:
320,192,318728,1,2,0:0:0:0:
320,192,318894,128,2,319061:0:0:0:0:
64,192,318894,1,2,0:0:0:0:
448,192,318978,1,2,0:0:0:0:
64,192,319061,128,2,319561:0:0:0:0:
448,192,319061,128,2,319561:0:0:0:0:
192,192,319061,1,2,0:0:0:0:
320,192,319228,1,2,0:0:0:0:
192,192,319394,1,2,0:0:0:0:
320,192,319394,1,2,0:0:0:0:
320,192,319561,128,2,319894:0:0:0:0:
192,192,319561,1,2,0:0:0:0:
448,192,319644,1,2,0:0:0:0:
192,192,319728,1,2,0:0:0:0:
64,192,319728,1,2,0:0:0:0:
448,192,319894,128,2,320228:0:0:0:0:
192,192,319894,1,2,0:0:0:0:
320,192,320061,1,2,0:0:0:0:
192,192,320061,1,2,0:0:0:0:
64,192,320061,1,2,0:0:0:0:
192,192,320228,1,2,0:0:0:0:
320,192,320228,1,2,0:0:0:0:
192,192,320394,1,2,0:0:0:0:
64,192,320394,1,2,0:0:0:0:
448,192,320394,1,2,0:0:0:0:
320,192,320394,1,2,0:0:0:0:
64,192,320561,1,2,0:0:0:0:
448,192,320561,1,2,0:0:0:0:
192,192,320561,1,2,0:0:0:0:
320,192,320644,1,2,0:0:0:0:
192,192,320728,1,2,0:0:0:0:
64,192,320811,1,2,0:0:0:0:
448,192,320811,1,2,0:0:0:0:
320,192,320894,1,2,0:0:0:0:
192,192,320978,1,2,0:0:0:0:
64,192,321061,1,2,0:0:0:0:
320,192,321061,1,2,0:0:0:0:
192,192,321144,1,2,0:0:0:0:
448,192,321228,1,2,0:0:0:0:
64,192,321228,1,2,0:0:0:0:
320,192,321311,1,2,0:0:0:0:
64,192,321394,1,2,0:0:0:0:
448,192,321394,1,2,0:0:0:0:
192,192,321478,1,2,0:0:0:0:
320,192,321561,1,2,0:0:0:0:
448,192,321561,1,2,0:0:0:0:
64,192,321644,1,2,0:0:0:0:
192,192,321644,1,2,0:0:0:0:
448,192,321728,1,2,0:0:0:0:
320,192,321728,1,2,0:0:0:0:
64,192,321811,1,2,0:0:0:0:
448,192,321894,1,2,0:0:0:0:
320,192,321894,1,2,0:0:0:0:
192,192,321978,1,2,0:0:0:0:
64,192,322061,1,2,0:0:0:0:
320,192,322061,1,2,0:0:0:0:
448,192,322144,1,2,0:0:0:0:
192,192,322144,1,2,0:0:0:0:
64,192,322228,1,2,0:0:0:0:
320,192,322311,1,2,0:0:0:0:
64,192,322394,1,2,0:0:0:0:
192,192,322394,1,2,0:0:0:0:
320,192,322478,1,2,0:0:0:0:
448,192,322478,1,2,0:0:0:0:
64,192,322561,1,2,0:0:0:0:
192,192,322561,1,2,0:0:0:0:
448,192,322644,1,2,0:0:0:0:
320,192,322644,1,2,0:0:0:0:
64,192,322728,1,2,0:0:0:0:
192,192,322728,1,2,0:0:0:0:
320,192,322811,1,2,0:0:0:0:
448,192,322811,1,2,0:0:0:0:
64,192,322894,1,2,0:0:0:0:
192,192,322894,1,2,0:0:0:0:
320,192,322978,1,2,0:0:0:0:
448,192,322978,1,2,0:0:0:0:
64,192,323061,1,2,0:0:0:0:
192,192,323061,1,2,0:0:0:0:
448,192,323227,5,2,0:0:0:0:
320,192,323227,1,2,0:0:0:0:
64,192,323228,1,2,0:0:0:0:
192,192,323228,1,2,0:0:0:0:
448,192,323311,1,2,0:0:0:0:
64,192,323311,1,2,0:0:0:0:
192,192,323311,1,2,0:0:0:0:
448,192,323394,1,2,0:0:0:0:
192,192,323394,1,2,0:0:0:0:
64,192,323394,1,2,0:0:0:0:
192,192,323478,1,2,0:0:0:0:
320,192,323478,1,2,0:0:0:0:
448,192,323478,1,2,0:0:0:0:
448,192,323561,1,2,0:0:0:0:
64,192,323561,1,2,0:0:0:0:
448,192,323644,1,2,0:0:0:0:
64,192,323644,1,2,0:0:0:0:
64,192,323728,1,2,0:0:0:0:
192,192,323728,1,2,0:0:0:0:
320,192,323728,1,2,0:0:0:0:
448,192,323728,1,2,0:0:0:0:
192,192,323894,1,2,0:0:0:0:
64,192,323978,1,2,0:0:0:0:
192,192,324061,1,2,0:0:0:0:
320,192,324061,1,2,0:0:0:0:
448,192,324061,128,2,324228:0:0:0:0:
192,192,324228,1,2,0:0:0:0:
320,192,324311,1,2,0:0:0:0:
64,192,324394,128,2,324561:0:0:0:0:
320,192,324394,128,2,324561:0:0:0:0:
192,192,324394,1,2,0:0:0:0:
448,192,324394,1,2,0:0:0:0:
192,192,324561,128,2,324728:0:0:0:0:
448,192,324561,128,2,324728:0:0:0:0:
64,192,324728,1,2,0:0:0:0:
320,192,324728,1,2,0:0:0:0:
320,192,324894,128,2,325061:0:0:0:0:
448,192,324894,128,2,325061:0:0:0:0:
64,192,324894,1,2,0:0:0:0:
192,192,325061,1,2,0:0:0:0:
64,192,325061,1,2,0:0:0:0:
64,192,325228,128,2,325394:0:0:0:0:
320,192,325228,128,2,325394:0:0:0:0:
448,192,325228,128,2,325394:0:0:0:0:
192,192,325228,1,2,0:0:0:0:
64,192,325561,128,2,325728:0:0:0:0:
192,192,325561,128,2,325728:0:0:0:0:
448,192,325561,128,2,325728:0:0:0:0:
320,192,325561,1,2,0:0:0:0:
64,192,325894,1,2,0:0:0:0:
320,192,325894,1,2,0:0:0:0:
448,192,325894,1,2,0:0:0:0:
64,192,325978,1,2,0:0:0:0:
320,192,325978,1,2,0:0:0:0:
448,192,325978,1,2,0:0:0:0:
320,192,326061,1,2,0:0:0:0:
448,192,326061,1,2,0:0:0:0:
64,192,326061,1,2,0:0:0:0:
448,192,326144,1,2,0:0:0:0:
192,192,326144,1,2,0:0:0:0:
64,192,326144,1,2,0:0:0:0:
192,192,326228,1,2,0:0:0:0:
448,192,326228,1,2,0:0:0:0:
64,192,326228,1,2,0:0:0:0:
448,192,326311,1,2,0:0:0:0:
64,192,326311,1,2,0:0:0:0:
192,192,326311,1,2,0:0:0:0:
64,192,326394,1,2,0:0:0:0:
448,192,326394,1,2,0:0:0:0:
192,192,326394,1,2,0:0:0:0:
320,192,326394,1,2,0:0:0:0:
320,192,326561,1,2,0:0:0:0:
448,192,326561,1,2,0:0:0:0:
64,192,326644,1,2,0:0:0:0:
192,192,326644,1,2,0:0:0:0:
320,192,326728,128,2,326894:0:0:0:0:
192,192,326728,1,2,0:0:0:0:
64,192,326728,1,2,0:0:0:0:
64,192,326894,1,2,0:0:0:0:
192,192,326894,1,2,0:0:0:0:
320,192,326978,1,2,0:0:0:0:
448,192,326978,1,2,0:0:0:0:
320,192,327061,1,2,0:0:0:0:
448,192,327061,1,2,0:0:0:0:
64,192,327061,128,2,327144:0:0:0:0:
320,192,327228,128,2,327394:0:0:0:0:
448,192,327228,128,2,327394:0:0:0:0:
192,192,327228,1,2,0:0:0:0:
64,192,327394,1,2,0:0:0:0:
192,192,327394,1,2,0:0:0:0:
320,192,327561,128,2,327728:0:0:0:0:
448,192,327561,128,2,327728:0:0:0:0:
64,192,327561,128,2,327728:0:0:0:0:
192,192,327561,1,2,0:0:0:0:
64,192,327894,1,2,0:0:0:0:
192,192,327894,1,2,0:0:0:0:
192,192,327978,1,2,0:0:0:0:
320,192,327978,1,2,0:0:0:0:
320,192,328061,1,2,0:0:0:0:
448,192,328061,1,2,0:0:0:0:
64,192,328144,1,2,0:0:0:0:
192,192,328144,1,2,0:0:0:0:
192,192,328228,1,2,0:0:0:0:
320,192,328228,1,2,0:0:0:0:
320,192,328311,1,2,0:0:0:0:
448,192,328311,1,2,0:0:0:0:
64,192,328394,1,2,0:0:0:0:
192,192,328394,1,2,0:0:0:0:
192,192,328478,1,2,0:0:0:0:
320,192,328478,1,2,0:0:0:0:
320,192,328561,1,2,0:0:0:0:
448,192,328561,1,2,0:0:0:0:
448,192,328644,1,2,0:0:0:0:
320,192,328644,1,2,0:0:0:0:
64,192,328728,1,2,0:0:0:0:
192,192,328728,1,2,0:0:0:0:
64,192,328811,1,2,0:0:0:0:
192,192,328811,1,2,0:0:0:0:
192,192,328894,1,2,0:0:0:0:
320,192,328894,1,2,0:0:0:0:
320,192,328978,1,2,0:0:0:0:
192,192,328978,1,2,0:0:0:0:
64,192,329061,1,2,0:0:0:0:
448,192,329061,1,2,0:0:0:0:
192,192,329061,1,2,0:0:0:0:
320,192,329061,1,2,0:0:0:0:
192,192,329228,1,2,0:0:0:0:
320,192,329228,1,2,0:0:0:0:
448,192,329311,1,2,0:0:0:0:
64,192,329311,1,2,0:0:0:0:
192,192,329394,128,2,329561:0:0:0:0:
320,192,329394,128,2,329561:0:0:0:0:
64,192,329561,1,2,0:0:0:0:
192,192,329644,1,2,0:0:0:0:
320,192,329728,128,2,329894:0:0:0:0:
448,192,329728,1,2,0:0:0:0:
64,192,329728,1,2,0:0:0:0:
64,192,329894,128,2,330061:0:0:0:0:
192,192,329894,1,2,0:0:0:0:
448,192,329894,128,2,330061:0:0:0:0:
192,192,330061,1,2,0:0:0:0:
320,192,330061,1,2,0:0:0:0:
192,192,330228,128,2,330394:0:0:0:0:
320,192,330228,128,2,330394:0:0:0:0:
64,192,330228,1,2,0:0:0:0:
448,192,330228,1,2,0:0:0:0:
448,192,330394,1,2,0:0:0:0:
64,192,330394,1,2,0:0:0:0:
320,192,330561,1,2,0:0:0:0:
448,192,330561,1,2,0:0:0:0:
64,192,330644,1,2,0:0:0:0:
192,192,330644,1,2,0:0:0:0:
448,192,330728,1,2,0:0:0:0:
320,192,330811,1,2,0:0:0:0:
192,192,330894,1,2,0:0:0:0:
448,192,330894,1,2,0:0:0:0:
64,192,330978,1,2,0:0:0:0:
320,192,330978,1,2,0:0:0:0:
192,192,331061,1,2,0:0:0:0:
448,192,331061,1,2,0:0:0:0:
320,192,331144,1,2,0:0:0:0:
192,192,331228,1,2,0:0:0:0:
448,192,331228,1,2,0:0:0:0:
64,192,331228,1,2,0:0:0:0:
320,192,331339,1,2,0:0:0:0:
192,192,331339,1,2,0:0:0:0:
448,192,331339,1,2,0:0:0:0:
64,192,331450,1,2,0:0:0:0:
320,192,331450,1,2,0:0:0:0:
448,192,331450,1,2,0:0:0:0:
192,192,331561,1,2,0:0:0:0:
448,192,331561,1,2,0:0:0:0:
320,192,331672,1,2,0:0:0:0:
64,192,331672,1,2,0:0:0:0:
64,192,331783,1,2,0:0:0:0:
320,192,331783,1,2,0:0:0:0:
192,192,331783,1,2,0:0:0:0:
448,192,331783,1,2,0:0:0:0:
192,192,331894,1,2,0:0:0:0:
64,192,332006,1,2,0:0:0:0:
192,192,332006,1,2,0:0:0:0:
320,192,332006,1,2,0:0:0:0:
448,192,332006,1,2,0:0:0:0:
320,192,332117,1,2,0:0:0:0:
192,192,332117,1,2,0:0:0:0:
448,192,332117,1,2,0:0:0:0:
64,192,332228,1,2,0:0:0:0:
192,192,332339,1,2,0:0:0:0:
448,192,332339,1,2,0:0:0:0:
320,192,332339,1,2,0:0:0:0:
64,192,332339,1,2,0:0:0:0:
64,192,332450,1,2,0:0:0:0:
320,192,332450,1,2,0:0:0:0:
64,192,332561,1,2,0:0:0:0:
192,192,332561,1,2,0:0:0:0:
320,192,332672,1,2,0:0:0:0:
192,192,332672,1,2,0:0:0:0:
320,192,332783,1,2,0:0:0:0:
448,192,332783,1,2,0:0:0:0:
64,192,332894,1,2,0:0:0:0:
192,192,332894,1,2,0:0:0:0:
192,192,333006,1,2,0:0:0:0:
320,192,333006,1,2,0:0:0:0:
320,192,333117,1,2,0:0:0:0:
448,192,333117,1,2,0:0:0:0:
320,192,333228,1,2,0:0:0:0:
448,192,333228,1,2,0:0:0:0:
192,192,333339,1,2,0:0:0:0:
320,192,333339,1,2,0:0:0:0:
64,192,333450,1,2,0:0:0:0:
192,192,333450,1,2,0:0:0:0:
320,192,333561,1,2,0:0:0:0:
448,192,333561,1,2,0:0:0:0:
192,192,333672,1,2,0:0:0:0:
320,192,333672,1,2,0:0:0:0:
64,192,333783,1,2,0:0:0:0:
192,192,333783,1,2,0:0:0:0:
320,192,333783,1,2,0:0:0:0:
448,192,333783,1,2,0:0:0:0:
