osu file format v14

[General]
AudioFilename: audio.ogg
AudioLeadIn: 0
PreviewTime: 63429
Countdown: 0
SampleSet: Soft
StackLeniency: 0.7
Mode: 3
LetterboxInBreaks: 0
SpecialStyle: 0
WidescreenStoryboard: 1

[Editor]
DistanceSpacing: 0.9
BeatDivisor: 2
GridSize: 8
TimelineZoom: 2.1

[Metadata]
Title:The Magician of Christmas
TitleUnicode:聖誕節的魔法師
Artist:DeluCat
ArtistUnicode:迪鹿
Creator:Xinhong1003
Version:Easy
Source:
Tags:迪鹿92 彩色學校 Colorful Academia Yuku Man original song chinese pop
BeatmapID:4357095
BeatmapSetID:2062147

[Difficulty]
HPDrainRate:6
CircleSize:4
OverallDifficulty:6
ApproachRate:5
SliderMultiplier:1.4
SliderTickRate:1

[Events]
//Background and Video events
0,0,"delu bg.jpg",0,0
//Break Periods
//Storyboard Layer 0 (Background)
//Storyboard Layer 1 (Fail)
//Storyboard Layer 2 (Pass)
//Storyboard Layer 3 (Foreground)
//Storyboard Layer 4 (Overlay)
//Storyboard Sound Samples

[TimingPoints]
70,479.999999999999,4,2,1,70,1,0
63429,-100,4,2,1,70,0,1
94149,-100,4,2,1,70,0,0
128709,-100,4,2,1,70,0,1
159429,-100,4,2,1,70,0,0

[HitObjects]
448,192,1989,5,0,0:0:0:0:
64,192,2469,1,0,0:0:0:0:
448,192,2949,1,0,0:0:0:0:
64,192,3429,1,0,0:0:0:0:
448,192,3909,1,0,0:0:0:0:
64,192,4389,1,0,0:0:0:0:
448,192,4869,1,0,0:0:0:0:
64,192,5349,1,0,0:0:0:0:
448,192,5829,1,0,0:0:0:0:
64,192,6309,1,0,0:0:0:0:
448,192,6789,1,0,0:0:0:0:
64,192,7269,1,0,0:0:0:0:
448,192,7749,1,0,0:0:0:0:
64,192,8229,1,0,0:0:0:0:
448,192,8709,1,0,0:0:0:0:
64,192,9189,1,0,0:0:0:0:
448,192,9669,1,0,0:0:0:0:
64,192,10149,1,0,0:0:0:0:
448,192,10629,1,0,0:0:0:0:
64,192,11109,1,0,0:0:0:0:
448,192,11589,1,0,0:0:0:0:
320,192,11829,1,0,0:0:0:0:
192,192,12069,1,0,0:0:0:0:
64,192,12309,1,0,0:0:0:0:
448,192,12549,1,0,0:0:0:0:
192,192,13029,128,0,13509:0:0:0:0:
320,192,13509,1,0,0:0:0:0:
448,192,13509,128,0,13989:0:0:0:0:
64,192,13989,1,0,0:0:0:0:
192,192,14229,1,0,0:0:0:0:
320,192,14709,1,0,0:0:0:0:
192,192,14949,1,0,0:0:0:0:
64,192,15189,1,0,0:0:0:0:
320,192,15429,128,0,15909:0:0:0:0:
448,192,15909,1,0,0:0:0:0:
192,192,16149,1,0,0:0:0:0:
448,192,16629,1,0,0:0:0:0:
64,192,16869,1,0,0:0:0:0:
320,192,17109,1,0,0:0:0:0:
192,192,17349,128,0,17829:0:0:0:0:
448,192,17349,1,0,0:0:0:0:
64,192,17829,1,0,0:0:0:0:
320,192,18069,1,0,0:0:0:0:
448,192,18549,1,0,0:0:0:0:
192,192,18789,1,0,0:0:0:0:
320,192,19029,1,0,0:0:0:0:
64,192,19269,128,0,19749:0:0:0:0:
448,192,19749,128,0,20229:0:0:0:0:
192,192,20229,1,0,0:0:0:0:
320,192,20469,1,0,0:0:0:0:
64,192,20709,1,0,0:0:0:0:
192,192,21189,1,0,0:0:0:0:
448,192,21189,128,0,21669:0:0:0:0:
320,192,21669,1,0,0:0:0:0:
64,192,21909,1,0,0:0:0:0:
192,192,22389,1,0,0:0:0:0:
448,192,22629,1,0,0:0:0:0:
64,192,22869,1,0,0:0:0:0:
320,192,23109,128,0,23589:0:0:0:0:
192,192,23589,128,0,24069:0:0:0:0:
448,192,24309,1,0,0:0:0:0:
64,192,24549,1,0,0:0:0:0:
320,192,24789,1,0,0:0:0:0:
192,192,25029,128,0,25509:0:0:0:0:
64,192,25029,1,0,0:0:0:0:
448,192,25509,1,0,0:0:0:0:
64,192,25749,1,0,0:0:0:0:
192,192,26229,1,0,0:0:0:0:
320,192,26469,1,0,0:0:0:0:
448,192,26709,1,0,0:0:0:0:
64,192,26949,128,0,27429:0:0:0:0:
448,192,27429,128,0,27909:0:0:0:0:
192,192,27909,1,0,0:0:0:0:
64,192,28149,1,0,0:0:0:0:
320,192,28389,1,0,0:0:0:0:
448,192,28869,1,0,0:0:0:0:
192,192,28869,1,0,0:0:0:0:
320,192,29349,1,0,0:0:0:0:
64,192,29589,1,0,0:0:0:0:
64,192,30069,1,0,0:0:0:0:
320,192,30309,1,0,0:0:0:0:
448,192,30549,1,0,0:0:0:0:
192,192,30789,1,0,0:0:0:0:
192,192,31269,1,0,0:0:0:0:
448,192,31509,1,0,0:0:0:0:
192,192,31989,1,0,0:0:0:0:
320,192,32229,1,0,0:0:0:0:
448,192,32469,1,0,0:0:0:0:
192,192,32709,1,0,0:0:0:0:
64,192,32709,1,0,0:0:0:0:
320,192,33189,1,0,0:0:0:0:
192,192,33429,1,0,0:0:0:0:
448,192,33669,128,0,34149:0:0:0:0:
64,192,34149,1,0,0:0:0:0:
320,192,34389,1,0,0:0:0:0:
192,192,34629,128,0,35109:0:0:0:0:
448,192,35109,1,0,0:0:0:0:
64,192,35349,128,0,35829:0:0:0:0:
320,192,36069,1,0,0:0:0:0:
192,192,36549,1,0,0:0:0:0:
448,192,36549,1,0,0:0:0:0:
64,192,37029,1,0,0:0:0:0:
320,192,37269,1,0,0:0:0:0:
192,192,37509,128,0,37989:0:0:0:0:
448,192,37989,128,0,38469:0:0:0:0:
64,192,38469,1,0,0:0:0:0:
320,192,38709,1,0,0:0:0:0:
192,192,38949,1,0,0:0:0:0:
448,192,39189,128,0,39669:0:0:0:0:
320,192,39909,1,0,0:0:0:0:
64,192,40389,1,0,0:0:0:0:
192,192,40389,1,0,0:0:0:0:
448,192,40869,128,0,41349:0:0:0:0:
64,192,41349,128,0,41829:0:0:0:0:
320,192,41829,128,0,42309:0:0:0:0:
192,192,42309,128,0,42789:0:0:0:0:
448,192,42789,1,0,0:0:0:0:
64,192,43029,128,0,43509:0:0:0:0:
320,192,43509,1,0,0:0:0:0:
192,192,43749,1,0,0:0:0:0:
448,192,44229,1,0,0:0:0:0:
64,192,44229,1,0,0:0:0:0:
320,192,44709,128,0,45189:0:0:0:0:
192,192,45189,128,0,45669:0:0:0:0:
448,192,45669,128,0,46149:0:0:0:0:
64,192,46149,1,0,0:0:0:0:
320,192,46389,1,0,0:0:0:0:
192,192,46629,1,0,0:0:0:0:
448,192,46869,128,0,47349:0:0:0:0:
320,192,47589,1,0,0:0:0:0:
64,192,48069,128,0,48549:0:0:0:0:
192,192,48069,1,0,0:0:0:0:
448,192,48549,128,0,49029:0:0:0:0:
192,192,49029,128,0,49509:0:0:0:0:
320,192,49509,128,0,49989:0:0:0:0:
64,192,49989,128,0,50469:0:0:0:0:
448,192,50469,128,0,50949:0:0:0:0:
192,192,50949,1,0,0:0:0:0:
320,192,51189,1,0,0:0:0:0:
64,192,51429,1,0,0:0:0:0:
192,192,51909,128,0,52389:0:0:0:0:
448,192,51909,1,0,0:0:0:0:
320,192,52389,1,0,0:0:0:0:
64,192,52629,1,0,0:0:0:0:
448,192,52869,1,0,0:0:0:0:
192,192,53109,1,0,0:0:0:0:
320,192,53349,1,0,0:0:0:0:
64,192,53829,128,0,54309:0:0:0:0:
448,192,54309,128,0,54789:0:0:0:0:
192,192,54789,1,0,0:0:0:0:
320,192,55029,1,0,0:0:0:0:
64,192,55269,1,0,0:0:0:0:
192,192,55749,1,0,0:0:0:0:
448,192,55749,128,0,56229:0:0:0:0:
320,192,56229,128,0,56709:0:0:0:0:
64,192,56709,128,0,57189:0:0:0:0:
192,192,57189,128,0,57669:0:0:0:0:
320,192,57669,128,0,58149:0:0:0:0:
448,192,58149,128,0,58629:0:0:0:0:
192,192,58629,1,0,0:0:0:0:
64,192,58869,1,0,0:0:0:0:
320,192,59109,1,0,0:0:0:0:
448,192,59589,1,0,0:0:0:0:
192,192,59589,128,0,60069:0:0:0:0:
320,192,60069,1,0,0:0:0:0:
448,192,60309,1,0,0:0:0:0:
64,192,60549,1,0,0:0:0:0:
320,192,60789,1,0,0:0:0:0:
192,192,61029,1,0,0:0:0:0:
448,192,61509,128,0,61989:0:0:0:0:
320,192,61989,128,0,62469:0:0:0:0:
64,192,62469,1,0,0:0:0:0:
192,192,62709,1,0,0:0:0:0:
448,192,62949,1,0,0:0:0:0:
64,192,63429,1,0,0:0:0:0:
320,192,63429,128,0,63909:0:0:0:0:
192,192,63909,1,0,0:0:0:0:
448,192,64149,128,0,64629:0:0:0:0:
64,192,64629,1,0,0:0:0:0:
192,192,64869,1,0,0:0:0:0:
320,192,65109,1,0,0:0:0:0:
448,192,65349,128,0,65829:0:0:0:0:
64,192,65829,128,0,66309:0:0:0:0:
320,192,66549,1,0,0:0:0:0:
192,192,66789,1,0,0:0:0:0:
448,192,67029,1,0,0:0:0:0:
320,192,67269,1,0,0:0:0:0:
64,192,67269,128,0,67749:0:0:0:0:
448,192,67749,1,0,0:0:0:0:
192,192,67989,1,0,0:0:0:0:
320,192,68229,128,0,68709:0:0:0:0:
64,192,68709,1,0,0:0:0:0:
448,192,69189,128,0,69669:0:0:0:0:
192,192,69669,128,0,70149:0:0:0:0:
320,192,70149,1,0,0:0:0:0:
64,192,70389,1,0,0:0:0:0:
448,192,70629,1,0,0:0:0:0:
320,192,71109,1,0,0:0:0:0:
192,192,71109,128,0,71589:0:0:0:0:
448,192,71589,1,0,0:0:0:0:
64,192,71829,128,0,72549:0:0:0:0:
320,192,72549,1,0,0:0:0:0:
192,192,73029,1,0,0:0:0:0:
64,192,73269,1,0,0:0:0:0:
448,192,73509,1,0,0:0:0:0:
320,192,73749,128,0,74229:0:0:0:0:
64,192,74229,1,0,0:0:0:0:
192,192,74469,1,0,0:0:0:0:
320,192,74949,1,0,0:0:0:0:
448,192,74949,128,0,75429:0:0:0:0:
64,192,75429,1,0,0:0:0:0:
192,192,75669,128,0,76389:0:0:0:0:
320,192,76389,1,0,0:0:0:0:
64,192,76869,1,0,0:0:0:0:
448,192,77109,1,0,0:0:0:0:
192,192,77349,1,0,0:0:0:0:
320,192,77589,128,0,78069:0:0:0:0:
192,192,78309,1,0,0:0:0:0:
64,192,78789,1,0,0:0:0:0:
448,192,78789,128,0,79269:0:0:0:0:
192,192,79269,1,0,0:0:0:0:
320,192,79509,128,0,79989:0:0:0:0:
64,192,79989,1,0,0:0:0:0:
448,192,80229,1,0,0:0:0:0:
192,192,80469,1,0,0:0:0:0:
320,192,80709,128,0,81189:0:0:0:0:
64,192,81189,128,0,81669:0:0:0:0:
448,192,81909,1,0,0:0:0:0:
320,192,82149,1,0,0:0:0:0:
192,192,82389,1,0,0:0:0:0:
448,192,82629,1,0,0:0:0:0:
64,192,82629,1,0,0:0:0:0:
320,192,83109,1,0,0:0:0:0:
192,192,83349,1,0,0:0:0:0:
448,192,83589,128,0,84069:0:0:0:0:
192,192,84069,1,0,0:0:0:0:
64,192,84549,128,0,85029:0:0:0:0:
320,192,85029,128,0,85509:0:0:0:0:
192,192,85509,1,0,0:0:0:0:
448,192,85749,1,0,0:0:0:0:
64,192,85989,1,0,0:0:0:0:
320,192,86469,128,0,86949:0:0:0:0:
448,192,86469,1,0,0:0:0:0:
192,192,86949,1,0,0:0:0:0:
448,192,87189,128,0,87909:0:0:0:0:
64,192,87909,1,0,0:0:0:0:
192,192,88389,1,0,0:0:0:0:
448,192,88629,1,0,0:0:0:0:
64,192,88869,1,0,0:0:0:0:
320,192,89109,128,0,89589:0:0:0:0:
192,192,89589,1,0,0:0:0:0:
64,192,89829,1,0,0:0:0:0:
320,192,90309,1,0,0:0:0:0:
448,192,90309,128,0,90789:0:0:0:0:
192,192,90789,1,0,0:0:0:0:
64,192,91029,128,0,91749:0:0:0:0:
320,192,91749,1,0,0:0:0:0:
192,192,92229,1,0,0:0:0:0:
448,192,92469,1,0,0:0:0:0:
64,192,92709,1,0,0:0:0:0:
320,192,92949,128,0,93669:0:0:0:0:
192,192,93669,1,0,0:0:0:0:
64,192,94149,1,0,0:0:0:0:
448,192,94149,1,0,0:0:0:0:
192,192,94629,1,0,0:0:0:0:
448,192,94869,1,0,0:0:0:0:
448,192,95349,1,0,0:0:0:0:
192,192,95589,1,0,0:0:0:0:
64,192,95829,1,0,0:0:0:0:
320,192,96069,1,0,0:0:0:0:
320,192,96549,1,0,0:0:0:0:
64,192,96789,1,0,0:0:0:0:
320,192,97269,1,0,0:0:0:0:
192,192,97509,1,0,0:0:0:0:
64,192,97749,1,0,0:0:0:0:
320,192,97989,1,0,0:0:0:0:
448,192,97989,1,0,0:0:0:0:
64,192,98469,1,0,0:0:0:0:
448,192,98709,1,0,0:0:0:0:
192,192,98949,128,0,99429:0:0:0:0:
320,192,99429,1,0,0:0:0:0:
64,192,99669,1,0,0:0:0:0:
448,192,99909,128,0,100389:0:0:0:0:
192,192,100389,1,0,0:0:0:0:
64,192,100629,128,0,101109:0:0:0:0:
320,192,101109,1,0,0:0:0:0:
448,192,101349,1,0,0:0:0:0:
192,192,101589,1,0,0:0:0:0:
64,192,101829,1,0,0:0:0:0:
320,192,101829,1,0,0:0:0:0:
448,192,102309,128,0,102789:0:0:0:0:
192,192,102789,1,0,0:0:0:0:
320,192,103269,128,0,103749:0:0:0:0:
64,192,103749,1,0,0:0:0:0:
448,192,103989,1,0,0:0:0:0:
192,192,104229,1,0,0:0:0:0:
320,192,104469,128,0,104949:0:0:0:0:
448,192,105189,1,0,0:0:0:0:
64,192,105669,1,0,0:0:0:0:
192,192,105669,1,0,0:0:0:0:
320,192,106149,128,0,106629:0:0:0:0:
192,192,106629,128,0,107109:0:0:0:0:
448,192,107109,128,0,107589:0:0:0:0:
64,192,107589,128,0,108069:0:0:0:0:
320,192,108069,1,0,0:0:0:0:
192,192,108309,128,0,108789:0:0:0:0:
448,192,108789,1,0,0:0:0:0:
320,192,109029,1,0,0:0:0:0:
192,192,109509,1,0,0:0:0:0:
64,192,109509,1,0,0:0:0:0:
448,192,109989,128,0,110469:0:0:0:0:
192,192,110469,128,0,110949:0:0:0:0:
320,192,110949,128,0,111429:0:0:0:0:
64,192,111429,1,0,0:0:0:0:
192,192,111669,1,0,0:0:0:0:
448,192,111909,1,0,0:0:0:0:
320,192,112149,128,0,112629:0:0:0:0:
64,192,112629,1,0,0:0:0:0:
192,192,112869,1,0,0:0:0:0:
448,192,113349,1,0,0:0:0:0:
64,192,113829,1,0,0:0:0:0:
320,192,114309,1,0,0:0:0:0:
192,192,114789,1,0,0:0:0:0:
448,192,115269,1,0,0:0:0:0:
64,192,115749,1,0,0:0:0:0:
320,192,116229,1,0,0:0:0:0:
192,192,116469,1,0,0:0:0:0:
448,192,116709,1,0,0:0:0:0:
64,192,117189,128,0,117669:0:0:0:0:
448,192,117669,1,0,0:0:0:0:
320,192,117909,1,0,0:0:0:0:
192,192,118149,1,0,0:0:0:0:
448,192,118389,1,0,0:0:0:0:
64,192,118629,1,0,0:0:0:0:
320,192,119109,128,0,119589:0:0:0:0:
64,192,119589,128,0,120069:0:0:0:0:
448,192,120069,1,0,0:0:0:0:
192,192,120309,1,0,0:0:0:0:
320,192,120549,1,0,0:0:0:0:
64,192,121029,1,0,0:0:0:0:
448,192,121509,1,0,0:0:0:0:
192,192,121989,1,0,0:0:0:0:
320,192,122469,1,0,0:0:0:0:
64,192,122949,1,0,0:0:0:0:
448,192,123429,1,0,0:0:0:0:
320,192,123909,1,0,0:0:0:0:
192,192,124149,1,0,0:0:0:0:
64,192,124389,1,0,0:0:0:0:
448,192,124869,128,0,125349:0:0:0:0:
192,192,125349,1,0,0:0:0:0:
320,192,125589,1,0,0:0:0:0:
64,192,125829,1,0,0:0:0:0:
448,192,126069,1,0,0:0:0:0:
192,192,126309,1,0,0:0:0:0:
64,192,126789,128,0,127269:0:0:0:0:
320,192,127269,128,0,127749:0:0:0:0:
448,192,127749,1,0,0:0:0:0:
192,192,127989,1,0,0:0:0:0:
64,192,128229,128,0,128709:0:0:0:0:
320,192,128709,1,0,0:0:0:0:
448,192,128709,128,0,129189:0:0:0:0:
192,192,129189,1,0,0:0:0:0:
320,192,129429,128,0,129909:0:0:0:0:
64,192,129909,1,0,0:0:0:0:
192,192,130149,1,0,0:0:0:0:
448,192,130389,1,0,0:0:0:0:
320,192,130629,128,0,131109:0:0:0:0:
64,192,131109,128,0,131589:0:0:0:0:
448,192,131829,1,0,0:0:0:0:
320,192,132069,1,0,0:0:0:0:
192,192,132309,1,0,0:0:0:0:
64,192,132549,128,0,133029:0:0:0:0:
448,192,132549,1,0,0:0:0:0:
320,192,133029,1,0,0:0:0:0:
192,192,133269,1,0,0:0:0:0:
448,192,133509,128,0,133989:0:0:0:0:
64,192,133989,1,0,0:0:0:0:
320,192,134469,128,0,134949:0:0:0:0:
192,192,134949,128,0,135429:0:0:0:0:
448,192,135429,1,0,0:0:0:0:
64,192,135669,1,0,0:0:0:0:
320,192,135909,1,0,0:0:0:0:
192,192,136389,128,0,136869:0:0:0:0:
64,192,136389,1,0,0:0:0:0:
448,192,136869,1,0,0:0:0:0:
320,192,137109,128,0,137829:0:0:0:0:
192,192,137829,1,0,0:0:0:0:
64,192,138309,1,0,0:0:0:0:
448,192,138549,1,0,0:0:0:0:
192,192,138789,1,0,0:0:0:0:
320,192,139029,128,0,139509:0:0:0:0:
64,192,139509,1,0,0:0:0:0:
448,192,139749,1,0,0:0:0:0:
192,192,140229,128,0,140709:0:0:0:0:
64,192,140229,1,0,0:0:0:0:
320,192,140709,1,0,0:0:0:0:
64,192,140949,128,0,141669:0:0:0:0:
448,192,141669,1,0,0:0:0:0:
320,192,142149,1,0,0:0:0:0:
64,192,142389,1,0,0:0:0:0:
448,192,142629,1,0,0:0:0:0:
192,192,142869,128,0,143349:0:0:0:0:
320,192,143589,1,0,0:0:0:0:
64,192,144069,1,0,0:0:0:0:
448,192,144069,128,0,144549:0:0:0:0:
320,192,144549,1,0,0:0:0:0:
192,192,144789,128,0,145269:0:0:0:0:
64,192,145269,1,0,0:0:0:0:
320,192,145509,1,0,0:0:0:0:
448,192,145749,1,0,0:0:0:0:
64,192,145989,128,0,146469:0:0:0:0:
320,192,146469,128,0,146949:0:0:0:0:
192,192,147189,1,0,0:0:0:0:
448,192,147429,1,0,0:0:0:0:
64,192,147669,1,0,0:0:0:0:
320,192,147909,128,0,148389:0:0:0:0:
448,192,147909,1,0,0:0:0:0:
192,192,148389,1,0,0:0:0:0:
64,192,148629,1,0,0:0:0:0:
448,192,148869,128,0,149349:0:0:0:0:
64,192,149349,1,0,0:0:0:0:
320,192,149829,128,0,150309:0:0:0:0:
192,192,150309,128,0,150789:0:0:0:0:
448,192,150789,1,0,0:0:0:0:
64,192,151029,1,0,0:0:0:0:
320,192,151269,1,0,0:0:0:0:
192,192,151749,128,0,152229:0:0:0:0:
64,192,151749,1,0,0:0:0:0:
448,192,152229,1,0,0:0:0:0:
320,192,152469,128,0,153189:0:0:0:0:
64,192,153189,1,0,0:0:0:0:
192,192,153669,1,0,0:0:0:0:
448,192,153909,1,0,0:0:0:0:
320,192,154149,1,0,0:0:0:0:
64,192,154389,128,0,154869:0:0:0:0:
192,192,154869,1,0,0:0:0:0:
448,192,155109,1,0,0:0:0:0:
320,192,155589,128,0,156069:0:0:0:0:
64,192,155589,1,0,0:0:0:0:
448,192,156069,1,0,0:0:0:0:
192,192,156309,128,0,157029:0:0:0:0:
320,192,157029,1,0,0:0:0:0:
64,192,157509,1,0,0:0:0:0:
192,192,157749,1,0,0:0:0:0:
320,192,157989,1,0,0:0:0:0:
448,192,158229,128,0,158949:0:0:0:0:
192,192,158949,1,0,0:0:0:0:
320,192,159429,128,0,159909:0:0:0:0:
64,192,159429,1,0,0:0:0:0:
192,192,159909,1,0,0:0:0:0:
448,192,160149,1,0,0:0:0:0:
320,192,160629,1,0,0:0:0:0:
64,192,160869,1,0,0:0:0:0:
448,192,161109,1,0,0:0:0:0:
192,192,161349,128,0,161829:0:0:0:0:
320,192,161829,1,0,0:0:0:0:
448,192,162069,1,0,0:0:0:0:
320,192,162549,1,0,0:0:0:0:
64,192,162789,1,0,0:0:0:0:
192,192,163029,1,0,0:0:0:0:
448,192,163269,128,0,163749:0:0:0:0:
320,192,163749,1,0,0:0:0:0:
64,192,163989,1,0,0:0:0:0:
448,192,164469,1,0,0:0:0:0:
320,192,164709,1,0,0:0:0:0:
192,192,164949,1,0,0:0:0:0:
64,192,165189,128,0,165669:0:0:0:0:
448,192,165669,128,0,166149:0:0:0:0:
192,192,166149,1,0,0:0:0:0:
320,192,166389,1,0,0:0:0:0:
64,192,166629,1,0,0:0:0:0:
192,192,167109,1,0,0:0:0:0:
320,192,167109,128,0,167589:0:0:0:0:
64,192,167589,1,0,0:0:0:0:
448,192,167829,1,0,0:0:0:0:
320,192,168309,1,0,0:0:0:0:
64,192,168549,1,0,0:0:0:0:
448,192,168789,1,0,0:0:0:0:
192,192,169029,128,0,169509:0:0:0:0:
320,192,169509,128,0,169989:0:0:0:0:
64,192,170229,1,0,0:0:0:0:
192,192,170469,1,0,0:0:0:0:
448,192,170709,1,0,0:0:0:0:
64,192,170949,128,0,171429:0:0:0:0:
192,192,171429,1,0,0:0:0:0:
448,192,171669,1,0,0:0:0:0:
64,192,172149,1,0,0:0:0:0:
192,192,172389,1,0,0:0:0:0:
320,192,172629,1,0,0:0:0:0:
448,192,172869,128,0,173349:0:0:0:0:
64,192,173349,128,0,173829:0:0:0:0:
320,192,173829,1,0,0:0:0:0:
192,192,174069,1,0,0:0:0:0:
448,192,174309,1,0,0:0:0:0:
320,192,174789,128,0,175269:0:0:0:0:
192,192,175269,1,0,0:0:0:0:
64,192,175509,128,0,176229:0:0:0:0:
448,192,176229,1,0,0:0:0:0:
320,192,176709,1,0,0:0:0:0:
64,192,176949,1,0,0:0:0:0:
448,192,177189,1,0,0:0:0:0:
192,192,177429,128,0,177909:0:0:0:0:
320,192,177909,1,0,0:0:0:0:
448,192,178149,1,0,0:0:0:0:
192,192,178629,128,0,179109:0:0:0:0:
320,192,179109,1,0,0:0:0:0:
448,192,179349,128,0,180069:0:0:0:0:
64,192,180069,1,0,0:0:0:0:
192,192,180549,1,0,0:0:0:0:
448,192,180789,1,0,0:0:0:0:
64,192,181029,1,0,0:0:0:0:
320,192,181269,128,0,181989:0:0:0:0:
64,192,182469,1,0,0:0:0:0:
192,192,182949,1,0,0:0:0:0:
320,192,183189,1,0,0:0:0:0:
448,192,183669,1,0,0:0:0:0:
320,192,183909,1,0,0:0:0:0:
192,192,184149,1,0,0:0:0:0:
64,192,184389,1,0,0:0:0:0:
192,192,184869,1,0,0:0:0:0:
320,192,185109,1,0,0:0:0:0:
448,192,185589,1,0,0:0:0:0:
64,192,185829,1,0,0:0:0:0:
192,192,186069,1,0,0:0:0:0:
448,192,186309,1,0,0:0:0:0:
320,192,186789,1,0,0:0:0:0:
192,192,187029,1,0,0:0:0:0:
64,192,187509,1,0,0:0:0:0:
192,192,187749,1,0,0:0:0:0:
320,192,187989,1,0,0:0:0:0:
448,192,188229,128,0,188709:0:0:0:0:
64,192,188709,128,0,189189:0:0:0:0:
320,192,189189,1,0,0:0:0:0:
192,192,189429,1,0,0:0:0:0:
448,192,189669,128,0,190629:0:0:0:0:
