osu file format v14

[General]
AudioFilename: audio.ogg
AudioLeadIn: 0
PreviewTime: 492344
Countdown: 0
SampleSet: Soft
StackLeniency: 0.7
Mode: 3
LetterboxInBreaks: 0
EpilepsyWarning: 1
SpecialStyle: 0
WidescreenStoryboard: 1

[Editor]
Bookmarks: 57029,75029,99029,123029,126029,150029,174029,186029,202191,219066,234066,249066,263277,284033,304790,326439,360321,377262,380056,402068,422594,444698,515285
DistanceSpacing: 0.5
BeatDivisor: 4
GridSize: 16
TimelineZoom: 2.4

[Metadata]
Title:Rite of Ascendancy
TitleUnicode:Rite of Ascendancy
Artist:DeltaH, Gardens, glasse, Musature, Myntian, Sad Keyboard Guy
ArtistUnicode:ΔH, Gardens, glasse, Musature, Myntian, Sad Keyboard Guy
Creator:FLeVI
Version:Ultimate Evolution // tyrcs' 7K
Source:
Tags:tyrcs RiceSS egmaforever lovely_hyahya etherea as the universe so the soul electronic instrumental artcore dnb d&b drum & bass drum'n'bass dubstep colorbass colourbass ambient extratone rawstyle orchestral marathon hybrid technical ln long notes
BeatmapID:3953704
BeatmapSetID:1908304

[Difficulty]
HPDrainRate:8
CircleSize:7
OverallDifficulty:7
ApproachRate:5
SliderMultiplier:1.4
SliderTickRate:1

[Events]
//Background and Video events
0,0,"z-4.jpg",0,0
//Break Periods
2,174369,178079
//Storyboard Layer 0 (Background)
//Storyboard Layer 1 (Fail)
//Storyboard Layer 2 (Pass)
//Storyboard Layer 3 (Foreground)
Sprite,Foreground,Centre,"sb\scene1\z-4-4_gray.jpg",320,240 S,0,3029,,0.4943357 F,0,3029,7528,0,1 F,0,55528,57028,1,0
Sprite,Foreground,CentreLeft,"sb\font\0052.png",140,120 S,0,3029,,0.5 C,0,3029,,185,185,185 F,6,3324,3524,0,1 F,7,8648,8848,1,0
Sprite,Foreground,CentreLeft,"sb\font\0069.png",161.5,120 S,0,3029,,0.5 C,0,3029,,220,220,220 F,6,3605,3805,0,1 F,7,8808,9008,1,0
Sprite,Foreground,CentreLeft,"sb\font\0074.png",167,120 S,0,3029,,0.5 C,0,3029,,245,245,245 F,6,3381,3581,0,1 F,7,8647,8847,1,0
Sprite,Foreground,CentreLeft,"sb\font\0065.png",182,120 S,0,3029,,0.5 C,0,3029,,229,229,229 F,6,3442,3642,0,1 F,7,8459,8659,1,0
Sprite,Foreground,CentreLeft,"sb\font\006f.png",211.5,120 S,0,3029,,0.5 C,0,3029,,204,204,204 F,6,3135,3335,0,1 F,7,8497,8697,1,0
Sprite,Foreground,CentreLeft,"sb\font\0066.png",230.5,120 S,0,3029,,0.5 C,0,3029,,240,240,240 F,6,3202,3402,0,1 F,7,8442,8642,1,0
Sprite,Foreground,CentreLeft,"sb\font\0041.png",257,120 S,0,3029,,0.5 C,0,3029,,211,211,211 F,6,3539,3739,0,1 F,7,8314,8514,1,0
Sprite,Foreground,CentreLeft,"sb\font\0073.png",281.5,120 S,0,3029,,0.5 C,0,3029,,217,217,217 F,6,3166,3366,0,1 F,7,8641,8841,1,0
Sprite,Foreground,CentreLeft,"sb\font\0063.png",301,120 S,0,3029,,0.5 C,0,3029,,202,202,202 F,6,3277,3477,0,1 F,7,8283,8483,1,0
Sprite,Foreground,CentreLeft,"sb\font\0065.png",319.5,120 S,0,3029,,0.5 C,0,3029,,204,204,204 F,6,3571,3771,0,1 F,7,8609,8809,1,0
Sprite,Foreground,CentreLeft,"sb\font\006e.png",339,120 S,0,3029,,0.5 C,0,3029,,231,231,231 F,6,3156,3356,0,1 F,7,8577,8777,1,0
Sprite,Foreground,CentreLeft,"sb\font\0064.png",358,120 S,0,3029,,0.5 C,0,3029,,236,236,236 F,6,3127,3327,0,1 F,7,8666,8866,1,0
Sprite,Foreground,CentreLeft,"sb\font\0061.png",377.5,120 S,0,3029,,0.5 C,0,3029,,225,225,225 F,6,3518,3718,0,1 F,7,8424,8624,1,0
Sprite,Foreground,CentreLeft,"sb\font\006e.png",396.5,120 S,0,3029,,0.5 C,0,3029,,210,210,210 F,6,3265,3465,0,1 F,7,8585,8785,1,0
Sprite,Foreground,CentreLeft,"sb\font\0063.png",415.5,120 S,0,3029,,0.5 C,0,3029,,189,189,189 F,6,3503,3703,0,1 F,7,8555,8755,1,0
Sprite,Foreground,CentreLeft,"sb\font\0079.png",434,120 S,0,3029,,0.5 C,0,3029,,246,246,246 F,6,3191,3391,0,1 F,7,8426,8626,1,0
Sprite,Foreground,CentreLeft,"sb\font\0042.png",190,50 S,0,9029,,0.5 C,0,9029,,253,253,253 F,6,9282,9482,0,1 F,7,18419,18619,1,0
Sprite,Foreground,CentreLeft,"sb\font\0079.png",212,50 S,0,9029,,0.5 C,0,9029,,231,231,231 F,6,9156,9356,0,1 F,7,18254,18454,1,0
Sprite,Foreground,CentreLeft,"sb\font\0044.png",241.5,50 S,0,9029,,0.5 C,0,9029,,226,226,226 F,6,9560,9760,0,1 F,7,18541,18741,1,0
Sprite,Foreground,CentreLeft,"sb\font\0065.png",263,50 S,0,9029,,0.5 C,0,9029,,238,238,238 F,6,9420,9620,0,1 F,7,18062,18262,1,0
Sprite,Foreground,CentreLeft,"sb\font\006c.png",282.5,50 S,0,9029,,0.5 C,0,9029,,195,195,195 F,6,9308,9508,0,1 F,7,18616,18816,1,0
Sprite,Foreground,CentreLeft,"sb\font\0074.png",288,50 S,0,9029,,0.5 C,0,9029,,253,253,253 F,6,9519,9719,0,1 F,7,18457,18657,1,0
Sprite,Foreground,CentreLeft,"sb\font\0061.png",303,50 S,0,9029,,0.5 C,0,9029,,246,246,246 F,6,9165,9365,0,1 F,7,18548,18748,1,0
Sprite,Foreground,CentreLeft,"sb\font\0048.png",322,50 S,0,9029,,0.5 C,0,9029,,211,211,211 F,6,9510,9710,0,1 F,7,18374,18574,1,0
Sprite,Foreground,CentreLeft,"sb\font\002c.png",344,50 S,0,9029,,0.5 C,0,9029,,252,252,252 F,6,9530,9730,0,1 F,7,18409,18609,1,0
Sprite,Foreground,CentreLeft,"sb\font\0047.png",362.5,50 S,0,9029,,0.5 C,0,9029,,218,218,218 F,6,9242,9442,0,1 F,7,18573,18773,1,0
Sprite,Foreground,CentreLeft,"sb\font\0061.png",385,50 S,0,9029,,0.5 C,0,9029,,212,212,212 F,6,9487,9687,0,1 F,7,18123,18323,1,0
Sprite,Foreground,CentreLeft,"sb\font\0072.png",404,50 S,0,9029,,0.5 C,0,9029,,218,218,218 F,6,9576,9776,0,1 F,7,18620,18820,1,0
Sprite,Foreground,CentreLeft,"sb\font\0064.png",418,50 S,0,9029,,0.5 C,0,9029,,233,233,233 F,6,9110,9310,0,1 F,7,18354,18554,1,0
Sprite,Foreground,CentreLeft,"sb\font\0065.png",437.5,50 S,0,9029,,0.5 C,0,9029,,200,200,200 F,6,9343,9543,0,1 F,7,18432,18632,1,0
Sprite,Foreground,CentreLeft,"sb\font\006e.png",457,50 S,0,9029,,0.5 C,0,9029,,234,234,234 F,6,9497,9697,0,1 F,7,18260,18460,1,0
Sprite,Foreground,CentreLeft,"sb\font\0073.png",476,50 S,0,9029,,0.5 C,0,9029,,204,204,204 F,6,9560,9760,0,1 F,7,18048,18248,1,0
Sprite,Foreground,CentreLeft,"sb\font\002c.png",495.5,50 S,0,9029,,0.5 C,0,9029,,196,196,196 F,6,9290,9490,0,1 F,7,18407,18607,1,0
Sprite,Foreground,CentreLeft,"sb\font\0067.png",514,50 S,0,9029,,0.5 C,0,9029,,168,168,168 F,6,9456,9656,0,1 F,7,18516,18716,1,0
Sprite,Foreground,CentreLeft,"sb\font\006c.png",533.5,50 S,0,9029,,0.5 C,0,9029,,217,217,217 F,6,9366,9566,0,1 F,7,18198,18398,1,0
Sprite,Foreground,CentreLeft,"sb\font\0061.png",539,50 S,0,9029,,0.5 C,0,9029,,230,230,230 F,6,9103,9303,0,1 F,7,18227,18427,1,0
Sprite,Foreground,CentreLeft,"sb\font\0073.png",558,50 S,0,9029,,0.5 C,0,9029,,188,188,188 F,6,9209,9409,0,1 F,7,18482,18682,1,0
Sprite,Foreground,CentreLeft,"sb\font\0073.png",577.5,50 S,0,9029,,0.5 C,0,9029,,199,199,199 F,6,9113,9313,0,1 F,7,18105,18305,1,0
Sprite,Foreground,CentreLeft,"sb\font\0065.png",597,50 S,0,9029,,0.5 C,0,9029,,190,190,190 F,6,9310,9510,0,1 F,7,18410,18610,1,0
Sprite,Foreground,CentreLeft,"sb\font\004d.png",50,90 S,0,9029,,0.5 C,0,9029,,252,252,252 F,6,9300,9500,0,1 F,7,18071,18271,1,0
Sprite,Foreground,CentreLeft,"sb\font\0075.png",78,90 S,0,9029,,0.5 C,0,9029,,233,233,233 F,6,9229,9429,0,1 F,7,18197,18397,1,0
Sprite,Foreground,CentreLeft,"sb\font\0073.png",97.5,90 S,0,9029,,0.5 C,0,9029,,204,204,204 F,6,9046,9246,0,1 F,7,18357,18557,1,0
Sprite,Foreground,CentreLeft,"sb\font\0061.png",117,90 S,0,9029,,0.5 C,0,9029,,208,208,208 F,6,9446,9646,0,1 F,7,18555,18755,1,0
Sprite,Foreground,CentreLeft,"sb\font\0074.png",136,90 S,0,9029,,0.5 C,0,9029,,192,192,192 F,6,9299,9499,0,1 F,7,18333,18533,1,0
Sprite,Foreground,CentreLeft,"sb\font\0075.png",151,90 S,0,9029,,0.5 C,0,9029,,211,211,211 F,6,9267,9467,0,1 F,7,18157,18357,1,0
Sprite,Foreground,CentreLeft,"sb\font\0072.png",170.5,90 S,0,9029,,0.5 C,0,9029,,195,195,195 F,6,9465,9665,0,1 F,7,18369,18569,1,0
Sprite,Foreground,CentreLeft,"sb\font\0065.png",184.5,90 S,0,9029,,0.5 C,0,9029,,205,205,205 F,6,9143,9343,0,1 F,7,18505,18705,1,0
Sprite,Foreground,CentreLeft,"sb\font\002c.png",204,90 S,0,9029,,0.5 C,0,9029,,181,181,181 F,6,9079,9279,0,1 F,7,18555,18755,1,0
Sprite,Foreground,CentreLeft,"sb\font\004d.png",222.5,90 S,0,9029,,0.5 C,0,9029,,219,219,219 F,6,9468,9668,0,1 F,7,18324,18524,1,0
Sprite,Foreground,CentreLeft,"sb\font\0079.png",250.5,90 S,0,9029,,0.5 C,0,9029,,243,243,243 F,6,9166,9366,0,1 F,7,18454,18654,1,0
Sprite,Foreground,CentreLeft,"sb\font\006e.png",270,90 S,0,9029,,0.5 C,0,9029,,237,237,237 F,6,9469,9669,0,1 F,7,18618,18818,1,0
Sprite,Foreground,CentreLeft,"sb\font\0074.png",289,90 S,0,9029,,0.5 C,0,9029,,196,196,196 F,6,9269,9469,0,1 F,7,18148,18348,1,0
Sprite,Foreground,CentreLeft,"sb\font\0069.png",304,90 S,0,9029,,0.5 C,0,9029,,251,251,251 F,6,9062,9262,0,1 F,7,18196,18396,1,0
Sprite,Foreground,CentreLeft,"sb\font\0061.png",309.5,90 S,0,9029,,0.5 C,0,9029,,194,194,194 F,6,9046,9246,0,1 F,7,18280,18480,1,0
Sprite,Foreground,CentreLeft,"sb\font\006e.png",328.5,90 S,0,9029,,0.5 C,0,9029,,239,239,239 F,6,9098,9298,0,1 F,7,18506,18706,1,0
Sprite,Foreground,CentreLeft,"sb\font\002c.png",347.5,90 S,0,9029,,0.5 C,0,9029,,201,201,201 F,6,9030,9230,0,1 F,7,18597,18797,1,0
Sprite,Foreground,CentreLeft,"sb\font\0053.png",366,90 S,0,9029,,0.5 C,0,9029,,241,241,241 F,6,9494,9694,0,1 F,7,18170,18370,1,0
Sprite,Foreground,CentreLeft,"sb\font\0061.png",387.5,90 S,0,9029,,0.5 C,0,9029,,251,251,251 F,6,9139,9339,0,1 F,7,18471,18671,1,0
Sprite,Foreground,CentreLeft,"sb\font\0064.png",406.5,90 S,0,9029,,0.5 C,0,9029,,232,232,232 F,6,9032,9232,0,1 F,7,18203,18403,1,0
Sprite,Foreground,CentreLeft,"sb\font\004b.png",436,90 S,0,9029,,0.5 C,0,9029,,235,235,235 F,6,9033,9233,0,1 F,7,18570,18770,1,0
Sprite,Foreground,CentreLeft,"sb\font\0065.png",456,90 S,0,9029,,0.5 C,0,9029,,254,254,254 F,6,9080,9280,0,1 F,7,18379,18579,1,0
Sprite,Foreground,CentreLeft,"sb\font\0079.png",475.5,90 S,0,9029,,0.5 C,0,9029,,241,241,241 F,6,9213,9413,0,1 F,7,18548,18748,1,0
Sprite,Foreground,CentreLeft,"sb\font\0062.png",495,90 S,0,9029,,0.5 C,0,9029,,201,201,201 F,6,9324,9524,0,1 F,7,18363,18563,1,0
Sprite,Foreground,CentreLeft,"sb\font\006f.png",514.5,90 S,0,9029,,0.5 C,0,9029,,208,208,208 F,6,9401,9601,0,1 F,7,18614,18814,1,0
Sprite,Foreground,CentreLeft,"sb\font\0061.png",533.5,90 S,0,9029,,0.5 C,0,9029,,237,237,237 F,6,9476,9676,0,1 F,7,18475,18675,1,0
Sprite,Foreground,CentreLeft,"sb\font\0072.png",552.5,90 S,0,9029,,0.5 C,0,9029,,189,189,189 F,6,9445,9645,0,1 F,7,18480,18680,1,0
Sprite,Foreground,CentreLeft,"sb\font\0064.png",566.5,90 S,0,9029,,0.5 C,0,9029,,197,197,197 F,6,9065,9265,0,1 F,7,18558,18758,1,0
Sprite,Foreground,CentreLeft,"sb\font\0047.png",596,90 S,0,9029,,0.5 C,0,9029,,235,235,235 F,6,9044,9244,0,1 F,7,18183,18383,1,0
Sprite,Foreground,CentreLeft,"sb\font\0075.png",618.5,90 S,0,9029,,0.5 C,0,9029,,189,189,189 F,6,9564,9764,0,1 F,7,18087,18287,1,0
Sprite,Foreground,CentreLeft,"sb\font\0079.png",638,90 S,0,9029,,0.5 C,0,9029,,213,213,213 F,6,9588,9788,0,1 F,7,18288,18488,1,0
Sprite,Foreground,CentreLeft,"sb\font\004d.png",250,90 S,0,19528,,0.5 C,0,19528,,247,247,247 F,6,19992,20192,0,1 F,7,26396,26596,1,0
Sprite,Foreground,CentreLeft,"sb\font\0061.png",278,90 S,0,19528,,0.5 C,0,19528,,225,225,225 F,6,19535,19735,0,1 F,7,26749,26949,1,0
Sprite,Foreground,CentreLeft,"sb\font\0070.png",297,90 S,0,19528,,0.5 C,0,19528,,187,187,187 F,6,19854,20054,0,1 F,7,26645,26845,1,0
Sprite,Foreground,CentreLeft,"sb\font\0070.png",316.5,90 S,0,19528,,0.5 C,0,19528,,189,189,189 F,6,19778,19978,0,1 F,7,26721,26921,1,0
Sprite,Foreground,CentreLeft,"sb\font\0065.png",336,90 S,0,19528,,0.5 C,0,19528,,205,205,205 F,6,20013,20213,0,1 F,7,26698,26898,1,0
Sprite,Foreground,CentreLeft,"sb\font\0064.png",355.5,90 S,0,19528,,0.5 C,0,19528,,207,207,207 F,6,19909,20109,0,1 F,7,26713,26913,1,0
Sprite,Foreground,CentreLeft,"sb\font\0062.png",385,90 S,0,19528,,0.5 C,0,19528,,198,198,198 F,6,20008,20208,0,1 F,7,26587,26787,1,0
Sprite,Foreground,CentreLeft,"sb\font\0079.png",404.5,90 S,0,19528,,0.5 C,0,19528,,217,217,217 F,6,20026,20226,0,1 F,7,26477,26677,1,0
Sprite,Foreground,CentreLeft,"sb\font\0074.png",434,90 S,0,19528,,0.5 C,0,19528,,196,196,196 F,6,19669,19869,0,1 F,7,26625,26825,1,0
Sprite,Foreground,CentreLeft,"sb\font\0079.png",449,90 S,0,19528,,0.5 C,0,19528,,216,216,216 F,6,19702,19902,0,1 F,7,26369,26569,1,0
Sprite,Foreground,CentreLeft,"sb\font\0072.png",468.5,90 S,0,19528,,0.5 C,0,19528,,201,201,201 F,6,20018,20218,0,1 F,7,26400,26600,1,0
Sprite,Foreground,CentreLeft,"sb\font\0063.png",482.5,90 S,0,19528,,0.5 C,0,19528,,212,212,212 F,6,19685,19885,0,1 F,7,26575,26775,1,0
Sprite,Foreground,CentreLeft,"sb\font\0073.png",501,90 S,0,19528,,0.5 C,0,19528,,183,183,183 F,6,20010,20210,0,1 F,7,26768,26968,1,0
Sprite,Foreground,CentreLeft,"sb\font\0053.png",250,90 S,0,27028,,0.5 C,0,27028,,193,193,193 F,6,27442,27642,0,1 F,7,33078,33278,1,0
Sprite,Foreground,CentreLeft,"sb\font\0074.png",271.5,90 S,0,27028,,0.5 C,0,27028,,185,185,185 F,6,27574,27774,0,1 F,7,33165,33365,1,0
Sprite,Foreground,CentreLeft,"sb\font\006f.png",286.5,90 S,0,27028,,0.5 C,0,27028,,212,212,212 F,6,27175,27375,0,1 F,7,33354,33554,1,0
Sprite,Foreground,CentreLeft,"sb\font\0072.png",305.5,90 S,0,27028,,0.5 C,0,27028,,198,198,198 F,6,27483,27683,0,1 F,7,33438,33638,1,0
Sprite,Foreground,CentreLeft,"sb\font\0079.png",319.5,90 S,0,27028,,0.5 C,0,27028,,243,243,243 F,6,27237,27437,0,1 F,7,33507,33707,1,0
Sprite,Foreground,CentreLeft,"sb\font\0062.png",339,90 S,0,27028,,0.5 C,0,27028,,231,231,231 F,6,27266,27466,0,1 F,7,33309,33509,1,0
Sprite,Foreground,CentreLeft,"sb\font\006f.png",358.5,90 S,0,27028,,0.5 C,0,27028,,209,209,209 F,6,27347,27547,0,1 F,7,33551,33751,1,0
Sprite,Foreground,CentreLeft,"sb\font\0061.png",377.5,90 S,0,27028,,0.5 C,0,27028,,194,194,194 F,6,27461,27661,0,1 F,7,33260,33460,1,0
Sprite,Foreground,CentreLeft,"sb\font\0072.png",396.5,90 S,0,27028,,0.5 C,0,27028,,173,173,173 F,6,27462,27662,0,1 F,7,33401,33601,1,0
Sprite,Foreground,CentreLeft,"sb\font\0064.png",410.5,90 S,0,27028,,0.5 C,0,27028,,186,186,186 F,6,27211,27411,0,1 F,7,33232,33432,1,0
Sprite,Foreground,CentreLeft,"sb\font\0062.png",440,90 S,0,27028,,0.5 C,0,27028,,180,180,180 F,6,27226,27426,0,1 F,7,33512,33712,1,0
Sprite,Foreground,CentreLeft,"sb\font\0079.png",459.5,90 S,0,27028,,0.5 C,0,27028,,205,205,205 F,6,27031,27231,0,1 F,7,33617,33817,1,0
Sprite,Foreground,CentreLeft,"sb\font\0052.png",489,90 S,0,27028,,0.5 C,0,27028,,220,220,220 F,6,27310,27510,0,1 F,7,33601,33801,1,0
Sprite,Foreground,CentreLeft,"sb\font\0069.png",510.5,90 S,0,27028,,0.5 C,0,27028,,171,171,171 F,6,27494,27694,0,1 F,7,33599,33799,1,0
Sprite,Foreground,CentreLeft,"sb\font\0063.png",516,90 S,0,27028,,0.5 C,0,27028,,188,188,188 F,6,27315,27515,0,1 F,7,33532,33732,1,0
Sprite,Foreground,CentreLeft,"sb\font\0065.png",534.5,90 S,0,27028,,0.5 C,0,27028,,179,179,179 F,6,27183,27383,0,1 F,7,33338,33538,1,0
Sprite,Foreground,CentreLeft,"sb\font\0053.png",554,90 S,0,27028,,0.5 C,0,27028,,243,243,243 F,6,27524,27724,0,1 F,7,33138,33338,1,0
Sprite,Foreground,CentreLeft,"sb\font\0053.png",575.5,90 S,0,27028,,0.5 C,0,27028,,187,187,187 F,6,27064,27264,0,1 F,7,33551,33751,1,0
Sprite,Foreground,CentreLeft,"sb\font\0053.png",180,90 S,0,34528,,0.5 C,0,34528,,176,176,176 F,6,34657,34857,0,1 F,7,39614,39814,1,0
Sprite,Foreground,CentreLeft,"sb\font\0070.png",201.5,90 S,0,34528,,0.5 C,0,34528,,224,224,224 F,6,34792,34992,0,1 F,7,39227,39427,1,0
Sprite,Foreground,CentreLeft,"sb\font\0065.png",221,90 S,0,34528,,0.5 C,0,34528,,220,220,220 F,6,34658,34858,0,1 F,7,39262,39462,1,0
Sprite,Foreground,CentreLeft,"sb\font\0063.png",240.5,90 S,0,34528,,0.5 C,0,34528,,235,235,235 F,6,34878,35078,0,1 F,7,39455,39655,1,0
Sprite,Foreground,CentreLeft,"sb\font\0069.png",259,90 S,0,34528,,0.5 C,0,34528,,238,238,238 F,6,35001,35201,0,1 F,7,39267,39467,1,0
Sprite,Foreground,CentreLeft,"sb\font\0061.png",264.5,90 S,0,34528,,0.5 C,0,34528,,211,211,211 F,6,35023,35223,0,1 F,7,39355,39555,1,0
Sprite,Foreground,CentreLeft,"sb\font\006c.png",283.5,90 S,0,34528,,0.5 C,0,34528,,239,239,239 F,6,34547,34747,0,1 F,7,39129,39329,1,0
Sprite,Foreground,CentreLeft,"sb\font\0054.png",299,90 S,0,34528,,0.5 C,0,34528,,241,241,241 F,6,34825,35025,0,1 F,7,39338,39538,1,0
Sprite,Foreground,CentreLeft,"sb\font\0068.png",318,90 S,0,34528,,0.5 C,0,34528,,223,223,223 F,6,34781,34981,0,1 F,7,39504,39704,1,0
Sprite,Foreground,CentreLeft,"sb\font\0061.png",338.5,90 S,0,34528,,0.5 C,0,34528,,238,238,238 F,6,34904,35104,0,1 F,7,39173,39373,1,0
Sprite,Foreground,CentreLeft,"sb\font\006e.png",357.5,90 S,0,34528,,0.5 C,0,34528,,183,183,183 F,6,34777,34977,0,1 F,7,39606,39806,1,0
Sprite,Foreground,CentreLeft,"sb\font\006b.png",376.5,90 S,0,34528,,0.5 C,0,34528,,243,243,243 F,6,34938,35138,0,1 F,7,39032,39232,1,0
Sprite,Foreground,CentreLeft,"sb\font\0073.png",397,90 S,0,34528,,0.5 C,0,34528,,189,189,189 F,6,35096,35296,0,1 F,7,39455,39655,1,0
Sprite,Foreground,CentreLeft,"sb\font\004c.png",426.5,90 S,0,34528,,0.5 C,0,34528,,229,229,229 F,6,34647,34847,0,1 F,7,39068,39268,1,0
Sprite,Foreground,CentreLeft,"sb\font\006f.png",446.5,90 S,0,34528,,0.5 C,0,34528,,231,231,231 F,6,34633,34833,0,1 F,7,39335,39535,1,0
Sprite,Foreground,CentreLeft,"sb\font\0076.png",465.5,90 S,0,34528,,0.5 C,0,34528,,197,197,197 F,6,35059,35259,0,1 F,7,39389,39589,1,0
Sprite,Foreground,CentreLeft,"sb\font\0065.png",485.5,90 S,0,34528,,0.5 C,0,34528,,234,234,234 F,6,35052,35252,0,1 F,7,39169,39369,1,0
Sprite,Foreground,CentreLeft,"sb\font\006c.png",505,90 S,0,34528,,0.5 C,0,34528,,239,239,239 F,6,35082,35282,0,1 F,7,39290,39490,1,0
Sprite,Foreground,CentreLeft,"sb\font\0079.png",510.5,90 S,0,34528,,0.5 C,0,34528,,222,222,222 F,6,34898,35098,0,1 F,7,39344,39544,1,0
Sprite,Foreground,CentreLeft,"sb\font\005f.png",530,90 S,0,34528,,0.5 C,0,34528,,245,245,245 F,6,34962,35162,0,1 F,7,39589,39789,1,0
Sprite,Foreground,CentreLeft,"sb\font\0068.png",549.5,90 S,0,34528,,0.5 C,0,34528,,186,186,186 F,6,35065,35265,0,1 F,7,39227,39427,1,0
Sprite,Foreground,CentreLeft,"sb\font\0079.png",570,90 S,0,34528,,0.5 C,0,34528,,236,236,236 F,6,34629,34829,0,1 F,7,39541,39741,1,0
Sprite,Foreground,CentreLeft,"sb\font\0061.png",589.5,90 S,0,34528,,0.5 C,0,34528,,206,206,206 F,6,34895,35095,0,1 F,7,39099,39299,1,0
Sprite,Foreground,CentreLeft,"sb\font\0068.png",608.5,90 S,0,34528,,0.5 C,0,34528,,183,183,183 F,6,34938,35138,0,1 F,7,39335,39535,1,0
Sprite,Foreground,CentreLeft,"sb\font\0079.png",629,90 S,0,34528,,0.5 C,0,34528,,241,241,241 F,6,35072,35272,0,1 F,7,39100,39300,1,0
Sprite,Foreground,CentreLeft,"sb\font\0061.png",648.5,90 S,0,34528,,0.5 C,0,34528,,206,206,206 F,6,34926,35126,0,1 F,7,39319,39519,1,0
Sprite,Foreground,CentreLeft,"sb\font\0061.png",180,90 S,0,40528,,0.5 C,0,40528,,219,219,219 F,6,40868,41068,0,1 F,7,56007,56207,1,0
Sprite,Foreground,CentreLeft,"sb\font\0073.png",199,90 S,0,40528,,0.5 C,0,40528,,232,232,232 F,6,40538,40738,0,1 F,7,55719,55919,1,0
Sprite,Foreground,CentreLeft,"sb\font\0074.png",228.5,90 S,0,40528,,0.5 C,0,40528,,188,188,188 F,6,40759,40959,0,1 F,7,55847,56047,1,0
Sprite,Foreground,CentreLeft,"sb\font\0068.png",243.5,90 S,0,40528,,0.5 C,0,40528,,221,221,221 F,6,40964,41164,0,1 F,7,55691,55891,1,0
Sprite,Foreground,CentreLeft,"sb\font\0065.png",264,90 S,0,40528,,0.5 C,0,40528,,177,177,177 F,6,41030,41230,0,1 F,7,56120,56320,1,0
Sprite,Foreground,CentreLeft,"sb\font\0075.png",293.5,90 S,0,40528,,0.5 C,0,40528,,240,240,240 F,6,41016,41216,0,1 F,7,55547,55747,1,0
Sprite,Foreground,CentreLeft,"sb\font\006e.png",313,90 S,0,40528,,0.5 C,0,40528,,178,178,178 F,6,40688,40888,0,1 F,7,55670,55870,1,0
Sprite,Foreground,CentreLeft,"sb\font\0069.png",332,90 S,0,40528,,0.5 C,0,40528,,220,220,220 F,6,41092,41292,0,1 F,7,55935,56135,1,0
Sprite,Foreground,CentreLeft,"sb\font\0076.png",337.5,90 S,0,40528,,0.5 C,0,40528,,210,210,210 F,6,40613,40813,0,1 F,7,55747,55947,1,0
Sprite,Foreground,CentreLeft,"sb\font\0065.png",357.5,90 S,0,40528,,0.5 C,0,40528,,209,209,209 F,6,41014,41214,0,1 F,7,55964,56164,1,0
Sprite,Foreground,CentreLeft,"sb\font\0072.png",377,90 S,0,40528,,0.5 C,0,40528,,202,202,202 F,6,40632,40832,0,1 F,7,55757,55957,1,0
Sprite,Foreground,CentreLeft,"sb\font\0073.png",391,90 S,0,40528,,0.5 C,0,40528,,184,184,184 F,6,40609,40809,0,1 F,7,55951,56151,1,0
Sprite,Foreground,CentreLeft,"sb\font\0065.png",410.5,90 S,0,40528,,0.5 C,0,40528,,229,229,229 F,6,40881,41081,0,1 F,7,56113,56313,1,0
Sprite,Foreground,CentreLeft,"sb\font\002c.png",430,90 S,0,40528,,0.5 C,0,40528,,229,229,229 F,6,40712,40912,0,1 F,7,55759,55959,1,0
Sprite,Foreground,CentreLeft,"sb\font\0073.png",448.5,90 S,0,40528,,0.5 C,0,40528,,216,216,216 F,6,41089,41289,0,1 F,7,56091,56291,1,0
Sprite,Foreground,CentreLeft,"sb\font\006f.png",468,90 S,0,40528,,0.5 C,0,40528,,238,238,238 F,6,40746,40946,0,1 F,7,55732,55932,1,0
Sprite,Foreground,CentreLeft,"sb\font\0074.png",497,90 S,0,40528,,0.5 C,0,40528,,233,233,233 F,6,40631,40831,0,1 F,7,56107,56307,1,0
Sprite,Foreground,CentreLeft,"sb\font\0068.png",512,90 S,0,40528,,0.5 C,0,40528,,206,206,206 F,6,40562,40762,0,1 F,7,55624,55824,1,0
Sprite,Foreground,CentreLeft,"sb\font\0065.png",532.5,90 S,0,40528,,0.5 C,0,40528,,190,190,190 F,6,40916,41116,0,1 F,7,56057,56257,1,0
Sprite,Foreground,CentreLeft,"sb\font\0073.png",562,90 S,0,40528,,0.5 C,0,40528,,209,209,209 F,6,40710,40910,0,1 F,7,55956,56156,1,0
Sprite,Foreground,CentreLeft,"sb\font\006f.png",581.5,90 S,0,40528,,0.5 C,0,40528,,216,216,216 F,6,40618,40818,0,1 F,7,55719,55919,1,0
Sprite,Foreground,CentreLeft,"sb\font\0075.png",600.5,90 S,0,40528,,0.5 C,0,40528,,252,252,252 F,6,40568,40768,0,1 F,7,55937,56137,1,0
Sprite,Foreground,CentreLeft,"sb\font\006c.png",620,90 S,0,40528,,0.5 C,0,40528,,237,237,237 F,6,40930,41130,0,1 F,7,55936,56136,1,0
Sprite,Foreground,Centre,"sb\common_eff\s\s0.png",0,0 L,19040,6 MX,0,0,6000,480,-200 MY,0,0,6000,412,115 F,0,19040,,0.2 S,0,19040,,0.5 F,0,55528,56828,0.2,0
Sprite,Foreground,Centre,"sb\common_eff\s\s6.png",0,0 L,19494,6 MX,0,0,6000,480,-200 MY,0,0,6000,302,226 F,0,19494,,0.2 S,0,19494,,0.5 F,0,55528,56828,0.2,0
Sprite,Foreground,Centre,"sb\common_eff\s\s5.png",0,0 L,22662,6 MX,0,0,6000,480,-200 MY,0,0,6000,476,103 F,0,22662,,0.2 S,0,22662,,0.5 F,0,55528,56828,0.2,0
Sprite,Foreground,Centre,"sb\common_eff\s\s4.png",0,0 L,19034,6 MX,0,0,6000,480,-200 MY,0,0,6000,407,163 F,0,19034,,0.2 S,0,19034,,0.5 F,0,55528,56828,0.2,0
Sprite,Foreground,Centre,"sb\common_eff\s\s3.png",0,0 L,21319,6 MX,0,0,6000,480,-200 MY,0,0,6000,365,219 F,0,21319,,0.2 S,0,21319,,0.5 F,0,55528,56828,0.2,0
Sprite,Foreground,Centre,"sb\common_eff\s\s1.png",0,0 L,19699,6 MX,0,0,6000,480,-200 MY,0,0,6000,469,139 F,0,19699,,0.2 S,0,19699,,0.5 F,0,55528,56828,0.2,0
Sprite,Foreground,Centre,"sb\common_eff\s\s4.png",0,0 L,23833,6 MX,0,0,6000,480,-200 MY,0,0,6000,390,296 F,0,23833,,0.2 S,0,23833,,0.5 F,0,55528,56828,0.2,0
Sprite,Foreground,Centre,"sb\common_eff\s\s0.png",0,0 L,22398,6 MX,0,0,6000,480,-200 MY,0,0,6000,365,245 F,0,22398,,0.2 S,0,22398,,0.5 F,0,55528,56828,0.2,0
Sprite,Foreground,Centre,"sb\common_eff\s\s1.png",0,0 L,22285,6 MX,0,0,6000,480,-200 MY,0,0,6000,307,293 F,0,22285,,0.2 S,0,22285,,0.5 F,0,55528,56828,0.2,0
Sprite,Foreground,Centre,"sb\common_eff\s\s0.png",0,0 L,24425,6 MX,0,0,6000,480,-200 MY,0,0,6000,422,238 F,0,24425,,0.2 S,0,24425,,0.5 F,0,55528,56828,0.2,0
Sprite,Foreground,Centre,"sb\common_eff\s\s5.png",0,0 L,23945,6 MX,0,0,6000,480,-200 MY,0,0,6000,368,142 F,0,23945,,0.2 S,0,23945,,0.5 F,0,55528,56828,0.2,0
Sprite,Foreground,Centre,"sb\common_eff\s\s3.png",0,0 L,22468,6 MX,0,0,6000,480,-200 MY,0,0,6000,330,272 F,0,22468,,0.2 S,0,22468,,0.5 F,0,55528,56828,0.2,0
Sprite,Foreground,Centre,"sb\common_eff\s\s7.png",0,0 L,24141,6 MX,0,0,6000,480,-200 MY,0,0,6000,459,109 F,0,24141,,0.2 S,0,24141,,0.5 F,0,55528,56828,0.2,0
Sprite,Foreground,Centre,"sb\common_eff\s\s0.png",0,0 L,20389,6 MX,0,0,6000,480,-200 MY,0,0,6000,495,279 F,0,20389,,0.2 S,0,20389,,0.5 F,0,55528,56828,0.2,0
Sprite,Foreground,Centre,"sb\common_eff\s\s3.png",0,0 L,20227,6 MX,0,0,6000,480,-200 MY,0,0,6000,338,215 F,0,20227,,0.2 S,0,20227,,0.5 F,0,55528,56828,0.2,0
Sprite,Foreground,Centre,"sb\common_eff\s\s0.png",0,0 L,21134,6 MX,0,0,6000,480,-200 MY,0,0,6000,295,219 F,0,21134,,0.2 S,0,21134,,0.5 F,0,55528,56828,0.2,0
Sprite,Foreground,Centre,"sb\common_eff\s\s1.png",0,0 L,20959,6 MX,0,0,6000,480,-200 MY,0,0,6000,381,273 F,0,20959,,0.2 S,0,20959,,0.5 F,0,55528,56828,0.2,0
Sprite,Foreground,Centre,"sb\common_eff\s\s4.png",0,0 L,21545,6 MX,0,0,6000,480,-200 MY,0,0,6000,369,174 F,0,21545,,0.2 S,0,21545,,0.5 F,0,55528,56828,0.2,0
Sprite,Foreground,Centre,"sb\common_eff\s\s5.png",0,0 L,23393,6 MX,0,0,6000,480,-200 MY,0,0,6000,444,186 F,0,23393,,0.2 S,0,23393,,0.5 F,0,55528,56828,0.2,0
Sprite,Foreground,Centre,"sb\common_eff\s\s5.png",0,0 L,23425,6 MX,0,0,6000,480,-200 MY,0,0,6000,411,177 F,0,23425,,0.2 S,0,23425,,0.5 F,0,55528,56828,0.2,0
Sprite,Foreground,Centre,"sb\common_eff\s\s4.png",0,0 L,20868,6 MX,0,0,6000,480,-200 MY,0,0,6000,308,227 F,0,20868,,0.2 S,0,20868,,0.5 F,0,55528,56828,0.2,0
Sprite,Foreground,Centre,"sb\common_eff\s\s2.png",0,0 L,20246,6 MX,0,0,6000,480,-200 MY,0,0,6000,385,214 F,0,20246,,0.2 S,0,20246,,0.5 F,0,55528,56828,0.2,0
Sprite,Foreground,Centre,"sb\common_eff\s\s1.png",0,0 L,19931,6 MX,0,0,6000,480,-200 MY,0,0,6000,442,210 F,0,19931,,0.2 S,0,19931,,0.5 F,0,55528,56828,0.2,0
Sprite,Foreground,Centre,"sb\common_eff\s\s0.png",0,0 L,23692,6 MX,0,0,6000,480,-200 MY,0,0,6000,352,257 F,0,23692,,0.2 S,0,23692,,0.5 F,0,55528,56828,0.2,0
Sprite,Foreground,Centre,"sb\common_eff\s\s6.png",0,0 L,22929,6 MX,0,0,6000,480,-200 MY,0,0,6000,468,190 F,0,22929,,0.2 S,0,22929,,0.5 F,0,55528,56828,0.2,0
Sprite,Foreground,Centre,"sb\common_eff\s\s2.png",0,0 L,18903,6 MX,0,0,6000,480,-200 MY,0,0,6000,374,160 F,0,18903,,0.2 S,0,18903,,0.5 F,0,55528,56828,0.2,0
Sprite,Foreground,Centre,"sb\common_eff\s\s3.png",0,0 L,22312,6 MX,0,0,6000,480,-200 MY,0,0,6000,348,220 F,0,22312,,0.2 S,0,22312,,0.5 F,0,55528,56828,0.2,0
Sprite,Foreground,Centre,"sb\common_eff\s\s4.png",0,0 L,20445,6 MX,0,0,6000,480,-200 MY,0,0,6000,315,219 F,0,20445,,0.2 S,0,20445,,0.5 F,0,55528,56828,0.2,0
Sprite,Foreground,Centre,"sb\common_eff\s\s6.png",0,0 L,23620,6 MX,0,0,6000,480,-200 MY,0,0,6000,338,256 F,0,23620,,0.2 S,0,23620,,0.5 F,0,55528,56828,0.2,0
Sprite,Foreground,Centre,"sb\common_eff\s\s3.png",0,0 L,24697,6 MX,0,0,6000,480,-200 MY,0,0,6000,364,110 F,0,24697,,0.2 S,0,24697,,0.5 F,0,55528,56828,0.2,0
Sprite,Foreground,Centre,"sb\common_eff\s\s6.png",0,0 L,23024,6 MX,0,0,6000,480,-200 MY,0,0,6000,432,154 F,0,23024,,0.2 S,0,23024,,0.5 F,0,55528,56828,0.2,0
Sprite,Foreground,Centre,"sb\common_eff\s\s6.png",0,0 L,23960,6 MX,0,0,6000,480,-200 MY,0,0,6000,406,243 F,0,23960,,0.2 S,0,23960,,0.5 F,0,55528,56828,0.2,0
Sprite,Foreground,Centre,"sb\common_eff\s\s7.png",0,0 L,20992,6 MX,0,0,6000,480,-200 MY,0,0,6000,445,299 F,0,20992,,0.2 S,0,20992,,0.5 F,0,55528,56828,0.2,0
Sprite,Foreground,Centre,"sb\common_eff\s\s1.png",0,0 L,23538,6 MX,0,0,6000,480,-200 MY,0,0,6000,366,105 F,0,23538,,0.2 S,0,23538,,0.5 F,0,55528,56828,0.2,0
Sprite,Foreground,Centre,"sb\common_eff\s\s6.png",0,0 L,20038,6 MX,0,0,6000,480,-200 MY,0,0,6000,300,262 F,0,20038,,0.2 S,0,20038,,0.5 F,0,55528,56828,0.2,0
Sprite,Foreground,Centre,"sb\common_eff\s\s6.png",0,0 L,18992,6 MX,0,0,6000,480,-200 MY,0,0,6000,351,229 F,0,18992,,0.2 S,0,18992,,0.5 F,0,55528,56828,0.2,0
Sprite,Foreground,Centre,"sb\common_eff\s\s1.png",0,0 L,19172,6 MX,0,0,6000,480,-200 MY,0,0,6000,446,294 F,0,19172,,0.2 S,0,19172,,0.5 F,0,55528,56828,0.2,0
Sprite,Foreground,Centre,"sb\common_eff\s\s4.png",0,0 L,23699,6 MX,0,0,6000,480,-200 MY,0,0,6000,457,160 F,0,23699,,0.2 S,0,23699,,0.5 F,0,55528,56828,0.2,0
Sprite,Foreground,Centre,"sb\common_eff\s\s6.png",0,0 L,21319,6 MX,0,0,6000,480,-200 MY,0,0,6000,445,131 F,0,21319,,0.2 S,0,21319,,0.5 F,0,55528,56828,0.2,0
Sprite,Foreground,Centre,"sb\common_eff\s\s1.png",0,0 L,22649,6 MX,0,0,6000,480,-200 MY,0,0,6000,382,253 F,0,22649,,0.2 S,0,22649,,0.5 F,0,55528,56828,0.2,0
Sprite,Foreground,Centre,"sb\common_eff\s\s4.png",0,0 L,24061,6 MX,0,0,6000,480,-200 MY,0,0,6000,338,165 F,0,24061,,0.2 S,0,24061,,0.5 F,0,55528,56828,0.2,0
Sprite,Foreground,Centre,"sb\common_eff\s\s0.png",0,0 L,23606,6 MX,0,0,6000,480,-200 MY,0,0,6000,459,235 F,0,23606,,0.2 S,0,23606,,0.5 F,0,55528,56828,0.2,0
Sprite,Foreground,Centre,"sb\common_eff\s\s1.png",0,0 L,21661,6 MX,0,0,6000,480,-200 MY,0,0,6000,409,139 F,0,21661,,0.2 S,0,21661,,0.5 F,0,55528,56828,0.2,0
Sprite,Foreground,Centre,"sb\common_eff\s\s4.png",0,0 L,20825,6 MX,0,0,6000,480,-200 MY,0,0,6000,293,270 F,0,20825,,0.2 S,0,20825,,0.5 F,0,55528,56828,0.2,0
Sprite,Foreground,Centre,"sb\common_eff\s\s0.png",0,0 L,22195,6 MX,0,0,6000,480,-200 MY,0,0,6000,333,247 F,0,22195,,0.2 S,0,22195,,0.5 F,0,55528,56828,0.2,0
Sprite,Foreground,Centre,"sb\common_eff\s\s4.png",0,0 L,19235,6 MX,0,0,6000,480,-200 MY,0,0,6000,478,270 F,0,19235,,0.2 S,0,19235,,0.5 F,0,55528,56828,0.2,0
Sprite,Foreground,Centre,"sb\common_eff\s\s3.png",0,0 L,19679,6 MX,0,0,6000,480,-200 MY,0,0,6000,410,299 F,0,19679,,0.2 S,0,19679,,0.5 F,0,55528,56828,0.2,0
Sprite,Foreground,Centre,"sb\common_eff\s\s1.png",0,0 L,21101,6 MX,0,0,6000,480,-200 MY,0,0,6000,369,116 F,0,21101,,0.2 S,0,21101,,0.5 F,0,55528,56828,0.2,0
Sprite,Foreground,Centre,"sb\common_eff\s\s2.png",0,0 L,20871,6 MX,0,0,6000,480,-200 MY,0,0,6000,485,195 F,0,20871,,0.2 S,0,20871,,0.5 F,0,55528,56828,0.2,0
Sprite,Foreground,Centre,"sb\common_eff\s\s7.png",0,0 L,22516,6 MX,0,0,6000,480,-200 MY,0,0,6000,466,288 F,0,22516,,0.2 S,0,22516,,0.5 F,0,55528,56828,0.2,0
Sprite,Foreground,Centre,"sb\scene1\architecture_gray.png",320,240 S,0,3029,,0.4943357 F,0,3029,7528,0,1 F,0,55528,57028,1,0
Sprite,Foreground,Centre,"sb\common_eff\s\s7.png",0,0 L,21970,4 MX,0,0,8000,890,-200 MY,0,0,8000,357,489 F,0,21970,,0.2 F,0,55528,56828,0.2,0
Sprite,Foreground,Centre,"sb\common_eff\s\s7.png",0,0 L,21493,4 MX,0,0,8000,890,-200 MY,0,0,8000,459,404 F,0,21493,,0.2 F,0,55528,56828,0.2,0
Sprite,Foreground,Centre,"sb\common_eff\s\s2.png",0,0 L,23929,4 MX,0,0,8000,890,-200 MY,0,0,8000,377,473 F,0,23929,,0.2 F,0,55528,56828,0.2,0
Sprite,Foreground,Centre,"sb\common_eff\s\s3.png",0,0 L,26356,4 MX,0,0,8000,890,-200 MY,0,0,8000,446,437 F,0,26356,,0.2 F,0,55528,56828,0.2,0
Sprite,Foreground,Centre,"sb\common_eff\s\s0.png",0,0 L,23461,4 MX,0,0,8000,890,-200 MY,0,0,8000,307,325 F,0,23461,,0.2 F,0,55528,56828,0.2,0
Sprite,Foreground,Centre,"sb\common_eff\s\s4.png",0,0 L,25011,4 MX,0,0,8000,890,-200 MY,0,0,8000,404,325 F,0,25011,,0.2 F,0,55528,56828,0.2,0
Sprite,Foreground,Centre,"sb\common_eff\s\s1.png",0,0 L,23889,4 MX,0,0,8000,890,-200 MY,0,0,8000,475,356 F,0,23889,,0.2 F,0,55528,56828,0.2,0
Sprite,Foreground,Centre,"sb\common_eff\s\s7.png",0,0 L,21927,4 MX,0,0,8000,890,-200 MY,0,0,8000,448,399 F,0,21927,,0.2 F,0,55528,56828,0.2,0
Sprite,Foreground,Centre,"sb\common_eff\s\s7.png",0,0 L,22923,4 MX,0,0,8000,890,-200 MY,0,0,8000,401,348 F,0,22923,,0.2 F,0,55528,56828,0.2,0
Sprite,Foreground,Centre,"sb\common_eff\s\s2.png",0,0 L,20485,4 MX,0,0,8000,890,-200 MY,0,0,8000,430,425 F,0,20485,,0.2 F,0,55528,56828,0.2,0
Sprite,Foreground,Centre,"sb\common_eff\s\s4.png",0,0 L,25513,4 MX,0,0,8000,890,-200 MY,0,0,8000,321,483 F,0,25513,,0.2 F,0,55528,56828,0.2,0
Sprite,Foreground,Centre,"sb\common_eff\s\s4.png",0,0 L,22908,4 MX,0,0,8000,890,-200 MY,0,0,8000,325,457 F,0,22908,,0.2 F,0,55528,56828,0.2,0
Sprite,Foreground,Centre,"sb\common_eff\s\s2.png",0,0 L,24384,4 MX,0,0,8000,890,-200 MY,0,0,8000,452,476 F,0,24384,,0.2 F,0,55528,56828,0.2,0
Sprite,Foreground,Centre,"sb\common_eff\s\s7.png",0,0 L,22286,4 MX,0,0,8000,890,-200 MY,0,0,8000,348,461 F,0,22286,,0.2 F,0,55528,56828,0.2,0
Sprite,Foreground,Centre,"sb\common_eff\s\s1.png",0,0 L,21592,4 MX,0,0,8000,890,-200 MY,0,0,8000,354,325 F,0,21592,,0.2 F,0,55528,56828,0.2,0
Sprite,Foreground,Centre,"sb\common_eff\s\s4.png",0,0 L,19296,4 MX,0,0,8000,890,-200 MY,0,0,8000,316,449 F,0,19296,,0.2 F,0,55528,56828,0.2,0
Sprite,Foreground,Centre,"sb\common_eff\s\s7.png",0,0 L,23258,4 MX,0,0,8000,890,-200 MY,0,0,8000,363,304 F,0,23258,,0.2 F,0,55528,56828,0.2,0
Sprite,Foreground,Centre,"sb\common_eff\s\s4.png",0,0 L,26261,4 MX,0,0,8000,890,-200 MY,0,0,8000,389,346 F,0,26261,,0.2 F,0,55528,56828,0.2,0
Sprite,Foreground,Centre,"sb\common_eff\s\s3.png",0,0 L,22030,4 MX,0,0,8000,890,-200 MY,0,0,8000,349,345 F,0,22030,,0.2 F,0,55528,56828,0.2,0
Sprite,Foreground,Centre,"sb\common_eff\s\s5.png",0,0 L,22342,4 MX,0,0,8000,890,-200 MY,0,0,8000,417,326 F,0,22342,,0.2 F,0,55528,56828,0.2,0
Sprite,Foreground,Centre,"sb\common_eff\cube.png",320,240 V,0,491991,,427,240 F,2,491991,492609,0,1 F,1,492785,493050,1,0
Sprite,Foreground,Centre,"sb\common_eff\cube.png",320,240 V,0,537167,,427,240 F,2,537167,537785,0,1 F,1,537961,538314,1,0
Sprite,Foreground,Centre,"sb\common_eff\bar.png",0,0 M,0,538579,,135,230 V,2,538579,539479,0.13,0,0.13,0.15 V,2,559050,559550,0.13,0.15,0.13,0
Sprite,Foreground,Centre,"sb\common_eff\bar.png",0,0 M,0,538579,,135,250 V,2,538579,539479,0.13,0,0.13,0.15 V,2,559050,559550,0.13,0.15,0.13,0
Sprite,Foreground,Centre,"sb\common_eff\bar.png",0,0 M,0,538579,,135,270 V,2,538579,539479,0.13,0,0.13,0.15 V,2,559050,559550,0.13,0.15,0.13,0
Sprite,Foreground,Centre,"sb\common_eff\bar.png",0,0 M,0,538579,,135,290 V,2,538579,539479,0.13,0,0.13,0.15 V,2,559050,559550,0.13,0.15,0.13,0
Sprite,Foreground,Centre,"sb\common_eff\bar.png",0,0 M,0,538579,,135,310 V,2,538579,539479,0.13,0,0.13,0.15 V,2,559050,559550,0.13,0.15,0.13,0
Sprite,Foreground,Centre,"sb\common_eff\bar.png",0,0 M,0,538579,,135,350 V,2,538579,539479,0.13,0,0.13,0.15 V,2,559050,559550,0.13,0.15,0.13,0
Sprite,Foreground,CentreLeft,"sb\font2\0052.png",139.75,0 S,0,538579,,0.5 F,6,539122,539622,0,1 MY,2,539122,539622,120,150 F,7,559295,559795,1,0 MY,2,559295,559795,150,120
Sprite,Foreground,CentreLeft,"sb\font2\0069.png",165.75,0 S,0,538579,,0.5 F,6,539068,539568,0,1 MY,2,539068,539568,120,150 F,7,559398,559898,1,0 MY,2,559398,559898,150,120
Sprite,Foreground,CentreLeft,"sb\font2\0074.png",177.25,0 S,0,538579,,0.5 F,6,539029,539529,0,1 MY,2,539029,539529,120,150 F,7,559190,559690,1,0 MY,2,559190,559690,150,120
Sprite,Foreground,CentreLeft,"sb\font2\0065.png",193.25,0 S,0,538579,,0.5 F,6,539133,539633,0,1 MY,2,539133,539633,120,150 F,7,559400,559900,1,0 MY,2,559400,559900,150,120
Sprite,Foreground,CentreLeft,"sb\font2\006f.png",225.25,0 S,0,538579,,0.5 F,6,539174,539674,0,1 MY,2,539174,539674,120,150 F,7,559081,559581,1,0 MY,2,559081,559581,150,120
Sprite,Foreground,CentreLeft,"sb\font2\0066.png",249.25,0 S,0,538579,,0.5 F,6,538908,539408,0,1 MY,2,538908,539408,120,150 F,7,559146,559646,1,0 MY,2,559146,559646,150,120
Sprite,Foreground,CentreLeft,"sb\font2\0041.png",274.25,0 S,0,538579,,0.5 F,6,539158,539658,0,1 MY,2,539158,539658,120,150 F,7,559315,559815,1,0 MY,2,559315,559815,150,120
Sprite,Foreground,CentreLeft,"sb\font2\0073.png",304.25,0 S,0,538579,,0.5 F,6,538837,539337,0,1 MY,2,538837,539337,120,150 F,7,559604,560104,1,0 MY,2,559604,560104,150,120
Sprite,Foreground,CentreLeft,"sb\font2\0063.png",322.25,0 S,0,538579,,0.5 F,6,538612,539112,0,1 MY,2,538612,539112,120,150 F,7,559434,559934,1,0 MY,2,559434,559934,150,120
Sprite,Foreground,CentreLeft,"sb\font2\0065.png",341.25,0 S,0,538579,,0.5 F,6,538763,539263,0,1 MY,2,538763,539263,120,150 F,7,559649,560149,1,0 MY,2,559649,560149,150,120
Sprite,Foreground,CentreLeft,"sb\font2\006e.png",363.25,0 S,0,538579,,0.5 F,6,539098,539598,0,1 MY,2,539098,539598,120,150 F,7,559322,559822,1,0 MY,2,559322,559822,150,120
Sprite,Foreground,CentreLeft,"sb\font2\0064.png",388.25,0 S,0,538579,,0.5 F,6,538979,539479,0,1 MY,2,538979,539479,120,150 F,7,559106,559606,1,0 MY,2,559106,559606,150,120
Sprite,Foreground,CentreLeft,"sb\font2\0061.png",412.75,0 S,0,538579,,0.5 F,6,539174,539674,0,1 MY,2,539174,539674,120,150 F,7,559463,559963,1,0 MY,2,559463,559963,150,120
Sprite,Foreground,CentreLeft,"sb\font2\006e.png",435.25,0 S,0,538579,,0.5 F,6,538609,539109,0,1 MY,2,538609,539109,120,150 F,7,559579,560079,1,0 MY,2,559579,560079,150,120
Sprite,Foreground,CentreLeft,"sb\font2\0063.png",460.25,0 S,0,538579,,0.5 F,6,538999,539499,0,1 MY,2,538999,539499,120,150 F,7,559252,559752,1,0 MY,2,559252,559752,150,120
Sprite,Foreground,CentreLeft,"sb\font2\0079.png",479.25,0 S,0,538579,,0.5 F,6,539068,539568,0,1 MY,2,539068,539568,120,150 F,7,559613,560113,1,0 MY,2,559613,560113,150,120
Sprite,Foreground,CentreLeft,"sb\font2\0054.png",112.75,0 S,0,538579,,0.5 F,6,538890,539390,0,1 MY,2,538890,539390,160,190 F,7,559160,559660,1,0 MY,2,559160,559660,190,160
Sprite,Foreground,CentreLeft,"sb\font2\0068.png",136.25,0 S,0,538579,,0.5 F,6,538885,539385,0,1 MY,2,538885,539385,160,190 F,7,559280,559780,1,0 MY,2,559280,559780,190,160
Sprite,Foreground,CentreLeft,"sb\font2\0061.png",161.25,0 S,0,538579,,0.5 F,6,538805,539305,0,1 MY,2,538805,539305,160,190 F,7,559362,559862,1,0 MY,2,559362,559862,190,160
Sprite,Foreground,CentreLeft,"sb\font2\006e.png",183.75,0 S,0,538579,,0.5 F,6,538809,539309,0,1 MY,2,538809,539309,160,190 F,7,559224,559724,1,0 MY,2,559224,559724,190,160
Sprite,Foreground,CentreLeft,"sb\font2\006b.png",208.75,0 S,0,538579,,0.5 F,6,539078,539578,0,1 MY,2,539078,539578,160,190 F,7,559524,560024,1,0 MY,2,559524,560024,190,160
Sprite,Foreground,CentreLeft,"sb\font2\0079.png",241.75,0 S,0,538579,,0.5 F,6,539016,539516,0,1 MY,2,539016,539516,160,190 F,7,559292,559792,1,0 MY,2,559292,559792,190,160
Sprite,Foreground,CentreLeft,"sb\font2\006f.png",263.75,0 S,0,538579,,0.5 F,6,538900,539400,0,1 MY,2,538900,539400,160,190 F,7,559304,559804,1,0 MY,2,559304,559804,190,160
Sprite,Foreground,CentreLeft,"sb\font2\0075.png",287.75,0 S,0,538579,,0.5 F,6,538623,539123,0,1 MY,2,538623,539123,160,190 F,7,559250,559750,1,0 MY,2,559250,559750,190,160
Sprite,Foreground,CentreLeft,"sb\font2\0066.png",322.25,0 S,0,538579,,0.5 F,6,539128,539628,0,1 MY,2,539128,539628,160,190 F,7,559515,560015,1,0 MY,2,559515,560015,190,160
Sprite,Foreground,CentreLeft,"sb\font2\006f.png",337.25,0 S,0,538579,,0.5 F,6,538970,539470,0,1 MY,2,538970,539470,160,190 F,7,559544,560044,1,0 MY,2,559544,560044,190,160
Sprite,Foreground,CentreLeft,"sb\font2\0072.png",361.25,0 S,0,538579,,0.5 F,6,538721,539221,0,1 MY,2,538721,539221,160,190 F,7,559553,560053,1,0 MY,2,559553,560053,190,160
Sprite,Foreground,CentreLeft,"sb\font2\0070.png",387.25,0 S,0,538579,,0.5 F,6,538913,539413,0,1 MY,2,538913,539413,160,190 F,7,559320,559820,1,0 MY,2,559320,559820,190,160
Sprite,Foreground,CentreLeft,"sb\font2\006c.png",411.75,0 S,0,538579,,0.5 F,6,539024,539524,0,1 MY,2,539024,539524,160,190 F,7,559482,559982,1,0 MY,2,559482,559982,190,160
Sprite,Foreground,CentreLeft,"sb\font2\0061.png",423.25,0 S,0,538579,,0.5 F,6,538932,539432,0,1 MY,2,538932,539432,160,190 F,7,559087,559587,1,0 MY,2,559087,559587,190,160
Sprite,Foreground,CentreLeft,"sb\font2\0079.png",445.75,0 S,0,538579,,0.5 F,6,538688,539188,0,1 MY,2,538688,539188,160,190 F,7,559074,559574,1,0 MY,2,559074,559574,190,160
Sprite,Foreground,CentreLeft,"sb\font2\0069.png",467.75,0 S,0,538579,,0.5 F,6,539109,539609,0,1 MY,2,539109,539609,160,190 F,7,559442,559942,1,0 MY,2,559442,559942,190,160
Sprite,Foreground,CentreLeft,"sb\font2\006e.png",479.25,0 S,0,538579,,0.5 F,6,538720,539220,0,1 MY,2,538720,539220,160,190 F,7,559415,559915,1,0 MY,2,559415,559915,190,160
Sprite,Foreground,CentreLeft,"sb\font2\0067.png",504.25,0 S,0,538579,,0.5 F,6,538963,539463,0,1 MY,2,538963,539463,160,190 F,7,559519,560019,1,0 MY,2,559519,560019,190,160
Sprite,Foreground,CentreLeft,"sb\font2\004d.png",140,0 S,0,538579,,0.24 F,6,539138,539638,0,1 MY,2,539138,539638,200,230 F,7,559077,559577,1,0 MY,2,559077,559577,230,200
Sprite,Foreground,CentreLeft,"sb\font2\0061.png",156.32,0 S,0,538579,,0.24 F,6,538906,539406,0,1 MY,2,538906,539406,200,230 F,7,559370,559870,1,0 MY,2,559370,559870,230,200
Sprite,Foreground,CentreLeft,"sb\font2\0070.png",167.12,0 S,0,538579,,0.24 F,6,538733,539233,0,1 MY,2,538733,539233,200,230 F,7,559060,559560,1,0 MY,2,559060,559560,230,200
Sprite,Foreground,CentreLeft,"sb\font2\0073.png",178.88,0 S,0,538579,,0.24 F,6,538679,539179,0,1 MY,2,538679,539179,200,230 F,7,559094,559594,1,0 MY,2,559094,559594,230,200
Sprite,Foreground,CentreLeft,"sb\font2\0065.png",187.52,0 S,0,538579,,0.24 F,6,539014,539514,0,1 MY,2,539014,539514,200,230 F,7,559207,559707,1,0 MY,2,559207,559707,230,200
Sprite,Foreground,CentreLeft,"sb\font2\0074.png",198.08,0 S,0,538579,,0.24 F,6,538914,539414,0,1 MY,2,538914,539414,200,230 F,7,559390,559890,1,0 MY,2,559390,559890,230,200
Sprite,Foreground,CentreLeft,"sb\font2\0068.png",215.76,0 S,0,538579,,0.24 F,6,538947,539447,0,1 MY,2,538947,539447,200,230 F,7,559480,559980,1,0 MY,2,559480,559980,230,200
Sprite,Foreground,CentreLeft,"sb\font2\006f.png",227.76,0 S,0,538579,,0.24 F,6,539158,539658,0,1 MY,2,539158,539658,200,230 F,7,559604,560104,1,0 MY,2,559604,560104,230,200
Sprite,Foreground,CentreLeft,"sb\font2\0073.png",239.28,0 S,0,538579,,0.24 F,6,538990,539490,0,1 MY,2,538990,539490,200,230 F,7,559645,560145,1,0 MY,2,559645,560145,230,200
Sprite,Foreground,CentreLeft,"sb\font2\0074.png",247.92,0 S,0,538579,,0.24 F,6,539000,539500,0,1 MY,2,539000,539500,200,230 F,7,559458,559958,1,0 MY,2,559458,559958,230,200
Sprite,Foreground,CentreLeft,"sb\font2\0065.png",255.6,0 S,0,538579,,0.24 F,6,538954,539454,0,1 MY,2,538954,539454,200,230 F,7,559085,559585,1,0 MY,2,559085,559585,230,200
Sprite,Foreground,CentreLeft,"sb\font2\0064.png",266.16,0 S,0,538579,,0.24 F,6,538964,539464,0,1 MY,2,538964,539464,200,230 F,7,559443,559943,1,0 MY,2,559443,559943,230,200
Sprite,Foreground,CentreLeft,"sb\font2\0062.png",287.92,0 S,0,538579,,0.24 F,6,539138,539638,0,1 MY,2,539138,539638,200,230 F,7,559242,559742,1,0 MY,2,559242,559742,230,200
Sprite,Foreground,CentreLeft,"sb\font2\0079.png",299.44,0 S,0,538579,,0.24 F,6,538643,539143,0,1 MY,2,538643,539143,200,230 F,7,559524,560024,1,0 MY,2,559524,560024,230,200
Sprite,Foreground,CentreLeft,"sb\font2\0046.png",320,0 S,0,538579,,0.24 F,6,539122,539622,0,1 MY,2,539122,539622,200,230 F,7,559094,559594,1,0 MY,2,559094,559594,230,200
Sprite,Foreground,CentreLeft,"sb\font2\004c.png",331.04,0 S,0,538579,,0.24 F,6,538680,539180,0,1 MY,2,538680,539180,200,230 F,7,559605,560105,1,0 MY,2,559605,560105,230,200
Sprite,Foreground,CentreLeft,"sb\font2\0065.png",341.36,0 S,0,538579,,0.24 F,6,539049,539549,0,1 MY,2,539049,539549,200,230 F,7,559225,559725,1,0 MY,2,559225,559725,230,200
Sprite,Foreground,CentreLeft,"sb\font2\0056.png",351.92,0 S,0,538579,,0.24 F,6,538820,539320,0,1 MY,2,538820,539320,200,230 F,7,559572,560072,1,0 MY,2,559572,560072,230,200
Sprite,Foreground,CentreLeft,"sb\font2\0049.png",365.36,0 S,0,538579,,0.24 F,6,538717,539217,0,1 MY,2,538717,539217,200,230 F,7,559120,559620,1,0 MY,2,559120,559620,230,200
Sprite,Foreground,CentreLeft,"sb\font2\004d.png",140,0 S,0,538579,,0.24 F,6,538918,539418,0,1 MY,2,538918,539418,220,250 F,7,559181,559681,1,0 MY,2,559181,559681,250,220
Sprite,Foreground,CentreLeft,"sb\font2\0061.png",156.32,0 S,0,538579,,0.24 F,6,538982,539482,0,1 MY,2,538982,539482,220,250 F,7,559339,559839,1,0 MY,2,559339,559839,250,220
Sprite,Foreground,CentreLeft,"sb\font2\0070.png",167.12,0 S,0,538579,,0.24 F,6,539014,539514,0,1 MY,2,539014,539514,220,250 F,7,559338,559838,1,0 MY,2,559338,559838,250,220
Sprite,Foreground,CentreLeft,"sb\font2\0070.png",178.88,0 S,0,538579,,0.24 F,6,538676,539176,0,1 MY,2,538676,539176,220,250 F,7,559062,559562,1,0 MY,2,559062,559562,250,220
Sprite,Foreground,CentreLeft,"sb\font2\0065.png",190.64,0 S,0,538579,,0.24 F,6,538847,539347,0,1 MY,2,538847,539347,220,250 F,7,559329,559829,1,0 MY,2,559329,559829,250,220
Sprite,Foreground,CentreLeft,"sb\font2\0064.png",201.2,0 S,0,538579,,0.24 F,6,538623,539123,0,1 MY,2,538623,539123,220,250 F,7,559625,560125,1,0 MY,2,559625,560125,250,220
Sprite,Foreground,CentreLeft,"sb\font2\0062.png",222.96,0 S,0,538579,,0.24 F,6,539160,539660,0,1 MY,2,539160,539660,220,250 F,7,559196,559696,1,0 MY,2,559196,559696,250,220
Sprite,Foreground,CentreLeft,"sb\font2\0079.png",234.48,0 S,0,538579,,0.24 F,6,539122,539622,0,1 MY,2,539122,539622,220,250 F,7,559626,560126,1,0 MY,2,559626,560126,250,220
Sprite,Foreground,CentreLeft,"sb\font2\0074.png",255.04,0 S,0,538579,,0.24 F,6,538672,539172,0,1 MY,2,538672,539172,220,250 F,7,559574,560074,1,0 MY,2,559574,560074,250,220
Sprite,Foreground,CentreLeft,"sb\font2\0079.png",262.72,0 S,0,538579,,0.24 F,6,538821,539321,0,1 MY,2,538821,539321,220,250 F,7,559583,560083,1,0 MY,2,559583,560083,250,220
Sprite,Foreground,CentreLeft,"sb\font2\0072.png",273.28,0 S,0,538579,,0.24 F,6,538940,539440,0,1 MY,2,538940,539440,220,250 F,7,559611,560111,1,0 MY,2,559611,560111,250,220
Sprite,Foreground,CentreLeft,"sb\font2\0063.png",280.96,0 S,0,538579,,0.24 F,6,539124,539624,0,1 MY,2,539124,539624,220,250 F,7,559275,559775,1,0 MY,2,559275,559775,250,220
Sprite,Foreground,CentreLeft,"sb\font2\0073.png",290.08,0 S,0,538579,,0.24 F,6,538679,539179,0,1 MY,2,538679,539179,220,250 F,7,559440,559940,1,0 MY,2,559440,559940,250,220
Sprite,Foreground,CentreLeft,"sb\font2\0053.png",140,0 S,0,538579,,0.24 F,6,538634,539134,0,1 MY,2,538634,539134,240,270 F,7,559429,559929,1,0 MY,2,559429,559929,270,240
Sprite,Foreground,CentreLeft,"sb\font2\0074.png",149.84,0 S,0,538579,,0.24 F,6,539049,539549,0,1 MY,2,539049,539549,240,270 F,7,559243,559743,1,0 MY,2,559243,559743,270,240
Sprite,Foreground,CentreLeft,"sb\font2\006f.png",157.52,0 S,0,538579,,0.24 F,6,538767,539267,0,1 MY,2,538767,539267,240,270 F,7,559107,559607,1,0 MY,2,559107,559607,270,240
Sprite,Foreground,CentreLeft,"sb\font2\0072.png",169.04,0 S,0,538579,,0.24 F,6,538995,539495,0,1 MY,2,538995,539495,240,270 F,7,559390,559890,1,0 MY,2,559390,559890,270,240
Sprite,Foreground,CentreLeft,"sb\font2\0079.png",176.72,0 S,0,538579,,0.24 F,6,538834,539334,0,1 MY,2,538834,539334,240,270 F,7,559340,559840,1,0 MY,2,559340,559840,270,240
Sprite,Foreground,CentreLeft,"sb\font2\0062.png",187.28,0 S,0,538579,,0.24 F,6,538583,539083,0,1 MY,2,538583,539083,240,270 F,7,559136,559636,1,0 MY,2,559136,559636,270,240
Sprite,Foreground,CentreLeft,"sb\font2\006f.png",198.8,0 S,0,538579,,0.24 F,6,538779,539279,0,1 MY,2,538779,539279,240,270 F,7,559146,559646,1,0 MY,2,559146,559646,270,240
Sprite,Foreground,CentreLeft,"sb\font2\0061.png",210.32,0 S,0,538579,,0.24 F,6,538875,539375,0,1 MY,2,538875,539375,240,270 F,7,559596,560096,1,0 MY,2,559596,560096,270,240
Sprite,Foreground,CentreLeft,"sb\font2\0072.png",221.12,0 S,0,538579,,0.24 F,6,539102,539602,0,1 MY,2,539102,539602,240,270 F,7,559435,559935,1,0 MY,2,559435,559935,270,240
Sprite,Foreground,CentreLeft,"sb\font2\0064.png",228.8,0 S,0,538579,,0.24 F,6,539008,539508,0,1 MY,2,539008,539508,240,270 F,7,559618,560118,1,0 MY,2,559618,560118,270,240
Sprite,Foreground,CentreLeft,"sb\font2\0062.png",250.56,0 S,0,538579,,0.24 F,6,538642,539142,0,1 MY,2,538642,539142,240,270 F,7,559604,560104,1,0 MY,2,559604,560104,270,240
Sprite,Foreground,CentreLeft,"sb\font2\0079.png",262.08,0 S,0,538579,,0.24 F,6,538591,539091,0,1 MY,2,538591,539091,240,270 F,7,559543,560043,1,0 MY,2,559543,560043,270,240
Sprite,Foreground,CentreLeft,"sb\font2\0052.png",282.64,0 S,0,538579,,0.24 F,6,538661,539161,0,1 MY,2,538661,539161,240,270 F,7,559366,559866,1,0 MY,2,559366,559866,270,240
Sprite,Foreground,CentreLeft,"sb\font2\0069.png",295.12,0 S,0,538579,,0.24 F,6,538859,539359,0,1 MY,2,538859,539359,240,270 F,7,559254,559754,1,0 MY,2,559254,559754,270,240
Sprite,Foreground,CentreLeft,"sb\font2\0063.png",300.64,0 S,0,538579,,0.24 F,6,538888,539388,0,1 MY,2,538888,539388,240,270 F,7,559427,559927,1,0 MY,2,559427,559927,270,240
Sprite,Foreground,CentreLeft,"sb\font2\0065.png",309.76,0 S,0,538579,,0.24 F,6,538765,539265,0,1 MY,2,538765,539265,240,270 F,7,559227,559727,1,0 MY,2,559227,559727,270,240
Sprite,Foreground,CentreLeft,"sb\font2\0053.png",320.32,0 S,0,538579,,0.24 F,6,538767,539267,0,1 MY,2,538767,539267,240,270 F,7,559094,559594,1,0 MY,2,559094,559594,270,240
Sprite,Foreground,CentreLeft,"sb\font2\0053.png",330.16,0 S,0,538579,,0.24 F,6,538811,539311,0,1 MY,2,538811,539311,240,270 F,7,559368,559868,1,0 MY,2,559368,559868,270,240
Sprite,Foreground,CentreLeft,"sb\font2\0054.png",140,0 S,0,538579,,0.24 F,6,538721,539221,0,1 MY,2,538721,539221,260,290 F,7,559125,559625,1,0 MY,2,559125,559625,290,260
Sprite,Foreground,CentreLeft,"sb\font2\0068.png",151.28,0 S,0,538579,,0.24 F,6,538669,539169,0,1 MY,2,538669,539169,260,290 F,7,559637,560137,1,0 MY,2,559637,560137,290,260
Sprite,Foreground,CentreLeft,"sb\font2\0061.png",163.28,0 S,0,538579,,0.24 F,6,538738,539238,0,1 MY,2,538738,539238,260,290 F,7,559290,559790,1,0 MY,2,559290,559790,290,260
Sprite,Foreground,CentreLeft,"sb\font2\006e.png",174.08,0 S,0,538579,,0.24 F,6,539069,539569,0,1 MY,2,539069,539569,260,290 F,7,559303,559803,1,0 MY,2,559303,559803,290,260
Sprite,Foreground,CentreLeft,"sb\font2\006b.png",186.08,0 S,0,538579,,0.24 F,6,539150,539650,0,1 MY,2,539150,539650,260,290 F,7,559057,559557,1,0 MY,2,559057,559557,290,260
Sprite,Foreground,CentreLeft,"sb\font2\0073.png",197.12,0 S,0,538579,,0.24 F,6,538902,539402,0,1 MY,2,538902,539402,260,290 F,7,559195,559695,1,0 MY,2,559195,559695,290,260
Sprite,Foreground,CentreLeft,"sb\font2\0066.png",215.76,0 S,0,538579,,0.24 F,6,538816,539316,0,1 MY,2,538816,539316,260,290 F,7,559464,559964,1,0 MY,2,559464,559964,290,260
Sprite,Foreground,CentreLeft,"sb\font2\006f.png",222.96,0 S,0,538579,,0.24 F,6,538617,539117,0,1 MY,2,538617,539117,260,290 F,7,559210,559710,1,0 MY,2,559210,559710,290,260
Sprite,Foreground,CentreLeft,"sb\font2\0072.png",234.48,0 S,0,538579,,0.24 F,6,538974,539474,0,1 MY,2,538974,539474,260,290 F,7,559182,559682,1,0 MY,2,559182,559682,290,260
Sprite,Foreground,CentreLeft,"sb\font2\006c.png",252.16,0 S,0,538579,,0.24 F,6,538906,539406,0,1 MY,2,538906,539406,260,290 F,7,559151,559651,1,0 MY,2,559151,559651,290,260
Sprite,Foreground,CentreLeft,"sb\font2\006f.png",257.68,0 S,0,538579,,0.24 F,6,538946,539446,0,1 MY,2,538946,539446,260,290 F,7,559626,560126,1,0 MY,2,559626,560126,290,260
Sprite,Foreground,CentreLeft,"sb\font2\0076.png",269.2,0 S,0,538579,,0.24 F,6,538689,539189,0,1 MY,2,538689,539189,260,290 F,7,559522,560022,1,0 MY,2,559522,560022,290,260
Sprite,Foreground,CentreLeft,"sb\font2\0065.png",279.76,0 S,0,538579,,0.24 F,6,538955,539455,0,1 MY,2,538955,539455,260,290 F,7,559262,559762,1,0 MY,2,559262,559762,290,260
Sprite,Foreground,CentreLeft,"sb\font2\006c.png",290.32,0 S,0,538579,,0.24 F,6,538609,539109,0,1 MY,2,538609,539109,260,290 F,7,559527,560027,1,0 MY,2,559527,560027,290,260
Sprite,Foreground,CentreLeft,"sb\font2\0079.png",295.84,0 S,0,538579,,0.24 F,6,538682,539182,0,1 MY,2,538682,539182,260,290 F,7,559477,559977,1,0 MY,2,559477,559977,290,260
Sprite,Foreground,CentreLeft,"sb\font2\005f.png",306.4,0 S,0,538579,,0.24 F,6,539076,539576,0,1 MY,2,539076,539576,260,290 F,7,559206,559706,1,0 MY,2,559206,559706,290,260
Sprite,Foreground,CentreLeft,"sb\font2\0068.png",315.28,0 S,0,538579,,0.24 F,6,539043,539543,0,1 MY,2,539043,539543,260,290 F,7,559627,560127,1,0 MY,2,559627,560127,290,260
Sprite,Foreground,CentreLeft,"sb\font2\0079.png",327.28,0 S,0,538579,,0.24 F,6,538983,539483,0,1 MY,2,538983,539483,260,290 F,7,559498,559998,1,0 MY,2,559498,559998,290,260
Sprite,Foreground,CentreLeft,"sb\font2\0061.png",337.84,0 S,0,538579,,0.24 F,6,538873,539373,0,1 MY,2,538873,539373,260,290 F,7,559491,559991,1,0 MY,2,559491,559991,290,260
Sprite,Foreground,CentreLeft,"sb\font2\0068.png",348.64,0 S,0,538579,,0.24 F,6,538987,539487,0,1 MY,2,538987,539487,260,290 F,7,559472,559972,1,0 MY,2,559472,559972,290,260
Sprite,Foreground,CentreLeft,"sb\font2\0079.png",360.64,0 S,0,538579,,0.24 F,6,538643,539143,0,1 MY,2,538643,539143,260,290 F,7,559408,559908,1,0 MY,2,559408,559908,290,260
Sprite,Foreground,CentreLeft,"sb\font2\0061.png",371.2,0 S,0,538579,,0.24 F,6,539100,539600,0,1 MY,2,539100,539600,260,290 F,7,559125,559625,1,0 MY,2,559125,559625,290,260
Sprite,Foreground,CentreLeft,"sb\font2\0027.png",381.9999,0 S,0,538579,,0.24 F,6,539171,539671,0,1 MY,2,539171,539671,260,290 F,7,559184,559684,1,0 MY,2,559184,559684,290,260
Sprite,Foreground,CentreLeft,"sb\font2\0073.png",386.0799,0 S,0,538579,,0.24 F,6,539145,539645,0,1 MY,2,539145,539645,260,290 F,7,559545,560045,1,0 MY,2,559545,560045,290,260
Sprite,Foreground,CentreLeft,"sb\font2\0069.png",404.7199,0 S,0,538579,,0.24 F,6,538918,539418,0,1 MY,2,538918,539418,260,290 F,7,559076,559576,1,0 MY,2,559076,559576,290,260
Sprite,Foreground,CentreLeft,"sb\font2\006d.png",410.2399,0 S,0,538579,,0.24 F,6,538960,539460,0,1 MY,2,538960,539460,260,290 F,7,559106,559606,1,0 MY,2,559106,559606,290,260
Sprite,Foreground,CentreLeft,"sb\font2\0061.png",426.7999,0 S,0,538579,,0.24 F,6,538895,539395,0,1 MY,2,538895,539395,260,290 F,7,559181,559681,1,0 MY,2,559181,559681,290,260
Sprite,Foreground,CentreLeft,"sb\font2\0067.png",437.5999,0 S,0,538579,,0.24 F,6,539129,539629,0,1 MY,2,539129,539629,260,290 F,7,559215,559715,1,0 MY,2,559215,559715,290,260
Sprite,Foreground,CentreLeft,"sb\font2\0065.png",449.3599,0 S,0,538579,,0.24 F,6,539143,539643,0,1 MY,2,539143,539643,260,290 F,7,559268,559768,1,0 MY,2,559268,559768,290,260
Sprite,Foreground,CentreLeft,"sb\font2\0070.png",469.9199,0 S,0,538579,,0.24 F,6,538790,539290,0,1 MY,2,538790,539290,260,290 F,7,559597,560097,1,0 MY,2,559597,560097,290,260
Sprite,Foreground,CentreLeft,"sb\font2\0072.png",481.6799,0 S,0,538579,,0.24 F,6,538789,539289,0,1 MY,2,538789,539289,260,290 F,7,559062,559562,1,0 MY,2,559062,559562,290,260
Sprite,Foreground,CentreLeft,"sb\font2\006f.png",489.3599,0 S,0,538579,,0.24 F,6,538729,539229,0,1 MY,2,538729,539229,260,290 F,7,559194,559694,1,0 MY,2,559194,559694,290,260
Sprite,Foreground,CentreLeft,"sb\font2\0063.png",500.8799,0 S,0,538579,,0.24 F,6,538688,539188,0,1 MY,2,538688,539188,260,290 F,7,559217,559717,1,0 MY,2,559217,559717,290,260
Sprite,Foreground,CentreLeft,"sb\font2\0065.png",509.9999,0 S,0,538579,,0.24 F,6,538860,539360,0,1 MY,2,538860,539360,260,290 F,7,559309,559809,1,0 MY,2,559309,559809,290,260
Sprite,Foreground,CentreLeft,"sb\font2\0073.png",520.5599,0 S,0,538579,,0.24 F,6,538588,539088,0,1 MY,2,538588,539088,260,290 F,7,559239,559739,1,0 MY,2,559239,559739,290,260
Sprite,Foreground,CentreLeft,"sb\font2\0073.png",529.1999,0 S,0,538579,,0.24 F,6,539044,539544,0,1 MY,2,539044,539544,260,290 F,7,559604,560104,1,0 MY,2,559604,560104,290,260
Sprite,Foreground,CentreLeft,"sb\font2\0069.png",537.8399,0 S,0,538579,,0.24 F,6,538902,539402,0,1 MY,2,538902,539402,260,290 F,7,559555,560055,1,0 MY,2,559555,560055,290,260
Sprite,Foreground,CentreLeft,"sb\font2\006e.png",543.3599,0 S,0,538579,,0.24 F,6,538615,539115,0,1 MY,2,538615,539115,260,290 F,7,559059,559559,1,0 MY,2,559059,559559,290,260
Sprite,Foreground,CentreLeft,"sb\font2\0067.png",555.3599,0 S,0,538579,,0.24 F,6,538634,539134,0,1 MY,2,538634,539134,260,290 F,7,559085,559585,1,0 MY,2,559085,559585,290,260
Sprite,Foreground,CentreLeft,"sb\font2\0053.png",140,0 S,0,538579,,0.24 F,6,539058,539558,0,1 MY,2,539058,539558,280,310 F,7,559291,559791,1,0 MY,2,559291,559791,310,280
Sprite,Foreground,CentreLeft,"sb\font2\006f.png",149.84,0 S,0,538579,,0.24 F,6,538824,539324,0,1 MY,2,538824,539324,280,310 F,7,559185,559685,1,0 MY,2,559185,559685,310,280
Sprite,Foreground,CentreLeft,"sb\font2\006e.png",161.36,0 S,0,538579,,0.24 F,6,538716,539216,0,1 MY,2,538716,539216,280,310 F,7,559127,559627,1,0 MY,2,559127,559627,310,280
Sprite,Foreground,CentreLeft,"sb\font2\0067.png",173.36,0 S,0,538579,,0.24 F,6,538624,539124,0,1 MY,2,538624,539124,280,310 F,7,559491,559991,1,0 MY,2,559491,559991,310,280
Sprite,Foreground,CentreLeft,"sb\font2\0062.png",195.12,0 S,0,538579,,0.24 F,6,539019,539519,0,1 MY,2,539019,539519,280,310 F,7,559382,559882,1,0 MY,2,559382,559882,310,280
Sprite,Foreground,CentreLeft,"sb\font2\0079.png",206.64,0 S,0,538579,,0.24 F,6,538606,539106,0,1 MY,2,538606,539106,280,310 F,7,559289,559789,1,0 MY,2,559289,559789,310,280
Sprite,Foreground,CentreLeft,"sb\font2\0044.png",227.2,0 S,0,538579,,0.24 F,6,539062,539562,0,1 MY,2,539062,539562,280,310 F,7,559126,559626,1,0 MY,2,559126,559626,310,280
Sprite,Foreground,CentreLeft,"sb\font2\0065.png",240.88,0 S,0,538579,,0.24 F,6,538809,539309,0,1 MY,2,538809,539309,280,310 F,7,559511,560011,1,0 MY,2,559511,560011,310,280
Sprite,Foreground,CentreLeft,"sb\font2\006c.png",251.44,0 S,0,538579,,0.24 F,6,538791,539291,0,1 MY,2,538791,539291,280,310 F,7,559101,559601,1,0 MY,2,559101,559601,310,280
Sprite,Foreground,CentreLeft,"sb\font2\0074.png",256.96,0 S,0,538579,,0.24 F,6,538787,539287,0,1 MY,2,538787,539287,280,310 F,7,559426,559926,1,0 MY,2,559426,559926,310,280
Sprite,Foreground,CentreLeft,"sb\font2\0061.png",264.64,0 S,0,538579,,0.24 F,6,539144,539644,0,1 MY,2,539144,539644,280,310 F,7,559475,559975,1,0 MY,2,559475,559975,310,280
Sprite,Foreground,CentreLeft,"sb\font2\0048.png",275.44,0 S,0,538579,,0.24 F,6,539032,539532,0,1 MY,2,539032,539532,280,310 F,7,559356,559856,1,0 MY,2,559356,559856,310,280
Sprite,Foreground,CentreLeft,"sb\font2\002c.png",290.08,0 S,0,538579,,0.24 F,6,539064,539564,0,1 MY,2,539064,539564,280,310 F,7,559199,559699,1,0 MY,2,559199,559699,310,280
Sprite,Foreground,CentreLeft,"sb\font2\0047.png",305.36,0 S,0,538579,,0.24 F,6,538739,539239,0,1 MY,2,538739,539239,280,310 F,7,559477,559977,1,0 MY,2,559477,559977,310,280
Sprite,Foreground,CentreLeft,"sb\font2\0061.png",319.28,0 S,0,538579,,0.24 F,6,538911,539411,0,1 MY,2,538911,539411,280,310 F,7,559460,559960,1,0 MY,2,559460,559960,310,280
Sprite,Foreground,CentreLeft,"sb\font2\0072.png",330.08,0 S,0,538579,,0.24 F,6,538673,539173,0,1 MY,2,538673,539173,280,310 F,7,559591,560091,1,0 MY,2,559591,560091,310,280
Sprite,Foreground,CentreLeft,"sb\font2\0064.png",337.7599,0 S,0,538579,,0.24 F,6,538688,539188,0,1 MY,2,538688,539188,280,310 F,7,559579,560079,1,0 MY,2,559579,560079,310,280
Sprite,Foreground,CentreLeft,"sb\font2\0065.png",349.52,0 S,0,538579,,0.24 F,6,538917,539417,0,1 MY,2,538917,539417,280,310 F,7,559619,560119,1,0 MY,2,559619,560119,310,280
Sprite,Foreground,CentreLeft,"sb\font2\006e.png",360.08,0 S,0,538579,,0.24 F,6,538880,539380,0,1 MY,2,538880,539380,280,310 F,7,559124,559624,1,0 MY,2,559124,559624,310,280
Sprite,Foreground,CentreLeft,"sb\font2\0073.png",372.08,0 S,0,538579,,0.24 F,6,539054,539554,0,1 MY,2,539054,539554,280,310 F,7,559122,559622,1,0 MY,2,559122,559622,310,280
Sprite,Foreground,CentreLeft,"sb\font2\002c.png",380.72,0 S,0,538579,,0.24 F,6,538678,539178,0,1 MY,2,538678,539178,280,310 F,7,559318,559818,1,0 MY,2,559318,559818,310,280
Sprite,Foreground,CentreLeft,"sb\font2\0067.png",396,0 S,0,538579,,0.24 F,6,538906,539406,0,1 MY,2,538906,539406,280,310 F,7,559598,560098,1,0 MY,2,559598,560098,310,280
Sprite,Foreground,CentreLeft,"sb\font2\006c.png",407.76,0 S,0,538579,,0.24 F,6,538811,539311,0,1 MY,2,538811,539311,280,310 F,7,559420,559920,1,0 MY,2,559420,559920,310,280
Sprite,Foreground,CentreLeft,"sb\font2\0061.png",413.28,0 S,0,538579,,0.24 F,6,538885,539385,0,1 MY,2,538885,539385,280,310 F,7,559439,559939,1,0 MY,2,559439,559939,310,280
Sprite,Foreground,CentreLeft,"sb\font2\0073.png",424.08,0 S,0,538579,,0.24 F,6,538902,539402,0,1 MY,2,538902,539402,280,310 F,7,559511,560011,1,0 MY,2,559511,560011,310,280
Sprite,Foreground,CentreLeft,"sb\font2\0073.png",432.72,0 S,0,538579,,0.24 F,6,538872,539372,0,1 MY,2,538872,539372,280,310 F,7,559635,560135,1,0 MY,2,559635,560135,310,280
Sprite,Foreground,CentreLeft,"sb\font2\0065.png",441.36,0 S,0,538579,,0.24 F,6,538979,539479,0,1 MY,2,538979,539479,280,310 F,7,559328,559828,1,0 MY,2,559328,559828,310,280
Sprite,Foreground,CentreLeft,"sb\font2\002c.png",451.92,0 S,0,538579,,0.24 F,6,538648,539148,0,1 MY,2,538648,539148,280,310 F,7,559103,559603,1,0 MY,2,559103,559603,310,280
Sprite,Foreground,CentreLeft,"sb\font2\004d.png",467.2,0 S,0,538579,,0.24 F,6,538967,539467,0,1 MY,2,538967,539467,280,310 F,7,559589,560089,1,0 MY,2,559589,560089,310,280
Sprite,Foreground,CentreLeft,"sb\font2\0075.png",483.52,0 S,0,538579,,0.24 F,6,538828,539328,0,1 MY,2,538828,539328,280,310 F,7,559637,560137,1,0 MY,2,559637,560137,310,280
Sprite,Foreground,CentreLeft,"sb\font2\0073.png",495.28,0 S,0,538579,,0.24 F,6,539095,539595,0,1 MY,2,539095,539595,280,310 F,7,559267,559767,1,0 MY,2,559267,559767,310,280
Sprite,Foreground,CentreLeft,"sb\font2\0061.png",503.92,0 S,0,538579,,0.24 F,6,538687,539187,0,1 MY,2,538687,539187,280,310 F,7,559079,559579,1,0 MY,2,559079,559579,310,280
Sprite,Foreground,CentreLeft,"sb\font2\0074.png",514.72,0 S,0,538579,,0.24 F,6,538816,539316,0,1 MY,2,538816,539316,280,310 F,7,559135,559635,1,0 MY,2,559135,559635,310,280
Sprite,Foreground,CentreLeft,"sb\font2\0075.png",522.4,0 S,0,538579,,0.24 F,6,538708,539208,0,1 MY,2,538708,539208,280,310 F,7,559604,560104,1,0 MY,2,559604,560104,310,280
Sprite,Foreground,CentreLeft,"sb\font2\0072.png",534.16,0 S,0,538579,,0.24 F,6,538916,539416,0,1 MY,2,538916,539416,280,310 F,7,559311,559811,1,0 MY,2,559311,559811,310,280
Sprite,Foreground,CentreLeft,"sb\font2\0065.png",541.84,0 S,0,538579,,0.24 F,6,538739,539239,0,1 MY,2,538739,539239,280,310 F,7,559187,559687,1,0 MY,2,559187,559687,310,280
Sprite,Foreground,CentreLeft,"sb\font2\002c.png",552.4,0 S,0,538579,,0.24 F,6,538755,539255,0,1 MY,2,538755,539255,280,310 F,7,559185,559685,1,0 MY,2,559185,559685,310,280
Sprite,Foreground,CentreLeft,"sb\font2\004d.png",226,0 S,0,538579,,0.24 F,6,538856,539356,0,1 MY,2,538856,539356,300,330 F,7,559347,559847,1,0 MY,2,559347,559847,330,300
Sprite,Foreground,CentreLeft,"sb\font2\0079.png",242.32,0 S,0,538579,,0.24 F,6,538677,539177,0,1 MY,2,538677,539177,300,330 F,7,559554,560054,1,0 MY,2,559554,560054,330,300
Sprite,Foreground,CentreLeft,"sb\font2\006e.png",252.88,0 S,0,538579,,0.24 F,6,538652,539152,0,1 MY,2,538652,539152,300,330 F,7,559165,559665,1,0 MY,2,559165,559665,330,300
Sprite,Foreground,CentreLeft,"sb\font2\0074.png",264.88,0 S,0,538579,,0.24 F,6,539022,539522,0,1 MY,2,539022,539522,300,330 F,7,559420,559920,1,0 MY,2,559420,559920,330,300
Sprite,Foreground,CentreLeft,"sb\font2\0069.png",272.56,0 S,0,538579,,0.24 F,6,538683,539183,0,1 MY,2,538683,539183,300,330 F,7,559520,560020,1,0 MY,2,559520,560020,330,300
Sprite,Foreground,CentreLeft,"sb\font2\0061.png",278.08,0 S,0,538579,,0.24 F,6,538696,539196,0,1 MY,2,538696,539196,300,330 F,7,559159,559659,1,0 MY,2,559159,559659,330,300
Sprite,Foreground,CentreLeft,"sb\font2\006e.png",288.88,0 S,0,538579,,0.24 F,6,538719,539219,0,1 MY,2,538719,539219,300,330 F,7,559481,559981,1,0 MY,2,559481,559981,330,300
Sprite,Foreground,CentreLeft,"sb\font2\002c.png",300.88,0 S,0,538579,,0.24 F,6,539038,539538,0,1 MY,2,539038,539538,300,330 F,7,559334,559834,1,0 MY,2,559334,559834,330,300
Sprite,Foreground,CentreLeft,"sb\font2\0053.png",316.16,0 S,0,538579,,0.24 F,6,538760,539260,0,1 MY,2,538760,539260,300,330 F,7,559411,559911,1,0 MY,2,559411,559911,330,300
Sprite,Foreground,CentreLeft,"sb\font2\0061.png",326,0 S,0,538579,,0.24 F,6,539003,539503,0,1 MY,2,539003,539503,300,330 F,7,559537,560037,1,0 MY,2,559537,560037,330,300
Sprite,Foreground,CentreLeft,"sb\font2\0064.png",336.8,0 S,0,538579,,0.24 F,6,538734,539234,0,1 MY,2,538734,539234,300,330 F,7,559531,560031,1,0 MY,2,559531,560031,330,300
Sprite,Foreground,CentreLeft,"sb\font2\004b.png",358.56,0 S,0,538579,,0.24 F,6,538738,539238,0,1 MY,2,538738,539238,300,330 F,7,559347,559847,1,0 MY,2,559347,559847,330,300
Sprite,Foreground,CentreLeft,"sb\font2\0065.png",372.24,0 S,0,538579,,0.24 F,6,538889,539389,0,1 MY,2,538889,539389,300,330 F,7,559197,559697,1,0 MY,2,559197,559697,330,300
Sprite,Foreground,CentreLeft,"sb\font2\0079.png",382.8,0 S,0,538579,,0.24 F,6,538819,539319,0,1 MY,2,538819,539319,300,330 F,7,559401,559901,1,0 MY,2,559401,559901,330,300
Sprite,Foreground,CentreLeft,"sb\font2\0062.png",393.36,0 S,0,538579,,0.24 F,6,538631,539131,0,1 MY,2,538631,539131,300,330 F,7,559112,559612,1,0 MY,2,559112,559612,330,300
Sprite,Foreground,CentreLeft,"sb\font2\006f.png",404.8799,0 S,0,538579,,0.24 F,6,538880,539380,0,1 MY,2,538880,539380,300,330 F,7,559205,559705,1,0 MY,2,559205,559705,330,300
Sprite,Foreground,CentreLeft,"sb\font2\0061.png",416.3999,0 S,0,538579,,0.24 F,6,538987,539487,0,1 MY,2,538987,539487,300,330 F,7,559315,559815,1,0 MY,2,559315,559815,330,300
Sprite,Foreground,CentreLeft,"sb\font2\0072.png",427.1999,0 S,0,538579,,0.24 F,6,538579,539079,0,1 MY,2,538579,539079,300,330 F,7,559422,559922,1,0 MY,2,559422,559922,330,300
Sprite,Foreground,CentreLeft,"sb\font2\0064.png",434.8799,0 S,0,538579,,0.24 F,6,539134,539634,0,1 MY,2,539134,539634,300,330 F,7,559533,560033,1,0 MY,2,559533,560033,330,300
Sprite,Foreground,CentreLeft,"sb\font2\0047.png",456.6399,0 S,0,538579,,0.24 F,6,539044,539544,0,1 MY,2,539044,539544,300,330 F,7,559184,559684,1,0 MY,2,559184,559684,330,300
Sprite,Foreground,CentreLeft,"sb\font2\0075.png",470.5599,0 S,0,538579,,0.24 F,6,538723,539223,0,1 MY,2,538723,539223,300,330 F,7,559196,559696,1,0 MY,2,559196,559696,330,300
Sprite,Foreground,CentreLeft,"sb\font2\0079.png",482.3199,0 S,0,538579,,0.24 F,6,538692,539192,0,1 MY,2,538692,539192,300,330 F,7,559288,559788,1,0 MY,2,559288,559788,330,300
Sprite,Foreground,CentreLeft,"sb\font2\0046.png",140,0 S,0,538579,,0.24 F,6,539090,539590,0,1 MY,2,539090,539590,320,350 F,7,559178,559678,1,0 MY,2,559178,559678,350,320
Sprite,Foreground,CentreLeft,"sb\font2\0072.png",151.04,0 S,0,538579,,0.24 F,6,539123,539623,0,1 MY,2,539123,539623,320,350 F,7,559348,559848,1,0 MY,2,559348,559848,350,320
Sprite,Foreground,CentreLeft,"sb\font2\006f.png",158.72,0 S,0,538579,,0.24 F,6,538674,539174,0,1 MY,2,538674,539174,320,350 F,7,559102,559602,1,0 MY,2,559102,559602,350,320
Sprite,Foreground,CentreLeft,"sb\font2\006d.png",170.24,0 S,0,538579,,0.24 F,6,538659,539159,0,1 MY,2,538659,539159,320,350 F,7,559448,559948,1,0 MY,2,559448,559948,350,320
Sprite,Foreground,CentreLeft,"sb\font2\0041.png",196.8,0 S,0,538579,,0.24 F,6,538891,539391,0,1 MY,2,538891,539391,320,350 F,7,559339,559839,1,0 MY,2,559339,559839,350,320
Sprite,Foreground,CentreLeft,"sb\font2\006c.png",211.2,0 S,0,538579,,0.24 F,6,539158,539658,0,1 MY,2,539158,539658,320,350 F,7,559446,559946,1,0 MY,2,559446,559946,350,320
Sprite,Foreground,CentreLeft,"sb\font2\0062.png",216.72,0 S,0,538579,,0.24 F,6,538716,539216,0,1 MY,2,538716,539216,320,350 F,7,559450,559950,1,0 MY,2,559450,559950,350,320
Sprite,Foreground,CentreLeft,"sb\font2\0075.png",228.24,0 S,0,538579,,0.24 F,6,538773,539273,0,1 MY,2,538773,539273,320,350 F,7,559576,560076,1,0 MY,2,559576,560076,350,320
Sprite,Foreground,CentreLeft,"sb\font2\006d.png",240,0 S,0,538579,,0.24 F,6,539054,539554,0,1 MY,2,539054,539554,320,350 F,7,559141,559641,1,0 MY,2,559141,559641,350,320
Sprite,Foreground,CentreLeft,"sb\font2\003a.png",256.56,0 S,0,538579,,0.24 F,6,538897,539397,0,1 MY,2,538897,539397,320,350 F,7,559091,559591,1,0 MY,2,559091,559591,350,320
Sprite,Foreground,CentreLeft,"sb\font2\0061.png",271.84,0 S,0,538579,,0.24 F,6,538747,539247,0,1 MY,2,538747,539247,320,350 F,7,559612,560112,1,0 MY,2,559612,560112,350,320
Sprite,Foreground,CentreLeft,"sb\font2\0073.png",282.64,0 S,0,538579,,0.24 F,6,538879,539379,0,1 MY,2,538879,539379,320,350 F,7,559525,560025,1,0 MY,2,559525,560025,350,320
Sprite,Foreground,CentreLeft,"sb\font2\0074.png",301.28,0 S,0,538579,,0.24 F,6,539009,539509,0,1 MY,2,539009,539509,320,350 F,7,559136,559636,1,0 MY,2,559136,559636,350,320
Sprite,Foreground,CentreLeft,"sb\font2\0068.png",308.96,0 S,0,538579,,0.24 F,6,538908,539408,0,1 MY,2,538908,539408,320,350 F,7,559347,559847,1,0 MY,2,559347,559847,350,320
Sprite,Foreground,CentreLeft,"sb\font2\0065.png",320.96,0 S,0,538579,,0.24 F,6,539075,539575,0,1 MY,2,539075,539575,320,350 F,7,559340,559840,1,0 MY,2,559340,559840,350,320
Sprite,Foreground,CentreLeft,"sb\font2\0075.png",341.52,0 S,0,538579,,0.24 F,6,538922,539422,0,1 MY,2,538922,539422,320,350 F,7,559059,559559,1,0 MY,2,559059,559559,350,320
Sprite,Foreground,CentreLeft,"sb\font2\006e.png",353.28,0 S,0,538579,,0.24 F,6,538946,539446,0,1 MY,2,538946,539446,320,350 F,7,559571,560071,1,0 MY,2,559571,560071,350,320
Sprite,Foreground,CentreLeft,"sb\font2\0069.png",365.28,0 S,0,538579,,0.24 F,6,538965,539465,0,1 MY,2,538965,539465,320,350 F,7,559232,559732,1,0 MY,2,559232,559732,350,320
Sprite,Foreground,CentreLeft,"sb\font2\0076.png",370.8,0 S,0,538579,,0.24 F,6,538782,539282,0,1 MY,2,538782,539282,320,350 F,7,559591,560091,1,0 MY,2,559591,560091,350,320
Sprite,Foreground,CentreLeft,"sb\font2\0065.png",381.36,0 S,0,538579,,0.24 F,6,538835,539335,0,1 MY,2,538835,539335,320,350 F,7,559050,559550,1,0 MY,2,559050,559550,350,320
Sprite,Foreground,CentreLeft,"sb\font2\0072.png",391.92,0 S,0,538579,,0.24 F,6,539160,539660,0,1 MY,2,539160,539660,320,350 F,7,559552,560052,1,0 MY,2,559552,560052,350,320
Sprite,Foreground,CentreLeft,"sb\font2\0073.png",399.5999,0 S,0,538579,,0.24 F,6,539021,539521,0,1 MY,2,539021,539521,320,350 F,7,559169,559669,1,0 MY,2,559169,559669,350,320
Sprite,Foreground,CentreLeft,"sb\font2\0065.png",408.2399,0 S,0,538579,,0.24 F,6,538864,539364,0,1 MY,2,538864,539364,320,350 F,7,559254,559754,1,0 MY,2,559254,559754,350,320
Sprite,Foreground,CentreLeft,"sb\font2\002c.png",418.7999,0 S,0,538579,,0.24 F,6,538814,539314,0,1 MY,2,538814,539314,320,350 F,7,559205,559705,1,0 MY,2,559205,559705,350,320
Sprite,Foreground,CentreLeft,"sb\font2\0073.png",434.0799,0 S,0,538579,,0.24 F,6,538868,539368,0,1 MY,2,538868,539368,320,350 F,7,559589,560089,1,0 MY,2,559589,560089,350,320
Sprite,Foreground,CentreLeft,"sb\font2\006f.png",442.7199,0 S,0,538579,,0.24 F,6,538838,539338,0,1 MY,2,538838,539338,320,350 F,7,559102,559602,1,0 MY,2,559102,559602,350,320
Sprite,Foreground,CentreLeft,"sb\font2\0074.png",464.2399,0 S,0,538579,,0.24 F,6,539006,539506,0,1 MY,2,539006,539506,320,350 F,7,559121,559621,1,0 MY,2,559121,559621,350,320
Sprite,Foreground,CentreLeft,"sb\font2\0068.png",471.9199,0 S,0,538579,,0.24 F,6,538648,539148,0,1 MY,2,538648,539148,320,350 F,7,559599,560099,1,0 MY,2,559599,560099,350,320
Sprite,Foreground,CentreLeft,"sb\font2\0065.png",483.9199,0 S,0,538579,,0.24 F,6,539006,539506,0,1 MY,2,539006,539506,320,350 F,7,559118,559618,1,0 MY,2,559118,559618,350,320
Sprite,Foreground,CentreLeft,"sb\font2\0073.png",504.4799,0 S,0,538579,,0.24 F,6,539047,539547,0,1 MY,2,539047,539547,320,350 F,7,559059,559559,1,0 MY,2,559059,559559,350,320
Sprite,Foreground,CentreLeft,"sb\font2\006f.png",513.1199,0 S,0,538579,,0.24 F,6,538901,539401,0,1 MY,2,538901,539401,320,350 F,7,559432,559932,1,0 MY,2,559432,559932,350,320
Sprite,Foreground,CentreLeft,"sb\font2\0075.png",524.6399,0 S,0,538579,,0.24 F,6,539081,539581,0,1 MY,2,539081,539581,320,350 F,7,559072,559572,1,0 MY,2,559072,559572,350,320
Sprite,Foreground,CentreLeft,"sb\font2\006c.png",536.3999,0 S,0,538579,,0.24 F,6,539124,539624,0,1 MY,2,539124,539624,320,350 F,7,559619,560119,1,0 MY,2,559619,560119,350,320
//Storyboard Layer 4 (Overlay)
//Storyboard Sound Samples

[TimingPoints]
3029,750,6,2,1,30,1,0
3029,-47.058824,6,2,1,30,0,0
75029,750,4,2,1,30,1,0
75029,-47.058824,4,2,1,30,0,0
126029,375,4,2,1,30,1,0
126029,-94.117647,4,2,1,30,0,1
174029,-94.117647,4,2,1,30,0,0
196529,363.636363636364,4,2,1,30,1,0
196529,-97.058824,4,2,1,30,0,0
197256,342.857142857143,4,2,1,30,1,0
197256,-102.941176,4,2,1,30,0,0
197941,317.460317460317,4,2,1,30,1,0
197941,-111.764706,4,2,1,30,0,0
198576,295.566502463054,4,2,1,30,1,0
198576,-119.411765,4,2,1,30,0,0
199167,281.69014084507,4,2,1,30,1,0
199167,-125.294118,4,2,1,30,0,0
199730,266.666666666667,4,2,1,30,1,0
199730,-132.352941,4,2,1,30,0,0
200263,250,4,2,1,30,1,0
200263,-141.176471,4,2,1,30,0,0
200763,240,4,2,1,30,1,0
200763,-147.058824,4,2,1,30,0,0
201243,237.154150197628,4,2,1,30,1,0
201243,-148.823529,4,2,1,30,0,0
202191,234.375,5,2,1,30,1,0
202191,-150.588235,5,2,1,30,0,1
204534,234.375,4,2,1,30,1,1
204534,-151.515151515152,4,2,1,30,0,1
206409,234.375,5,2,1,30,1,1
206409,-151.515151515152,5,2,1,30,0,1
208753,234.375,6,2,1,30,1,1
208753,-151.515151515152,6,2,1,30,0,1
210159,234.375,5,2,1,30,1,1
210159,-151.515151515152,5,2,1,30,0,1
212503,234.375,6,2,1,30,1,1
212503,-151.515151515152,6,2,1,30,0,1
215316,234.375,5,2,1,30,1,1
215316,-151.515151515152,5,2,1,30,0,1
217659,234.375,6,2,1,30,1,1
217659,-151.515151515152,6,2,1,30,0,1
219066,234.375,4,2,1,30,1,1
219066,-150.588235,4,2,1,30,0,1
249066,-150.588235,4,2,1,30,0,0
259378,240,4,2,1,30,1,0
259378,-147.058824,4,2,1,30,0,0
259738,260.869565217391,4,2,1,30,1,0
259738,-135.294118,4,2,1,30,0,0
260129,279.06976744186,4,2,1,30,1,0
260129,-126.470588,4,2,1,30,0,0
260547,307.692307692308,4,2,1,30,1,0
260547,-114.705882,4,2,1,30,0,0
261008,324.324324324324,4,2,1,30,1,0
261008,-108.823529,4,2,1,30,0,0
263277,324.324324324324,4,2,1,30,1,0
263277,-108.823529,4,2,1,30,0,1
304790,328.767123287671,4,2,1,30,1,0
304790,-107.647059,4,2,1,30,0,0
306105,326.086956521739,4,2,1,30,1,0
306105,-108.235294,4,2,1,30,0,0
307898,329.67032967033,4,2,1,30,1,8
307898,-107.058824,4,2,1,30,0,0
308722,331.491712707182,4,2,1,30,1,0
308722,-106.470588,4,2,1,30,0,0
311373,332.963374028857,4,2,1,30,1,0
311373,-106,4,2,1,30,0,0
312704,334.821428571429,4,2,1,30,1,0
312704,-105.411765,4,2,1,30,0,0
315382,342.270393610953,4,2,1,30,1,0
315382,-102.941176,4,2,1,30,0,0
326449,352.941176470588,4,2,1,30,1,0
377233,352.941176470588,4,2,1,30,1,0
380056,352.941176470588,4,2,1,30,1,0
391350,346.820809248555,4,2,1,30,1,0
391350,-101.764706,4,2,1,30,0,0
392737,338.983050847458,4,2,1,30,1,0
392737,-104.117647,4,2,1,30,0,0
394092,331.491712707182,4,2,1,30,1,0
394092,-106.470588,4,2,1,30,0,0
395417,320.855614973262,4,2,1,30,1,0
395417,-110,4,2,1,30,0,0
396700,315.789473684211,4,2,1,30,1,0
396700,-111.764706,4,2,1,30,0,0
402068,315.789473684211,4,2,1,30,1,0
402068,-111.764706,4,2,1,30,0,1
422594,315.789473684211,4,2,1,30,1,1
422594,-111.764706,4,2,1,30,0,1
433330,315.789473684211,4,2,1,30,1,1
433330,-111.764706,4,2,1,30,0,1
443435,-111.764706,4,2,1,30,0,0
444698,352.941176470588,4,2,1,30,1,0
470109,352.941176470588,4,2,1,30,1,0
492697,-100,4,2,1,30,0,1
537873,-100,4,2,1,30,0,0

[HitObjects]
329,192,3029,128,0,3872:0:0:0:0:
256,192,3029,1,0,0:0:0:0:
475,192,3029,1,0,0:0:0:0:
36,192,3404,1,0,0:0:0:0:
475,192,3779,128,0,3872:0:0:0:0:
109,192,3779,1,0,0:0:0:0:
182,192,4154,1,0,0:0:0:0:
402,192,4529,128,0,5372:0:0:0:0:
256,192,4529,1,0,0:0:0:0:
475,192,4904,1,0,0:0:0:0:
329,192,5279,1,0,0:0:0:0:
256,192,5654,1,0,0:0:0:0:
256,192,6029,128,0,6872:0:0:0:0:
109,192,6029,1,0,0:0:0:0:
182,192,6404,1,0,0:0:0:0:
109,192,6779,1,0,0:0:0:0:
182,192,7154,1,0,0:0:0:0:
36,192,7529,1,0,0:0:0:0:
256,192,7529,1,0,0:0:0:0:
109,192,7904,1,0,0:0:0:0:
256,192,8279,1,0,0:0:0:0:
402,192,8654,1,0,0:0:0:0:
182,192,9029,128,0,9872:0:0:0:0:
329,192,9029,1,0,0:0:0:0:
475,192,9404,1,0,0:0:0:0:
36,192,9591,128,0,9685:0:0:0:0:
329,192,9779,1,0,0:0:0:0:
256,192,10154,1,0,0:0:0:0:
109,192,10529,128,0,11372:0:0:0:0:
402,192,10529,1,0,0:0:0:0:
329,192,10904,1,0,0:0:0:0:
475,192,11279,1,0,0:0:0:0:
36,192,11654,1,0,0:0:0:0:
256,192,12029,128,0,12872:0:0:0:0:
475,192,12029,1,0,0:0:0:0:
402,192,12029,1,0,0:0:0:0:
36,192,12404,1,0,0:0:0:0:
109,192,12779,1,0,0:0:0:0:
402,192,12966,128,0,13060:0:0:0:0:
182,192,13154,1,0,0:0:0:0:
256,192,13529,1,0,0:0:0:0:
36,192,13529,1,0,0:0:0:0:
36,192,13716,128,0,13810:0:0:0:0:
475,192,13904,1,0,0:0:0:0:
36,192,14091,128,0,14185:0:0:0:0:
329,192,14279,1,0,0:0:0:0:
256,192,14654,1,0,0:0:0:0:
109,192,15029,1,0,0:0:0:0:
475,192,15029,128,0,15591:0:0:0:0:
182,192,15404,1,0,0:0:0:0:
109,192,15779,1,0,0:0:0:0:
182,192,16154,1,0,0:0:0:0:
256,192,16529,1,0,0:0:0:0:
36,192,16529,1,0,0:0:0:0:
402,192,16529,128,0,17372:0:0:0:0:
109,192,16904,1,0,0:0:0:0:
182,192,17279,1,0,0:0:0:0:
256,192,17654,1,0,0:0:0:0:
36,192,18029,128,0,18872:0:0:0:0:
329,192,18029,1,0,0:0:0:0:
402,192,18404,1,0,0:0:0:0:
329,192,18779,1,0,0:0:0:0:
256,192,19154,1,0,0:0:0:0:
182,192,19529,1,0,0:0:0:0:
475,192,19529,128,0,20372:0:0:0:0:
256,192,19904,1,0,0:0:0:0:
182,192,20279,1,0,0:0:0:0:
475,192,20654,1,0,0:0:0:0:
402,192,21029,1,0,0:0:0:0:
109,192,21029,128,0,24404:0:0:0:0:
256,192,21029,128,0,22529:0:0:0:0:
36,192,21029,128,0,21779:0:0:0:0:
182,192,21404,1,0,0:0:0:0:
329,192,21779,1,0,0:0:0:0:
402,192,22154,1,0,0:0:0:0:
475,192,22529,128,0,28529:0:0:0:0:
402,192,22529,128,0,23279:0:0:0:0:
36,192,22529,1,0,0:0:0:0:
329,192,22904,1,0,0:0:0:0:
182,192,23279,1,0,0:0:0:0:
36,192,23654,1,0,0:0:0:0:
256,192,24029,128,0,24779:0:0:0:0:
402,192,24029,1,0,0:0:0:0:
329,192,24404,128,0,27029:0:0:0:0:
36,192,24404,1,0,0:0:0:0:
109,192,24779,1,0,0:0:0:0:
256,192,25154,1,0,0:0:0:0:
182,192,25529,1,0,0:0:0:0:
36,192,25529,128,0,26279:0:0:0:0:
402,192,25529,1,0,0:0:0:0:
109,192,25904,1,0,0:0:0:0:
182,192,26279,1,0,0:0:0:0:
256,192,26654,1,0,0:0:0:0:
36,192,27029,128,0,30029:0:0:0:0:
109,192,27029,128,0,27779:0:0:0:0:
182,192,27029,1,0,0:0:0:0:
329,192,27404,1,0,0:0:0:0:
256,192,27779,1,0,0:0:0:0:
182,192,28154,1,0,0:0:0:0:
256,192,28529,128,0,34529:0:0:0:0:
329,192,28529,128,0,29279:0:0:0:0:
402,192,28529,1,0,0:0:0:0:
109,192,28904,1,0,0:0:0:0:
182,192,29279,1,0,0:0:0:0:
402,192,29654,1,0,0:0:0:0:
475,192,30029,128,0,33029:0:0:0:0:
182,192,30029,128,0,30779:0:0:0:0:
329,192,30029,1,0,0:0:0:0:
36,192,30404,1,0,0:0:0:0:
109,192,30779,1,0,0:0:0:0:
182,192,31154,1,0,0:0:0:0:
36,192,31529,128,0,31622:0:0:0:0:
329,192,31529,1,0,0:0:0:0:
402,192,31904,1,0,0:0:0:0:
329,192,32279,1,0,0:0:0:0:
182,192,32654,1,0,0:0:0:0:
329,192,33029,128,0,33779:0:0:0:0:
36,192,33029,1,0,0:0:0:0:
109,192,33404,128,0,37154:0:0:0:0:
402,192,33404,1,0,0:0:0:0:
182,192,33779,1,0,0:0:0:0:
329,192,34154,1,0,0:0:0:0:
402,192,34529,128,0,37529:0:0:0:0:
475,192,34529,128,0,35279:0:0:0:0:
36,192,34529,1,0,0:0:0:0:
256,192,34904,1,0,0:0:0:0:
182,192,35279,1,0,0:0:0:0:
256,192,35654,1,0,0:0:0:0:
182,192,36029,128,0,36779:0:0:0:0:
329,192,36029,1,0,0:0:0:0:
475,192,36404,1,0,0:0:0:0:
329,192,36779,1,0,0:0:0:0:
256,192,37154,1,0,0:0:0:0:
256,192,37529,128,0,39122:0:0:0:0:
36,192,37529,128,0,38279:0:0:0:0:
109,192,37529,1,0,0:0:0:0:
329,192,37904,1,0,0:0:0:0:
182,192,38279,1,0,0:0:0:0:
402,192,38654,1,0,0:0:0:0:
182,192,39029,128,0,39122:0:0:0:0:
109,192,39029,128,0,39122:0:0:0:0:
36,192,39029,128,0,39122:0:0:0:0:
475,192,39029,128,0,49529:0:0:0:0:
329,192,39029,128,0,39779:0:0:0:0:
36,192,39404,1,0,0:0:0:0:
109,192,39779,1,0,0:0:0:0:
182,192,40154,1,0,0:0:0:0:
36,192,40529,128,0,45029:0:0:0:0:
182,192,40529,128,0,41279:0:0:0:0:
329,192,40529,1,0,0:0:0:0:
402,192,40904,1,0,0:0:0:0:
329,192,41279,1,0,0:0:0:0:
256,192,41654,1,0,0:0:0:0:
256,192,42029,128,0,46529:0:0:0:0:
329,192,42029,128,0,42779:0:0:0:0:
109,192,42029,1,0,0:0:0:0:
182,192,42404,1,0,0:0:0:0:
109,192,42779,1,0,0:0:0:0:
182,192,43154,1,0,0:0:0:0:
182,192,43529,128,0,44279:0:0:0:0:
402,192,43529,1,0,0:0:0:0:
109,192,43904,1,0,0:0:0:0:
329,192,44279,1,0,0:0:0:0:
182,192,44654,1,0,0:0:0:0:
109,192,45029,128,0,48029:0:0:0:0:
402,192,45029,128,0,45779:0:0:0:0:
329,192,45029,1,0,0:0:0:0:
36,192,45404,1,0,0:0:0:0:
182,192,45779,1,0,0:0:0:0:
329,192,46154,1,0,0:0:0:0:
329,192,46529,128,0,51029:0:0:0:0:
36,192,46529,128,0,47279:0:0:0:0:
402,192,46529,1,0,0:0:0:0:
256,192,46904,1,0,0:0:0:0:
182,192,47279,1,0,0:0:0:0:
36,192,47654,1,0,0:0:0:0:
182,192,48029,128,0,52529:0:0:0:0:
256,192,48029,128,0,48779:0:0:0:0:
402,192,48029,1,0,0:0:0:0:
36,192,48029,1,0,0:0:0:0:
402,192,48216,1,0,0:0:0:0:
36,192,48404,1,0,0:0:0:0:
36,192,48591,1,0,0:0:0:0:
109,192,48779,1,0,0:0:0:0:
109,192,48966,1,0,0:0:0:0:
256,192,49154,1,0,0:0:0:0:
256,192,49341,1,0,0:0:0:0:
256,192,49529,128,0,50279:0:0:0:0:
36,192,49529,128,0,55529:0:0:0:0:
402,192,49529,1,0,0:0:0:0:
109,192,49529,1,0,0:0:0:0:
402,192,49716,1,0,0:0:0:0:
475,192,49904,1,0,0:0:0:0:
475,192,50091,1,0,0:0:0:0:
402,192,50279,1,0,0:0:0:0:
402,192,50466,1,0,0:0:0:0:
256,192,50654,1,0,0:0:0:0:
256,192,50841,1,0,0:0:0:0:
402,192,51029,128,0,51779:0:0:0:0:
109,192,51029,1,0,0:0:0:0:
475,192,51029,1,0,0:0:0:0:
109,192,51216,1,0,0:0:0:0:
256,192,51404,1,0,0:0:0:0:
256,192,51591,1,0,0:0:0:0:
109,192,51779,1,0,0:0:0:0:
109,192,51966,1,0,0:0:0:0:
329,192,52154,1,0,0:0:0:0:
329,192,52341,1,0,0:0:0:0:
256,192,52529,128,0,56935:0:0:0:0:
475,192,52529,128,0,55529:0:0:0:0:
402,192,52529,128,0,53279:0:0:0:0:
109,192,52529,1,0,0:0:0:0:
109,192,52716,1,0,0:0:0:0:
182,192,52904,1,0,0:0:0:0:
182,192,53091,1,0,0:0:0:0:
329,192,53279,1,0,0:0:0:0:
329,192,53466,1,0,0:0:0:0:
402,192,53654,1,0,0:0:0:0:
402,192,53841,1,0,0:0:0:0:
109,192,54029,128,0,54779:0:0:0:0:
182,192,54029,1,0,0:0:0:0:
182,192,54216,1,0,0:0:0:0:
402,192,54404,1,0,0:0:0:0:
402,192,54591,1,0,0:0:0:0:
329,192,54779,1,0,0:0:0:0:
329,192,54966,1,0,0:0:0:0:
182,192,55154,1,0,0:0:0:0:
182,192,55341,1,0,0:0:0:0:
182,192,55529,128,0,56935:0:0:0:0:
329,192,55529,128,0,56935:0:0:0:0:
109,192,55529,1,0,0:0:0:0:
402,192,55529,1,0,0:0:0:0:
109,192,55716,128,0,56935:0:0:0:0:
402,192,55904,1,0,0:0:0:0:
402,192,56091,128,0,56935:0:0:0:0:
36,192,56279,1,0,0:0:0:0:
36,192,56466,128,0,56935:0:0:0:0:
475,192,56654,1,0,0:0:0:0:
475,192,56841,128,0,56935:0:0:0:0:
36,192,57029,1,0,0:0:0:0:
109,192,57029,128,0,57216:0:0:0:0:
475,192,57029,128,0,57404:0:0:0:0:
329,192,57029,1,0,0:0:0:0:
256,192,57029,128,0,57216:0:0:0:0:
402,192,57029,128,0,57966:0:0:0:0:
182,192,57216,1,0,0:0:0:0:
36,192,57216,128,0,58154:0:0:0:0:
329,192,57216,128,0,57591:0:0:0:0:
109,192,57404,1,0,0:0:0:0:
182,192,57404,128,0,57591:0:0:0:0:
256,192,57591,1,0,0:0:0:0:
109,192,57591,128,0,58247:0:0:0:0:
475,192,57591,128,0,58341:0:0:0:0:
182,192,57779,1,0,0:0:0:0:
256,192,57779,128,0,57966:0:0:0:0:
329,192,57966,1,0,0:0:0:0:
182,192,57966,128,0,58341:0:0:0:0:
256,192,58154,1,0,0:0:0:0:
329,192,58154,128,0,58341:0:0:0:0:
402,192,58341,1,0,0:0:0:0:
36,192,58341,1,0,0:0:0:0:
256,192,58341,128,0,58529:0:0:0:0:
109,192,58435,1,0,0:0:0:0:
475,192,58529,1,0,0:0:0:0:
329,192,58529,1,0,0:0:0:0:
36,192,58529,128,0,59091:0:0:0:0:
402,192,58529,128,0,58716:0:0:0:0:
182,192,58529,128,0,59279:0:0:0:0:
329,192,58716,1,0,0:0:0:0:
475,192,58716,128,0,59654:0:0:0:0:
402,192,58904,1,0,0:0:0:0:
329,192,58904,128,0,59091:0:0:0:0:
256,192,59091,1,0,0:0:0:0:
402,192,59091,128,0,59747:0:0:0:0:
329,192,59279,1,0,0:0:0:0:
256,192,59279,128,0,59466:0:0:0:0:
36,192,59279,128,0,59841:0:0:0:0:
182,192,59466,1,0,0:0:0:0:
329,192,59466,128,0,59841:0:0:0:0:
256,192,59654,1,0,0:0:0:0:
182,192,59654,128,0,59841:0:0:0:0:
109,192,59841,1,0,0:0:0:0:
475,192,59841,1,0,0:0:0:0:
256,192,59841,128,0,60029:0:0:0:0:
402,192,59935,1,0,0:0:0:0:
36,192,60029,1,0,0:0:0:0:
109,192,60029,128,0,60216:0:0:0:0:
182,192,60029,128,0,60591:0:0:0:0:
329,192,60029,1,0,0:0:0:0:
475,192,60029,128,0,60404:0:0:0:0:
256,192,60216,1,0,0:0:0:0:
36,192,60216,128,0,61154:0:0:0:0:
402,192,60216,128,0,60591:0:0:0:0:
109,192,60404,1,0,0:0:0:0:
256,192,60404,128,0,60966:0:0:0:0:
329,192,60591,1,0,0:0:0:0:
109,192,60591,128,0,61154:0:0:0:0:
475,192,60591,128,0,60966:0:0:0:0:
182,192,60779,1,0,0:0:0:0:
329,192,60779,128,0,61341:0:0:0:0:
402,192,60966,1,0,0:0:0:0:
182,192,60966,128,0,61529:0:0:0:0:
256,192,61154,1,0,0:0:0:0:
402,192,61154,128,0,61341:0:0:0:0:
256,192,61341,128,0,61529:0:0:0:0:
109,192,61341,1,0,0:0:0:0:
36,192,61529,128,0,61904:0:0:0:0:
329,192,61529,1,0,0:0:0:0:
475,192,61529,1,0,0:0:0:0:
402,192,61529,128,0,61716:0:0:0:0:
109,192,61529,128,0,62466:0:0:0:0:
329,192,61716,1,0,0:0:0:0:
475,192,61716,128,0,62654:0:0:0:0:
182,192,61716,128,0,62091:0:0:0:0:
402,192,61904,1,0,0:0:0:0:
329,192,61904,128,0,62091:0:0:0:0:
256,192,62091,1,0,0:0:0:0:
402,192,62091,128,0,62747:0:0:0:0:
36,192,62091,128,0,62841:0:0:0:0:
329,192,62279,1,0,0:0:0:0:
256,192,62279,128,0,62466:0:0:0:0:
182,192,62466,1,0,0:0:0:0:
329,192,62466,128,0,62841:0:0:0:0:
256,192,62654,1,0,0:0:0:0:
182,192,62654,128,0,62841:0:0:0:0:
109,192,62841,1,0,0:0:0:0:
475,192,62841,1,0,0:0:0:0:
256,192,62841,128,0,63029:0:0:0:0:
402,192,62935,1,0,0:0:0:0:
36,192,63029,1,0,0:0:0:0:
182,192,63029,1,0,0:0:0:0:
475,192,63029,128,0,63591:0:0:0:0:
109,192,63029,128,0,63216:0:0:0:0:
329,192,63029,128,0,63779:0:0:0:0:
182,192,63216,1,0,0:0:0:0:
36,192,63216,128,0,64154:0:0:0:0:
109,192,63404,1,0,0:0:0:0:
182,192,63404,128,0,63591:0:0:0:0:
256,192,63591,1,0,0:0:0:0:
109,192,63591,128,0,64247:0:0:0:0:
182,192,63779,1,0,0:0:0:0:
256,192,63779,128,0,63966:0:0:0:0:
475,192,63779,128,0,64341:0:0:0:0:
329,192,63966,1,0,0:0:0:0:
182,192,63966,128,0,64341:0:0:0:0:
256,192,64154,1,0,0:0:0:0:
329,192,64154,128,0,64341:0:0:0:0:
402,192,64341,1,0,0:0:0:0:
36,192,64341,1,0,0:0:0:0:
256,192,64341,128,0,64529:0:0:0:0:
109,192,64435,1,0,0:0:0:0:
475,192,64529,1,0,0:0:0:0:
402,192,64529,128,0,64716:0:0:0:0:
329,192,64529,128,0,65091:0:0:0:0:
182,192,64529,1,0,0:0:0:0:
36,192,64529,128,0,64904:0:0:0:0:
256,192,64716,1,0,0:0:0:0:
475,192,64716,128,0,65466:0:0:0:0:
109,192,64716,128,0,65091:0:0:0:0:
402,192,64904,1,0,0:0:0:0:
256,192,64904,128,0,65466:0:0:0:0:
182,192,65091,1,0,0:0:0:0:
402,192,65091,128,0,65654:0:0:0:0:
36,192,65091,128,0,65466:0:0:0:0:
329,192,65279,1,0,0:0:0:0:
182,192,65279,128,0,65654:0:0:0:0:
109,192,65466,1,0,0:0:0:0:
329,192,65466,128,0,65841:0:0:0:0:
109,192,65654,128,0,65747:0:0:0:0:
36,192,65654,128,0,65841:0:0:0:0:
256,192,65654,128,0,65841:0:0:0:0:
182,192,65841,1,0,0:0:0:0:
475,192,65841,1,0,0:0:0:0:
402,192,65841,128,0,66966:0:0:0:0:
109,192,65935,1,0,0:0:0:0:
36,192,66029,1,0,0:0:0:0:
475,192,66029,1,0,0:0:0:0:
256,192,66029,128,0,66404:0:0:0:0:
182,192,66029,128,0,66216:0:0:0:0:
329,192,66029,128,0,66591:0:0:0:0:
109,192,66216,1,0,0:0:0:0:
475,192,66216,128,0,66404:0:0:0:0:
36,192,66216,128,0,67154:0:0:0:0:
182,192,66404,1,0,0:0:0:0:
109,192,66404,128,0,66591:0:0:0:0:
475,192,66591,128,0,67341:0:0:0:0:
256,192,66591,1,0,0:0:0:0:
182,192,66591,128,0,66779:0:0:0:0:
109,192,66779,1,0,0:0:0:0:
256,192,66779,128,0,66966:0:0:0:0:
182,192,66966,1,0,0:0:0:0:
109,192,66966,128,0,67247:0:0:0:0:
256,192,67154,1,0,0:0:0:0:
182,192,67154,128,0,67341:0:0:0:0:
329,192,67341,1,0,0:0:0:0:
36,192,67341,1,0,0:0:0:0:
256,192,67341,128,0,67904:0:0:0:0:
109,192,67435,1,0,0:0:0:0:
402,192,67529,1,0,0:0:0:0:
36,192,67529,1,0,0:0:0:0:
475,192,67529,128,0,68091:0:0:0:0:
329,192,67529,128,0,68091:0:0:0:0:
182,192,67529,128,0,67716:0:0:0:0:
109,192,67716,1,0,0:0:0:0:
36,192,67716,128,0,68654:0:0:0:0:
182,192,67904,1,0,0:0:0:0:
109,192,67904,128,0,68091:0:0:0:0:
256,192,68091,1,0,0:0:0:0:
182,192,68091,128,0,68279:0:0:0:0:
109,192,68279,1,0,0:0:0:0:
256,192,68279,128,0,68466:0:0:0:0:
475,192,68279,128,0,68841:0:0:0:0:
182,192,68466,1,0,0:0:0:0:
109,192,68466,128,0,68747:0:0:0:0:
256,192,68654,1,0,0:0:0:0:
182,192,68654,128,0,68841:0:0:0:0:
36,192,68841,1,0,0:0:0:0:
256,192,68841,1,0,0:0:0:0:
329,192,68841,128,0,69029:0:0:0:0:
109,192,68935,1,0,0:0:0:0:
182,192,69029,1,0,0:0:0:0:
402,192,69029,1,0,0:0:0:0:
36,192,69029,128,0,69404:0:0:0:0:
475,192,69029,128,0,69216:0:0:0:0:
256,192,69029,128,0,69591:0:0:0:0:
329,192,69216,1,0,0:0:0:0:
402,192,69216,128,0,69779:0:0:0:0:
182,192,69216,128,0,70341:0:0:0:0:
475,192,69404,1,0,0:0:0:0:
329,192,69404,128,0,70341:0:0:0:0:
109,192,69591,1,0,0:0:0:0:
475,192,69591,128,0,70341:0:0:0:0:
36,192,69591,128,0,70341:0:0:0:0:
109,192,69779,128,0,69966:0:0:0:0:
256,192,69779,1,0,0:0:0:0:
402,192,69966,1,0,0:0:0:0:
256,192,69966,128,0,70154:0:0:0:0:
402,192,70154,128,0,70529:0:0:0:0:
109,192,70154,1,0,0:0:0:0:
109,192,70341,1,0,0:0:0:0:
256,192,70341,128,0,70904:0:0:0:0:
182,192,70529,128,0,71091:0:0:0:0:
109,192,70529,128,0,71466:0:0:0:0:
329,192,70529,128,0,70716:0:0:0:0:
36,192,70529,1,0,0:0:0:0:
475,192,70529,1,0,0:0:0:0:
402,192,70716,1,0,0:0:0:0:
36,192,70716,128,0,70904:0:0:0:0:
475,192,70716,128,0,71654:0:0:0:0:
329,192,70904,1,0,0:0:0:0:
402,192,70904,128,0,71091:0:0:0:0:
36,192,71091,128,0,71841:0:0:0:0:
256,192,71091,1,0,0:0:0:0:
329,192,71091,128,0,71279:0:0:0:0:
402,192,71279,1,0,0:0:0:0:
256,192,71279,128,0,71466:0:0:0:0:
329,192,71466,1,0,0:0:0:0:
402,192,71466,128,0,71747:0:0:0:0:
256,192,71654,1,0,0:0:0:0:
329,192,71654,128,0,71841:0:0:0:0:
182,192,71841,1,0,0:0:0:0:
475,192,71841,1,0,0:0:0:0:
256,192,71841,128,0,72404:0:0:0:0:
402,192,71935,1,0,0:0:0:0:
475,192,72029,1,0,0:0:0:0:
36,192,72029,128,0,72591:0:0:0:0:
182,192,72029,128,0,72591:0:0:0:0:
329,192,72029,128,0,72216:0:0:0:0:
109,192,72029,128,0,72966:0:0:0:0:
402,192,72216,1,0,0:0:0:0:
475,192,72216,128,0,73154:0:0:0:0:
329,192,72404,1,0,0:0:0:0:
402,192,72404,128,0,72591:0:0:0:0:
256,192,72591,1,0,0:0:0:0:
329,192,72591,128,0,72779:0:0:0:0:
402,192,72779,1,0,0:0:0:0:
256,192,72779,128,0,72966:0:0:0:0:
36,192,72779,128,0,73341:0:0:0:0:
329,192,72966,1,0,0:0:0:0:
402,192,72966,128,0,73247:0:0:0:0:
256,192,73154,1,0,0:0:0:0:
329,192,73154,128,0,73341:0:0:0:0:
475,192,73341,1,0,0:0:0:0:
256,192,73341,1,0,0:0:0:0:
182,192,73341,128,0,73529:0:0:0:0:
402,192,73435,1,0,0:0:0:0:
329,192,73529,1,0,0:0:0:0:
109,192,73529,1,0,0:0:0:0:
475,192,73529,128,0,73904:0:0:0:0:
36,192,73529,128,0,73716:0:0:0:0:
256,192,73529,128,0,74091:0:0:0:0:
182,192,73716,1,0,0:0:0:0:
329,192,73716,128,0,74560:0:0:0:0:
109,192,73716,128,0,74560:0:0:0:0:
36,192,73904,1,0,0:0:0:0:
182,192,73904,128,0,74279:0:0:0:0:
402,192,74091,1,0,0:0:0:0:
475,192,74091,128,0,74747:0:0:0:0:
36,192,74091,128,0,74279:0:0:0:0:
402,192,74279,128,0,74560:0:0:0:0:
256,192,74279,1,0,0:0:0:0:
36,192,74466,128,0,74560:0:0:0:0:
182,192,74466,128,0,74560:0:0:0:0:
256,192,74466,128,0,74747:0:0:0:0:
182,192,74654,128,0,74747:0:0:0:0:
36,192,74654,128,0,74747:0:0:0:0:
109,192,74654,128,0,74935:0:0:0:0:
329,192,74654,128,0,74747:0:0:0:0:
402,192,74654,128,0,74935:0:0:0:0:
182,192,74841,128,0,74935:0:0:0:0:
256,192,74841,128,0,74935:0:0:0:0:
329,192,74841,128,0,74935:0:0:0:0:
475,192,74841,128,0,76529:0:0:0:0:
36,192,74841,128,0,77654:0:0:0:0:
109,192,75029,1,0,0:0:0:0:
256,192,75029,1,0,0:0:0:0:
402,192,75029,1,0,0:0:0:0:
402,192,75310,128,0,75404:0:0:0:0:
329,192,75779,128,0,75966:0:0:0:0:
182,192,76154,128,0,77091:0:0:0:0:
329,192,76529,128,0,77091:0:0:0:0:
475,192,76716,128,0,76810:0:0:0:0:
109,192,76904,128,0,77091:0:0:0:0:
182,192,77279,128,0,77560:0:0:0:0:
256,192,77279,128,0,77935:0:0:0:0:
402,192,77466,128,0,77560:0:0:0:0:
109,192,77654,128,0,77935:0:0:0:0:
329,192,77654,128,0,77935:0:0:0:0:
109,192,78029,1,0,0:0:0:0:
256,192,78029,128,0,78404:0:0:0:0:
475,192,78029,1,0,0:0:0:0:
402,192,78404,1,0,0:0:0:0:
182,192,78779,1,0,0:0:0:0:
329,192,79154,1,0,0:0:0:0:
109,192,79529,1,0,0:0:0:0:
36,192,79904,1,0,0:0:0:0:
329,192,80279,1,0,0:0:0:0:
475,192,80279,128,0,83279:0:0:0:0:
109,192,80466,1,0,0:0:0:0:
256,192,80654,1,0,0:0:0:0:
402,192,80654,128,0,82529:0:0:0:0:
329,192,81029,128,0,81779:0:0:0:0:
182,192,81029,1,0,0:0:0:0:
36,192,81404,1,0,0:0:0:0:
256,192,81779,1,0,0:0:0:0:
109,192,82154,1,0,0:0:0:0:
329,192,82529,1,0,0:0:0:0:
36,192,82904,1,0,0:0:0:0:
182,192,82904,1,0,0:0:0:0:
256,192,83279,1,0,0:0:0:0:
109,192,83279,1,0,0:0:0:0:
402,192,83466,1,0,0:0:0:0:
475,192,83560,1,0,0:0:0:0:
329,192,83654,1,0,0:0:0:0:
256,192,84029,1,0,0:0:0:0:
36,192,84029,1,0,0:0:0:0:
475,192,84029,1,0,0:0:0:0:
182,192,84404,1,0,0:0:0:0:
256,192,84779,1,0,0:0:0:0:
329,192,85154,1,0,0:0:0:0:
36,192,85529,1,0,0:0:0:0:
256,192,85529,1,0,0:0:0:0:
475,192,85529,1,0,0:0:0:0:
109,192,85716,1,0,0:0:0:0:
402,192,85904,1,0,0:0:0:0:
109,192,86091,1,0,0:0:0:0:
475,192,86279,128,0,87779:0:0:0:0:
329,192,86279,1,0,0:0:0:0:
109,192,86466,1,0,0:0:0:0:
256,192,86654,1,0,0:0:0:0:
109,192,86841,1,0,0:0:0:0:
329,192,87029,1,0,0:0:0:0:
36,192,87029,128,0,89279:0:0:0:0:
402,192,87029,1,0,0:0:0:0:
182,192,87216,1,0,0:0:0:0:
402,192,87404,1,0,0:0:0:0:
256,192,87779,1,0,0:0:0:0:
109,192,88154,1,0,0:0:0:0:
182,192,88529,1,0,0:0:0:0:
329,192,88904,1,0,0:0:0:0:
256,192,89279,128,0,90029:0:0:0:0:
475,192,89279,1,0,0:0:0:0:
109,192,89654,1,0,0:0:0:0:
475,192,90029,128,0,92279:0:0:0:0:
329,192,90029,1,0,0:0:0:0:
402,192,90404,1,0,0:0:0:0:
256,192,90779,1,0,0:0:0:0:
329,192,91154,1,0,0:0:0:0:
182,192,91529,1,0,0:0:0:0:
36,192,91904,1,0,0:0:0:0:
109,192,92279,128,0,93029:0:0:0:0:
402,192,92279,1,0,0:0:0:0:
182,192,92654,1,0,0:0:0:0:
329,192,93029,128,0,95279:0:0:0:0:
256,192,93029,1,0,0:0:0:0:
475,192,93404,1,0,0:0:0:0:
182,192,93779,1,0,0:0:0:0:
36,192,94154,1,0,0:0:0:0:
109,192,94529,1,0,0:0:0:0:
475,192,94904,1,0,0:0:0:0:
182,192,95279,128,0,96029:0:0:0:0:
36,192,95279,1,0,0:0:0:0:
329,192,95654,1,0,0:0:0:0:
402,192,96029,128,0,97529:0:0:0:0:
475,192,96029,1,0,0:0:0:0:
256,192,96404,1,0,0:0:0:0:
475,192,96779,1,0,0:0:0:0:
109,192,97154,1,0,0:0:0:0:
256,192,97529,128,0,98935:0:0:0:0:
36,192,97529,1,0,0:0:0:0:
182,192,97904,1,0,0:0:0:0:
36,192,98279,128,0,98982:0:0:0:0:
402,192,98279,1,0,0:0:0:0:
109,192,98654,1,0,0:0:0:0:
475,192,98654,128,0,98888:0:0:0:0:
475,192,98935,1,0,0:0:0:0:
256,192,98982,1,0,0:0:0:0:
182,192,99029,128,0,100529:0:0:0:0:
402,192,99029,128,0,99404:0:0:0:0:
109,192,99029,128,0,99122:0:0:0:0:
36,192,99029,128,0,99122:0:0:0:0:
329,192,99154,1,0,0:0:0:0:
256,192,99279,1,0,0:0:0:0:
36,192,99404,128,0,99779:0:0:0:0:
109,192,99529,1,0,0:0:0:0:
256,192,99654,1,0,0:0:0:0:
475,192,99779,128,0,100154:0:0:0:0:
402,192,99904,1,0,0:0:0:0:
329,192,100029,1,0,0:0:0:0:
256,192,100154,128,0,100529:0:0:0:0:
36,192,100279,1,0,0:0:0:0:
109,192,100404,1,0,0:0:0:0:
402,192,100529,128,0,100904:0:0:0:0:
475,192,100529,128,0,101654:0:0:0:0:
256,192,100654,1,0,0:0:0:0:
109,192,100779,1,0,0:0:0:0:
329,192,100904,128,0,101279:0:0:0:0:
182,192,101029,1,0,0:0:0:0:
36,192,101154,1,0,0:0:0:0:
256,192,101279,128,0,101654:0:0:0:0:
182,192,101404,1,0,0:0:0:0:
109,192,101529,1,0,0:0:0:0:
36,192,101654,128,0,102029:0:0:0:0:
402,192,101654,128,0,101841:0:0:0:0:
109,192,101779,1,0,0:0:0:0:
329,192,101841,128,0,102029:0:0:0:0:
182,192,101904,1,0,0:0:0:0:
256,192,102029,128,0,103529:0:0:0:0:
475,192,102029,128,0,102404:0:0:0:0:
402,192,102154,1,0,0:0:0:0:
329,192,102279,1,0,0:0:0:0:
109,192,102404,128,0,102779:0:0:0:0:
182,192,102529,1,0,0:0:0:0:
329,192,102654,1,0,0:0:0:0:
402,192,102779,128,0,103154:0:0:0:0:
329,192,102904,1,0,0:0:0:0:
182,192,103029,1,0,0:0:0:0:
36,192,103154,128,0,103529:0:0:0:0:
109,192,103279,1,0,0:0:0:0:
182,192,103404,1,0,0:0:0:0:
329,192,103529,128,0,104279:0:0:0:0:
475,192,103529,128,0,103904:0:0:0:0:
109,192,103654,1,0,0:0:0:0:
256,192,103779,1,0,0:0:0:0:
109,192,103904,128,0,104279:0:0:0:0:
182,192,104029,1,0,0:0:0:0:
402,192,104154,1,0,0:0:0:0:
36,192,104279,1,0,0:0:0:0:
475,192,104279,128,0,104747:0:0:0:0:
256,192,104279,128,0,105122:0:0:0:0:
109,192,104654,128,0,104747:0:0:0:0:
182,192,104654,128,0,104747:0:0:0:0:
329,192,104654,128,0,104747:0:0:0:0:
402,192,104654,128,0,104747:0:0:0:0:
36,192,104654,128,0,105029:0:0:0:0:
329,192,105029,128,0,105122:0:0:0:0:
402,192,105029,128,0,105122:0:0:0:0:
475,192,105029,128,0,106529:0:0:0:0:
182,192,105029,128,0,105404:0:0:0:0:
109,192,105154,1,0,0:0:0:0:
36,192,105279,1,0,0:0:0:0:
109,192,105404,128,0,105779:0:0:0:0:
256,192,105529,1,0,0:0:0:0:
329,192,105654,1,0,0:0:0:0:
256,192,105779,128,0,106154:0:0:0:0:
182,192,105904,1,0,0:0:0:0:
109,192,106029,1,0,0:0:0:0:
182,192,106154,128,0,106529:0:0:0:0:
329,192,106279,1,0,0:0:0:0:
402,192,106404,1,0,0:0:0:0:
329,192,106529,128,0,106904:0:0:0:0:
36,192,106529,128,0,107279:0:0:0:0:
256,192,106654,1,0,0:0:0:0:
109,192,106779,1,0,0:0:0:0:
182,192,106904,128,0,107279:0:0:0:0:
329,192,107029,1,0,0:0:0:0:
475,192,107154,1,0,0:0:0:0:
256,192,107279,128,0,108029:0:0:0:0:
402,192,107279,128,0,107654:0:0:0:0:
109,192,107404,1,0,0:0:0:0:
36,192,107529,1,0,0:0:0:0:
109,192,107654,128,0,108029:0:0:0:0:
475,192,107779,1,0,0:0:0:0:
402,192,107904,1,0,0:0:0:0:
329,192,108029,128,0,108404:0:0:0:0:
36,192,108029,128,0,109529:0:0:0:0:
475,192,108154,1,0,0:0:0:0:
182,192,108279,1,0,0:0:0:0:
256,192,108404,128,0,108779:0:0:0:0:
402,192,108529,1,0,0:0:0:0:
109,192,108654,1,0,0:0:0:0:
182,192,108779,128,0,109154:0:0:0:0:
475,192,108904,1,0,0:0:0:0:
329,192,109029,1,0,0:0:0:0:
109,192,109154,128,0,109529:0:0:0:0:
402,192,109279,1,0,0:0:0:0:
256,192,109404,1,0,0:0:0:0:
402,192,109529,128,0,109904:0:0:0:0:
475,192,109529,128,0,110279:0:0:0:0:
256,192,109654,1,0,0:0:0:0:
182,192,109779,1,0,0:0:0:0:
109,192,109904,128,0,110279:0:0:0:0:
256,192,110029,1,0,0:0:0:0:
329,192,110154,1,0,0:0:0:0:
402,192,110279,1,0,0:0:0:0:
182,192,110279,1,0,0:0:0:0:
36,192,110279,128,0,110747:0:0:0:0:
256,192,110279,128,0,110935:0:0:0:0:
182,192,110654,128,0,110747:0:0:0:0:
109,192,110654,128,0,110747:0:0:0:0:
329,192,110654,128,0,110747:0:0:0:0:
402,192,110654,128,0,110747:0:0:0:0:
475,192,110654,128,0,110935:0:0:0:0:
256,192,111029,128,0,112779:0:0:0:0:
182,192,111029,128,0,111154:0:0:0:0:
109,192,111029,128,0,111654:0:0:0:0:
36,192,111029,128,0,111279:0:0:0:0:
402,192,111029,1,0,0:0:0:0:
475,192,111029,128,0,111654:0:0:0:0:
329,192,111154,128,0,111529:0:0:0:0:
182,192,111279,128,0,111404:0:0:0:0:
402,192,111404,128,0,112029:0:0:0:0:
36,192,111404,128,0,112029:0:0:0:0:
182,192,111529,128,0,111904:0:0:0:0:
329,192,111654,128,0,111779:0:0:0:0:
109,192,111779,128,0,112404:0:0:0:0:
475,192,111779,128,0,112404:0:0:0:0:
329,192,111904,128,0,112279:0:0:0:0:
182,192,112029,128,0,112154:0:0:0:0:
36,192,112154,128,0,112779:0:0:0:0:
402,192,112154,128,0,112529:0:0:0:0:
182,192,112279,128,0,113029:0:0:0:0:
329,192,112404,128,0,112654:0:0:0:0:
109,192,112529,128,0,112904:0:0:0:0:
475,192,112529,128,0,113154:0:0:0:0:
402,192,112654,128,0,113654:0:0:0:0:
329,192,112779,128,0,113404:0:0:0:0:
256,192,112904,128,0,113154:0:0:0:0:
36,192,112904,128,0,113341:0:0:0:0:
109,192,113029,128,0,113279:0:0:0:0:
182,192,113154,128,0,113216:0:0:0:0:
475,192,113279,128,0,113529:0:0:0:0:
256,192,113279,128,0,113654:0:0:0:0:
182,192,113341,128,0,113591:0:0:0:0:
109,192,113404,128,0,113529:0:0:0:0:
36,192,113466,1,0,0:0:0:0:
329,192,113529,128,0,113904:0:0:0:0:
109,192,113654,1,0,0:0:0:0:
475,192,113654,128,0,114279:0:0:0:0:
402,192,113779,128,0,114029:0:0:0:0:
182,192,113904,1,0,0:0:0:0:
256,192,114029,128,0,115404:0:0:0:0:
36,192,114029,128,0,114654:0:0:0:0:
109,192,114029,128,0,114404:0:0:0:0:
329,192,114029,128,0,114154:0:0:0:0:
182,192,114029,128,0,114279:0:0:0:0:
402,192,114154,128,0,114779:0:0:0:0:
329,192,114279,128,0,114654:0:0:0:0:
475,192,114404,128,0,115029:0:0:0:0:
182,192,114404,128,0,114529:0:0:0:0:
109,192,114529,128,0,115154:0:0:0:0:
182,192,114654,128,0,115029:0:0:0:0:
36,192,114779,128,0,115404:0:0:0:0:
329,192,114779,128,0,114904:0:0:0:0:
402,192,114904,128,0,115404:0:0:0:0:
329,192,115029,128,0,115529:0:0:0:0:
475,192,115154,128,0,115404:0:0:0:0:
182,192,115154,128,0,115279:0:0:0:0:
109,192,115279,128,0,115404:0:0:0:0:
182,192,115404,128,0,115904:0:0:0:0:
36,192,115529,128,0,116154:0:0:0:0:
256,192,115529,128,0,115779:0:0:0:0:
475,192,115529,128,0,115779:0:0:0:0:
109,192,115529,1,0,0:0:0:0:
402,192,115529,1,0,0:0:0:0:
329,192,115654,128,0,116404:0:0:0:0:
402,192,115779,128,0,116154:0:0:0:0:
475,192,115904,128,0,116529:0:0:0:0:
256,192,115904,128,0,116529:0:0:0:0:
182,192,116029,128,0,116279:0:0:0:0:
109,192,116154,128,0,116529:0:0:0:0:
36,192,116279,128,0,116529:0:0:0:0:
402,192,116279,128,0,116841:0:0:0:0:
182,192,116404,128,0,116529:0:0:0:0:
329,192,116529,128,0,116654:0:0:0:0:
182,192,116654,128,0,116779:0:0:0:0:
256,192,116654,128,0,116716:0:0:0:0:
109,192,116654,128,0,116841:0:0:0:0:
36,192,116654,128,0,116904:0:0:0:0:
475,192,116654,128,0,116779:0:0:0:0:
329,192,116779,128,0,116904:0:0:0:0:
182,192,116904,1,0,0:0:0:0:
256,192,117029,128,0,118779:0:0:0:0:
329,192,117029,128,0,117154:0:0:0:0:
402,192,117029,128,0,117654:0:0:0:0:
475,192,117029,128,0,117279:0:0:0:0:
109,192,117029,1,0,0:0:0:0:
36,192,117029,128,0,117654:0:0:0:0:
182,192,117154,128,0,117529:0:0:0:0:
329,192,117279,128,0,117404:0:0:0:0:
109,192,117404,128,0,118029:0:0:0:0:
475,192,117404,128,0,118029:0:0:0:0:
329,192,117529,128,0,117904:0:0:0:0:
182,192,117654,128,0,117779:0:0:0:0:
402,192,117779,128,0,118404:0:0:0:0:
36,192,117779,128,0,118404:0:0:0:0:
182,192,117904,128,0,118279:0:0:0:0:
329,192,118029,128,0,118154:0:0:0:0:
475,192,118154,128,0,118779:0:0:0:0:
109,192,118154,128,0,118529:0:0:0:0:
329,192,118279,128,0,119029:0:0:0:0:
182,192,118404,128,0,118654:0:0:0:0:
402,192,118529,128,0,118904:0:0:0:0:
36,192,118529,128,0,119154:0:0:0:0:
109,192,118654,128,0,119654:0:0:0:0:
182,192,118779,128,0,119404:0:0:0:0:
256,192,118904,128,0,119154:0:0:0:0:
475,192,118904,128,0,119341:0:0:0:0:
402,192,119029,128,0,119279:0:0:0:0:
329,192,119154,128,0,119216:0:0:0:0:
36,192,119279,128,0,119529:0:0:0:0:
256,192,119279,128,0,119654:0:0:0:0:
329,192,119341,128,0,119591:0:0:0:0:
402,192,119404,128,0,119529:0:0:0:0:
475,192,119466,1,0,0:0:0:0:
182,192,119529,128,0,119904:0:0:0:0:
402,192,119654,1,0,0:0:0:0:
36,192,119654,128,0,120279:0:0:0:0:
109,192,119779,128,0,120029:0:0:0:0:
329,192,119904,1,0,0:0:0:0:
256,192,120029,128,0,121404:0:0:0:0:
475,192,120029,128,0,120654:0:0:0:0:
402,192,120029,128,0,120404:0:0:0:0:
182,192,120029,128,0,120154:0:0:0:0:
329,192,120029,128,0,120279:0:0:0:0:
109,192,120154,128,0,120779:0:0:0:0:
182,192,120279,128,0,120654:0:0:0:0:
36,192,120404,128,0,121029:0:0:0:0:
329,192,120404,128,0,120529:0:0:0:0:
402,192,120529,128,0,121154:0:0:0:0:
329,192,120654,128,0,121029:0:0:0:0:
475,192,120779,128,0,121404:0:0:0:0:
182,192,120779,128,0,120904:0:0:0:0:
109,192,120904,128,0,121779:0:0:0:0:
182,192,121029,128,0,121529:0:0:0:0:
36,192,121154,128,0,121404:0:0:0:0:
329,192,121154,128,0,121404:0:0:0:0:
402,192,121279,128,0,121404:0:0:0:0:
256,192,121529,128,0,121779:0:0:0:0:
36,192,121529,128,0,121779:0:0:0:0:
329,192,121529,128,0,121654:0:0:0:0:
402,192,121529,128,0,122154:0:0:0:0:
475,192,121529,128,0,121779:0:0:0:0:
182,192,121654,128,0,121779:0:0:0:0:
329,192,121779,128,0,121904:0:0:0:0:
475,192,121904,128,0,122154:0:0:0:0:
256,192,121904,128,0,122154:0:0:0:0:
182,192,121904,128,0,122529:0:0:0:0:
109,192,121904,128,0,122029:0:0:0:0:
36,192,121904,128,0,122154:0:0:0:0:
329,192,122029,128,0,122154:0:0:0:0:
109,192,122154,128,0,122279:0:0:0:0:
36,192,122279,128,0,122529:0:0:0:0:
256,192,122279,128,0,122529:0:0:0:0:
329,192,122279,128,0,123029:0:0:0:0:
402,192,122279,128,0,122404:0:0:0:0:
475,192,122279,128,0,122529:0:0:0:0:
109,192,122404,128,0,122529:0:0:0:0:
402,192,122529,128,0,122654:0:0:0:0:
256,192,122654,128,0,122779:0:0:0:0:
475,192,122654,128,0,123029:0:0:0:0:
182,192,122654,128,0,122841:0:0:0:0:
109,192,122654,128,0,122904:0:0:0:0:
36,192,122654,128,0,122966:0:0:0:0:
402,192,122779,128,0,123029:0:0:0:0:
256,192,122904,128,0,123029:0:0:0:0:
182,192,123029,1,0,0:0:0:0:
182,192,125279,128,0,125935:0:0:0:0:
109,192,125279,128,0,125888:0:0:0:0:
256,192,126029,5,0,0:0:0:0:
109,192,126029,128,0,126216:0:0:0:0:
329,192,126029,128,0,126075:0:0:0:0:
402,192,126029,128,0,126122:0:0:0:0:
475,192,126029,128,0,126310:0:0:0:0:
36,192,126075,128,0,126169:0:0:0:0:
182,192,126122,128,0,126357:0:0:0:0:
256,192,126169,128,0,126263:0:0:0:0:
329,192,126216,1,0,0:0:0:0:
402,192,126216,128,0,126310:0:0:0:0:
109,192,126310,1,0,0:0:0:0:
475,192,126404,1,0,0:0:0:0:
329,192,126404,128,0,126591:0:0:0:0:
402,192,126404,128,0,126497:0:0:0:0:
36,192,126404,128,0,126685:0:0:0:0:
256,192,126404,128,0,126779:0:0:0:0:
182,192,126591,1,0,0:0:0:0:
109,192,126591,128,0,126685:0:0:0:0:
402,192,126685,128,0,126779:0:0:0:0:
182,192,126779,128,0,126966:0:0:0:0:
36,192,126779,128,0,126966:0:0:0:0:
475,192,126779,128,0,127060:0:0:0:0:
329,192,126779,1,0,0:0:0:0:
109,192,126966,1,0,0:0:0:0:
329,192,126966,128,0,127060:0:0:0:0:
402,192,126966,1,0,0:0:0:0:
182,192,127060,128,0,127154:0:0:0:0:
475,192,127154,128,0,127247:0:0:0:0:
36,192,127154,1,0,0:0:0:0:
256,192,127154,1,0,0:0:0:0:
402,192,127154,128,0,127341:0:0:0:0:
329,192,127154,128,0,127529:0:0:0:0:
36,192,127341,128,0,127529:0:0:0:0:
182,192,127341,128,0,127529:0:0:0:0:
402,192,127435,1,0,0:0:0:0:
109,192,127435,1,0,0:0:0:0:
256,192,127529,1,0,0:0:0:0:
475,192,127529,1,0,0:0:0:0:
329,192,127622,128,0,127669:0:0:0:0:
36,192,127716,128,0,127810:0:0:0:0:
182,192,127716,128,0,127810:0:0:0:0:
475,192,127716,128,0,127997:0:0:0:0:
256,192,127763,128,0,127810:0:0:0:0:
329,192,127810,1,0,0:0:0:0:
256,192,127904,1,0,0:0:0:0:
182,192,127904,128,0,127997:0:0:0:0:
109,192,127904,128,0,128091:0:0:0:0:
36,192,127904,128,0,128279:0:0:0:0:
402,192,127904,128,0,127997:0:0:0:0:
329,192,128091,128,0,128185:0:0:0:0:
182,192,128091,1,0,0:0:0:0:
329,192,128279,1,0,0:0:0:0:
256,192,128279,128,0,128560:0:0:0:0:
182,192,128279,128,0,128466:0:0:0:0:
475,192,128279,128,0,128372:0:0:0:0:
475,192,128466,1,0,0:0:0:0:
36,192,128466,1,0,0:0:0:0:
329,192,128466,128,0,128560:0:0:0:0:
109,192,128560,1,0,0:0:0:0:
256,192,128654,128,0,128747:0:0:0:0:
36,192,128654,128,0,128747:0:0:0:0:
182,192,128654,128,0,128935:0:0:0:0:
329,192,128677,128,0,128794:0:0:0:0:
402,192,128700,128,0,128841:0:0:0:0:
475,192,128724,128,0,128888:0:0:0:0:
109,192,128841,128,0,128935:0:0:0:0:
256,192,128841,1,0,0:0:0:0:
329,192,128888,1,0,0:0:0:0:
402,192,128935,1,0,0:0:0:0:
475,192,128982,1,0,0:0:0:0:
329,192,129029,128,0,129216:0:0:0:0:
182,192,129029,1,0,0:0:0:0:
36,192,129029,128,0,129310:0:0:0:0:
109,192,129029,128,0,129122:0:0:0:0:
256,192,129075,128,0,129169:0:0:0:0:
402,192,129122,128,0,129357:0:0:0:0:
475,192,129169,128,0,129263:0:0:0:0:
182,192,129216,128,0,129310:0:0:0:0:
109,192,129216,1,0,0:0:0:0:
329,192,129310,1,0,0:0:0:0:
36,192,129404,1,0,0:0:0:0:
109,192,129404,128,0,129497:0:0:0:0:
182,192,129404,128,0,129591:0:0:0:0:
256,192,129404,128,0,129779:0:0:0:0:
475,192,129404,128,0,129685:0:0:0:0:
36,192,129591,1,0,0:0:0:0:
402,192,129591,128,0,129685:0:0:0:0:
182,192,129685,128,0,129779:0:0:0:0:
109,192,129779,128,0,129966:0:0:0:0:
36,192,129779,128,0,129966:0:0:0:0:
475,192,129779,1,0,0:0:0:0:
329,192,129779,128,0,130060:0:0:0:0:
402,192,129966,1,0,0:0:0:0:
475,192,129966,128,0,130060:0:0:0:0:
182,192,129966,1,0,0:0:0:0:
109,192,130060,128,0,130154:0:0:0:0:
36,192,130154,1,0,0:0:0:0:
256,192,130154,128,0,130247:0:0:0:0:
329,192,130154,128,0,130341:0:0:0:0:
402,192,130154,128,0,130529:0:0:0:0:
475,192,130154,1,0,0:0:0:0:
36,192,130341,128,0,130529:0:0:0:0:
109,192,130341,128,0,130529:0:0:0:0:
182,192,130435,1,0,0:0:0:0:
256,192,130529,1,0,0:0:0:0:
475,192,130529,1,0,0:0:0:0:
329,192,130622,128,0,130669:0:0:0:0:
109,192,130716,128,0,130810:0:0:0:0:
36,192,130716,128,0,130810:0:0:0:0:
402,192,130716,128,0,130997:0:0:0:0:
182,192,130763,128,0,130810:0:0:0:0:
256,192,130810,1,0,0:0:0:0:
475,192,130810,1,0,0:0:0:0:
109,192,130904,128,0,131091:0:0:0:0:
36,192,130904,128,0,130997:0:0:0:0:
182,192,130904,128,0,131279:0:0:0:0:
329,192,130904,128,0,130997:0:0:0:0:
329,192,131091,128,0,131279:0:0:0:0:
475,192,131091,128,0,131279:0:0:0:0:
36,192,131279,128,0,131560:0:0:0:0:
256,192,131279,128,0,131466:0:0:0:0:
109,192,131279,1,0,0:0:0:0:
402,192,131279,128,0,131372:0:0:0:0:
109,192,131466,128,0,131560:0:0:0:0:
329,192,131466,128,0,131560:0:0:0:0:
475,192,131466,1,0,0:0:0:0:
256,192,131560,1,0,0:0:0:0:
36,192,131654,128,0,131747:0:0:0:0:
329,192,131654,128,0,131935:0:0:0:0:
475,192,131654,128,0,131747:0:0:0:0:
109,192,131677,128,0,131794:0:0:0:0:
182,192,131700,128,0,131841:0:0:0:0:
256,192,131724,128,0,131888:0:0:0:0:
36,192,131841,1,0,0:0:0:0:
402,192,131841,128,0,131935:0:0:0:0:
109,192,131888,1,0,0:0:0:0:
182,192,131935,1,0,0:0:0:0:
256,192,131982,1,0,0:0:0:0:
109,192,132029,128,0,132216:0:0:0:0:
475,192,132029,128,0,132310:0:0:0:0:
329,192,132029,128,0,132122:0:0:0:0:
402,192,132029,1,0,0:0:0:0:
36,192,132075,128,0,132169:0:0:0:0:
182,192,132122,128,0,132357:0:0:0:0:
256,192,132169,128,0,132263:0:0:0:0:
329,192,132216,1,0,0:0:0:0:
402,192,132216,128,0,132310:0:0:0:0:
109,192,132310,1,0,0:0:0:0:
475,192,132404,1,0,0:0:0:0:
329,192,132404,128,0,132591:0:0:0:0:
402,192,132404,128,0,132497:0:0:0:0:
256,192,132404,128,0,132779:0:0:0:0:
36,192,132404,128,0,132685:0:0:0:0:
109,192,132591,128,0,132685:0:0:0:0:
475,192,132591,1,0,0:0:0:0:
402,192,132685,128,0,132779:0:0:0:0:
36,192,132779,128,0,132966:0:0:0:0:
182,192,132779,128,0,132966:0:0:0:0:
329,192,132779,1,0,0:0:0:0:
475,192,132779,128,0,133060:0:0:0:0:
109,192,132966,1,0,0:0:0:0:
402,192,132966,1,0,0:0:0:0:
256,192,132966,128,0,133060:0:0:0:0:
182,192,133060,128,0,133154:0:0:0:0:
402,192,133154,128,0,133341:0:0:0:0:
329,192,133154,128,0,133247:0:0:0:0:
475,192,133154,128,0,133529:0:0:0:0:
256,192,133154,1,0,0:0:0:0:
36,192,133154,1,0,0:0:0:0:
36,192,133341,128,0,133529:0:0:0:0:
182,192,133341,128,0,133529:0:0:0:0:
109,192,133435,1,0,0:0:0:0:
329,192,133435,1,0,0:0:0:0:
256,192,133529,1,0,0:0:0:0:
402,192,133529,1,0,0:0:0:0:
329,192,133622,128,0,133669:0:0:0:0:
36,192,133716,128,0,133810:0:0:0:0:
182,192,133716,128,0,133810:0:0:0:0:
475,192,133716,128,0,133997:0:0:0:0:
256,192,133763,128,0,133810:0:0:0:0:
329,192,133810,1,0,0:0:0:0:
402,192,133904,128,0,133997:0:0:0:0:
36,192,133904,128,0,133997:0:0:0:0:
109,192,133904,128,0,134091:0:0:0:0:
182,192,133904,128,0,134279:0:0:0:0:
475,192,134091,1,0,0:0:0:0:
329,192,134091,128,0,134185:0:0:0:0:
329,192,134279,128,0,134560:0:0:0:0:
402,192,134279,128,0,134466:0:0:0:0:
36,192,134279,128,0,134372:0:0:0:0:
256,192,134279,1,0,0:0:0:0:
109,192,134466,128,0,134560:0:0:0:0:
256,192,134466,128,0,134560:0:0:0:0:
475,192,134466,1,0,0:0:0:0:
402,192,134560,1,0,0:0:0:0:
256,192,134654,128,0,134935:0:0:0:0:
329,192,134654,128,0,134747:0:0:0:0:
109,192,134677,128,0,134771:0:0:0:0:
36,192,134700,128,0,134818:0:0:0:0:
475,192,134700,128,0,134841:0:0:0:0:
402,192,134724,128,0,134888:0:0:0:0:
109,192,134841,1,0,0:0:0:0:
182,192,134841,128,0,134935:0:0:0:0:
36,192,134888,1,0,0:0:0:0:
475,192,134935,1,0,0:0:0:0:
402,192,134982,1,0,0:0:0:0:
182,192,135029,128,0,135263:0:0:0:0:
109,192,135029,1,0,0:0:0:0:
329,192,135029,128,0,135122:0:0:0:0:
36,192,135029,128,0,136247:0:0:0:0:
475,192,135075,128,0,135263:0:0:0:0:
256,192,135122,128,0,135216:0:0:0:0:
402,192,135169,128,0,135310:0:0:0:0:
109,192,135216,128,0,135310:0:0:0:0:
329,192,135263,128,0,135357:0:0:0:0:
256,192,135310,1,0,0:0:0:0:
182,192,135357,1,0,0:0:0:0:
475,192,135404,128,0,135779:0:0:0:0:
402,192,135404,128,0,135591:0:0:0:0:
109,192,135404,1,0,0:0:0:0:
182,192,135591,1,0,0:0:0:0:
256,192,135685,1,0,0:0:0:0:
329,192,135779,128,0,135872:0:0:0:0:
109,192,135779,128,0,135966:0:0:0:0:
182,192,135779,128,0,135966:0:0:0:0:
402,192,135779,1,0,0:0:0:0:
475,192,135966,128,0,136060:0:0:0:0:
329,192,135966,1,0,0:0:0:0:
256,192,135966,1,0,0:0:0:0:
182,192,136060,1,0,0:0:0:0:
475,192,136154,1,0,0:0:0:0:
256,192,136154,128,0,136529:0:0:0:0:
329,192,136154,128,0,136341:0:0:0:0:
402,192,136154,128,0,136247:0:0:0:0:
109,192,136154,128,0,136247:0:0:0:0:
36,192,136341,128,0,136622:0:0:0:0:
475,192,136341,128,0,136810:0:0:0:0:
109,192,136341,128,0,136435:0:0:0:0:
329,192,136529,128,0,136622:0:0:0:0:
256,192,136622,1,0,0:0:0:0:
182,192,136716,128,0,136810:0:0:0:0:
109,192,136716,1,0,0:0:0:0:
402,192,136716,128,0,136810:0:0:0:0:
329,192,136810,1,0,0:0:0:0:
109,192,136904,128,0,136997:0:0:0:0:
36,192,136904,1,0,0:0:0:0:
182,192,136904,128,0,137091:0:0:0:0:
256,192,136904,128,0,137279:0:0:0:0:
475,192,136904,128,0,136997:0:0:0:0:
475,192,137091,128,0,137185:0:0:0:0:
402,192,137091,128,0,137372:0:0:0:0:
36,192,137091,1,0,0:0:0:0:
329,192,137279,128,0,137372:0:0:0:0:
182,192,137279,128,0,137372:0:0:0:0:
109,192,137279,128,0,137560:0:0:0:0:
36,192,137466,128,0,137560:0:0:0:0:
256,192,137466,1,0,0:0:0:0:
475,192,137466,1,0,0:0:0:0:
329,192,137466,128,0,137560:0:0:0:0:
182,192,137591,1,0,0:0:0:0:
256,192,137622,1,0,0:0:0:0:
475,192,137654,1,0,0:0:0:0:
402,192,137654,128,0,137935:0:0:0:0:
329,192,137654,128,0,137747:0:0:0:0:
36,192,137654,128,0,137841:0:0:0:0:
109,192,137700,128,0,137794:0:0:0:0:
182,192,137747,128,0,137935:0:0:0:0:
256,192,137794,128,0,137888:0:0:0:0:
475,192,137841,128,0,137935:0:0:0:0:
109,192,137888,1,0,0:0:0:0:
329,192,137935,1,0,0:0:0:0:
256,192,138029,5,0,0:0:0:0:
402,192,138029,128,0,138216:0:0:0:0:
182,192,138029,128,0,138075:0:0:0:0:
36,192,138029,128,0,138310:0:0:0:0:
109,192,138029,128,0,138122:0:0:0:0:
475,192,138075,128,0,138169:0:0:0:0:
329,192,138122,128,0,138357:0:0:0:0:
256,192,138169,128,0,138263:0:0:0:0:
182,192,138216,1,0,0:0:0:0:
109,192,138216,128,0,138310:0:0:0:0:
402,192,138310,1,0,0:0:0:0:
36,192,138404,1,0,0:0:0:0:
182,192,138404,128,0,138591:0:0:0:0:
109,192,138404,128,0,138497:0:0:0:0:
475,192,138404,128,0,138685:0:0:0:0:
256,192,138404,128,0,138779:0:0:0:0:
329,192,138591,1,0,0:0:0:0:
402,192,138591,128,0,138685:0:0:0:0:
109,192,138685,128,0,138779:0:0:0:0:
329,192,138779,128,0,138966:0:0:0:0:
475,192,138779,128,0,138966:0:0:0:0:
36,192,138779,128,0,139060:0:0:0:0:
182,192,138779,1,0,0:0:0:0:
402,192,138966,1,0,0:0:0:0:
182,192,138966,128,0,139060:0:0:0:0:
109,192,138966,1,0,0:0:0:0:
329,192,139060,128,0,139154:0:0:0:0:
36,192,139154,128,0,139247:0:0:0:0:
475,192,139154,1,0,0:0:0:0:
256,192,139154,1,0,0:0:0:0:
109,192,139154,128,0,139341:0:0:0:0:
182,192,139154,128,0,139529:0:0:0:0:
475,192,139341,128,0,139529:0:0:0:0:
329,192,139341,128,0,139529:0:0:0:0:
402,192,139435,1,0,0:0:0:0:
109,192,139435,1,0,0:0:0:0:
36,192,139529,1,0,0:0:0:0:
256,192,139529,128,0,139669:0:0:0:0:
182,192,139622,128,0,139669:0:0:0:0:
475,192,139716,128,0,139810:0:0:0:0:
329,192,139716,128,0,139810:0:0:0:0:
36,192,139716,128,0,139997:0:0:0:0:
256,192,139763,128,0,139810:0:0:0:0:
182,192,139810,1,0,0:0:0:0:
256,192,139904,1,0,0:0:0:0:
329,192,139904,128,0,139997:0:0:0:0:
402,192,139904,128,0,140091:0:0:0:0:
475,192,139904,128,0,140279:0:0:0:0:
109,192,139904,128,0,139997:0:0:0:0:
182,192,140091,128,0,140185:0:0:0:0:
329,192,140091,1,0,0:0:0:0:
182,192,140279,1,0,0:0:0:0:
256,192,140279,128,0,140560:0:0:0:0:
329,192,140279,128,0,140466:0:0:0:0:
36,192,140279,128,0,140372:0:0:0:0:
36,192,140466,1,0,0:0:0:0:
475,192,140466,1,0,0:0:0:0:
182,192,140466,128,0,140560:0:0:0:0:
402,192,140560,1,0,0:0:0:0:
256,192,140654,128,0,140747:0:0:0:0:
475,192,140654,128,0,140747:0:0:0:0:
329,192,140654,128,0,140935:0:0:0:0:
182,192,140677,128,0,140794:0:0:0:0:
109,192,140700,128,0,140841:0:0:0:0:
36,192,140724,128,0,140888:0:0:0:0:
402,192,140841,128,0,140935:0:0:0:0:
256,192,140841,1,0,0:0:0:0:
182,192,140888,1,0,0:0:0:0:
109,192,140935,1,0,0:0:0:0:
36,192,140982,1,0,0:0:0:0:
182,192,141029,128,0,141216:0:0:0:0:
329,192,141029,1,0,0:0:0:0:
475,192,141029,128,0,141310:0:0:0:0:
402,192,141029,128,0,141122:0:0:0:0:
256,192,141075,128,0,141169:0:0:0:0:
109,192,141122,128,0,141357:0:0:0:0:
36,192,141169,128,0,141263:0:0:0:0:
329,192,141216,128,0,141310:0:0:0:0:
402,192,141216,1,0,0:0:0:0:
182,192,141310,1,0,0:0:0:0:
475,192,141404,1,0,0:0:0:0:
402,192,141404,128,0,141497:0:0:0:0:
329,192,141404,128,0,141591:0:0:0:0:
256,192,141404,128,0,141779:0:0:0:0:
36,192,141404,128,0,141685:0:0:0:0:
475,192,141591,1,0,0:0:0:0:
109,192,141591,128,0,141685:0:0:0:0:
329,192,141685,128,0,141779:0:0:0:0:
402,192,141779,128,0,141966:0:0:0:0:
475,192,141779,128,0,141966:0:0:0:0:
36,192,141779,1,0,0:0:0:0:
182,192,141779,128,0,142060:0:0:0:0:
109,192,141966,1,0,0:0:0:0:
36,192,141966,128,0,142060:0:0:0:0:
329,192,141966,1,0,0:0:0:0:
402,192,142060,128,0,142154:0:0:0:0:
475,192,142154,1,0,0:0:0:0:
256,192,142154,128,0,142247:0:0:0:0:
182,192,142154,128,0,142341:0:0:0:0:
36,192,142154,1,0,0:0:0:0:
109,192,142154,128,0,142529:0:0:0:0:
475,192,142341,128,0,142529:0:0:0:0:
402,192,142341,128,0,142529:0:0:0:0:
329,192,142435,1,0,0:0:0:0:
36,192,142529,1,0,0:0:0:0:
256,192,142529,128,0,142669:0:0:0:0:
182,192,142622,128,0,142669:0:0:0:0:
402,192,142716,128,0,142810:0:0:0:0:
475,192,142716,128,0,142810:0:0:0:0:
109,192,142716,128,0,142997:0:0:0:0:
329,192,142763,128,0,142810:0:0:0:0:
256,192,142810,1,0,0:0:0:0:
36,192,142810,1,0,0:0:0:0:
402,192,142904,128,0,143091:0:0:0:0:
475,192,142904,128,0,142997:0:0:0:0:
329,192,142904,128,0,143279:0:0:0:0:
182,192,142904,128,0,142997:0:0:0:0:
182,192,143091,128,0,143279:0:0:0:0:
36,192,143091,128,0,143279:0:0:0:0:
475,192,143279,128,0,143560:0:0:0:0:
256,192,143279,128,0,143466:0:0:0:0:
402,192,143279,1,0,0:0:0:0:
109,192,143279,128,0,143372:0:0:0:0:
402,192,143466,128,0,143560:0:0:0:0:
182,192,143466,128,0,143560:0:0:0:0:
36,192,143466,1,0,0:0:0:0:
256,192,143560,1,0,0:0:0:0:
475,192,143654,128,0,143747:0:0:0:0:
182,192,143654,128,0,143935:0:0:0:0:
36,192,143654,128,0,143747:0:0:0:0:
402,192,143677,128,0,143794:0:0:0:0:
329,192,143700,128,0,143841:0:0:0:0:
256,192,143724,128,0,143888:0:0:0:0:
475,192,143841,1,0,0:0:0:0:
109,192,143841,128,0,143935:0:0:0:0:
402,192,143888,1,0,0:0:0:0:
329,192,143935,1,0,0:0:0:0:
256,192,143982,1,0,0:0:0:0:
402,192,144029,128,0,144216:0:0:0:0:
36,192,144029,128,0,144310:0:0:0:0:
182,192,144029,128,0,144122:0:0:0:0:
109,192,144029,1,0,0:0:0:0:
475,192,144075,128,0,144169:0:0:0:0:
329,192,144122,128,0,144357:0:0:0:0:
256,192,144169,128,0,144263:0:0:0:0:
182,192,144216,1,0,0:0:0:0:
109,192,144216,128,0,144310:0:0:0:0:
402,192,144310,1,0,0:0:0:0:
36,192,144404,1,0,0:0:0:0:
182,192,144404,128,0,144591:0:0:0:0:
109,192,144404,128,0,144497:0:0:0:0:
256,192,144404,128,0,144779:0:0:0:0:
475,192,144404,128,0,144685:0:0:0:0:
402,192,144591,128,0,144685:0:0:0:0:
36,192,144591,1,0,0:0:0:0:
109,192,144685,128,0,144779:0:0:0:0:
475,192,144779,128,0,144966:0:0:0:0:
329,192,144779,128,0,144966:0:0:0:0:
182,192,144779,1,0,0:0:0:0:
36,192,144779,128,0,145060:0:0:0:0:
402,192,144966,1,0,0:0:0:0:
109,192,144966,1,0,0:0:0:0:
256,192,144966,128,0,145060:0:0:0:0:
329,192,145060,128,0,145154:0:0:0:0:
109,192,145154,128,0,145341:0:0:0:0:
182,192,145154,128,0,145247:0:0:0:0:
36,192,145154,128,0,145529:0:0:0:0:
256,192,145154,1,0,0:0:0:0:
475,192,145154,1,0,0:0:0:0:
475,192,145341,128,0,145529:0:0:0:0:
329,192,145341,128,0,145529:0:0:0:0:
402,192,145435,1,0,0:0:0:0:
182,192,145435,1,0,0:0:0:0:
109,192,145529,1,0,0:0:0:0:
256,192,145529,128,0,145669:0:0:0:0:
182,192,145622,128,0,145669:0:0:0:0:
475,192,145716,128,0,145810:0:0:0:0:
329,192,145716,128,0,145810:0:0:0:0:
36,192,145716,128,0,145997:0:0:0:0:
256,192,145763,128,0,145810:0:0:0:0:
182,192,145810,1,0,0:0:0:0:
109,192,145904,128,0,145997:0:0:0:0:
475,192,145904,128,0,145997:0:0:0:0:
402,192,145904,128,0,146091:0:0:0:0:
329,192,145904,128,0,146279:0:0:0:0:
36,192,146091,1,0,0:0:0:0:
182,192,146091,128,0,146185:0:0:0:0:
182,192,146279,128,0,146560:0:0:0:0:
109,192,146279,128,0,146466:0:0:0:0:
475,192,146279,128,0,146372:0:0:0:0:
256,192,146279,1,0,0:0:0:0:
402,192,146466,128,0,146560:0:0:0:0:
256,192,146466,128,0,146560:0:0:0:0:
36,192,146466,1,0,0:0:0:0:
109,192,146560,1,0,0:0:0:0:
256,192,146654,128,0,146935:0:0:0:0:
182,192,146654,128,0,146747:0:0:0:0:
402,192,146677,128,0,146771:0:0:0:0:
475,192,146700,128,0,146818:0:0:0:0:
36,192,146700,128,0,146841:0:0:0:0:
109,192,146724,128,0,146888:0:0:0:0:
402,192,146841,1,0,0:0:0:0:
329,192,146841,128,0,146935:0:0:0:0:
475,192,146888,1,0,0:0:0:0:
36,192,146935,1,0,0:0:0:0:
109,192,146982,1,0,0:0:0:0:
329,192,147029,128,0,147263:0:0:0:0:
402,192,147029,1,0,0:0:0:0:
182,192,147029,128,0,147122:0:0:0:0:
475,192,147029,128,0,148247:0:0:0:0:
36,192,147075,128,0,147263:0:0:0:0:
256,192,147122,128,0,147216:0:0:0:0:
109,192,147169,128,0,147310:0:0:0:0:
402,192,147216,128,0,147310:0:0:0:0:
182,192,147263,128,0,147357:0:0:0:0:
256,192,147310,1,0,0:0:0:0:
329,192,147357,1,0,0:0:0:0:
36,192,147404,128,0,147779:0:0:0:0:
109,192,147404,128,0,147591:0:0:0:0:
402,192,147404,1,0,0:0:0:0:
329,192,147591,1,0,0:0:0:0:
256,192,147685,1,0,0:0:0:0:
182,192,147779,128,0,147872:0:0:0:0:
402,192,147779,128,0,147966:0:0:0:0:
329,192,147779,128,0,147966:0:0:0:0:
109,192,147779,1,0,0:0:0:0:
36,192,147966,128,0,148060:0:0:0:0:
182,192,147966,1,0,0:0:0:0:
256,192,147966,1,0,0:0:0:0:
402,192,148060,1,0,0:0:0:0:
36,192,148154,1,0,0:0:0:0:
256,192,148154,128,0,148529:0:0:0:0:
182,192,148154,128,0,148341:0:0:0:0:
109,192,148154,128,0,148247:0:0:0:0:
329,192,148154,128,0,148247:0:0:0:0:
475,192,148341,128,0,148622:0:0:0:0:
36,192,148341,128,0,148810:0:0:0:0:
402,192,148341,128,0,148435:0:0:0:0:
182,192,148529,128,0,148622:0:0:0:0:
256,192,148622,1,0,0:0:0:0:
329,192,148716,128,0,148810:0:0:0:0:
402,192,148716,1,0,0:0:0:0:
109,192,148716,128,0,148810:0:0:0:0:
182,192,148810,1,0,0:0:0:0:
402,192,148904,128,0,148997:0:0:0:0:
475,192,148904,1,0,0:0:0:0:
329,192,148904,128,0,149091:0:0:0:0:
256,192,148904,128,0,149279:0:0:0:0:
36,192,148904,128,0,148997:0:0:0:0:
36,192,149091,128,0,149185:0:0:0:0:
109,192,149091,128,0,149372:0:0:0:0:
475,192,149091,1,0,0:0:0:0:
182,192,149279,128,0,149372:0:0:0:0:
329,192,149279,128,0,149372:0:0:0:0:
402,192,149279,128,0,149560:0:0:0:0:
475,192,149466,128,0,149560:0:0:0:0:
256,192,149466,1,0,0:0:0:0:
36,192,149466,1,0,0:0:0:0:
182,192,149466,128,0,149560:0:0:0:0:
329,192,149591,1,0,0:0:0:0:
256,192,149622,1,0,0:0:0:0:
36,192,149654,1,0,0:0:0:0:
109,192,149654,128,0,149935:0:0:0:0:
182,192,149654,128,0,149747:0:0:0:0:
475,192,149654,128,0,149841:0:0:0:0:
402,192,149700,128,0,149794:0:0:0:0:
329,192,149747,128,0,149935:0:0:0:0:
256,192,149794,128,0,149888:0:0:0:0:
36,192,149841,128,0,149935:0:0:0:0:
402,192,149888,1,0,0:0:0:0:
182,192,149935,1,0,0:0:0:0:
475,192,150029,128,0,152185:0:0:0:0:
329,192,150029,128,0,150075:0:0:0:0:
256,192,150029,1,0,0:0:0:0:
402,192,150029,128,0,150122:0:0:0:0:
36,192,150029,128,0,150216:0:0:0:0:
109,192,150075,128,0,150263:0:0:0:0:
182,192,150122,128,0,150310:0:0:0:0:
256,192,150169,128,0,150450:0:0:0:0:
329,192,150216,1,0,0:0:0:0:
402,192,150310,1,0,0:0:0:0:
182,192,150404,128,0,150450:0:0:0:0:
329,192,150404,128,0,150450:0:0:0:0:
36,192,150404,128,0,150497:0:0:0:0:
109,192,150497,128,0,150591:0:0:0:0:
329,192,150591,1,0,0:0:0:0:
402,192,150591,128,0,150685:0:0:0:0:
182,192,150591,128,0,150685:0:0:0:0:
36,192,150685,1,0,0:0:0:0:
256,192,150685,128,0,150779:0:0:0:0:
402,192,150779,128,0,150872:0:0:0:0:
182,192,150779,1,0,0:0:0:0:
109,192,150779,128,0,151060:0:0:0:0:
329,192,150872,128,0,150966:0:0:0:0:
36,192,150966,1,0,0:0:0:0:
182,192,150966,128,0,151060:0:0:0:0:
256,192,150966,1,0,0:0:0:0:
402,192,151060,1,0,0:0:0:0:
329,192,151060,128,0,151154:0:0:0:0:
109,192,151154,128,0,151200:0:0:0:0:
36,192,151154,128,0,151200:0:0:0:0:
256,192,151154,128,0,151247:0:0:0:0:
402,192,151247,128,0,151341:0:0:0:0:
36,192,151341,128,0,151622:0:0:0:0:
329,192,151341,128,0,151435:0:0:0:0:
182,192,151341,128,0,151622:0:0:0:0:
402,192,151435,128,0,151529:0:0:0:0:
109,192,151529,1,0,0:0:0:0:
256,192,151529,128,0,151622:0:0:0:0:
329,192,151622,1,0,0:0:0:0:
109,192,151716,128,0,151950:0:0:0:0:
36,192,151716,1,0,0:0:0:0:
256,192,151716,128,0,151950:0:0:0:0:
402,192,151810,1,0,0:0:0:0:
36,192,151904,128,0,151950:0:0:0:0:
182,192,151904,128,0,151950:0:0:0:0:
329,192,151904,1,0,0:0:0:0:
402,192,151997,1,0,0:0:0:0:
109,192,152091,1,0,0:0:0:0:
329,192,152091,128,0,152185:0:0:0:0:
36,192,152185,1,0,0:0:0:0:
182,192,152185,128,0,152279:0:0:0:0:
402,192,152279,128,0,152560:0:0:0:0:
475,192,152279,128,0,152466:0:0:0:0:
256,192,152279,128,0,152560:0:0:0:0:
329,192,152279,1,0,0:0:0:0:
109,192,152372,1,0,0:0:0:0:
329,192,152466,1,0,0:0:0:0:
182,192,152466,128,0,152560:0:0:0:0:
36,192,152466,1,0,0:0:0:0:
109,192,152560,1,0,0:0:0:0:
329,192,152654,128,0,152935:0:0:0:0:
402,192,152654,128,0,152841:0:0:0:0:
36,192,152654,128,0,152700:0:0:0:0:
475,192,152654,128,0,152747:0:0:0:0:
182,192,152654,128,0,152935:0:0:0:0:
109,192,152841,128,0,152935:0:0:0:0:
475,192,152841,1,0,0:0:0:0:
36,192,152841,1,0,0:0:0:0:
256,192,152841,1,0,0:0:0:0:
402,192,152935,1,0,0:0:0:0:
36,192,153029,128,0,154435:0:0:0:0:
475,192,153029,1,0,0:0:0:0:
256,192,153029,128,0,153216:0:0:0:0:
182,192,153029,1,0,0:0:0:0:
329,192,153075,128,0,153263:0:0:0:0:
402,192,153122,128,0,153310:0:0:0:0:
475,192,153169,128,0,153450:0:0:0:0:
109,192,153216,1,0,0:0:0:0:
256,192,153310,1,0,0:0:0:0:
402,192,153404,128,0,153450:0:0:0:0:
329,192,153404,128,0,153450:0:0:0:0:
109,192,153404,128,0,153497:0:0:0:0:
256,192,153497,128,0,153591:0:0:0:0:
182,192,153591,128,0,153685:0:0:0:0:
402,192,153591,1,0,0:0:0:0:
475,192,153591,128,0,153685:0:0:0:0:
256,192,153685,1,0,0:0:0:0:
329,192,153685,128,0,153779:0:0:0:0:
402,192,153779,128,0,154060:0:0:0:0:
475,192,153779,1,0,0:0:0:0:
109,192,153779,128,0,153872:0:0:0:0:
182,192,153872,128,0,153966:0:0:0:0:
256,192,153966,128,0,154060:0:0:0:0:
329,192,153966,1,0,0:0:0:0:
475,192,153966,1,0,0:0:0:0:
109,192,154060,128,0,154154:0:0:0:0:
182,192,154060,1,0,0:0:0:0:
402,192,154154,128,0,154200:0:0:0:0:
475,192,154154,128,0,154200:0:0:0:0:
256,192,154154,128,0,154247:0:0:0:0:
182,192,154247,128,0,154341:0:0:0:0:
475,192,154341,128,0,154622:0:0:0:0:
109,192,154341,128,0,154622:0:0:0:0:
256,192,154341,1,0,0:0:0:0:
329,192,154435,128,0,154529:0:0:0:0:
256,192,154529,128,0,155185:0:0:0:0:
36,192,154529,1,0,0:0:0:0:
182,192,154529,128,0,154622:0:0:0:0:
402,192,154529,1,0,0:0:0:0:
329,192,154622,1,0,0:0:0:0:
182,192,154716,128,0,154810:0:0:0:0:
402,192,154716,128,0,154997:0:0:0:0:
36,192,154716,128,0,154950:0:0:0:0:
475,192,154810,1,0,0:0:0:0:
109,192,154904,128,0,154950:0:0:0:0:
182,192,154904,128,0,154950:0:0:0:0:
329,192,154904,1,0,0:0:0:0:
475,192,154997,1,0,0:0:0:0:
109,192,155091,128,0,155185:0:0:0:0:
36,192,155091,128,0,155185:0:0:0:0:
329,192,155091,128,0,155185:0:0:0:0:
402,192,155185,1,0,0:0:0:0:
475,192,155279,128,0,155935:0:0:0:0:
182,192,155279,128,0,155560:0:0:0:0:
109,192,155279,128,0,155372:0:0:0:0:
256,192,155279,1,0,0:0:0:0:
36,192,155372,1,0,0:0:0:0:
256,192,155466,128,0,155560:0:0:0:0:
402,192,155466,1,0,0:0:0:0:
329,192,155466,128,0,155560:0:0:0:0:
109,192,155560,1,0,0:0:0:0:
182,192,155654,128,0,155700:0:0:0:0:
256,192,155654,128,0,155700:0:0:0:0:
329,192,155654,128,0,155935:0:0:0:0:
36,192,155654,128,0,155935:0:0:0:0:
402,192,155747,1,0,0:0:0:0:
182,192,155841,128,0,155935:0:0:0:0:
109,192,155841,128,0,155935:0:0:0:0:
256,192,155935,1,0,0:0:0:0:
182,192,156029,128,0,158185:0:0:0:0:
475,192,156029,128,0,156216:0:0:0:0:
109,192,156029,128,0,156122:0:0:0:0:
36,192,156029,1,0,0:0:0:0:
402,192,156075,128,0,156263:0:0:0:0:
329,192,156122,128,0,156310:0:0:0:0:
256,192,156169,128,0,156450:0:0:0:0:
36,192,156216,1,0,0:0:0:0:
109,192,156310,1,0,0:0:0:0:
329,192,156404,128,0,156450:0:0:0:0:
475,192,156404,128,0,156450:0:0:0:0:
36,192,156404,128,0,156497:0:0:0:0:
109,192,156497,128,0,156591:0:0:0:0:
329,192,156591,128,0,156685:0:0:0:0:
402,192,156591,1,0,0:0:0:0:
475,192,156591,128,0,156685:0:0:0:0:
36,192,156685,1,0,0:0:0:0:
256,192,156685,128,0,156779:0:0:0:0:
475,192,156779,1,0,0:0:0:0:
402,192,156779,128,0,157060:0:0:0:0:
109,192,156779,128,0,156872:0:0:0:0:
256,192,156872,128,0,156966:0:0:0:0:
36,192,156966,128,0,157060:0:0:0:0:
329,192,156966,1,0,0:0:0:0:
475,192,156966,1,0,0:0:0:0:
109,192,157060,128,0,157154:0:0:0:0:
256,192,157060,1,0,0:0:0:0:
402,192,157154,128,0,157200:0:0:0:0:
329,192,157154,128,0,157200:0:0:0:0:
36,192,157154,128,0,157247:0:0:0:0:
256,192,157247,128,0,157341:0:0:0:0:
329,192,157341,128,0,157622:0:0:0:0:
475,192,157341,128,0,157622:0:0:0:0:
36,192,157341,128,0,157435:0:0:0:0:
109,192,157435,128,0,157529:0:0:0:0:
256,192,157529,128,0,157622:0:0:0:0:
402,192,157529,1,0,0:0:0:0:
109,192,157622,1,0,0:0:0:0:
256,192,157716,128,0,157950:0:0:0:0:
402,192,157716,128,0,157950:0:0:0:0:
475,192,157716,1,0,0:0:0:0:
36,192,157810,1,0,0:0:0:0:
329,192,157904,128,0,157950:0:0:0:0:
475,192,157904,128,0,157950:0:0:0:0:
109,192,157904,1,0,0:0:0:0:
36,192,157997,1,0,0:0:0:0:
256,192,158091,128,0,158185:0:0:0:0:
475,192,158091,1,0,0:0:0:0:
109,192,158185,128,0,158279:0:0:0:0:
402,192,158185,1,0,0:0:0:0:
36,192,158279,128,0,158560:0:0:0:0:
256,192,158279,128,0,158560:0:0:0:0:
329,192,158279,128,0,158466:0:0:0:0:
182,192,158279,1,0,0:0:0:0:
475,192,158372,1,0,0:0:0:0:
109,192,158466,128,0,158560:0:0:0:0:
182,192,158466,1,0,0:0:0:0:
402,192,158466,1,0,0:0:0:0:
475,192,158560,1,0,0:0:0:0:
109,192,158654,128,0,158935:0:0:0:0:
36,192,158654,128,0,158747:0:0:0:0:
329,192,158654,128,0,158935:0:0:0:0:
402,192,158654,128,0,158841:0:0:0:0:
256,192,158654,128,0,158700:0:0:0:0:
182,192,158841,128,0,158935:0:0:0:0:
256,192,158841,1,0,0:0:0:0:
36,192,158841,1,0,0:0:0:0:
475,192,158841,1,0,0:0:0:0:
402,192,158935,1,0,0:0:0:0:
256,192,159029,128,0,160060:0:0:0:0:
329,192,159029,1,0,0:0:0:0:
475,192,159029,1,0,0:0:0:0:
36,192,159029,128,0,159216:0:0:0:0:
109,192,159075,128,0,159263:0:0:0:0:
402,192,159122,128,0,159310:0:0:0:0:
475,192,159169,128,0,159450:0:0:0:0:
182,192,159216,1,0,0:0:0:0:
329,192,159310,1,0,0:0:0:0:
36,192,159404,128,0,159450:0:0:0:0:
109,192,159404,128,0,159450:0:0:0:0:
182,192,159404,128,0,159497:0:0:0:0:
402,192,159497,128,0,159591:0:0:0:0:
36,192,159591,128,0,159685:0:0:0:0:
329,192,159591,128,0,159685:0:0:0:0:
475,192,159591,1,0,0:0:0:0:
109,192,159685,1,0,0:0:0:0:
402,192,159685,128,0,159779:0:0:0:0:
36,192,159779,128,0,160060:0:0:0:0:
475,192,159779,128,0,159872:0:0:0:0:
182,192,159779,128,0,159966:0:0:0:0:
329,192,159872,1,0,0:0:0:0:
109,192,159966,1,0,0:0:0:0:
475,192,159966,1,0,0:0:0:0:
402,192,159966,128,0,160154:0:0:0:0:
182,192,160060,128,0,160154:0:0:0:0:
109,192,160154,128,0,160435:0:0:0:0:
329,192,160154,128,0,160435:0:0:0:0:
256,192,160154,128,0,160341:0:0:0:0:
36,192,160154,128,0,160200:0:0:0:0:
475,192,160154,1,0,0:0:0:0:
402,192,160247,1,0,0:0:0:0:
475,192,160341,128,0,160529:0:0:0:0:
182,192,160341,1,0,0:0:0:0:
36,192,160341,1,0,0:0:0:0:
256,192,160435,128,0,160529:0:0:0:0:
402,192,160529,128,0,161935:0:0:0:0:
182,192,160529,128,0,160810:0:0:0:0:
329,192,160529,128,0,160716:0:0:0:0:
36,192,160529,1,0,0:0:0:0:
109,192,160622,1,0,0:0:0:0:
256,192,160716,1,0,0:0:0:0:
475,192,160716,1,0,0:0:0:0:
36,192,160716,128,0,160810:0:0:0:0:
329,192,160810,1,0,0:0:0:0:
182,192,160904,128,0,160950:0:0:0:0:
475,192,160904,128,0,160997:0:0:0:0:
36,192,160904,128,0,160950:0:0:0:0:
256,192,160904,128,0,161185:0:0:0:0:
329,192,160997,1,0,0:0:0:0:
109,192,161091,128,0,161372:0:0:0:0:
36,192,161091,128,0,161372:0:0:0:0:
182,192,161185,1,0,0:0:0:0:
475,192,161185,1,0,0:0:0:0:
256,192,161279,128,0,161372:0:0:0:0:
329,192,161279,128,0,161372:0:0:0:0:
182,192,161372,1,0,0:0:0:0:
329,192,161466,1,0,0:0:0:0:
475,192,161466,1,0,0:0:0:0:
109,192,161466,128,0,161560:0:0:0:0:
256,192,161560,128,0,161654:0:0:0:0:
36,192,161654,128,0,161935:0:0:0:0:
475,192,161654,128,0,161841:0:0:0:0:
109,192,161685,128,0,161935:0:0:0:0:
182,192,161716,128,0,161935:0:0:0:0:
256,192,161747,128,0,161935:0:0:0:0:
329,192,161841,1,0,0:0:0:0:
36,192,162029,128,0,164185:0:0:0:0:
182,192,162029,128,0,162075:0:0:0:0:
256,192,162029,1,0,0:0:0:0:
109,192,162029,128,0,162122:0:0:0:0:
475,192,162029,128,0,162216:0:0:0:0:
402,192,162075,128,0,162263:0:0:0:0:
329,192,162122,128,0,162310:0:0:0:0:
256,192,162169,128,0,162450:0:0:0:0:
182,192,162216,1,0,0:0:0:0:
109,192,162310,1,0,0:0:0:0:
329,192,162404,128,0,162450:0:0:0:0:
182,192,162404,128,0,162450:0:0:0:0:
475,192,162404,128,0,162497:0:0:0:0:
402,192,162497,128,0,162591:0:0:0:0:
182,192,162591,1,0,0:0:0:0:
109,192,162591,128,0,162685:0:0:0:0:
329,192,162591,128,0,162685:0:0:0:0:
475,192,162685,1,0,0:0:0:0:
256,192,162685,128,0,162779:0:0:0:0:
109,192,162779,128,0,162872:0:0:0:0:
329,192,162779,1,0,0:0:0:0:
402,192,162779,128,0,163060:0:0:0:0:
182,192,162872,128,0,162966:0:0:0:0:
475,192,162966,1,0,0:0:0:0:
329,192,162966,128,0,163060:0:0:0:0:
256,192,162966,1,0,0:0:0:0:
109,192,163060,1,0,0:0:0:0:
182,192,163060,128,0,163154:0:0:0:0:
402,192,163154,128,0,163200:0:0:0:0:
475,192,163154,128,0,163200:0:0:0:0:
256,192,163154,128,0,163247:0:0:0:0:
109,192,163247,128,0,163341:0:0:0:0:
475,192,163341,128,0,163622:0:0:0:0:
182,192,163341,128,0,163435:0:0:0:0:
329,192,163341,128,0,163622:0:0:0:0:
109,192,163435,128,0,163529:0:0:0:0:
402,192,163529,1,0,0:0:0:0:
256,192,163529,128,0,163622:0:0:0:0:
182,192,163622,128,0,163716:0:0:0:0:
402,192,163716,128,0,163950:0:0:0:0:
475,192,163716,1,0,0:0:0:0:
256,192,163716,128,0,163950:0:0:0:0:
109,192,163810,128,0,163904:0:0:0:0:
475,192,163904,128,0,163950:0:0:0:0:
329,192,163904,128,0,163950:0:0:0:0:
182,192,163904,1,0,0:0:0:0:
109,192,163997,1,0,0:0:0:0:
402,192,164091,1,0,0:0:0:0:
182,192,164091,128,0,164185:0:0:0:0:
475,192,164185,1,0,0:0:0:0:
329,192,164185,128,0,164279:0:0:0:0:
109,192,164279,128,0,164560:0:0:0:0:
36,192,164279,128,0,164466:0:0:0:0:
256,192,164279,128,0,164560:0:0:0:0:
182,192,164279,1,0,0:0:0:0:
402,192,164372,1,0,0:0:0:0:
182,192,164466,1,0,0:0:0:0:
329,192,164466,128,0,164560:0:0:0:0:
475,192,164466,1,0,0:0:0:0:
402,192,164560,1,0,0:0:0:0:
182,192,164654,128,0,164935:0:0:0:0:
109,192,164654,128,0,164841:0:0:0:0:
475,192,164654,128,0,164700:0:0:0:0:
36,192,164654,128,0,164747:0:0:0:0:
329,192,164654,128,0,164935:0:0:0:0:
402,192,164841,128,0,164935:0:0:0:0:
36,192,164841,1,0,0:0:0:0:
475,192,164841,1,0,0:0:0:0:
256,192,164841,1,0,0:0:0:0:
109,192,164935,1,0,0:0:0:0:
475,192,165029,128,0,166435:0:0:0:0:
36,192,165029,1,0,0:0:0:0:
256,192,165029,128,0,165216:0:0:0:0:
329,192,165029,1,0,0:0:0:0:
182,192,165075,128,0,165263:0:0:0:0:
109,192,165122,128,0,165310:0:0:0:0:
36,192,165169,128,0,165450:0:0:0:0:
402,192,165216,1,0,0:0:0:0:
256,192,165310,1,0,0:0:0:0:
109,192,165404,128,0,165450:0:0:0:0:
182,192,165404,128,0,165450:0:0:0:0:
402,192,165404,128,0,165497:0:0:0:0:
256,192,165497,128,0,165591:0:0:0:0:
329,192,165591,128,0,165685:0:0:0:0:
109,192,165591,1,0,0:0:0:0:
36,192,165591,128,0,165685:0:0:0:0:
256,192,165685,1,0,0:0:0:0:
182,192,165685,128,0,165779:0:0:0:0:
109,192,165779,128,0,166060:0:0:0:0:
36,192,165779,1,0,0:0:0:0:
402,192,165779,128,0,165872:0:0:0:0:
329,192,165872,128,0,165966:0:0:0:0:
256,192,165966,128,0,166060:0:0:0:0:
182,192,165966,1,0,0:0:0:0:
36,192,165966,1,0,0:0:0:0:
402,192,166060,128,0,166154:0:0:0:0:
329,192,166060,1,0,0:0:0:0:
109,192,166154,128,0,166200:0:0:0:0:
36,192,166154,128,0,166200:0:0:0:0:
256,192,166154,128,0,166247:0:0:0:0:
329,192,166247,128,0,166341:0:0:0:0:
36,192,166341,128,0,166622:0:0:0:0:
402,192,166341,128,0,166622:0:0:0:0:
256,192,166341,1,0,0:0:0:0:
182,192,166435,128,0,166529:0:0:0:0:
256,192,166529,128,0,167185:0:0:0:0:
475,192,166529,1,0,0:0:0:0:
329,192,166529,128,0,166622:0:0:0:0:
109,192,166529,1,0,0:0:0:0:
182,192,166622,128,0,166716:0:0:0:0:
329,192,166716,128,0,166810:0:0:0:0:
109,192,166716,128,0,166997:0:0:0:0:
475,192,166716,128,0,166950:0:0:0:0:
36,192,166810,128,0,166904:0:0:0:0:
402,192,166904,128,0,166950:0:0:0:0:
329,192,166904,128,0,166950:0:0:0:0:
182,192,166904,1,0,0:0:0:0:
36,192,166997,1,0,0:0:0:0:
402,192,167091,128,0,167185:0:0:0:0:
475,192,167091,128,0,167185:0:0:0:0:
182,192,167091,128,0,167185:0:0:0:0:
109,192,167185,1,0,0:0:0:0:
36,192,167279,128,0,167935:0:0:0:0:
329,192,167279,128,0,167560:0:0:0:0:
402,192,167279,128,0,167372:0:0:0:0:
256,192,167279,1,0,0:0:0:0:
475,192,167372,1,0,0:0:0:0:
256,192,167466,128,0,167560:0:0:0:0:
109,192,167466,1,0,0:0:0:0:
182,192,167466,128,0,167560:0:0:0:0:
402,192,167560,1,0,0:0:0:0:
329,192,167654,128,0,167700:0:0:0:0:
256,192,167654,128,0,167700:0:0:0:0:
182,192,167654,128,0,167935:0:0:0:0:
475,192,167654,128,0,167935:0:0:0:0:
109,192,167747,1,0,0:0:0:0:
329,192,167841,128,0,167935:0:0:0:0:
402,192,167841,128,0,167935:0:0:0:0:
256,192,167935,1,0,0:0:0:0:
329,192,168029,128,0,169435:0:0:0:0:
36,192,168029,128,0,168216:0:0:0:0:
402,192,168029,128,0,168122:0:0:0:0:
475,192,168029,1,0,0:0:0:0:
109,192,168075,128,0,168263:0:0:0:0:
182,192,168122,128,0,168310:0:0:0:0:
256,192,168169,128,0,168450:0:0:0:0:
475,192,168216,1,0,0:0:0:0:
402,192,168310,1,0,0:0:0:0:
182,192,168404,128,0,168450:0:0:0:0:
36,192,168404,128,0,168450:0:0:0:0:
475,192,168404,128,0,168497:0:0:0:0:
402,192,168497,128,0,168591:0:0:0:0:
182,192,168591,128,0,168685:0:0:0:0:
109,192,168591,1,0,0:0:0:0:
36,192,168591,128,0,168685:0:0:0:0:
475,192,168685,1,0,0:0:0:0:
256,192,168685,128,0,168779:0:0:0:0:
36,192,168779,1,0,0:0:0:0:
109,192,168779,128,0,169060:0:0:0:0:
402,192,168779,128,0,168872:0:0:0:0:
256,192,168872,128,0,168966:0:0:0:0:
475,192,168966,128,0,169060:0:0:0:0:
182,192,168966,1,0,0:0:0:0:
36,192,168966,1,0,0:0:0:0:
402,192,169060,128,0,169154:0:0:0:0:
256,192,169060,1,0,0:0:0:0:
109,192,169154,128,0,169200:0:0:0:0:
182,192,169154,128,0,169200:0:0:0:0:
475,192,169154,128,0,169247:0:0:0:0:
256,192,169247,128,0,169341:0:0:0:0:
182,192,169341,128,0,169622:0:0:0:0:
36,192,169341,128,0,169622:0:0:0:0:
402,192,169341,128,0,169435:0:0:0:0:
475,192,169435,128,0,169529:0:0:0:0:
256,192,169529,128,0,169622:0:0:0:0:
109,192,169529,1,0,0:0:0:0:
402,192,169529,128,0,170185:0:0:0:0:
329,192,169622,128,0,169716:0:0:0:0:
256,192,169716,128,0,169950:0:0:0:0:
109,192,169716,128,0,169950:0:0:0:0:
36,192,169716,128,0,169810:0:0:0:0:
475,192,169810,128,0,169904:0:0:0:0:
182,192,169904,128,0,169950:0:0:0:0:
36,192,169904,128,0,169950:0:0:0:0:
329,192,169904,1,0,0:0:0:0:
475,192,169997,1,0,0:0:0:0:
256,192,170091,128,0,170185:0:0:0:0:
36,192,170091,1,0,0:0:0:0:
329,192,170185,1,0,0:0:0:0:
109,192,170185,128,0,170279:0:0:0:0:
475,192,170279,128,0,170747:0:0:0:0:
256,192,170279,128,0,170560:0:0:0:0:
182,192,170279,128,0,170466:0:0:0:0:
402,192,170279,1,0,0:0:0:0:
36,192,170372,1,0,0:0:0:0:
402,192,170466,128,0,170560:0:0:0:0:
329,192,170466,1,0,0:0:0:0:
109,192,170466,1,0,0:0:0:0:
36,192,170560,1,0,0:0:0:0:
182,192,170654,128,0,170935:0:0:0:0:
109,192,170654,128,0,170841:0:0:0:0:
256,192,170654,128,0,170700:0:0:0:0:
402,192,170654,128,0,170935:0:0:0:0:
329,192,170654,1,0,0:0:0:0:
475,192,170841,128,0,170935:0:0:0:0:
256,192,170841,1,0,0:0:0:0:
36,192,170841,1,0,0:0:0:0:
329,192,170841,128,0,170935:0:0:0:0:
109,192,170935,1,0,0:0:0:0:
256,192,171029,128,0,172060:0:0:0:0:
182,192,171029,1,0,0:0:0:0:
36,192,171029,1,0,0:0:0:0:
475,192,171029,128,0,171216:0:0:0:0:
402,192,171075,128,0,171263:0:0:0:0:
109,192,171122,128,0,171310:0:0:0:0:
36,192,171169,128,0,171450:0:0:0:0:
329,192,171216,1,0,0:0:0:0:
182,192,171310,1,0,0:0:0:0:
475,192,171404,128,0,171450:0:0:0:0:
402,192,171404,128,0,171450:0:0:0:0:
329,192,171404,128,0,171497:0:0:0:0:
109,192,171497,128,0,171591:0:0:0:0:
475,192,171591,128,0,171685:0:0:0:0:
182,192,171591,128,0,171685:0:0:0:0:
36,192,171591,1,0,0:0:0:0:
402,192,171685,1,0,0:0:0:0:
109,192,171685,128,0,171779:0:0:0:0:
475,192,171779,128,0,172060:0:0:0:0:
36,192,171779,128,0,171872:0:0:0:0:
329,192,171779,128,0,171966:0:0:0:0:
182,192,171872,1,0,0:0:0:0:
402,192,171966,1,0,0:0:0:0:
36,192,171966,1,0,0:0:0:0:
109,192,171966,128,0,172154:0:0:0:0:
329,192,172060,128,0,172154:0:0:0:0:
402,192,172154,128,0,172435:0:0:0:0:
182,192,172154,128,0,172435:0:0:0:0:
256,192,172154,128,0,172341:0:0:0:0:
475,192,172154,128,0,172200:0:0:0:0:
36,192,172154,1,0,0:0:0:0:
109,192,172247,1,0,0:0:0:0:
329,192,172341,1,0,0:0:0:0:
475,192,172341,1,0,0:0:0:0:
109,192,172388,128,0,172529:0:0:0:0:
36,192,172435,128,0,173958:0:0:0:0:
256,192,172435,128,0,172529:0:0:0:0:
329,192,172529,128,0,172810:0:0:0:0:
475,192,172529,1,0,0:0:0:0:
182,192,172529,128,0,172716:0:0:0:0:
402,192,172622,128,0,172716:0:0:0:0:
256,192,172716,1,0,0:0:0:0:
109,192,172716,1,0,0:0:0:0:
475,192,172716,128,0,172810:0:0:0:0:
182,192,172810,128,0,172904:0:0:0:0:
329,192,172904,128,0,172950:0:0:0:0:
109,192,172904,128,0,172997:0:0:0:0:
475,192,172904,128,0,172950:0:0:0:0:
256,192,172904,128,0,173185:0:0:0:0:
182,192,172997,128,0,173091:0:0:0:0:
475,192,173091,1,0,0:0:0:0:
402,192,173091,128,0,173185:0:0:0:0:
109,192,173185,128,0,173279:0:0:0:0:
329,192,173185,128,0,173279:0:0:0:0:
182,192,173279,128,0,173372:0:0:0:0:
256,192,173279,128,0,173677:0:0:0:0:
475,192,173279,128,0,173771:0:0:0:0:
402,192,173279,128,0,173372:0:0:0:0:
109,192,173372,128,0,173583:0:0:0:0:
329,192,173372,128,0,173466:0:0:0:0:
182,192,173466,128,0,173630:0:0:0:0:
402,192,173466,128,0,173560:0:0:0:0:
329,192,173560,128,0,173724:0:0:0:0:
109,192,173654,128,0,173911:0:0:0:0:
402,192,173654,128,0,173818:0:0:0:0:
182,192,173700,128,0,174029:0:0:0:0:
256,192,173747,128,0,173864:0:0:0:0:
329,192,173794,128,0,174029:0:0:0:0:
475,192,173841,128,0,174029:0:0:0:0:
402,192,173888,128,0,174029:0:0:0:0:
256,192,173935,128,0,174029:0:0:0:0:
109,192,173982,128,0,174029:0:0:0:0:
36,192,174029,1,0,0:0:0:0:
182,192,174091,1,0,0:0:0:0:
329,192,174091,1,0,0:0:0:0:
256,192,174122,128,0,174169:0:0:0:0:
256,192,179279,132,0,179654:0:0:0:0:
109,192,179654,1,0,0:0:0:0:
402,192,179654,1,0,0:0:0:0:
182,192,179747,1,0,0:0:0:0:
109,192,179841,1,0,0:0:0:0:
402,192,179841,1,0,0:0:0:0:
329,192,179935,1,0,0:0:0:0:
182,192,180029,1,0,0:0:0:0:
36,192,180029,1,0,0:0:0:0:
475,192,180029,1,0,0:0:0:0:
109,192,180029,1,0,0:0:0:0:
256,192,180029,1,0,0:0:0:0:
475,192,180122,128,0,181529:0:0:0:0:
329,192,180154,128,0,180779:0:0:0:0:
182,192,180185,128,0,180591:0:0:0:0:
36,192,180216,128,0,180435:0:0:0:0:
256,192,180310,1,0,0:0:0:0:
402,192,180404,1,0,0:0:0:0:
109,192,180497,1,0,0:0:0:0:
36,192,180603,1,0,0:0:0:0:
109,192,180700,1,0,0:0:0:0:
182,192,180810,1,0,0:0:0:0:
256,192,180919,1,0,0:0:0:0:
109,192,181029,1,0,0:0:0:0:
182,192,181138,1,0,0:0:0:0:
256,192,181247,1,0,0:0:0:0:
329,192,181357,1,0,0:0:0:0:
182,192,181466,1,0,0:0:0:0:
256,192,181575,1,0,0:0:0:0:
329,192,181669,1,0,0:0:0:0:
402,192,181763,1,0,0:0:0:0:
475,192,181857,1,0,0:0:0:0:
329,192,181935,1,0,0:0:0:0:
182,192,182013,1,0,0:0:0:0:
402,192,182091,1,0,0:0:0:0:
256,192,182154,1,0,0:0:0:0:
109,192,182225,1,0,0:0:0:0:
329,192,182294,1,0,0:0:0:0:
182,192,182359,1,0,0:0:0:0:
36,192,182419,1,0,0:0:0:0:
256,192,182482,1,0,0:0:0:0:
109,192,182544,1,0,0:0:0:0:
329,192,182595,1,0,0:0:0:0:
182,192,182654,1,0,0:0:0:0:
402,192,182700,1,0,0:0:0:0:
256,192,182747,1,0,0:0:0:0:
475,192,182794,1,0,0:0:0:0:
329,192,182841,1,0,0:0:0:0:
402,192,182888,1,0,0:0:0:0:
475,192,182935,1,0,0:0:0:0:
329,192,182997,1,0,0:0:0:0:
182,192,183060,1,0,0:0:0:0:
36,192,183099,1,0,0:0:0:0:
109,192,183122,1,0,0:0:0:0:
182,192,183146,1,0,0:0:0:0:
36,192,183193,1,0,0:0:0:0:
256,192,183263,1,0,0:0:0:0:
475,192,183357,1,0,0:0:0:0:
109,192,183450,1,0,0:0:0:0:
402,192,183568,1,0,0:0:0:0:
182,192,183638,1,0,0:0:0:0:
329,192,183779,1,0,0:0:0:0:
36,192,183841,128,0,184279:0:0:0:0:
182,192,183904,128,0,184122:0:0:0:0:
329,192,183966,128,0,184185:0:0:0:0:
109,192,184029,128,0,184310:0:0:0:0:
256,192,184091,128,0,184372:0:0:0:0:
402,192,184154,128,0,184435:0:0:0:0:
182,192,184216,128,0,184341:0:0:0:0:
329,192,184279,128,0,184404:0:0:0:0:
475,192,184341,128,0,184466:0:0:0:0:
36,192,184341,128,0,184529:0:0:0:0:
109,192,184372,128,0,184529:0:0:0:0:
182,192,184404,128,0,184529:0:0:0:0:
256,192,184435,128,0,184529:0:0:0:0:
329,192,184466,128,0,184529:0:0:0:0:
402,192,184497,128,0,184529:0:0:0:0:
475,192,184529,1,0,0:0:0:0:
329,192,185466,1,0,0:0:0:0:
182,192,185529,1,0,0:0:0:0:
329,192,185591,1,0,0:0:0:0:
109,192,185654,1,0,0:0:0:0:
256,192,185716,1,0,0:0:0:0:
36,192,185779,1,0,0:0:0:0:
182,192,185841,1,0,0:0:0:0:
475,192,185888,1,0,0:0:0:0:
36,192,185904,1,0,0:0:0:0:
402,192,185911,1,0,0:0:0:0:
329,192,185935,1,0,0:0:0:0:
256,192,185958,128,0,186099:0:0:0:0:
182,192,185982,128,0,186075:0:0:0:0:
109,192,186005,128,0,186052:0:0:0:0:
329,192,186029,128,0,186146:0:0:0:0:
402,192,186029,128,0,186193:0:0:0:0:
475,192,186029,128,0,186239:0:0:0:0:
36,192,186169,128,0,186310:0:0:0:0:
109,192,186216,128,0,186482:0:0:0:0:
256,192,186263,128,0,186357:0:0:0:0:
329,192,186310,128,0,186544:0:0:0:0:
475,192,186357,128,0,186450:0:0:0:0:
36,192,186404,128,0,186622:0:0:0:0:
182,192,186435,128,0,186513:0:0:0:0:
256,192,186466,128,0,186685:0:0:0:0:
402,192,186497,128,0,186575:0:0:0:0:
475,192,186529,128,0,186747:0:0:0:0:
109,192,186560,128,0,186654:0:0:0:0:
182,192,186591,128,0,186810:0:0:0:0:
329,192,186622,128,0,186716:0:0:0:0:
402,192,186654,128,0,186872:0:0:0:0:
36,192,186685,128,0,186779:0:0:0:0:
109,192,186716,128,0,186935:0:0:0:0:
256,192,186747,128,0,186841:0:0:0:0:
329,192,186779,128,0,186997:0:0:0:0:
475,192,186810,128,0,186904:0:0:0:0:
36,192,186841,128,0,187029:0:0:0:0:
182,192,186872,128,0,186966:0:0:0:0:
256,192,186904,128,0,187091:0:0:0:0:
402,192,186935,128,0,187029:0:0:0:0:
475,192,186966,128,0,187279:0:0:0:0:
109,192,186997,128,0,187091:0:0:0:0:
182,192,187029,128,0,187154:0:0:0:0:
329,192,187060,128,0,187154:0:0:0:0:
402,192,187091,128,0,187216:0:0:0:0:
36,192,187122,128,0,187372:0:0:0:0:
256,192,187154,128,0,187216:0:0:0:0:
109,192,187185,128,0,187466:0:0:0:0:
329,192,187216,128,0,187310:0:0:0:0:
182,192,187247,128,0,187341:0:0:0:0:
402,192,187279,128,0,187341:0:0:0:0:
256,192,187310,128,0,187404:0:0:0:0:
475,192,187341,128,0,187458:0:0:0:0:
329,192,187388,128,0,187482:0:0:0:0:
182,192,187435,128,0,187505:0:0:0:0:
36,192,187482,128,0,187529:0:0:0:0:
256,192,187529,1,0,0:0:0:0:
109,192,187575,1,0,0:0:0:0:
36,192,187622,1,0,0:0:0:0:
182,192,187716,1,0,0:0:0:0:
329,192,187810,1,0,0:0:0:0:
329,192,187904,1,0,0:0:0:0:
109,192,187997,1,0,0:0:0:0:
256,192,188091,1,0,0:0:0:0:
402,192,188185,1,0,0:0:0:0:
402,192,188279,1,0,0:0:0:0:
36,192,188372,1,0,0:0:0:0:
182,192,188466,1,0,0:0:0:0:
329,192,188560,1,0,0:0:0:0:
329,192,188654,1,0,0:0:0:0:
109,192,188747,1,0,0:0:0:0:
256,192,188841,1,0,0:0:0:0:
36,192,188888,1,0,0:0:0:0:
182,192,188935,1,0,0:0:0:0:
329,192,188982,128,0,189099:0:0:0:0:
402,192,189005,128,0,189075:0:0:0:0:
182,192,189029,128,0,189146:0:0:0:0:
109,192,189029,128,0,189193:0:0:0:0:
36,192,189029,128,0,189239:0:0:0:0:
256,192,189029,128,0,189122:0:0:0:0:
475,192,189179,128,0,189404:0:0:0:0:
256,192,189216,128,0,189329:0:0:0:0:
402,192,189254,128,0,189441:0:0:0:0:
182,192,189291,128,0,189516:0:0:0:0:
329,192,189329,128,0,189479:0:0:0:0:
109,192,189366,128,0,189554:0:0:0:0:
256,192,189404,128,0,189666:0:0:0:0:
36,192,189441,128,0,189591:0:0:0:0:
475,192,189479,128,0,189629:0:0:0:0:
402,192,189516,128,0,189704:0:0:0:0:
329,192,189554,128,0,189779:0:0:0:0:
182,192,189591,128,0,189741:0:0:0:0:
109,192,189629,128,0,189816:0:0:0:0:
36,192,189666,128,0,189891:0:0:0:0:
475,192,189704,128,0,189929:0:0:0:0:
256,192,189741,128,0,189854:0:0:0:0:
402,192,189779,128,0,189966:0:0:0:0:
182,192,189816,128,0,190041:0:0:0:0:
329,192,189854,128,0,190004:0:0:0:0:
109,192,189891,128,0,190079:0:0:0:0:
256,192,189929,128,0,190172:0:0:0:0:
36,192,189966,128,0,190235:0:0:0:0:
475,192,190004,128,0,190122:0:0:0:0:
402,192,190041,128,0,190141:0:0:0:0:
329,192,190079,128,0,190304:0:0:0:0:
182,192,190116,128,0,190204:0:0:0:0:
109,192,190154,128,0,190379:0:0:0:0:
475,192,190185,128,0,190279:0:0:0:0:
402,192,190216,128,0,190544:0:0:0:0:
256,192,190247,128,0,190341:0:0:0:0:
182,192,190279,128,0,190435:0:0:0:0:
36,192,190310,128,0,190404:0:0:0:0:
475,192,190341,128,0,190497:0:0:0:0:
329,192,190372,128,0,190466:0:0:0:0:
256,192,190404,128,0,190513:0:0:0:0:
109,192,190435,128,0,190482:0:0:0:0:
36,192,190466,1,0,0:0:0:0:
182,192,190497,1,0,0:0:0:0:
329,192,190529,1,0,0:0:0:0:
475,192,190560,1,0,0:0:0:0:
256,192,190622,1,0,0:0:0:0:
402,192,190716,1,0,0:0:0:0:
109,192,190810,1,0,0:0:0:0:
109,192,190904,1,0,0:0:0:0:
329,192,190997,1,0,0:0:0:0:
475,192,191091,1,0,0:0:0:0:
182,192,191185,1,0,0:0:0:0:
182,192,191279,1,0,0:0:0:0:
256,192,191372,1,0,0:0:0:0:
402,192,191466,1,0,0:0:0:0:
109,192,191560,1,0,0:0:0:0:
109,192,191654,1,0,0:0:0:0:
329,192,191747,1,0,0:0:0:0:
256,192,191841,1,0,0:0:0:0:
475,192,191888,1,0,0:0:0:0:
329,192,191935,1,0,0:0:0:0:
182,192,191982,128,0,192099:0:0:0:0:
109,192,192005,128,0,192075:0:0:0:0:
256,192,192029,128,0,192122:0:0:0:0:
402,192,192029,128,0,192193:0:0:0:0:
475,192,192029,128,0,192239:0:0:0:0:
329,192,192029,128,0,192146:0:0:0:0:
36,192,192154,128,0,192310:0:0:0:0:
109,192,192185,128,0,192372:0:0:0:0:
182,192,192216,128,0,192435:0:0:0:0:
256,192,192247,128,0,192341:0:0:0:0:
329,192,192279,128,0,192404:0:0:0:0:
402,192,192310,128,0,192466:0:0:0:0:
475,192,192341,128,0,192529:0:0:0:0:
36,192,192372,128,0,192716:0:0:0:0:
256,192,192404,128,0,192497:0:0:0:0:
109,192,192435,128,0,192560:0:0:0:0:
329,192,192466,128,0,192622:0:0:0:0:
182,192,192497,128,0,192591:0:0:0:0:
402,192,192529,128,0,192654:0:0:0:0:
256,192,192560,128,0,192779:0:0:0:0:
475,192,192591,128,0,192685:0:0:0:0:
109,192,192622,128,0,192747:0:0:0:0:
182,192,192654,128,0,192935:0:0:0:0:
329,192,192685,128,0,192810:0:0:0:0:
402,192,192716,128,0,192841:0:0:0:0:
475,192,192747,128,0,193029:0:0:0:0:
36,192,192779,128,0,192904:0:0:0:0:
109,192,192810,128,0,193060:0:0:0:0:
256,192,192841,128,0,192966:0:0:0:0:
329,192,192872,128,0,192997:0:0:0:0:
402,192,192904,128,0,193091:0:0:0:0:
36,192,192966,128,0,193185:0:0:0:0:
182,192,192997,128,0,193247:0:0:0:0:
256,192,193029,128,0,193138:0:0:0:0:
329,192,193060,128,0,193216:0:0:0:0:
475,192,193091,128,0,193310:0:0:0:0:
109,192,193122,128,0,193279:0:0:0:0:
402,192,193154,128,0,193341:0:0:0:0:
256,192,193200,128,0,193388:0:0:0:0:
36,192,193247,128,0,193310:0:0:0:0:
329,192,193294,128,0,193364:0:0:0:0:
182,192,193341,128,0,193435:0:0:0:0:
109,192,193388,1,0,0:0:0:0:
475,192,193482,1,0,0:0:0:0:
402,192,193505,1,0,0:0:0:0:
329,192,193529,1,0,0:0:0:0:
256,192,193552,1,0,0:0:0:0:
182,192,193599,1,0,0:0:0:0:
256,192,193669,1,0,0:0:0:0:
475,192,193716,1,0,0:0:0:0:
36,192,193810,1,0,0:0:0:0:
36,192,193904,1,0,0:0:0:0:
402,192,193997,1,0,0:0:0:0:
182,192,194091,1,0,0:0:0:0:
475,192,194185,1,0,0:0:0:0:
475,192,194279,1,0,0:0:0:0:
109,192,194372,1,0,0:0:0:0:
329,192,194466,1,0,0:0:0:0:
36,192,194560,1,0,0:0:0:0:
36,192,194654,1,0,0:0:0:0:
402,192,194747,1,0,0:0:0:0:
256,192,194841,1,0,0:0:0:0:
36,192,194888,1,0,0:0:0:0:
182,192,194935,1,0,0:0:0:0:
329,192,194982,128,0,195099:0:0:0:0:
402,192,195005,128,0,195075:0:0:0:0:
182,192,195029,128,0,195146:0:0:0:0:
36,192,195029,128,0,195239:0:0:0:0:
256,192,195029,128,0,195122:0:0:0:0:
109,192,195029,128,0,195193:0:0:0:0:
475,192,195179,128,0,195404:0:0:0:0:
256,192,195216,128,0,195329:0:0:0:0:
402,192,195254,128,0,195629:0:0:0:0:
182,192,195291,128,0,195479:0:0:0:0:
329,192,195329,128,0,195441:0:0:0:0:
109,192,195366,128,0,195741:0:0:0:0:
256,192,195404,128,0,195591:0:0:0:0:
36,192,195441,128,0,195516:0:0:0:0:
475,192,195479,128,0,195554:0:0:0:0:
329,192,195516,128,0,195704:0:0:0:0:
182,192,195554,128,0,195666:0:0:0:0:
36,192,195591,128,0,195816:0:0:0:0:
475,192,195629,128,0,195854:0:0:0:0:
256,192,195666,128,0,195779:0:0:0:0:
402,192,195704,128,0,196154:0:0:0:0:
182,192,195741,128,0,195929:0:0:0:0:
329,192,195779,128,0,195891:0:0:0:0:
109,192,195816,128,0,196079:0:0:0:0:
256,192,195854,128,0,196154:0:0:0:0:
36,192,195891,128,0,195966:0:0:0:0:
475,192,195929,128,0,196004:0:0:0:0:
329,192,195966,128,0,196041:0:0:0:0:
182,192,196004,128,0,196079:0:0:0:0:
36,192,196041,128,0,196079:0:0:0:0:
475,192,196079,128,0,196154:0:0:0:0:
329,192,196116,128,0,196154:0:0:0:0:
182,192,196154,1,0,0:0:0:0:
109,192,196154,1,0,0:0:0:0:
36,192,196154,1,0,0:0:0:0:
329,192,196247,1,0,0:0:0:0:
402,192,196279,1,0,0:0:0:0:
109,192,196318,1,0,0:0:0:0:
182,192,196411,1,0,0:0:0:0:
109,192,196411,1,0,0:0:0:0:
402,192,196482,1,0,0:0:0:0:
36,192,196529,1,0,0:0:0:0:
256,192,196529,1,0,0:0:0:0:
475,192,196529,1,0,0:0:0:0:
329,192,196529,1,0,0:0:0:0:
329,192,196680,128,0,197135:0:0:0:0:
402,192,196710,128,0,197195:0:0:0:0:
182,192,196710,1,0,0:0:0:0:
475,192,196741,128,0,197256:0:0:0:0:
36,192,196801,1,0,0:0:0:0:
182,192,196892,1,0,0:0:0:0:
109,192,196983,1,0,0:0:0:0:
256,192,197074,1,0,0:0:0:0:
109,192,197165,1,0,0:0:0:0:
182,192,197256,1,0,0:0:0:0:
36,192,197341,1,0,0:0:0:0:
402,192,197398,128,0,197827:0:0:0:0:
475,192,197427,128,0,197884:0:0:0:0:
256,192,197427,1,0,0:0:0:0:
36,192,197513,1,0,0:0:0:0:
109,192,197598,1,0,0:0:0:0:
256,192,197684,1,0,0:0:0:0:
36,192,197770,1,0,0:0:0:0:
256,192,197856,1,0,0:0:0:0:
109,192,197941,1,0,0:0:0:0:
329,192,197941,1,0,0:0:0:0:
182,192,198020,1,0,0:0:0:0:
475,192,198099,128,0,198496:0:0:0:0:
109,192,198099,1,0,0:0:0:0:
329,192,198179,1,0,0:0:0:0:
182,192,198258,1,0,0:0:0:0:
36,192,198337,1,0,0:0:0:0:
256,192,198417,1,0,0:0:0:0:
182,192,198496,1,0,0:0:0:0:
256,192,198575,1,0,0:0:0:0:
36,192,198576,1,0,0:0:0:0:
109,192,198649,1,0,0:0:0:0:
475,192,198723,128,0,199093:0:0:0:0:
329,192,198723,1,0,0:0:0:0:
109,192,198797,1,0,0:0:0:0:
182,192,198871,1,0,0:0:0:0:
329,192,198945,1,0,0:0:0:0:
182,192,199019,1,0,0:0:0:0:
256,192,199093,1,0,0:0:0:0:
109,192,199167,1,0,0:0:0:0:
402,192,199167,1,0,0:0:0:0:
256,192,199237,1,0,0:0:0:0:
36,192,199307,128,0,199659:0:0:0:0:
475,192,199307,128,0,199659:0:0:0:0:
182,192,199307,1,0,0:0:0:0:
329,192,199378,1,0,0:0:0:0:
182,192,199448,1,0,0:0:0:0:
329,192,199519,1,0,0:0:0:0:
256,192,199589,1,0,0:0:0:0:
182,192,199659,1,0,0:0:0:0:
402,192,199730,1,0,0:0:0:0:
109,192,199730,1,0,0:0:0:0:
256,192,199796,1,0,0:0:0:0:
36,192,199863,128,0,200163:0:0:0:0:
475,192,199863,128,0,200163:0:0:0:0:
329,192,199863,1,0,0:0:0:0:
109,192,199896,128,0,200196:0:0:0:0:
402,192,199896,128,0,200196:0:0:0:0:
182,192,199930,1,0,0:0:0:0:
329,192,199996,1,0,0:0:0:0:
182,192,200063,1,0,0:0:0:0:
256,192,200130,1,0,0:0:0:0:
329,192,200196,1,0,0:0:0:0:
36,192,200263,1,0,0:0:0:0:
475,192,200263,1,0,0:0:0:0:
109,192,200325,1,0,0:0:0:0:
182,192,200388,128,0,200669:0:0:0:0:
329,192,200388,128,0,200669:0:0:0:0:
475,192,200388,1,0,0:0:0:0:
256,192,200419,128,0,200700:0:0:0:0:
36,192,200450,1,0,0:0:0:0:
402,192,200513,1,0,0:0:0:0:
36,192,200575,1,0,0:0:0:0:
475,192,200638,1,0,0:0:0:0:
402,192,200700,1,0,0:0:0:0:
36,192,200763,1,0,0:0:0:0:
182,192,200793,1,0,0:0:0:0:
329,192,200823,1,0,0:0:0:0:
475,192,200853,1,0,0:0:0:0:
256,192,200883,128,0,201183:0:0:0:0:
109,192,200883,1,0,0:0:0:0:
402,192,200913,1,0,0:0:0:0:
36,192,200943,1,0,0:0:0:0:
182,192,200973,1,0,0:0:0:0:
329,192,201003,1,0,0:0:0:0:
475,192,201033,1,0,0:0:0:0:
109,192,201063,1,0,0:0:0:0:
402,192,201093,1,0,0:0:0:0:
36,192,201123,1,0,0:0:0:0:
182,192,201153,1,0,0:0:0:0:
329,192,201183,1,0,0:0:0:0:
475,192,201213,1,0,0:0:0:0:
109,192,201243,1,0,0:0:0:0:
36,192,201243,1,0,0:0:0:0:
256,192,201361,1,0,0:0:0:0:
256,192,201480,1,0,0:0:0:0:
402,192,201480,1,0,0:0:0:0:
256,192,201598,1,0,0:0:0:0:
109,192,201598,1,0,0:0:0:0:
36,192,201717,1,0,0:0:0:0:
182,192,201717,1,0,0:0:0:0:
36,192,201835,1,0,0:0:0:0:
182,192,201954,1,0,0:0:0:0:
36,192,201954,1,0,0:0:0:0:
329,192,201954,1,0,0:0:0:0:
109,192,202191,1,0,0:0:0:0:
36,192,202191,1,0,0:0:0:0:
256,192,202191,128,0,202425:0:0:0:0:
402,192,202191,128,0,202425:0:0:0:0:
475,192,202191,128,0,202425:0:0:0:0:
182,192,202191,1,0,0:0:0:0:
109,192,202425,1,0,0:0:0:0:
182,192,202483,1,0,0:0:0:0:
109,192,202542,1,0,0:0:0:0:
182,192,202601,1,0,0:0:0:0:
36,192,202659,128,0,202718:0:0:0:0:
256,192,202659,128,0,202718:0:0:0:0:
329,192,202659,128,0,202718:0:0:0:0:
402,192,202659,128,0,202718:0:0:0:0:
475,192,202659,128,0,202718:0:0:0:0:
256,192,202894,1,0,0:0:0:0:
182,192,202894,1,0,0:0:0:0:
36,192,202894,1,0,0:0:0:0:
475,192,202894,1,0,0:0:0:0:
402,192,202952,1,0,0:0:0:0:
256,192,203011,1,0,0:0:0:0:
36,192,203011,1,0,0:0:0:0:
109,192,203069,1,0,0:0:0:0:
329,192,203069,1,0,0:0:0:0:
182,192,203128,1,0,0:0:0:0:
475,192,203128,1,0,0:0:0:0:
36,192,203187,1,0,0:0:0:0:
256,192,203187,1,0,0:0:0:0:
109,192,203245,1,0,0:0:0:0:
329,192,203245,1,0,0:0:0:0:
182,192,203304,1,0,0:0:0:0:
402,192,203304,1,0,0:0:0:0:
329,192,203362,1,0,0:0:0:0:
36,192,203362,1,0,0:0:0:0:
475,192,203421,1,0,0:0:0:0:
256,192,203421,1,0,0:0:0:0:
402,192,203480,1,0,0:0:0:0:
182,192,203480,1,0,0:0:0:0:
109,192,203538,1,0,0:0:0:0:
329,192,203538,1,0,0:0:0:0:
182,192,203597,1,0,0:0:0:0:
475,192,203597,1,0,0:0:0:0:
329,192,203655,1,0,0:0:0:0:
36,192,203655,1,0,0:0:0:0:
182,192,203714,1,0,0:0:0:0:
402,192,203714,1,0,0:0:0:0:
109,192,203773,1,0,0:0:0:0:
256,192,203831,1,0,0:0:0:0:
475,192,203831,1,0,0:0:0:0:
329,192,203890,1,0,0:0:0:0:
402,192,203890,1,0,0:0:0:0:
109,192,203948,1,0,0:0:0:0:
36,192,203948,1,0,0:0:0:0:
256,192,203948,1,0,0:0:0:0:
475,192,203948,1,0,0:0:0:0:
329,192,204066,1,0,0:0:0:0:
475,192,204066,1,0,0:0:0:0:
36,192,204066,128,0,204300:0:0:0:0:
109,192,204066,128,0,204153:0:0:0:0:
182,192,204066,128,0,204124:0:0:0:0:
329,192,204183,128,0,204300:0:0:0:0:
256,192,204212,128,0,204300:0:0:0:0:
182,192,204241,128,0,204300:0:0:0:0:
402,192,204300,1,0,0:0:0:0:
182,192,204358,1,0,0:0:0:0:
329,192,204417,1,0,0:0:0:0:
109,192,204476,1,0,0:0:0:0:
36,192,204505,1,0,0:0:0:0:
402,192,204534,1,0,0:0:0:0:
256,192,204534,1,0,0:0:0:0:
329,192,204534,1,0,0:0:0:0:
475,192,204534,128,0,204944:0:0:0:0:
109,192,204651,1,0,0:0:0:0:
256,192,204769,1,0,0:0:0:0:
402,192,204827,128,0,204944:0:0:0:0:
329,192,204857,128,0,204944:0:0:0:0:
109,192,204886,1,0,0:0:0:0:
402,192,205002,128,0,205090:0:0:0:0:
182,192,205002,1,0,0:0:0:0:
329,192,205002,128,0,205119:0:0:0:0:
256,192,205002,128,0,205149:0:0:0:0:
36,192,205003,1,0,0:0:0:0:
109,192,205119,1,0,0:0:0:0:
329,192,205237,1,0,0:0:0:0:
256,192,205237,1,0,0:0:0:0:
182,192,205237,1,0,0:0:0:0:
475,192,205237,1,0,0:0:0:0:
36,192,205295,128,0,205530:0:0:0:0:
109,192,205559,1,0,0:0:0:0:
182,192,205588,1,0,0:0:0:0:
256,192,205588,1,0,0:0:0:0:
329,192,205588,1,0,0:0:0:0:
402,192,205647,1,0,0:0:0:0:
475,192,205705,128,0,205901:0:0:0:0:
402,192,205920,1,0,0:0:0:0:
329,192,205940,1,0,0:0:0:0:
256,192,205940,1,0,0:0:0:0:
182,192,205940,1,0,0:0:0:0:
36,192,205940,1,0,0:0:0:0:
109,192,206018,1,0,0:0:0:0:
36,192,206057,1,0,0:0:0:0:
182,192,206096,1,0,0:0:0:0:
109,192,206135,1,0,0:0:0:0:
329,192,206174,1,0,0:0:0:0:
475,192,206174,1,0,0:0:0:0:
182,192,206233,1,0,0:0:0:0:
329,192,206291,1,0,0:0:0:0:
475,192,206291,1,0,0:0:0:0:
182,192,206350,1,0,0:0:0:0:
36,192,206409,1,0,0:0:0:0:
256,192,206409,128,0,206643:0:0:0:0:
402,192,206409,128,0,206643:0:0:0:0:
475,192,206409,128,0,206643:0:0:0:0:
109,192,206409,1,0,0:0:0:0:
109,192,206643,1,0,0:0:0:0:
182,192,206701,1,0,0:0:0:0:
109,192,206760,1,0,0:0:0:0:
182,192,206819,1,0,0:0:0:0:
36,192,206877,128,0,206936:0:0:0:0:
256,192,206877,128,0,206936:0:0:0:0:
329,192,206877,128,0,206936:0:0:0:0:
402,192,206877,128,0,206936:0:0:0:0:
475,192,206877,128,0,206936:0:0:0:0:
256,192,207112,1,0,0:0:0:0:
182,192,207112,1,0,0:0:0:0:
36,192,207112,1,0,0:0:0:0:
475,192,207112,1,0,0:0:0:0:
402,192,207170,1,0,0:0:0:0:
329,192,207170,1,0,0:0:0:0:
182,192,207229,1,0,0:0:0:0:
109,192,207229,1,0,0:0:0:0:
402,192,207287,1,0,0:0:0:0:
256,192,207346,1,0,0:0:0:0:
36,192,207346,1,0,0:0:0:0:
109,192,207405,1,0,0:0:0:0:
329,192,207405,1,0,0:0:0:0:
475,192,207463,1,0,0:0:0:0:
256,192,207463,1,0,0:0:0:0:
182,192,207522,1,0,0:0:0:0:
402,192,207522,1,0,0:0:0:0:
329,192,207580,1,0,0:0:0:0:
109,192,207580,1,0,0:0:0:0:
182,192,207639,1,0,0:0:0:0:
402,192,207639,1,0,0:0:0:0:
256,192,207698,1,0,0:0:0:0:
475,192,207698,1,0,0:0:0:0:
109,192,207756,1,0,0:0:0:0:
329,192,207815,1,0,0:0:0:0:
475,192,207815,1,0,0:0:0:0:
182,192,207873,1,0,0:0:0:0:
36,192,207873,1,0,0:0:0:0:
329,192,207932,1,0,0:0:0:0:
475,192,207932,1,0,0:0:0:0:
182,192,207991,1,0,0:0:0:0:
36,192,207991,1,0,0:0:0:0:
329,192,208049,1,0,0:0:0:0:
402,192,208049,1,0,0:0:0:0:
182,192,208108,1,0,0:0:0:0:
109,192,208108,1,0,0:0:0:0:
256,192,208166,1,0,0:0:0:0:
36,192,208166,1,0,0:0:0:0:
402,192,208166,1,0,0:0:0:0:
475,192,208166,1,0,0:0:0:0:
36,192,208284,128,0,208342:0:0:0:0:
182,192,208284,128,0,208342:0:0:0:0:
256,192,208284,128,0,208342:0:0:0:0:
329,192,208284,128,0,208342:0:0:0:0:
475,192,208284,128,0,208342:0:0:0:0:
109,192,208518,1,0,0:0:0:0:
402,192,208518,1,0,0:0:0:0:
36,192,208518,1,0,0:0:0:0:
109,192,208576,1,0,0:0:0:0:
36,192,208596,1,0,0:0:0:0:
329,192,208674,1,0,0:0:0:0:
256,192,208713,1,0,0:0:0:0:
475,192,208753,1,0,0:0:0:0:
182,192,208753,1,0,0:0:0:0:
36,192,208753,1,0,0:0:0:0:
402,192,208753,1,0,0:0:0:0:
329,192,208870,128,0,208928:0:0:0:0:
182,192,208870,1,0,0:0:0:0:
475,192,208899,128,0,208958:0:0:0:0:
256,192,208987,128,0,209045:0:0:0:0:
109,192,208987,1,0,0:0:0:0:
402,192,209016,128,0,209075:0:0:0:0:
182,192,209104,1,0,0:0:0:0:
109,192,209104,1,0,0:0:0:0:
36,192,209104,1,0,0:0:0:0:
329,192,209104,1,0,0:0:0:0:
329,192,209221,1,0,0:0:0:0:
182,192,209221,128,0,209280:0:0:0:0:
36,192,209251,128,0,209309:0:0:0:0:
402,192,209338,1,0,0:0:0:0:
256,192,209338,128,0,209397:0:0:0:0:
109,192,209368,128,0,209426:0:0:0:0:
329,192,209456,1,0,0:0:0:0:
182,192,209456,1,0,0:0:0:0:
475,192,209456,1,0,0:0:0:0:
402,192,209456,1,0,0:0:0:0:
109,192,209573,1,0,0:0:0:0:
36,192,209573,1,0,0:0:0:0:
256,192,209631,1,0,0:0:0:0:
329,192,209631,1,0,0:0:0:0:
109,192,209690,1,0,0:0:0:0:
36,192,209690,1,0,0:0:0:0:
329,192,209749,1,0,0:0:0:0:
182,192,209807,1,0,0:0:0:0:
36,192,209807,1,0,0:0:0:0:
256,192,209807,1,0,0:0:0:0:
475,192,209807,1,0,0:0:0:0:
402,192,209924,1,0,0:0:0:0:
109,192,209924,1,0,0:0:0:0:
329,192,209983,1,0,0:0:0:0:
182,192,209983,1,0,0:0:0:0:
109,192,210042,1,0,0:0:0:0:
402,192,210042,1,0,0:0:0:0:
402,192,210159,1,0,0:0:0:0:
475,192,210159,1,0,0:0:0:0:
256,192,210159,128,0,210393:0:0:0:0:
109,192,210159,128,0,210393:0:0:0:0:
36,192,210159,128,0,210393:0:0:0:0:
329,192,210159,1,0,0:0:0:0:
402,192,210393,1,0,0:0:0:0:
329,192,210451,1,0,0:0:0:0:
402,192,210510,1,0,0:0:0:0:
329,192,210569,1,0,0:0:0:0:
256,192,210627,128,0,210686:0:0:0:0:
182,192,210627,128,0,210686:0:0:0:0:
109,192,210627,128,0,210686:0:0:0:0:
36,192,210627,128,0,210686:0:0:0:0:
475,192,210627,128,0,210686:0:0:0:0:
256,192,210862,1,0,0:0:0:0:
329,192,210862,1,0,0:0:0:0:
475,192,210862,1,0,0:0:0:0:
36,192,210862,1,0,0:0:0:0:
109,192,210920,1,0,0:0:0:0:
256,192,210979,1,0,0:0:0:0:
475,192,210979,1,0,0:0:0:0:
402,192,211037,1,0,0:0:0:0:
182,192,211037,1,0,0:0:0:0:
329,192,211096,1,0,0:0:0:0:
36,192,211096,1,0,0:0:0:0:
475,192,211155,1,0,0:0:0:0:
256,192,211155,1,0,0:0:0:0:
402,192,211213,1,0,0:0:0:0:
182,192,211213,1,0,0:0:0:0:
329,192,211272,1,0,0:0:0:0:
109,192,211272,1,0,0:0:0:0:
182,192,211330,1,0,0:0:0:0:
475,192,211330,1,0,0:0:0:0:
36,192,211389,1,0,0:0:0:0:
256,192,211389,1,0,0:0:0:0:
109,192,211448,1,0,0:0:0:0:
329,192,211448,1,0,0:0:0:0:
402,192,211506,1,0,0:0:0:0:
182,192,211506,1,0,0:0:0:0:
329,192,211565,1,0,0:0:0:0:
36,192,211565,1,0,0:0:0:0:
182,192,211623,1,0,0:0:0:0:
475,192,211623,1,0,0:0:0:0:
329,192,211682,1,0,0:0:0:0:
109,192,211682,1,0,0:0:0:0:
402,192,211741,1,0,0:0:0:0:
256,192,211799,1,0,0:0:0:0:
36,192,211799,1,0,0:0:0:0:
182,192,211858,1,0,0:0:0:0:
109,192,211858,1,0,0:0:0:0:
402,192,211916,1,0,0:0:0:0:
475,192,211916,1,0,0:0:0:0:
256,192,211916,1,0,0:0:0:0:
36,192,211916,1,0,0:0:0:0:
182,192,212034,1,0,0:0:0:0:
36,192,212034,1,0,0:0:0:0:
475,192,212034,128,0,212268:0:0:0:0:
402,192,212034,128,0,212121:0:0:0:0:
329,192,212034,128,0,212092:0:0:0:0:
182,192,212151,128,0,212268:0:0:0:0:
256,192,212180,128,0,212268:0:0:0:0:
329,192,212209,128,0,212268:0:0:0:0:
109,192,212268,1,0,0:0:0:0:
329,192,212326,1,0,0:0:0:0:
182,192,212385,1,0,0:0:0:0:
402,192,212444,1,0,0:0:0:0:
475,192,212473,1,0,0:0:0:0:
109,192,212502,1,0,0:0:0:0:
256,192,212502,1,0,0:0:0:0:
182,192,212502,1,0,0:0:0:0:
36,192,212502,128,0,212913:0:0:0:0:
402,192,212620,1,0,0:0:0:0:
256,192,212737,1,0,0:0:0:0:
109,192,212795,128,0,212913:0:0:0:0:
182,192,212825,128,0,212913:0:0:0:0:
402,192,212854,1,0,0:0:0:0:
109,192,212971,128,0,213059:0:0:0:0:
329,192,212971,1,0,0:0:0:0:
182,192,212971,128,0,213088:0:0:0:0:
256,192,212971,128,0,213118:0:0:0:0:
475,192,212971,1,0,0:0:0:0:
402,192,213088,1,0,0:0:0:0:
182,192,213206,1,0,0:0:0:0:
256,192,213206,1,0,0:0:0:0:
329,192,213206,1,0,0:0:0:0:
36,192,213206,1,0,0:0:0:0:
475,192,213264,128,0,213499:0:0:0:0:
402,192,213528,1,0,0:0:0:0:
329,192,213557,1,0,0:0:0:0:
256,192,213557,1,0,0:0:0:0:
182,192,213557,1,0,0:0:0:0:
109,192,213616,1,0,0:0:0:0:
36,192,213674,128,0,213870:0:0:0:0:
109,192,213889,1,0,0:0:0:0:
182,192,213909,1,0,0:0:0:0:
256,192,213909,1,0,0:0:0:0:
329,192,213909,1,0,0:0:0:0:
475,192,213909,1,0,0:0:0:0:
475,192,213987,128,0,214260:0:0:0:0:
256,192,214026,128,0,214182:0:0:0:0:
402,192,214104,128,0,214221:0:0:0:0:
109,192,214143,1,0,0:0:0:0:
182,192,214260,1,0,0:0:0:0:
109,192,214260,1,0,0:0:0:0:
36,192,214260,1,0,0:0:0:0:
329,192,214260,1,0,0:0:0:0:
402,192,214338,1,0,0:0:0:0:
256,192,214378,1,0,0:0:0:0:
109,192,214417,1,0,0:0:0:0:
329,192,214456,1,0,0:0:0:0:
182,192,214495,1,0,0:0:0:0:
36,192,214534,1,0,0:0:0:0:
256,192,214573,1,0,0:0:0:0:
109,192,214612,1,0,0:0:0:0:
36,192,214651,1,0,0:0:0:0:
182,192,214690,1,0,0:0:0:0:
109,192,214729,1,0,0:0:0:0:
256,192,214768,1,0,0:0:0:0:
182,192,214846,128,0,215022:0:0:0:0:
329,192,215081,1,0,0:0:0:0:
182,192,215120,1,0,0:0:0:0:
329,192,215198,1,0,0:0:0:0:
475,192,215315,1,0,0:0:0:0:
256,192,215315,128,0,215550:0:0:0:0:
109,192,215315,128,0,215550:0:0:0:0:
36,192,215315,128,0,215550:0:0:0:0:
402,192,215315,1,0,0:0:0:0:
402,192,215550,1,0,0:0:0:0:
329,192,215608,1,0,0:0:0:0:
402,192,215667,1,0,0:0:0:0:
329,192,215726,1,0,0:0:0:0:
256,192,215784,128,0,215843:0:0:0:0:
182,192,215784,128,0,215843:0:0:0:0:
109,192,215784,128,0,215843:0:0:0:0:
36,192,215784,128,0,215843:0:0:0:0:
475,192,215784,128,0,215843:0:0:0:0:
256,192,216019,1,0,0:0:0:0:
329,192,216019,1,0,0:0:0:0:
475,192,216019,1,0,0:0:0:0:
36,192,216019,1,0,0:0:0:0:
109,192,216077,1,0,0:0:0:0:
182,192,216077,1,0,0:0:0:0:
329,192,216136,1,0,0:0:0:0:
402,192,216136,1,0,0:0:0:0:
109,192,216194,1,0,0:0:0:0:
256,192,216253,1,0,0:0:0:0:
475,192,216253,1,0,0:0:0:0:
402,192,216312,1,0,0:0:0:0:
182,192,216312,1,0,0:0:0:0:
36,192,216370,1,0,0:0:0:0:
256,192,216370,1,0,0:0:0:0:
329,192,216429,1,0,0:0:0:0:
109,192,216429,1,0,0:0:0:0:
182,192,216487,1,0,0:0:0:0:
402,192,216487,1,0,0:0:0:0:
329,192,216546,1,0,0:0:0:0:
109,192,216546,1,0,0:0:0:0:
256,192,216605,1,0,0:0:0:0:
36,192,216605,1,0,0:0:0:0:
402,192,216663,1,0,0:0:0:0:
182,192,216722,1,0,0:0:0:0:
36,192,216722,1,0,0:0:0:0:
329,192,216780,1,0,0:0:0:0:
475,192,216780,1,0,0:0:0:0:
182,192,216839,1,0,0:0:0:0:
36,192,216839,1,0,0:0:0:0:
329,192,216898,1,0,0:0:0:0:
475,192,216898,1,0,0:0:0:0:
182,192,216956,1,0,0:0:0:0:
109,192,216956,1,0,0:0:0:0:
329,192,217015,1,0,0:0:0:0:
402,192,217015,1,0,0:0:0:0:
256,192,217073,1,0,0:0:0:0:
475,192,217073,1,0,0:0:0:0:
109,192,217073,1,0,0:0:0:0:
36,192,217073,1,0,0:0:0:0:
36,192,217191,128,0,217249:0:0:0:0:
182,192,217191,128,0,217249:0:0:0:0:
256,192,217191,128,0,217249:0:0:0:0:
329,192,217191,128,0,217249:0:0:0:0:
475,192,217191,128,0,217249:0:0:0:0:
109,192,217425,1,0,0:0:0:0:
402,192,217425,1,0,0:0:0:0:
182,192,217581,1,0,0:0:0:0:
256,192,217620,1,0,0:0:0:0:
329,192,217659,1,0,0:0:0:0:
109,192,217659,1,0,0:0:0:0:
36,192,217659,1,0,0:0:0:0:
475,192,217659,1,0,0:0:0:0:
182,192,217776,128,0,217834:0:0:0:0:
329,192,217776,1,0,0:0:0:0:
36,192,217805,128,0,217864:0:0:0:0:
256,192,217893,128,0,217951:0:0:0:0:
402,192,217893,1,0,0:0:0:0:
109,192,217922,128,0,217981:0:0:0:0:
329,192,218010,1,0,0:0:0:0:
402,192,218010,1,0,0:0:0:0:
475,192,218010,1,0,0:0:0:0:
182,192,218010,1,0,0:0:0:0:
182,192,218127,1,0,0:0:0:0:
329,192,218127,128,0,218186:0:0:0:0:
475,192,218157,128,0,218215:0:0:0:0:
109,192,218244,1,0,0:0:0:0:
256,192,218244,128,0,218303:0:0:0:0:
402,192,218274,128,0,218332:0:0:0:0:
182,192,218362,1,0,0:0:0:0:
329,192,218362,1,0,0:0:0:0:
36,192,218362,1,0,0:0:0:0:
109,192,218362,1,0,0:0:0:0:
402,192,218479,1,0,0:0:0:0:
475,192,218479,1,0,0:0:0:0:
256,192,218537,1,0,0:0:0:0:
182,192,218537,1,0,0:0:0:0:
402,192,218596,1,0,0:0:0:0:
475,192,218596,1,0,0:0:0:0:
182,192,218655,1,0,0:0:0:0:
402,192,218713,1,0,0:0:0:0:
475,192,218713,1,0,0:0:0:0:
329,192,218713,1,0,0:0:0:0:
36,192,218713,1,0,0:0:0:0:
109,192,218830,1,0,0:0:0:0:
36,192,218830,1,0,0:0:0:0:
256,192,218889,1,0,0:0:0:0:
329,192,218889,1,0,0:0:0:0:
36,192,218948,1,0,0:0:0:0:
109,192,218948,1,0,0:0:0:0:
329,192,219006,1,0,0:0:0:0:
475,192,219066,1,0,0:0:0:0:
36,192,219066,1,0,0:0:0:0:
182,192,219066,1,0,0:0:0:0:
109,192,219066,1,0,0:0:0:0:
329,192,219183,128,0,219476:0:0:0:0:
182,192,219300,128,0,219476:0:0:0:0:
475,192,219534,1,0,0:0:0:0:
402,192,219534,128,0,219564:0:0:0:0:
329,192,219534,128,0,219593:0:0:0:0:
182,192,219534,128,0,219651:0:0:0:0:
109,192,219534,128,0,219710:0:0:0:0:
36,192,219534,128,0,219827:0:0:0:0:
475,192,219651,1,0,0:0:0:0:
256,192,219710,1,0,0:0:0:0:
475,192,219769,1,0,0:0:0:0:
182,192,219769,1,0,0:0:0:0:
402,192,219827,1,0,0:0:0:0:
36,192,219886,1,0,0:0:0:0:
256,192,219886,1,0,0:0:0:0:
182,192,219886,1,0,0:0:0:0:
109,192,219886,1,0,0:0:0:0:
402,192,219974,1,0,0:0:0:0:
329,192,220003,1,0,0:0:0:0:
182,192,220032,1,0,0:0:0:0:
109,192,220062,1,0,0:0:0:0:
256,192,220120,1,0,0:0:0:0:
402,192,220149,1,0,0:0:0:0:
256,192,220237,1,0,0:0:0:0:
182,192,220237,1,0,0:0:0:0:
109,192,220237,1,0,0:0:0:0:
36,192,220237,1,0,0:0:0:0:
36,192,220325,1,0,0:0:0:0:
109,192,220355,1,0,0:0:0:0:
182,192,220384,1,0,0:0:0:0:
256,192,220472,1,0,0:0:0:0:
329,192,220472,1,0,0:0:0:0:
402,192,220472,1,0,0:0:0:0:
475,192,220472,1,0,0:0:0:0:
36,192,220472,1,0,0:0:0:0:
109,192,220589,1,0,0:0:0:0:
475,192,220589,1,0,0:0:0:0:
329,192,220648,1,0,0:0:0:0:
182,192,220706,1,0,0:0:0:0:
475,192,220706,1,0,0:0:0:0:
329,192,220765,1,0,0:0:0:0:
475,192,220823,1,0,0:0:0:0:
256,192,220823,1,0,0:0:0:0:
402,192,220882,1,0,0:0:0:0:
182,192,220941,1,0,0:0:0:0:
109,192,220941,1,0,0:0:0:0:
36,192,220941,1,0,0:0:0:0:
329,192,220941,1,0,0:0:0:0:
182,192,221019,128,0,221136:0:0:0:0:
36,192,221175,128,0,221292:0:0:0:0:
329,192,221175,128,0,221292:0:0:0:0:
402,192,221175,128,0,221351:0:0:0:0:
475,192,221175,128,0,221390:0:0:0:0:
109,192,221214,128,0,221331:0:0:0:0:
182,192,221253,128,0,221370:0:0:0:0:
256,192,221409,1,0,0:0:0:0:
329,192,221409,1,0,0:0:0:0:
109,192,221409,1,0,0:0:0:0:
36,192,221409,1,0,0:0:0:0:
36,192,221526,1,0,0:0:0:0:
329,192,221526,1,0,0:0:0:0:
182,192,221585,1,0,0:0:0:0:
402,192,221644,1,0,0:0:0:0:
36,192,221644,1,0,0:0:0:0:
109,192,221702,1,0,0:0:0:0:
329,192,221761,1,0,0:0:0:0:
402,192,221761,1,0,0:0:0:0:
475,192,221761,1,0,0:0:0:0:
256,192,221761,1,0,0:0:0:0:
109,192,221849,1,0,0:0:0:0:
182,192,221878,1,0,0:0:0:0:
329,192,221917,1,0,0:0:0:0:
475,192,221956,1,0,0:0:0:0:
182,192,221995,1,0,0:0:0:0:
256,192,222112,1,0,0:0:0:0:
109,192,222112,1,0,0:0:0:0:
36,192,222112,1,0,0:0:0:0:
329,192,222112,1,0,0:0:0:0:
402,192,222200,1,0,0:0:0:0:
256,192,222230,1,0,0:0:0:0:
109,192,222259,1,0,0:0:0:0:
182,192,222347,1,0,0:0:0:0:
329,192,222347,1,0,0:0:0:0:
402,192,222347,1,0,0:0:0:0:
475,192,222347,1,0,0:0:0:0:
256,192,222347,1,0,0:0:0:0:
109,192,222425,1,0,0:0:0:0:
182,192,222464,1,0,0:0:0:0:
475,192,222464,1,0,0:0:0:0:
402,192,222542,1,0,0:0:0:0:
109,192,222581,1,0,0:0:0:0:
256,192,222581,1,0,0:0:0:0:
36,192,222581,1,0,0:0:0:0:
475,192,222659,1,0,0:0:0:0:
256,192,222698,1,0,0:0:0:0:
36,192,222698,1,0,0:0:0:0:
109,192,222698,1,0,0:0:0:0:
475,192,222776,1,0,0:0:0:0:
256,192,222816,1,0,0:0:0:0:
329,192,222816,1,0,0:0:0:0:
182,192,222816,128,0,223167:0:0:0:0:
36,192,222816,128,0,223108:0:0:0:0:
475,192,222903,128,0,223226:0:0:0:0:
402,192,222933,128,0,223167:0:0:0:0:
329,192,222962,128,0,223108:0:0:0:0:
36,192,223167,1,0,0:0:0:0:
109,192,223196,1,0,0:0:0:0:
182,192,223226,1,0,0:0:0:0:
256,192,223284,1,0,0:0:0:0:
329,192,223284,1,0,0:0:0:0:
475,192,223284,1,0,0:0:0:0:
402,192,223284,1,0,0:0:0:0:
329,192,223401,1,0,0:0:0:0:
36,192,223401,1,0,0:0:0:0:
182,192,223460,1,0,0:0:0:0:
36,192,223519,1,0,0:0:0:0:
402,192,223519,1,0,0:0:0:0:
256,192,223577,1,0,0:0:0:0:
475,192,223636,1,0,0:0:0:0:
36,192,223636,1,0,0:0:0:0:
109,192,223636,1,0,0:0:0:0:
182,192,223636,1,0,0:0:0:0:
402,192,223724,1,0,0:0:0:0:
329,192,223753,1,0,0:0:0:0:
256,192,223782,1,0,0:0:0:0:
109,192,223812,1,0,0:0:0:0:
329,192,223870,1,0,0:0:0:0:
182,192,223899,1,0,0:0:0:0:
329,192,223987,1,0,0:0:0:0:
402,192,223987,1,0,0:0:0:0:
475,192,223987,1,0,0:0:0:0:
36,192,223987,1,0,0:0:0:0:
36,192,224075,1,0,0:0:0:0:
109,192,224105,1,0,0:0:0:0:
182,192,224134,1,0,0:0:0:0:
256,192,224222,1,0,0:0:0:0:
329,192,224222,1,0,0:0:0:0:
402,192,224222,1,0,0:0:0:0:
475,192,224222,1,0,0:0:0:0:
36,192,224222,1,0,0:0:0:0:
109,192,224339,1,0,0:0:0:0:
402,192,224339,1,0,0:0:0:0:
36,192,224398,1,0,0:0:0:0:
402,192,224456,1,0,0:0:0:0:
182,192,224456,1,0,0:0:0:0:
109,192,224515,1,0,0:0:0:0:
256,192,224573,1,0,0:0:0:0:
329,192,224573,1,0,0:0:0:0:
402,192,224573,1,0,0:0:0:0:
475,192,224573,1,0,0:0:0:0:
36,192,224691,1,0,0:0:0:0:
182,192,224749,1,0,0:0:0:0:
36,192,224808,1,0,0:0:0:0:
182,192,224866,1,0,0:0:0:0:
475,192,224925,1,0,0:0:0:0:
36,192,224925,1,0,0:0:0:0:
329,192,224983,1,0,0:0:0:0:
475,192,225042,1,0,0:0:0:0:
329,192,225101,1,0,0:0:0:0:
109,192,225159,1,0,0:0:0:0:
36,192,225159,1,0,0:0:0:0:
475,192,225159,1,0,0:0:0:0:
182,192,225159,1,0,0:0:0:0:
402,192,225218,1,0,0:0:0:0:
109,192,225276,1,0,0:0:0:0:
36,192,225276,1,0,0:0:0:0:
329,192,225276,1,0,0:0:0:0:
256,192,225335,1,0,0:0:0:0:
36,192,225394,1,0,0:0:0:0:
402,192,225394,1,0,0:0:0:0:
109,192,225452,1,0,0:0:0:0:
182,192,225511,1,0,0:0:0:0:
475,192,225511,1,0,0:0:0:0:
256,192,225569,1,0,0:0:0:0:
109,192,225628,1,0,0:0:0:0:
475,192,225628,128,0,225804:0:0:0:0:
402,192,225648,128,0,225804:0:0:0:0:
329,192,225667,128,0,225804:0:0:0:0:
256,192,225687,128,0,225804:0:0:0:0:
182,192,225862,1,0,0:0:0:0:
36,192,225862,1,0,0:0:0:0:
329,192,225862,1,0,0:0:0:0:
402,192,225862,1,0,0:0:0:0:
475,192,225862,1,0,0:0:0:0:
329,192,225950,1,0,0:0:0:0:
256,192,226097,1,0,0:0:0:0:
182,192,226097,1,0,0:0:0:0:
36,192,226097,1,0,0:0:0:0:
109,192,226097,1,0,0:0:0:0:
475,192,226097,1,0,0:0:0:0:
402,192,226175,1,0,0:0:0:0:
36,192,226214,1,0,0:0:0:0:
256,192,226214,1,0,0:0:0:0:
109,192,226253,1,0,0:0:0:0:
182,192,226292,1,0,0:0:0:0:
402,192,226331,1,0,0:0:0:0:
475,192,226331,1,0,0:0:0:0:
329,192,226331,1,0,0:0:0:0:
109,192,226390,1,0,0:0:0:0:
256,192,226390,1,0,0:0:0:0:
329,192,226448,1,0,0:0:0:0:
475,192,226448,1,0,0:0:0:0:
402,192,226448,1,0,0:0:0:0:
182,192,226507,1,0,0:0:0:0:
329,192,226566,1,0,0:0:0:0:
256,192,226566,1,0,0:0:0:0:
36,192,226566,128,0,227034:0:0:0:0:
475,192,226683,128,0,226917:0:0:0:0:
182,192,226683,128,0,226917:0:0:0:0:
402,192,226712,128,0,226976:0:0:0:0:
329,192,226741,128,0,227034:0:0:0:0:
182,192,227034,1,0,0:0:0:0:
256,192,227034,1,0,0:0:0:0:
402,192,227034,1,0,0:0:0:0:
475,192,227034,1,0,0:0:0:0:
256,192,227151,1,0,0:0:0:0:
36,192,227151,1,0,0:0:0:0:
329,192,227210,1,0,0:0:0:0:
109,192,227269,1,0,0:0:0:0:
256,192,227269,1,0,0:0:0:0:
36,192,227327,1,0,0:0:0:0:
475,192,227386,1,0,0:0:0:0:
256,192,227386,1,0,0:0:0:0:
329,192,227386,1,0,0:0:0:0:
402,192,227386,1,0,0:0:0:0:
109,192,227474,1,0,0:0:0:0:
182,192,227503,1,0,0:0:0:0:
329,192,227532,1,0,0:0:0:0:
402,192,227562,1,0,0:0:0:0:
256,192,227620,1,0,0:0:0:0:
109,192,227649,1,0,0:0:0:0:
256,192,227737,1,0,0:0:0:0:
329,192,227737,1,0,0:0:0:0:
402,192,227737,1,0,0:0:0:0:
475,192,227737,1,0,0:0:0:0:
475,192,227825,1,0,0:0:0:0:
402,192,227855,1,0,0:0:0:0:
329,192,227884,1,0,0:0:0:0:
256,192,227972,1,0,0:0:0:0:
182,192,227972,1,0,0:0:0:0:
109,192,227972,1,0,0:0:0:0:
36,192,227972,1,0,0:0:0:0:
475,192,227972,1,0,0:0:0:0:
402,192,228089,1,0,0:0:0:0:
36,192,228089,1,0,0:0:0:0:
182,192,228148,1,0,0:0:0:0:
329,192,228206,1,0,0:0:0:0:
36,192,228206,1,0,0:0:0:0:
182,192,228265,1,0,0:0:0:0:
36,192,228323,1,0,0:0:0:0:
256,192,228323,1,0,0:0:0:0:
109,192,228382,1,0,0:0:0:0:
329,192,228441,1,0,0:0:0:0:
402,192,228441,1,0,0:0:0:0:
475,192,228441,1,0,0:0:0:0:
182,192,228441,1,0,0:0:0:0:
329,192,228519,128,0,228636:0:0:0:0:
475,192,228675,128,0,228792:0:0:0:0:
182,192,228675,128,0,228792:0:0:0:0:
109,192,228675,128,0,228851:0:0:0:0:
36,192,228675,128,0,228890:0:0:0:0:
402,192,228714,128,0,228831:0:0:0:0:
329,192,228753,128,0,228870:0:0:0:0:
256,192,228909,1,0,0:0:0:0:
182,192,228909,1,0,0:0:0:0:
402,192,228909,1,0,0:0:0:0:
475,192,228909,1,0,0:0:0:0:
475,192,229026,1,0,0:0:0:0:
182,192,229026,1,0,0:0:0:0:
329,192,229085,1,0,0:0:0:0:
109,192,229144,1,0,0:0:0:0:
475,192,229144,1,0,0:0:0:0:
402,192,229202,1,0,0:0:0:0:
182,192,229261,1,0,0:0:0:0:
109,192,229261,1,0,0:0:0:0:
36,192,229261,1,0,0:0:0:0:
256,192,229261,1,0,0:0:0:0:
402,192,229349,1,0,0:0:0:0:
329,192,229378,1,0,0:0:0:0:
182,192,229417,1,0,0:0:0:0:
36,192,229456,1,0,0:0:0:0:
329,192,229495,1,0,0:0:0:0:
256,192,229612,1,0,0:0:0:0:
402,192,229612,1,0,0:0:0:0:
475,192,229612,1,0,0:0:0:0:
182,192,229612,1,0,0:0:0:0:
109,192,229700,1,0,0:0:0:0:
256,192,229730,1,0,0:0:0:0:
402,192,229759,1,0,0:0:0:0:
329,192,229847,1,0,0:0:0:0:
182,192,229847,1,0,0:0:0:0:
109,192,229847,1,0,0:0:0:0:
36,192,229847,1,0,0:0:0:0:
256,192,229847,1,0,0:0:0:0:
402,192,229925,1,0,0:0:0:0:
329,192,229964,1,0,0:0:0:0:
36,192,229964,1,0,0:0:0:0:
109,192,230042,1,0,0:0:0:0:
402,192,230081,1,0,0:0:0:0:
256,192,230081,1,0,0:0:0:0:
475,192,230081,1,0,0:0:0:0:
36,192,230159,1,0,0:0:0:0:
256,192,230198,1,0,0:0:0:0:
475,192,230198,1,0,0:0:0:0:
402,192,230198,1,0,0:0:0:0:
36,192,230276,1,0,0:0:0:0:
256,192,230316,1,0,0:0:0:0:
182,192,230316,1,0,0:0:0:0:
329,192,230316,128,0,230667:0:0:0:0:
475,192,230316,128,0,230608:0:0:0:0:
36,192,230403,128,0,230726:0:0:0:0:
109,192,230433,128,0,230667:0:0:0:0:
182,192,230462,128,0,230608:0:0:0:0:
475,192,230667,1,0,0:0:0:0:
402,192,230696,1,0,0:0:0:0:
329,192,230726,1,0,0:0:0:0:
256,192,230784,1,0,0:0:0:0:
182,192,230784,1,0,0:0:0:0:
36,192,230784,1,0,0:0:0:0:
109,192,230784,1,0,0:0:0:0:
182,192,230901,1,0,0:0:0:0:
475,192,230901,1,0,0:0:0:0:
329,192,230960,1,0,0:0:0:0:
475,192,231019,1,0,0:0:0:0:
109,192,231019,1,0,0:0:0:0:
256,192,231077,1,0,0:0:0:0:
36,192,231136,1,0,0:0:0:0:
475,192,231136,1,0,0:0:0:0:
402,192,231136,1,0,0:0:0:0:
329,192,231136,1,0,0:0:0:0:
109,192,231224,1,0,0:0:0:0:
182,192,231253,1,0,0:0:0:0:
256,192,231282,1,0,0:0:0:0:
402,192,231312,1,0,0:0:0:0:
182,192,231370,1,0,0:0:0:0:
329,192,231399,1,0,0:0:0:0:
182,192,231487,1,0,0:0:0:0:
109,192,231487,1,0,0:0:0:0:
36,192,231487,1,0,0:0:0:0:
475,192,231487,1,0,0:0:0:0:
475,192,231575,1,0,0:0:0:0:
402,192,231605,1,0,0:0:0:0:
329,192,231634,1,0,0:0:0:0:
256,192,231722,1,0,0:0:0:0:
36,192,231722,1,0,0:0:0:0:
329,192,231839,1,0,0:0:0:0:
402,192,231839,1,0,0:0:0:0:
475,192,231839,1,0,0:0:0:0:
256,192,231839,1,0,0:0:0:0:
182,192,231898,1,0,0:0:0:0:
36,192,231956,1,0,0:0:0:0:
109,192,232015,1,0,0:0:0:0:
475,192,232073,1,0,0:0:0:0:
402,192,232132,1,0,0:0:0:0:
182,192,232191,1,0,0:0:0:0:
329,192,232191,1,0,0:0:0:0:
256,192,232191,1,0,0:0:0:0:
182,192,232308,1,0,0:0:0:0:
36,192,232366,1,0,0:0:0:0:
182,192,232425,1,0,0:0:0:0:
256,192,232425,1,0,0:0:0:0:
329,192,232425,1,0,0:0:0:0:
329,192,232542,1,0,0:0:0:0:
475,192,232601,1,0,0:0:0:0:
109,192,232659,1,0,0:0:0:0:
36,192,232659,1,0,0:0:0:0:
182,192,232659,1,0,0:0:0:0:
329,192,232659,1,0,0:0:0:0:
402,192,232718,1,0,0:0:0:0:
256,192,232776,1,0,0:0:0:0:
36,192,232776,1,0,0:0:0:0:
329,192,232835,1,0,0:0:0:0:
182,192,232894,1,0,0:0:0:0:
475,192,232894,1,0,0:0:0:0:
256,192,232952,1,0,0:0:0:0:
402,192,233011,1,0,0:0:0:0:
475,192,233011,1,0,0:0:0:0:
109,192,233011,1,0,0:0:0:0:
329,192,233011,1,0,0:0:0:0:
182,192,233069,1,0,0:0:0:0:
36,192,233128,128,0,233304:0:0:0:0:
402,192,233128,1,0,0:0:0:0:
109,192,233148,128,0,233304:0:0:0:0:
182,192,233167,128,0,233304:0:0:0:0:
256,192,233187,128,0,233304:0:0:0:0:
329,192,233362,1,0,0:0:0:0:
475,192,233362,1,0,0:0:0:0:
182,192,233362,1,0,0:0:0:0:
109,192,233362,1,0,0:0:0:0:
36,192,233362,1,0,0:0:0:0:
182,192,233450,1,0,0:0:0:0:
256,192,233597,1,0,0:0:0:0:
329,192,233597,1,0,0:0:0:0:
475,192,233597,1,0,0:0:0:0:
402,192,233597,1,0,0:0:0:0:
36,192,233597,1,0,0:0:0:0:
109,192,233675,1,0,0:0:0:0:
475,192,233714,1,0,0:0:0:0:
256,192,233714,1,0,0:0:0:0:
402,192,233753,1,0,0:0:0:0:
329,192,233792,1,0,0:0:0:0:
109,192,233831,1,0,0:0:0:0:
36,192,233831,1,0,0:0:0:0:
182,192,233831,1,0,0:0:0:0:
402,192,233890,1,0,0:0:0:0:
256,192,233890,1,0,0:0:0:0:
182,192,233948,1,0,0:0:0:0:
36,192,233948,1,0,0:0:0:0:
109,192,233948,1,0,0:0:0:0:
329,192,234007,1,0,0:0:0:0:
256,192,234066,1,0,0:0:0:0:
36,192,234066,1,0,0:0:0:0:
402,192,234066,1,0,0:0:0:0:
475,192,234066,1,0,0:0:0:0:
182,192,234183,128,0,234476:0:0:0:0:
329,192,234300,128,0,234476:0:0:0:0:
109,192,234534,128,0,234564:0:0:0:0:
182,192,234534,128,0,234593:0:0:0:0:
329,192,234534,128,0,234651:0:0:0:0:
36,192,234534,1,0,0:0:0:0:
402,192,234534,128,0,234710:0:0:0:0:
475,192,234534,128,0,234827:0:0:0:0:
36,192,234651,1,0,0:0:0:0:
109,192,234681,1,0,0:0:0:0:
182,192,234710,1,0,0:0:0:0:
329,192,234769,1,0,0:0:0:0:
256,192,234798,1,0,0:0:0:0:
182,192,234827,1,0,0:0:0:0:
109,192,234886,1,0,0:0:0:0:
36,192,234886,1,0,0:0:0:0:
402,192,234886,1,0,0:0:0:0:
475,192,234886,1,0,0:0:0:0:
329,192,234964,1,0,0:0:0:0:
109,192,235003,1,0,0:0:0:0:
182,192,235023,1,0,0:0:0:0:
256,192,235042,1,0,0:0:0:0:
475,192,235120,1,0,0:0:0:0:
402,192,235140,1,0,0:0:0:0:
329,192,235159,1,0,0:0:0:0:
256,192,235237,1,0,0:0:0:0:
36,192,235237,1,0,0:0:0:0:
109,192,235237,1,0,0:0:0:0:
475,192,235237,1,0,0:0:0:0:
182,192,235355,1,0,0:0:0:0:
109,192,235374,1,0,0:0:0:0:
36,192,235394,1,0,0:0:0:0:
256,192,235472,1,0,0:0:0:0:
329,192,235472,1,0,0:0:0:0:
402,192,235472,1,0,0:0:0:0:
475,192,235472,1,0,0:0:0:0:
182,192,235472,1,0,0:0:0:0:
329,192,235589,1,0,0:0:0:0:
256,192,235608,1,0,0:0:0:0:
182,192,235628,1,0,0:0:0:0:
36,192,235648,1,0,0:0:0:0:
402,192,235706,1,0,0:0:0:0:
329,192,235726,1,0,0:0:0:0:
256,192,235745,1,0,0:0:0:0:
109,192,235765,1,0,0:0:0:0:
475,192,235823,1,0,0:0:0:0:
402,192,235843,1,0,0:0:0:0:
329,192,235862,1,0,0:0:0:0:
182,192,235882,1,0,0:0:0:0:
36,192,235941,1,0,0:0:0:0:
475,192,235941,1,0,0:0:0:0:
256,192,235941,1,0,0:0:0:0:
402,192,235941,1,0,0:0:0:0:
109,192,236019,1,0,0:0:0:0:
329,192,236058,1,0,0:0:0:0:
402,192,236077,1,0,0:0:0:0:
182,192,236097,1,0,0:0:0:0:
475,192,236097,1,0,0:0:0:0:
36,192,236175,1,0,0:0:0:0:
329,192,236175,1,0,0:0:0:0:
256,192,236204,1,0,0:0:0:0:
182,192,236233,1,0,0:0:0:0:
109,192,236263,1,0,0:0:0:0:
36,192,236292,1,0,0:0:0:0:
402,192,236292,1,0,0:0:0:0:
329,192,236312,1,0,0:0:0:0:
256,192,236331,1,0,0:0:0:0:
109,192,236409,1,0,0:0:0:0:
36,192,236409,1,0,0:0:0:0:
402,192,236409,1,0,0:0:0:0:
475,192,236409,1,0,0:0:0:0:
182,192,236409,1,0,0:0:0:0:
109,192,236526,1,0,0:0:0:0:
182,192,236546,1,0,0:0:0:0:
256,192,236566,1,0,0:0:0:0:
402,192,236585,1,0,0:0:0:0:
36,192,236644,1,0,0:0:0:0:
109,192,236663,1,0,0:0:0:0:
182,192,236683,1,0,0:0:0:0:
329,192,236702,1,0,0:0:0:0:
256,192,236761,1,0,0:0:0:0:
475,192,236761,1,0,0:0:0:0:
36,192,236761,1,0,0:0:0:0:
402,192,236761,1,0,0:0:0:0:
329,192,236878,1,0,0:0:0:0:
256,192,236898,1,0,0:0:0:0:
182,192,236917,1,0,0:0:0:0:
475,192,236995,1,0,0:0:0:0:
402,192,237015,1,0,0:0:0:0:
329,192,237034,1,0,0:0:0:0:
182,192,237112,1,0,0:0:0:0:
109,192,237112,1,0,0:0:0:0:
36,192,237112,1,0,0:0:0:0:
475,192,237112,1,0,0:0:0:0:
256,192,237230,1,0,0:0:0:0:
182,192,237249,1,0,0:0:0:0:
109,192,237269,1,0,0:0:0:0:
256,192,237347,1,0,0:0:0:0:
36,192,237347,1,0,0:0:0:0:
329,192,237347,1,0,0:0:0:0:
402,192,237347,1,0,0:0:0:0:
475,192,237347,1,0,0:0:0:0:
109,192,237435,1,0,0:0:0:0:
182,192,237464,1,0,0:0:0:0:
329,192,237493,1,0,0:0:0:0:
402,192,237523,1,0,0:0:0:0:
36,192,237581,1,0,0:0:0:0:
109,192,237581,1,0,0:0:0:0:
256,192,237581,1,0,0:0:0:0:
329,192,237610,1,0,0:0:0:0:
475,192,237640,1,0,0:0:0:0:
109,192,237698,1,0,0:0:0:0:
36,192,237698,1,0,0:0:0:0:
256,192,237698,1,0,0:0:0:0:
329,192,237728,1,0,0:0:0:0:
475,192,237757,1,0,0:0:0:0:
256,192,237816,1,0,0:0:0:0:
36,192,237816,128,0,238108:0:0:0:0:
182,192,237816,128,0,238167:0:0:0:0:
109,192,237816,1,0,0:0:0:0:
475,192,237903,128,0,238226:0:0:0:0:
402,192,237933,128,0,238167:0:0:0:0:
329,192,237962,128,0,238108:0:0:0:0:
36,192,238167,1,0,0:0:0:0:
109,192,238196,1,0,0:0:0:0:
182,192,238226,1,0,0:0:0:0:
256,192,238284,1,0,0:0:0:0:
329,192,238284,1,0,0:0:0:0:
475,192,238284,1,0,0:0:0:0:
36,192,238284,1,0,0:0:0:0:
182,192,238401,1,0,0:0:0:0:
109,192,238421,1,0,0:0:0:0:
402,192,238460,1,0,0:0:0:0:
256,192,238519,1,0,0:0:0:0:
182,192,238538,1,0,0:0:0:0:
475,192,238577,1,0,0:0:0:0:
256,192,238636,1,0,0:0:0:0:
329,192,238636,1,0,0:0:0:0:
109,192,238636,1,0,0:0:0:0:
36,192,238636,1,0,0:0:0:0:
402,192,238714,1,0,0:0:0:0:
109,192,238753,1,0,0:0:0:0:
182,192,238773,1,0,0:0:0:0:
256,192,238792,1,0,0:0:0:0:
475,192,238870,1,0,0:0:0:0:
402,192,238890,1,0,0:0:0:0:
329,192,238909,1,0,0:0:0:0:
36,192,238987,1,0,0:0:0:0:
475,192,238987,1,0,0:0:0:0:
256,192,238987,1,0,0:0:0:0:
182,192,238987,1,0,0:0:0:0:
36,192,239105,1,0,0:0:0:0:
109,192,239124,1,0,0:0:0:0:
182,192,239144,1,0,0:0:0:0:
36,192,239222,1,0,0:0:0:0:
256,192,239222,1,0,0:0:0:0:
329,192,239222,1,0,0:0:0:0:
402,192,239222,1,0,0:0:0:0:
475,192,239222,1,0,0:0:0:0:
329,192,239339,1,0,0:0:0:0:
256,192,239368,1,0,0:0:0:0:
109,192,239398,1,0,0:0:0:0:
402,192,239456,1,0,0:0:0:0:
329,192,239485,1,0,0:0:0:0:
182,192,239515,1,0,0:0:0:0:
256,192,239573,1,0,0:0:0:0:
36,192,239573,1,0,0:0:0:0:
475,192,239573,1,0,0:0:0:0:
329,192,239632,1,0,0:0:0:0:
36,192,239691,1,0,0:0:0:0:
109,192,239720,1,0,0:0:0:0:
402,192,239749,1,0,0:0:0:0:
182,192,239808,1,0,0:0:0:0:
109,192,239837,1,0,0:0:0:0:
329,192,239866,1,0,0:0:0:0:
36,192,239925,1,0,0:0:0:0:
109,192,239954,1,0,0:0:0:0:
402,192,239983,1,0,0:0:0:0:
182,192,240042,1,0,0:0:0:0:
109,192,240071,1,0,0:0:0:0:
329,192,240101,1,0,0:0:0:0:
256,192,240159,1,0,0:0:0:0:
182,192,240159,1,0,0:0:0:0:
36,192,240159,1,0,0:0:0:0:
402,192,240159,1,0,0:0:0:0:
475,192,240159,1,0,0:0:0:0:
329,192,240218,1,0,0:0:0:0:
475,192,240276,1,0,0:0:0:0:
402,192,240306,1,0,0:0:0:0:
182,192,240335,1,0,0:0:0:0:
329,192,240394,1,0,0:0:0:0:
402,192,240423,1,0,0:0:0:0:
109,192,240452,1,0,0:0:0:0:
256,192,240511,1,0,0:0:0:0:
36,192,240511,1,0,0:0:0:0:
475,192,240511,1,0,0:0:0:0:
182,192,240589,1,0,0:0:0:0:
109,192,240628,1,0,0:0:0:0:
475,192,240628,1,0,0:0:0:0:
402,192,240648,1,0,0:0:0:0:
36,192,240667,1,0,0:0:0:0:
329,192,240667,1,0,0:0:0:0:
256,192,240687,1,0,0:0:0:0:
109,192,240745,1,0,0:0:0:0:
182,192,240765,1,0,0:0:0:0:
256,192,240784,1,0,0:0:0:0:
329,192,240862,1,0,0:0:0:0:
402,192,240862,1,0,0:0:0:0:
475,192,240862,1,0,0:0:0:0:
36,192,240862,1,0,0:0:0:0:
182,192,240980,1,0,0:0:0:0:
256,192,240999,1,0,0:0:0:0:
329,192,241019,1,0,0:0:0:0:
109,192,241097,1,0,0:0:0:0:
36,192,241097,1,0,0:0:0:0:
182,192,241097,1,0,0:0:0:0:
475,192,241097,1,0,0:0:0:0:
402,192,241097,1,0,0:0:0:0:
182,192,241214,128,0,241287:0:0:0:0:
256,192,241214,128,0,241273:0:0:0:0:
329,192,241214,128,0,241258:0:0:0:0:
36,192,241243,128,0,241478:0:0:0:0:
402,192,241316,128,0,241375:0:0:0:0:
329,192,241331,128,0,241390:0:0:0:0:
256,192,241346,128,0,241404:0:0:0:0:
109,192,241360,128,0,241478:0:0:0:0:
475,192,241434,128,0,241522:0:0:0:0:
402,192,241448,128,0,241522:0:0:0:0:
329,192,241463,128,0,241522:0:0:0:0:
182,192,241478,1,0,0:0:0:0:
36,192,241566,128,0,242034:0:0:0:0:
256,192,241566,1,0,0:0:0:0:
475,192,241566,1,0,0:0:0:0:
182,192,241683,128,0,241917:0:0:0:0:
475,192,241683,128,0,241917:0:0:0:0:
402,192,241712,128,0,241976:0:0:0:0:
329,192,241741,128,0,242034:0:0:0:0:
256,192,242034,1,0,0:0:0:0:
182,192,242034,1,0,0:0:0:0:
475,192,242034,1,0,0:0:0:0:
402,192,242034,1,0,0:0:0:0:
36,192,242151,1,0,0:0:0:0:
109,192,242191,1,0,0:0:0:0:
256,192,242210,1,0,0:0:0:0:
402,192,242269,1,0,0:0:0:0:
329,192,242308,1,0,0:0:0:0:
182,192,242327,1,0,0:0:0:0:
402,192,242386,1,0,0:0:0:0:
475,192,242386,1,0,0:0:0:0:
109,192,242386,1,0,0:0:0:0:
36,192,242386,1,0,0:0:0:0:
182,192,242464,1,0,0:0:0:0:
402,192,242503,1,0,0:0:0:0:
329,192,242523,1,0,0:0:0:0:
256,192,242542,1,0,0:0:0:0:
36,192,242620,1,0,0:0:0:0:
109,192,242640,1,0,0:0:0:0:
182,192,242659,1,0,0:0:0:0:
256,192,242737,1,0,0:0:0:0:
475,192,242737,1,0,0:0:0:0:
402,192,242737,1,0,0:0:0:0:
36,192,242737,1,0,0:0:0:0:
329,192,242855,1,0,0:0:0:0:
402,192,242874,1,0,0:0:0:0:
475,192,242894,1,0,0:0:0:0:
256,192,242972,1,0,0:0:0:0:
182,192,242972,1,0,0:0:0:0:
109,192,242972,1,0,0:0:0:0:
36,192,242972,1,0,0:0:0:0:
329,192,242972,1,0,0:0:0:0:
182,192,243089,1,0,0:0:0:0:
256,192,243108,1,0,0:0:0:0:
329,192,243128,1,0,0:0:0:0:
475,192,243148,1,0,0:0:0:0:
109,192,243206,1,0,0:0:0:0:
182,192,243226,1,0,0:0:0:0:
256,192,243245,1,0,0:0:0:0:
402,192,243265,1,0,0:0:0:0:
36,192,243323,1,0,0:0:0:0:
109,192,243343,1,0,0:0:0:0:
182,192,243362,1,0,0:0:0:0:
329,192,243382,1,0,0:0:0:0:
475,192,243441,1,0,0:0:0:0:
36,192,243441,1,0,0:0:0:0:
256,192,243441,1,0,0:0:0:0:
109,192,243441,1,0,0:0:0:0:
402,192,243519,1,0,0:0:0:0:
182,192,243558,1,0,0:0:0:0:
109,192,243577,1,0,0:0:0:0:
329,192,243597,1,0,0:0:0:0:
36,192,243597,1,0,0:0:0:0:
475,192,243675,1,0,0:0:0:0:
182,192,243675,1,0,0:0:0:0:
256,192,243704,1,0,0:0:0:0:
329,192,243733,1,0,0:0:0:0:
402,192,243763,1,0,0:0:0:0:
475,192,243792,1,0,0:0:0:0:
109,192,243792,1,0,0:0:0:0:
182,192,243812,1,0,0:0:0:0:
256,192,243831,1,0,0:0:0:0:
402,192,243909,1,0,0:0:0:0:
475,192,243909,1,0,0:0:0:0:
109,192,243909,1,0,0:0:0:0:
36,192,243909,1,0,0:0:0:0:
329,192,243909,1,0,0:0:0:0:
402,192,244026,1,0,0:0:0:0:
329,192,244046,1,0,0:0:0:0:
256,192,244066,1,0,0:0:0:0:
109,192,244085,1,0,0:0:0:0:
475,192,244144,1,0,0:0:0:0:
402,192,244163,1,0,0:0:0:0:
329,192,244183,1,0,0:0:0:0:
182,192,244202,1,0,0:0:0:0:
256,192,244261,1,0,0:0:0:0:
36,192,244261,1,0,0:0:0:0:
475,192,244261,1,0,0:0:0:0:
109,192,244261,1,0,0:0:0:0:
182,192,244378,1,0,0:0:0:0:
256,192,244398,1,0,0:0:0:0:
329,192,244417,1,0,0:0:0:0:
36,192,244495,1,0,0:0:0:0:
109,192,244515,1,0,0:0:0:0:
182,192,244534,1,0,0:0:0:0:
329,192,244612,1,0,0:0:0:0:
402,192,244612,1,0,0:0:0:0:
475,192,244612,1,0,0:0:0:0:
36,192,244612,1,0,0:0:0:0:
256,192,244730,1,0,0:0:0:0:
329,192,244749,1,0,0:0:0:0:
402,192,244769,1,0,0:0:0:0:
256,192,244847,1,0,0:0:0:0:
475,192,244847,1,0,0:0:0:0:
182,192,244847,1,0,0:0:0:0:
109,192,244847,1,0,0:0:0:0:
36,192,244847,1,0,0:0:0:0:
402,192,244935,1,0,0:0:0:0:
329,192,244964,1,0,0:0:0:0:
182,192,244993,1,0,0:0:0:0:
109,192,245023,1,0,0:0:0:0:
475,192,245081,1,0,0:0:0:0:
402,192,245081,1,0,0:0:0:0:
256,192,245081,1,0,0:0:0:0:
182,192,245110,1,0,0:0:0:0:
36,192,245140,1,0,0:0:0:0:
402,192,245198,1,0,0:0:0:0:
475,192,245198,1,0,0:0:0:0:
256,192,245198,1,0,0:0:0:0:
182,192,245228,1,0,0:0:0:0:
36,192,245257,1,0,0:0:0:0:
256,192,245316,1,0,0:0:0:0:
475,192,245316,128,0,245608:0:0:0:0:
329,192,245316,128,0,245667:0:0:0:0:
402,192,245316,1,0,0:0:0:0:
36,192,245403,128,0,245726:0:0:0:0:
109,192,245433,128,0,245667:0:0:0:0:
182,192,245462,128,0,245608:0:0:0:0:
475,192,245667,1,0,0:0:0:0:
402,192,245696,1,0,0:0:0:0:
329,192,245726,1,0,0:0:0:0:
256,192,245784,1,0,0:0:0:0:
182,192,245784,1,0,0:0:0:0:
36,192,245784,1,0,0:0:0:0:
475,192,245784,1,0,0:0:0:0:
329,192,245901,1,0,0:0:0:0:
402,192,245921,1,0,0:0:0:0:
109,192,245960,1,0,0:0:0:0:
256,192,246019,1,0,0:0:0:0:
329,192,246038,1,0,0:0:0:0:
36,192,246077,1,0,0:0:0:0:
256,192,246136,1,0,0:0:0:0:
182,192,246136,1,0,0:0:0:0:
402,192,246136,1,0,0:0:0:0:
475,192,246136,1,0,0:0:0:0:
109,192,246214,1,0,0:0:0:0:
402,192,246253,1,0,0:0:0:0:
329,192,246273,1,0,0:0:0:0:
256,192,246292,1,0,0:0:0:0:
36,192,246370,1,0,0:0:0:0:
109,192,246390,1,0,0:0:0:0:
182,192,246409,1,0,0:0:0:0:
475,192,246487,1,0,0:0:0:0:
36,192,246487,1,0,0:0:0:0:
256,192,246487,1,0,0:0:0:0:
329,192,246487,1,0,0:0:0:0:
109,192,246526,1,0,0:0:0:0:
182,192,246566,1,0,0:0:0:0:
475,192,246605,1,0,0:0:0:0:
402,192,246624,1,0,0:0:0:0:
329,192,246644,1,0,0:0:0:0:
109,192,246722,1,0,0:0:0:0:
182,192,246741,1,0,0:0:0:0:
256,192,246761,1,0,0:0:0:0:
36,192,246839,1,0,0:0:0:0:
109,192,246839,1,0,0:0:0:0:
475,192,246839,1,0,0:0:0:0:
402,192,246839,1,0,0:0:0:0:
402,192,246956,1,0,0:0:0:0:
329,192,246976,1,0,0:0:0:0:
256,192,246995,1,0,0:0:0:0:
36,192,247073,1,0,0:0:0:0:
109,192,247093,1,0,0:0:0:0:
182,192,247112,1,0,0:0:0:0:
36,192,247191,1,0,0:0:0:0:
256,192,247191,1,0,0:0:0:0:
402,192,247191,1,0,0:0:0:0:
475,192,247191,1,0,0:0:0:0:
182,192,247249,1,0,0:0:0:0:
475,192,247308,1,0,0:0:0:0:
402,192,247337,1,0,0:0:0:0:
109,192,247366,1,0,0:0:0:0:
36,192,247425,1,0,0:0:0:0:
256,192,247425,1,0,0:0:0:0:
182,192,247425,1,0,0:0:0:0:
329,192,247425,1,0,0:0:0:0:
109,192,247483,1,0,0:0:0:0:
329,192,247542,1,0,0:0:0:0:
402,192,247571,1,0,0:0:0:0:
182,192,247601,1,0,0:0:0:0:
256,192,247659,1,0,0:0:0:0:
329,192,247659,1,0,0:0:0:0:
475,192,247659,1,0,0:0:0:0:
109,192,247659,1,0,0:0:0:0:
36,192,247659,1,0,0:0:0:0:
182,192,247718,1,0,0:0:0:0:
36,192,247776,1,0,0:0:0:0:
109,192,247806,1,0,0:0:0:0:
329,192,247835,1,0,0:0:0:0:
182,192,247894,1,0,0:0:0:0:
109,192,247923,1,0,0:0:0:0:
402,192,247952,1,0,0:0:0:0:
256,192,248011,1,0,0:0:0:0:
475,192,248011,1,0,0:0:0:0:
36,192,248011,1,0,0:0:0:0:
182,192,248011,1,0,0:0:0:0:
329,192,248089,1,0,0:0:0:0:
36,192,248128,1,0,0:0:0:0:
109,192,248148,1,0,0:0:0:0:
182,192,248167,1,0,0:0:0:0:
402,192,248245,1,0,0:0:0:0:
329,192,248265,1,0,0:0:0:0:
256,192,248284,1,0,0:0:0:0:
182,192,248362,1,0,0:0:0:0:
109,192,248362,1,0,0:0:0:0:
36,192,248362,1,0,0:0:0:0:
475,192,248362,1,0,0:0:0:0:
329,192,248480,1,0,0:0:0:0:
256,192,248499,1,0,0:0:0:0:
182,192,248519,1,0,0:0:0:0:
402,192,248597,1,0,0:0:0:0:
475,192,248597,1,0,0:0:0:0:
329,192,248597,1,0,0:0:0:0:
109,192,248597,128,0,248655:0:0:0:0:
36,192,248597,128,0,248773:0:0:0:0:
329,192,248714,128,0,248787:0:0:0:0:
256,192,248714,128,0,248773:0:0:0:0:
182,192,248714,128,0,248758:0:0:0:0:
475,192,248743,128,0,248978:0:0:0:0:
109,192,248816,128,0,248890:0:0:0:0:
182,192,248831,128,0,248904:0:0:0:0:
256,192,248846,128,0,248919:0:0:0:0:
402,192,248860,128,0,248978:0:0:0:0:
36,192,248934,128,0,249022:0:0:0:0:
109,192,248948,128,0,249022:0:0:0:0:
182,192,248963,128,0,249022:0:0:0:0:
329,192,248978,1,0,0:0:0:0:
475,192,249066,1,0,0:0:0:0:
256,192,249066,128,0,249241:0:0:0:0:
402,192,249066,128,0,249183:0:0:0:0:
36,192,249066,1,0,0:0:0:0:
182,192,249095,1,0,0:0:0:0:
109,192,249124,128,0,249241:0:0:0:0:
329,192,249212,1,0,0:0:0:0:
36,192,249241,1,0,0:0:0:0:
256,192,251878,128,0,252757:0:0:0:0:
109,192,252816,128,0,252952:0:0:0:0:
36,192,252816,128,0,252933:0:0:0:0:
402,192,252816,128,0,252952:0:0:0:0:
475,192,252816,128,0,252933:0:0:0:0:
256,192,252816,128,0,253050:0:0:0:0:
256,192,254456,128,0,254632:0:0:0:0:
256,192,254691,1,0,0:0:0:0:
182,192,254691,1,0,0:0:0:0:
36,192,254691,1,0,0:0:0:0:
329,192,254691,1,0,0:0:0:0:
475,192,254691,1,0,0:0:0:0:
329,192,254769,1,0,0:0:0:0:
109,192,254847,1,0,0:0:0:0:
256,192,254925,1,0,0:0:0:0:
475,192,254925,128,0,255101:0:0:0:0:
36,192,254983,1,0,0:0:0:0:
182,192,255042,1,0,0:0:0:0:
402,192,255042,128,0,255101:0:0:0:0:
329,192,255101,1,0,0:0:0:0:
36,192,255159,128,0,255335:0:0:0:0:
256,192,255159,1,0,0:0:0:0:
475,192,255218,1,0,0:0:0:0:
109,192,255276,128,0,255335:0:0:0:0:
329,192,255276,1,0,0:0:0:0:
182,192,255335,1,0,0:0:0:0:
402,192,255394,1,0,0:0:0:0:
475,192,255433,1,0,0:0:0:0:
329,192,255511,1,0,0:0:0:0:
256,192,255530,1,0,0:0:0:0:
182,192,255550,1,0,0:0:0:0:
109,192,255628,128,0,255765:0:0:0:0:
36,192,255628,128,0,255745:0:0:0:0:
402,192,255628,128,0,255765:0:0:0:0:
475,192,255628,128,0,255745:0:0:0:0:
256,192,255628,128,0,255804:0:0:0:0:
36,192,255862,1,0,0:0:0:0:
475,192,255862,1,0,0:0:0:0:
256,192,255862,1,0,0:0:0:0:
182,192,255921,1,0,0:0:0:0:
329,192,255980,1,0,0:0:0:0:
109,192,256038,1,0,0:0:0:0:
475,192,256097,1,0,0:0:0:0:
402,192,256097,1,0,0:0:0:0:
36,192,256097,1,0,0:0:0:0:
256,192,256097,1,0,0:0:0:0:
109,192,256155,1,0,0:0:0:0:
329,192,256214,1,0,0:0:0:0:
182,192,256273,1,0,0:0:0:0:
36,192,256331,1,0,0:0:0:0:
475,192,256331,1,0,0:0:0:0:
256,192,256331,1,0,0:0:0:0:
329,192,256390,1,0,0:0:0:0:
182,192,256448,1,0,0:0:0:0:
402,192,256507,1,0,0:0:0:0:
256,192,256566,1,0,0:0:0:0:
109,192,256566,1,0,0:0:0:0:
36,192,256566,1,0,0:0:0:0:
475,192,256566,1,0,0:0:0:0:
402,192,256624,1,0,0:0:0:0:
182,192,256683,1,0,0:0:0:0:
329,192,256741,1,0,0:0:0:0:
256,192,256800,1,0,0:0:0:0:
36,192,256800,1,0,0:0:0:0:
475,192,256800,1,0,0:0:0:0:
182,192,256858,1,0,0:0:0:0:
329,192,256917,1,0,0:0:0:0:
109,192,256976,1,0,0:0:0:0:
36,192,257034,1,0,0:0:0:0:
256,192,257034,1,0,0:0:0:0:
475,192,257034,1,0,0:0:0:0:
402,192,257034,1,0,0:0:0:0:
109,192,257093,1,0,0:0:0:0:
329,192,257151,1,0,0:0:0:0:
182,192,257210,1,0,0:0:0:0:
256,192,257269,1,0,0:0:0:0:
36,192,257269,1,0,0:0:0:0:
475,192,257269,1,0,0:0:0:0:
329,192,257327,1,0,0:0:0:0:
182,192,257386,1,0,0:0:0:0:
402,192,257444,1,0,0:0:0:0:
109,192,257444,1,0,0:0:0:0:
256,192,257503,1,0,0:0:0:0:
36,192,257503,1,0,0:0:0:0:
475,192,257503,1,0,0:0:0:0:
182,192,257503,1,0,0:0:0:0:
329,192,257503,1,0,0:0:0:0:
109,192,257562,1,0,0:0:0:0:
402,192,257562,1,0,0:0:0:0:
329,192,257620,1,0,0:0:0:0:
182,192,257679,1,0,0:0:0:0:
109,192,257737,1,0,0:0:0:0:
36,192,257737,1,0,0:0:0:0:
402,192,257737,1,0,0:0:0:0:
256,192,257796,1,0,0:0:0:0:
182,192,257855,1,0,0:0:0:0:
329,192,257913,1,0,0:0:0:0:
256,192,257972,1,0,0:0:0:0:
36,192,257972,1,0,0:0:0:0:
402,192,257972,1,0,0:0:0:0:
475,192,257972,1,0,0:0:0:0:
109,192,258030,1,0,0:0:0:0:
182,192,258089,1,0,0:0:0:0:
329,192,258148,1,0,0:0:0:0:
109,192,258206,1,0,0:0:0:0:
402,192,258206,1,0,0:0:0:0:
475,192,258206,1,0,0:0:0:0:
256,192,258265,1,0,0:0:0:0:
329,192,258323,1,0,0:0:0:0:
182,192,258382,1,0,0:0:0:0:
109,192,258441,1,0,0:0:0:0:
36,192,258441,1,0,0:0:0:0:
256,192,258441,1,0,0:0:0:0:
475,192,258441,1,0,0:0:0:0:
402,192,258499,1,0,0:0:0:0:
329,192,258558,1,0,0:0:0:0:
475,192,258558,1,0,0:0:0:0:
182,192,258616,1,0,0:0:0:0:
109,192,258675,1,0,0:0:0:0:
36,192,258675,1,0,0:0:0:0:
402,192,258675,1,0,0:0:0:0:
256,192,258733,1,0,0:0:0:0:
182,192,258792,1,0,0:0:0:0:
109,192,258792,1,0,0:0:0:0:
329,192,258851,1,0,0:0:0:0:
256,192,258909,1,0,0:0:0:0:
36,192,258909,1,0,0:0:0:0:
402,192,258909,1,0,0:0:0:0:
475,192,258909,1,0,0:0:0:0:
109,192,258968,1,0,0:0:0:0:
182,192,259026,1,0,0:0:0:0:
36,192,259026,1,0,0:0:0:0:
329,192,259085,1,0,0:0:0:0:
109,192,259144,1,0,0:0:0:0:
402,192,259144,1,0,0:0:0:0:
475,192,259144,1,0,0:0:0:0:
256,192,259202,1,0,0:0:0:0:
329,192,259261,1,0,0:0:0:0:
402,192,259261,1,0,0:0:0:0:
109,192,259261,1,0,0:0:0:0:
182,192,259319,1,0,0:0:0:0:
36,192,259378,1,0,0:0:0:0:
256,192,259378,1,0,0:0:0:0:
475,192,259378,1,0,0:0:0:0:
329,192,259378,1,0,0:0:0:0:
182,192,259438,1,0,0:0:0:0:
109,192,259438,1,0,0:0:0:0:
329,192,259498,1,0,0:0:0:0:
475,192,259498,1,0,0:0:0:0:
109,192,259558,1,0,0:0:0:0:
36,192,259558,1,0,0:0:0:0:
402,192,259618,1,0,0:0:0:0:
256,192,259618,1,0,0:0:0:0:
182,192,259678,1,0,0:0:0:0:
329,192,259678,1,0,0:0:0:0:
109,192,259738,1,0,0:0:0:0:
36,192,259738,1,0,0:0:0:0:
256,192,259738,1,0,0:0:0:0:
475,192,259738,1,0,0:0:0:0:
402,192,259803,1,0,0:0:0:0:
329,192,259803,1,0,0:0:0:0:
182,192,259868,1,0,0:0:0:0:
36,192,259868,1,0,0:0:0:0:
402,192,259933,1,0,0:0:0:0:
475,192,259933,1,0,0:0:0:0:
256,192,259998,1,0,0:0:0:0:
109,192,259998,1,0,0:0:0:0:
182,192,260064,1,0,0:0:0:0:
329,192,260064,1,0,0:0:0:0:
256,192,260129,1,0,0:0:0:0:
402,192,260129,1,0,0:0:0:0:
475,192,260129,1,0,0:0:0:0:
36,192,260129,1,0,0:0:0:0:
109,192,260198,1,0,0:0:0:0:
329,192,260198,1,0,0:0:0:0:
182,192,260268,1,0,0:0:0:0:
36,192,260268,1,0,0:0:0:0:
475,192,260268,1,0,0:0:0:0:
402,192,260338,1,0,0:0:0:0:
329,192,260338,1,0,0:0:0:0:
256,192,260408,1,0,0:0:0:0:
109,192,260408,1,0,0:0:0:0:
475,192,260408,1,0,0:0:0:0:
402,192,260477,1,0,0:0:0:0:
329,192,260477,1,0,0:0:0:0:
256,192,260547,1,0,0:0:0:0:
36,192,260547,1,0,0:0:0:0:
475,192,260547,1,0,0:0:0:0:
109,192,260547,1,0,0:0:0:0:
402,192,260623,1,0,0:0:0:0:
182,192,260623,1,0,0:0:0:0:
329,192,260700,1,0,0:0:0:0:
36,192,260700,1,0,0:0:0:0:
475,192,260700,1,0,0:0:0:0:
182,192,260777,1,0,0:0:0:0:
109,192,260777,1,0,0:0:0:0:
36,192,260854,1,0,0:0:0:0:
256,192,260854,1,0,0:0:0:0:
402,192,260854,1,0,0:0:0:0:
182,192,260931,1,0,0:0:0:0:
109,192,260931,1,0,0:0:0:0:
329,192,261008,1,0,0:0:0:0:
402,192,261008,1,0,0:0:0:0:
475,192,261008,1,0,0:0:0:0:
36,192,261008,1,0,0:0:0:0:
256,192,261089,1,0,0:0:0:0:
182,192,261089,1,0,0:0:0:0:
182,192,261170,1,0,0:0:0:0:
109,192,261170,1,0,0:0:0:0:
402,192,261170,1,0,0:0:0:0:
475,192,261170,1,0,0:0:0:0:
256,192,261251,1,0,0:0:0:0:
329,192,261251,1,0,0:0:0:0:
36,192,261332,1,0,0:0:0:0:
329,192,261332,1,0,0:0:0:0:
402,192,261332,1,0,0:0:0:0:
475,192,261332,1,0,0:0:0:0:
182,192,261332,1,0,0:0:0:0:
109,192,261332,1,0,0:0:0:0:
256,192,261413,1,0,0:0:0:0:
182,192,261494,1,0,0:0:0:0:
109,192,261494,1,0,0:0:0:0:
329,192,261494,1,0,0:0:0:0:
402,192,261494,1,0,0:0:0:0:
256,192,261575,1,0,0:0:0:0:
182,192,261656,1,0,0:0:0:0:
36,192,261656,1,0,0:0:0:0:
329,192,261656,1,0,0:0:0:0:
475,192,261656,1,0,0:0:0:0:
256,192,261818,1,0,0:0:0:0:
36,192,261818,1,0,0:0:0:0:
182,192,261899,1,0,0:0:0:0:
109,192,261899,1,0,0:0:0:0:
402,192,261940,128,0,262062:0:0:0:0:
36,192,261980,1,0,0:0:0:0:
256,192,261980,1,0,0:0:0:0:
475,192,261980,128,0,262143:0:0:0:0:
109,192,262062,1,0,0:0:0:0:
329,192,262143,1,0,0:0:0:0:
182,192,262143,1,0,0:0:0:0:
329,192,262224,1,0,0:0:0:0:
182,192,262224,1,0,0:0:0:0:
36,192,262305,1,0,0:0:0:0:
475,192,262305,1,0,0:0:0:0:
256,192,262305,1,0,0:0:0:0:
182,192,262386,1,0,0:0:0:0:
329,192,262386,1,0,0:0:0:0:
402,192,262467,1,0,0:0:0:0:
256,192,262467,1,0,0:0:0:0:
256,192,262548,1,0,0:0:0:0:
109,192,262548,1,0,0:0:0:0:
36,192,262629,128,0,262953:0:0:0:0:
475,192,262629,128,0,262953:0:0:0:0:
182,192,262953,1,0,0:0:0:0:
256,192,262953,1,0,0:0:0:0:
329,192,262953,1,0,0:0:0:0:
402,192,263277,128,0,263439:0:0:0:0:
329,192,263277,1,0,0:0:0:0:
475,192,263277,128,0,263682:0:0:0:0:
36,192,263278,128,0,263439:0:0:0:0:
109,192,263304,128,0,263493:0:0:0:0:
182,192,263331,128,0,263547:0:0:0:0:
256,192,263358,128,0,263682:0:0:0:0:
329,192,263439,1,0,0:0:0:0:
36,192,263520,1,0,0:0:0:0:
109,192,263601,1,0,0:0:0:0:
402,192,263601,1,0,0:0:0:0:
329,192,263601,128,0,263682:0:0:0:0:
182,192,263682,128,0,263763:0:0:0:0:
36,192,263763,128,0,263844:0:0:0:0:
329,192,263763,128,0,263844:0:0:0:0:
475,192,263763,1,0,0:0:0:0:
182,192,263844,128,0,263925:0:0:0:0:
256,192,263925,1,0,0:0:0:0:
36,192,263925,128,0,264087:0:0:0:0:
475,192,263925,128,0,264087:0:0:0:0:
402,192,263925,1,0,0:0:0:0:
109,192,263966,128,0,264087:0:0:0:0:
182,192,264006,128,0,264331:0:0:0:0:
329,192,264087,1,0,0:0:0:0:
402,192,264087,1,0,0:0:0:0:
402,192,264168,1,0,0:0:0:0:
329,192,264168,1,0,0:0:0:0:
109,192,264168,128,0,264331:0:0:0:0:
256,192,264249,128,0,264493:0:0:0:0:
36,192,264249,1,0,0:0:0:0:
475,192,264249,1,0,0:0:0:0:
402,192,264331,1,0,0:0:0:0:
182,192,264412,128,0,264493:0:0:0:0:
329,192,264412,128,0,264628:0:0:0:0:
36,192,264412,1,0,0:0:0:0:
109,192,264493,1,0,0:0:0:0:
256,192,264574,1,0,0:0:0:0:
402,192,264574,128,0,264682:0:0:0:0:
475,192,264574,128,0,264736:0:0:0:0:
36,192,264574,128,0,264682:0:0:0:0:
109,192,264628,128,0,264736:0:0:0:0:
182,192,264682,128,0,264790:0:0:0:0:
256,192,264736,128,0,264844:0:0:0:0:
329,192,264790,128,0,264898:0:0:0:0:
402,192,264844,128,0,264952:0:0:0:0:
475,192,264898,128,0,265141:0:0:0:0:
109,192,264898,128,0,264979:0:0:0:0:
182,192,264898,128,0,265141:0:0:0:0:
36,192,264898,1,0,0:0:0:0:
256,192,264979,128,0,265060:0:0:0:0:
36,192,265060,1,0,0:0:0:0:
329,192,265060,1,0,0:0:0:0:
36,192,265141,1,0,0:0:0:0:
256,192,265141,1,0,0:0:0:0:
109,192,265222,1,0,0:0:0:0:
329,192,265222,128,0,265466:0:0:0:0:
402,192,265277,128,0,265358:0:0:0:0:
36,192,265304,1,0,0:0:0:0:
256,192,265331,128,0,265412:0:0:0:0:
475,192,265331,1,0,0:0:0:0:
182,192,265385,1,0,0:0:0:0:
109,192,265439,1,0,0:0:0:0:
402,192,265493,128,0,265547:0:0:0:0:
109,192,265547,128,0,265810:0:0:0:0:
182,192,265547,1,0,0:0:0:0:
36,192,265547,128,0,265587:0:0:0:0:
256,192,265547,128,0,265682:0:0:0:0:
475,192,265587,128,0,265729:0:0:0:0:
329,192,265628,128,0,265749:0:0:0:0:
182,192,265668,128,0,265790:0:0:0:0:
36,192,265709,128,0,265831:0:0:0:0:
402,192,265736,128,0,265844:0:0:0:0:
256,192,265763,128,0,265898:0:0:0:0:
475,192,265790,128,0,265871:0:0:0:0:
329,192,265817,128,0,265979:0:0:0:0:
182,192,265844,128,0,266006:0:0:0:0:
109,192,265871,128,0,265932:0:0:0:0:
36,192,265898,128,0,266033:0:0:0:0:
402,192,265912,128,0,265993:0:0:0:0:
256,192,265952,128,0,266094:0:0:0:0:
109,192,265993,128,0,266135:0:0:0:0:
329,192,266033,128,0,266114:0:0:0:0:
182,192,266074,128,0,266358:0:0:0:0:
36,192,266114,128,0,266195:0:0:0:0:
402,192,266155,1,0,0:0:0:0:
329,192,266195,1,0,0:0:0:0:
256,192,266195,128,0,266439:0:0:0:0:
475,192,266195,128,0,266277:0:0:0:0:
109,192,266236,128,0,266317:0:0:0:0:
36,192,266277,1,0,0:0:0:0:
329,192,266358,128,0,266601:0:0:0:0:
402,192,266358,1,0,0:0:0:0:
475,192,266358,1,0,0:0:0:0:
182,192,266439,1,0,0:0:0:0:
402,192,266520,128,0,266601:0:0:0:0:
475,192,266520,128,0,266601:0:0:0:0:
36,192,266520,128,0,266682:0:0:0:0:
109,192,266520,128,0,266925:0:0:0:0:
256,192,266601,1,0,0:0:0:0:
329,192,266682,1,0,0:0:0:0:
475,192,266682,1,0,0:0:0:0:
182,192,266682,128,0,266763:0:0:0:0:
475,192,266763,1,0,0:0:0:0:
329,192,266763,1,0,0:0:0:0:
36,192,266763,128,0,266844:0:0:0:0:
402,192,266844,1,0,0:0:0:0:
182,192,266844,128,0,267087:0:0:0:0:
256,192,266844,1,0,0:0:0:0:
36,192,266925,1,0,0:0:0:0:
109,192,267006,128,0,267087:0:0:0:0:
475,192,267006,1,0,0:0:0:0:
256,192,267006,128,0,267249:0:0:0:0:
402,192,267087,1,0,0:0:0:0:
36,192,267168,128,0,267249:0:0:0:0:
329,192,267168,128,0,267290:0:0:0:0:
182,192,267168,128,0,267249:0:0:0:0:
402,192,267209,128,0,267412:0:0:0:0:
475,192,267249,128,0,267371:0:0:0:0:
36,192,267331,1,0,0:0:0:0:
256,192,267331,128,0,267574:0:0:0:0:
182,192,267371,128,0,267452:0:0:0:0:
109,192,267412,1,0,0:0:0:0:
329,192,267452,128,0,267533:0:0:0:0:
402,192,267493,1,0,0:0:0:0:
475,192,267493,128,0,267655:0:0:0:0:
36,192,267493,128,0,267709:0:0:0:0:
109,192,267547,128,0,267655:0:0:0:0:
182,192,267601,1,0,0:0:0:0:
402,192,267655,1,0,0:0:0:0:
329,192,267655,128,0,267817:0:0:0:0:
256,192,267709,128,0,267790:0:0:0:0:
182,192,267763,1,0,0:0:0:0:
36,192,267817,1,0,0:0:0:0:
402,192,267817,128,0,267979:0:0:0:0:
475,192,267817,1,0,0:0:0:0:
109,192,267898,128,0,268060:0:0:0:0:
182,192,267898,128,0,268060:0:0:0:0:
329,192,267898,128,0,267979:0:0:0:0:
475,192,267979,128,0,268060:0:0:0:0:
402,192,268060,128,0,268222:0:0:0:0:
36,192,268060,128,0,268141:0:0:0:0:
329,192,268060,128,0,268222:0:0:0:0:
475,192,268141,1,0,0:0:0:0:
109,192,268141,128,0,268304:0:0:0:0:
182,192,268141,128,0,268222:0:0:0:0:
256,192,268222,1,0,0:0:0:0:
329,192,268304,128,0,268385:0:0:0:0:
402,192,268304,1,0,0:0:0:0:
36,192,268304,1,0,0:0:0:0:
256,192,268344,128,0,268385:0:0:0:0:
182,192,268385,1,0,0:0:0:0:
329,192,268466,1,0,0:0:0:0:
475,192,268466,128,0,268871:0:0:0:0:
402,192,268466,128,0,268628:0:0:0:0:
36,192,268466,128,0,268628:0:0:0:0:
109,192,268493,128,0,268682:0:0:0:0:
182,192,268520,128,0,268736:0:0:0:0:
256,192,268547,128,0,268871:0:0:0:0:
329,192,268628,1,0,0:0:0:0:
36,192,268709,1,0,0:0:0:0:
109,192,268790,1,0,0:0:0:0:
402,192,268790,1,0,0:0:0:0:
329,192,268790,128,0,268871:0:0:0:0:
36,192,268871,128,0,268952:0:0:0:0:
182,192,268952,128,0,269033:0:0:0:0:
402,192,268952,128,0,269114:0:0:0:0:
256,192,268952,128,0,269033:0:0:0:0:
475,192,268952,1,0,0:0:0:0:
36,192,269033,128,0,269195:0:0:0:0:
256,192,269114,128,0,269195:0:0:0:0:
182,192,269114,1,0,0:0:0:0:
109,192,269114,1,0,0:0:0:0:
475,192,269114,1,0,0:0:0:0:
329,192,269155,128,0,269277:0:0:0:0:
402,192,269195,128,0,269520:0:0:0:0:
109,192,269277,1,0,0:0:0:0:
182,192,269277,1,0,0:0:0:0:
182,192,269358,1,0,0:0:0:0:
109,192,269358,1,0,0:0:0:0:
475,192,269358,128,0,269520:0:0:0:0:
329,192,269439,1,0,0:0:0:0:
256,192,269439,128,0,269682:0:0:0:0:
36,192,269439,1,0,0:0:0:0:
182,192,269520,1,0,0:0:0:0:
109,192,269601,128,0,269682:0:0:0:0:
36,192,269601,128,0,269682:0:0:0:0:
329,192,269601,128,0,269682:0:0:0:0:
402,192,269641,128,0,269682:0:0:0:0:
475,192,269682,1,0,0:0:0:0:
36,192,269763,128,0,269817:0:0:0:0:
109,192,269763,128,0,269844:0:0:0:0:
182,192,269763,128,0,269871:0:0:0:0:
256,192,269763,128,0,270006:0:0:0:0:
475,192,269817,128,0,270006:0:0:0:0:
402,192,269844,128,0,269898:0:0:0:0:
329,192,269871,128,0,269925:0:0:0:0:
36,192,269925,1,0,0:0:0:0:
182,192,269979,1,0,0:0:0:0:
36,192,270033,1,0,0:0:0:0:
182,192,270087,1,0,0:0:0:0:
475,192,270087,1,0,0:0:0:0:
329,192,270087,128,0,270331:0:0:0:0:
402,192,270087,128,0,270168:0:0:0:0:
256,192,270168,128,0,270249:0:0:0:0:
109,192,270249,1,0,0:0:0:0:
475,192,270249,1,0,0:0:0:0:
109,192,270331,1,0,0:0:0:0:
402,192,270331,1,0,0:0:0:0:
36,192,270412,128,0,270655:0:0:0:0:
329,192,270412,128,0,270493:0:0:0:0:
109,192,270452,128,0,270614:0:0:0:0:
475,192,270452,128,0,270736:0:0:0:0:
182,192,270493,128,0,270574:0:0:0:0:
256,192,270533,1,0,0:0:0:0:
402,192,270574,128,0,270736:0:0:0:0:
329,192,270614,128,0,270736:0:0:0:0:
256,192,270655,128,0,270736:0:0:0:0:
182,192,270695,128,0,270736:0:0:0:0:
36,192,270736,1,0,0:0:0:0:
109,192,270736,1,0,0:0:0:0:
329,192,270817,128,0,270979:0:0:0:0:
402,192,270858,128,0,270939:0:0:0:0:
475,192,270898,1,0,0:0:0:0:
182,192,270898,128,0,270979:0:0:0:0:
109,192,270898,1,0,0:0:0:0:
256,192,270979,1,0,0:0:0:0:
329,192,271060,1,0,0:0:0:0:
109,192,271060,1,0,0:0:0:0:
36,192,271060,1,0,0:0:0:0:
475,192,271060,1,0,0:0:0:0:
182,192,271141,1,0,0:0:0:0:
109,192,271141,1,0,0:0:0:0:
402,192,271222,1,0,0:0:0:0:
329,192,271222,1,0,0:0:0:0:
402,192,271304,1,0,0:0:0:0:
329,192,271304,1,0,0:0:0:0:
109,192,271385,128,0,271466:0:0:0:0:
182,192,271385,128,0,271486:0:0:0:0:
256,192,271385,128,0,271527:0:0:0:0:
36,192,271385,1,0,0:0:0:0:
475,192,271385,1,0,0:0:0:0:
402,192,271466,128,0,271709:0:0:0:0:
36,192,271506,128,0,271648:0:0:0:0:
475,192,271506,128,0,271628:0:0:0:0:
109,192,271547,128,0,271648:0:0:0:0:
182,192,271567,128,0,271648:0:0:0:0:
329,192,271628,1,0,0:0:0:0:
475,192,271709,1,0,0:0:0:0:
36,192,271709,128,0,271952:0:0:0:0:
256,192,271709,128,0,271790:0:0:0:0:
109,192,271749,128,0,271871:0:0:0:0:
402,192,271790,1,0,0:0:0:0:
329,192,271871,1,0,0:0:0:0:
182,192,271871,1,0,0:0:0:0:
329,192,271952,1,0,0:0:0:0:
182,192,271952,128,0,272074:0:0:0:0:
256,192,272033,128,0,272074:0:0:0:0:
402,192,272033,128,0,272155:0:0:0:0:
475,192,272033,128,0,272195:0:0:0:0:
36,192,272033,128,0,272277:0:0:0:0:
109,192,272114,128,0,272277:0:0:0:0:
329,192,272195,128,0,272277:0:0:0:0:
256,192,272195,1,0,0:0:0:0:
182,192,272195,128,0,272398:0:0:0:0:
402,192,272236,128,0,272277:0:0:0:0:
475,192,272277,1,0,0:0:0:0:
109,192,272358,128,0,272439:0:0:0:0:
36,192,272358,128,0,272560:0:0:0:0:
256,192,272358,128,0,272601:0:0:0:0:
329,192,272358,128,0,272520:0:0:0:0:
402,192,272398,128,0,272479:0:0:0:0:
475,192,272439,128,0,272601:0:0:0:0:
182,192,272479,128,0,272804:0:0:0:0:
109,192,272520,128,0,272601:0:0:0:0:
402,192,272560,128,0,272641:0:0:0:0:
329,192,272601,128,0,272682:0:0:0:0:
36,192,272641,128,0,272722:0:0:0:0:
475,192,272682,128,0,272763:0:0:0:0:
109,192,272682,128,0,272763:0:0:0:0:
256,192,272682,1,0,0:0:0:0:
402,192,272722,128,0,272925:0:0:0:0:
329,192,272763,128,0,272885:0:0:0:0:
109,192,272844,1,0,0:0:0:0:
475,192,272844,128,0,272966:0:0:0:0:
182,192,272885,1,0,0:0:0:0:
256,192,272925,1,0,0:0:0:0:
329,192,272966,1,0,0:0:0:0:
36,192,273006,1,0,0:0:0:0:
402,192,273006,1,0,0:0:0:0:
109,192,273006,1,0,0:0:0:0:
256,192,273087,128,0,273249:0:0:0:0:
109,192,273087,128,0,273249:0:0:0:0:
329,192,273114,128,0,273249:0:0:0:0:
402,192,273141,128,0,273249:0:0:0:0:
475,192,273168,128,0,273249:0:0:0:0:
182,192,273249,1,0,0:0:0:0:
36,192,273249,1,0,0:0:0:0:
329,192,273331,128,0,273439:0:0:0:0:
402,192,273331,128,0,273466:0:0:0:0:
182,192,273331,128,0,273574:0:0:0:0:
475,192,273331,128,0,273493:0:0:0:0:
109,192,273412,128,0,273493:0:0:0:0:
256,192,273493,128,0,273574:0:0:0:0:
36,192,273493,1,0,0:0:0:0:
329,192,273574,1,0,0:0:0:0:
182,192,273655,1,0,0:0:0:0:
36,192,273655,128,0,274060:0:0:0:0:
109,192,273655,128,0,273817:0:0:0:0:
475,192,273655,128,0,273817:0:0:0:0:
402,192,273682,128,0,273871:0:0:0:0:
329,192,273709,128,0,273925:0:0:0:0:
256,192,273736,128,0,274060:0:0:0:0:
182,192,273817,1,0,0:0:0:0:
475,192,273898,1,0,0:0:0:0:
402,192,273979,1,0,0:0:0:0:
109,192,273979,1,0,0:0:0:0:
182,192,273979,128,0,274060:0:0:0:0:
329,192,274060,128,0,274141:0:0:0:0:
475,192,274141,128,0,274222:0:0:0:0:
182,192,274141,128,0,274222:0:0:0:0:
36,192,274141,1,0,0:0:0:0:
329,192,274222,128,0,274304:0:0:0:0:
256,192,274304,1,0,0:0:0:0:
475,192,274304,128,0,274466:0:0:0:0:
36,192,274304,128,0,274466:0:0:0:0:
109,192,274304,1,0,0:0:0:0:
402,192,274344,128,0,274466:0:0:0:0:
329,192,274385,128,0,274709:0:0:0:0:
182,192,274466,1,0,0:0:0:0:
109,192,274466,1,0,0:0:0:0:
109,192,274547,1,0,0:0:0:0:
182,192,274547,1,0,0:0:0:0:
402,192,274547,128,0,274709:0:0:0:0:
256,192,274628,128,0,274871:0:0:0:0:
475,192,274628,1,0,0:0:0:0:
36,192,274628,1,0,0:0:0:0:
109,192,274709,1,0,0:0:0:0:
329,192,274790,128,0,274871:0:0:0:0:
182,192,274790,128,0,275006:0:0:0:0:
475,192,274790,1,0,0:0:0:0:
402,192,274871,1,0,0:0:0:0:
256,192,274952,1,0,0:0:0:0:
109,192,274952,128,0,275060:0:0:0:0:
36,192,274952,128,0,275114:0:0:0:0:
475,192,274952,128,0,275060:0:0:0:0:
402,192,275006,128,0,275114:0:0:0:0:
329,192,275060,128,0,275168:0:0:0:0:
256,192,275114,128,0,275222:0:0:0:0:
182,192,275168,128,0,275277:0:0:0:0:
109,192,275222,128,0,275331:0:0:0:0:
36,192,275277,128,0,275520:0:0:0:0:
402,192,275277,128,0,275358:0:0:0:0:
329,192,275277,128,0,275520:0:0:0:0:
475,192,275277,1,0,0:0:0:0:
256,192,275358,128,0,275439:0:0:0:0:
475,192,275439,1,0,0:0:0:0:
182,192,275439,1,0,0:0:0:0:
475,192,275520,1,0,0:0:0:0:
256,192,275520,1,0,0:0:0:0:
402,192,275601,1,0,0:0:0:0:
182,192,275601,128,0,275844:0:0:0:0:
109,192,275655,128,0,275736:0:0:0:0:
475,192,275682,1,0,0:0:0:0:
256,192,275709,128,0,275790:0:0:0:0:
36,192,275709,1,0,0:0:0:0:
329,192,275763,1,0,0:0:0:0:
402,192,275817,1,0,0:0:0:0:
109,192,275871,128,0,275925:0:0:0:0:
402,192,275925,128,0,276189:0:0:0:0:
475,192,275925,128,0,275966:0:0:0:0:
256,192,275925,128,0,276060:0:0:0:0:
36,192,275966,128,0,276108:0:0:0:0:
182,192,276006,128,0,276128:0:0:0:0:
329,192,276047,128,0,276168:0:0:0:0:
475,192,276087,128,0,276209:0:0:0:0:
109,192,276114,128,0,276222:0:0:0:0:
256,192,276141,128,0,276277:0:0:0:0:
36,192,276168,128,0,276249:0:0:0:0:
182,192,276195,128,0,276358:0:0:0:0:
329,192,276222,128,0,276385:0:0:0:0:
402,192,276249,128,0,276310:0:0:0:0:
475,192,276277,128,0,276412:0:0:0:0:
109,192,276290,128,0,276371:0:0:0:0:
256,192,276331,128,0,276472:0:0:0:0:
402,192,276371,128,0,276513:0:0:0:0:
182,192,276412,128,0,276493:0:0:0:0:
329,192,276452,128,0,276736:0:0:0:0:
475,192,276493,128,0,276574:0:0:0:0:
109,192,276533,1,0,0:0:0:0:
182,192,276574,1,0,0:0:0:0:
256,192,276574,128,0,276817:0:0:0:0:
36,192,276574,128,0,276655:0:0:0:0:
402,192,276614,128,0,276695:0:0:0:0:
475,192,276655,1,0,0:0:0:0:
182,192,276736,128,0,276979:0:0:0:0:
109,192,276736,1,0,0:0:0:0:
36,192,276736,1,0,0:0:0:0:
329,192,276817,1,0,0:0:0:0:
109,192,276898,128,0,276979:0:0:0:0:
36,192,276898,128,0,276979:0:0:0:0:
475,192,276898,128,0,277060:0:0:0:0:
402,192,276898,128,0,277304:0:0:0:0:
256,192,276979,1,0,0:0:0:0:
182,192,277060,1,0,0:0:0:0:
36,192,277060,1,0,0:0:0:0:
329,192,277060,128,0,277141:0:0:0:0:
36,192,277141,1,0,0:0:0:0:
182,192,277141,1,0,0:0:0:0:
475,192,277141,128,0,277222:0:0:0:0:
109,192,277222,1,0,0:0:0:0:
329,192,277222,128,0,277466:0:0:0:0:
256,192,277222,1,0,0:0:0:0:
475,192,277304,1,0,0:0:0:0:
402,192,277385,128,0,277466:0:0:0:0:
36,192,277385,1,0,0:0:0:0:
256,192,277385,128,0,277628:0:0:0:0:
109,192,277466,1,0,0:0:0:0:
475,192,277547,128,0,277628:0:0:0:0:
182,192,277547,128,0,277668:0:0:0:0:
329,192,277547,128,0,277628:0:0:0:0:
109,192,277587,128,0,277790:0:0:0:0:
36,192,277628,128,0,277749:0:0:0:0:
475,192,277709,1,0,0:0:0:0:
256,192,277709,128,0,277952:0:0:0:0:
329,192,277749,128,0,277831:0:0:0:0:
402,192,277790,1,0,0:0:0:0:
182,192,277831,128,0,277912:0:0:0:0:
109,192,277871,1,0,0:0:0:0:
36,192,277871,128,0,278033:0:0:0:0:
475,192,277871,128,0,278087:0:0:0:0:
402,192,277925,128,0,278033:0:0:0:0:
329,192,277979,1,0,0:0:0:0:
109,192,278033,1,0,0:0:0:0:
182,192,278033,128,0,278195:0:0:0:0:
256,192,278087,128,0,278168:0:0:0:0:
329,192,278141,1,0,0:0:0:0:
475,192,278195,1,0,0:0:0:0:
109,192,278195,128,0,278358:0:0:0:0:
36,192,278195,1,0,0:0:0:0:
402,192,278277,128,0,278439:0:0:0:0:
329,192,278277,128,0,278439:0:0:0:0:
182,192,278277,128,0,278358:0:0:0:0:
36,192,278358,128,0,278439:0:0:0:0:
109,192,278439,128,0,278601:0:0:0:0:
475,192,278439,128,0,278520:0:0:0:0:
182,192,278439,128,0,278601:0:0:0:0:
36,192,278520,1,0,0:0:0:0:
402,192,278520,128,0,278682:0:0:0:0:
329,192,278520,128,0,278601:0:0:0:0:
256,192,278601,1,0,0:0:0:0:
182,192,278682,128,0,278763:0:0:0:0:
109,192,278682,1,0,0:0:0:0:
475,192,278682,1,0,0:0:0:0:
256,192,278722,128,0,278763:0:0:0:0:
329,192,278763,1,0,0:0:0:0:
182,192,278844,1,0,0:0:0:0:
109,192,278844,128,0,279006:0:0:0:0:
475,192,278844,128,0,279168:0:0:0:0:
36,192,278844,128,0,279006:0:0:0:0:
402,192,278871,128,0,279087:0:0:0:0:
329,192,278898,128,0,279033:0:0:0:0:
256,192,278925,128,0,278979:0:0:0:0:
182,192,279047,1,0,0:0:0:0:
256,192,279087,1,0,0:0:0:0:
36,192,279087,128,0,279249:0:0:0:0:
109,192,279128,128,0,279249:0:0:0:0:
182,192,279168,128,0,279249:0:0:0:0:
329,192,279168,128,0,279412:0:0:0:0:
475,192,279249,128,0,279331:0:0:0:0:
109,192,279331,128,0,279493:0:0:0:0:
256,192,279331,128,0,279412:0:0:0:0:
36,192,279331,1,0,0:0:0:0:
402,192,279331,128,0,279412:0:0:0:0:
475,192,279412,128,0,279574:0:0:0:0:
256,192,279493,128,0,279574:0:0:0:0:
329,192,279493,1,0,0:0:0:0:
402,192,279493,1,0,0:0:0:0:
36,192,279493,1,0,0:0:0:0:
182,192,279533,128,0,279655:0:0:0:0:
109,192,279574,128,0,279898:0:0:0:0:
402,192,279655,1,0,0:0:0:0:
329,192,279655,1,0,0:0:0:0:
329,192,279736,1,0,0:0:0:0:
402,192,279736,1,0,0:0:0:0:
36,192,279736,128,0,279898:0:0:0:0:
182,192,279817,1,0,0:0:0:0:
256,192,279817,128,0,280060:0:0:0:0:
475,192,279817,1,0,0:0:0:0:
329,192,279898,1,0,0:0:0:0:
182,192,279979,128,0,280060:0:0:0:0:
475,192,279979,128,0,280304:0:0:0:0:
402,192,279979,128,0,280060:0:0:0:0:
109,192,280020,128,0,280060:0:0:0:0:
36,192,280060,1,0,0:0:0:0:
329,192,280141,1,0,0:0:0:0:
256,192,280141,128,0,280222:0:0:0:0:
109,192,280182,1,0,0:0:0:0:
36,192,280222,128,0,280304:0:0:0:0:
402,192,280222,1,0,0:0:0:0:
182,192,280263,128,0,280425:0:0:0:0:
256,192,280304,128,0,280466:0:0:0:0:
329,192,280344,128,0,280506:0:0:0:0:
402,192,280385,1,0,0:0:0:0:
475,192,280385,1,0,0:0:0:0:
36,192,280466,1,0,0:0:0:0:
109,192,280466,128,0,280587:0:0:0:0:
475,192,280466,128,0,280628:0:0:0:0:
182,192,280506,128,0,280628:0:0:0:0:
256,192,280547,128,0,280668:0:0:0:0:
402,192,280628,1,0,0:0:0:0:
36,192,280628,128,0,280790:0:0:0:0:
109,192,280668,128,0,280749:0:0:0:0:
182,192,280709,1,0,0:0:0:0:
475,192,280790,128,0,280952:0:0:0:0:
329,192,280790,128,0,280952:0:0:0:0:
256,192,280790,128,0,280952:0:0:0:0:
402,192,280871,128,0,281114:0:0:0:0:
182,192,280871,1,0,0:0:0:0:
36,192,280871,128,0,280952:0:0:0:0:
109,192,280952,128,0,281033:0:0:0:0:
182,192,281033,128,0,281195:0:0:0:0:
36,192,281033,128,0,281358:0:0:0:0:
256,192,281033,128,0,281195:0:0:0:0:
109,192,281114,128,0,281358:0:0:0:0:
475,192,281114,128,0,281195:0:0:0:0:
329,192,281114,1,0,0:0:0:0:
402,192,281195,128,0,281277:0:0:0:0:
182,192,281277,128,0,281358:0:0:0:0:
475,192,281277,1,0,0:0:0:0:
256,192,281317,128,0,281358:0:0:0:0:
329,192,281358,1,0,0:0:0:0:
182,192,281439,128,0,281520:0:0:0:0:
109,192,281439,128,0,281479:0:0:0:0:
475,192,281439,128,0,281844:0:0:0:0:
256,192,281439,128,0,281601:0:0:0:0:
402,192,281439,128,0,281682:0:0:0:0:
36,192,281601,1,0,0:0:0:0:
182,192,281682,1,0,0:0:0:0:
256,192,281682,128,0,281763:0:0:0:0:
402,192,281763,128,0,282006:0:0:0:0:
36,192,281763,128,0,282006:0:0:0:0:
109,192,281763,128,0,281844:0:0:0:0:
329,192,281763,128,0,281844:0:0:0:0:
182,192,281844,128,0,281925:0:0:0:0:
475,192,281925,1,0,0:0:0:0:
329,192,281925,128,0,282249:0:0:0:0:
256,192,281925,128,0,282006:0:0:0:0:
109,192,282006,128,0,282087:0:0:0:0:
182,192,282087,128,0,282249:0:0:0:0:
256,192,282087,1,0,0:0:0:0:
36,192,282087,1,0,0:0:0:0:
402,192,282128,128,0,282290:0:0:0:0:
475,192,282168,128,0,282331:0:0:0:0:
256,192,282249,128,0,282331:0:0:0:0:
36,192,282249,128,0,282331:0:0:0:0:
109,192,282290,128,0,282412:0:0:0:0:
329,192,282331,128,0,282574:0:0:0:0:
182,192,282331,128,0,282533:0:0:0:0:
402,192,282371,128,0,282493:0:0:0:0:
475,192,282412,128,0,282655:0:0:0:0:
256,192,282412,1,0,0:0:0:0:
36,192,282412,128,0,282655:0:0:0:0:
109,192,282493,128,0,282574:0:0:0:0:
256,192,282574,128,0,282777:0:0:0:0:
402,192,282574,128,0,282695:0:0:0:0:
182,192,282614,128,0,282817:0:0:0:0:
109,192,282655,128,0,282736:0:0:0:0:
329,192,282655,128,0,282736:0:0:0:0:
36,192,282736,1,0,0:0:0:0:
475,192,282736,128,0,282979:0:0:0:0:
402,192,282777,128,0,282939:0:0:0:0:
109,192,282817,1,0,0:0:0:0:
329,192,282817,128,0,282898:0:0:0:0:
256,192,282858,1,0,0:0:0:0:
182,192,282898,128,0,283222:0:0:0:0:
109,192,282939,128,0,283101:0:0:0:0:
36,192,282979,128,0,283060:0:0:0:0:
329,192,282979,1,0,0:0:0:0:
256,192,283020,128,0,283182:0:0:0:0:
402,192,283060,1,0,0:0:0:0:
329,192,283060,128,0,283141:0:0:0:0:
475,192,283060,128,0,283304:0:0:0:0:
36,192,283141,128,0,283304:0:0:0:0:
402,192,283222,128,0,283304:0:0:0:0:
109,192,283222,128,0,283506:0:0:0:0:
329,192,283263,1,0,0:0:0:0:
256,192,283304,128,0,283425:0:0:0:0:
182,192,283344,128,0,283466:0:0:0:0:
475,192,283385,1,0,0:0:0:0:
402,192,283385,1,0,0:0:0:0:
36,192,283385,128,0,283628:0:0:0:0:
329,192,283466,128,0,283628:0:0:0:0:
475,192,283466,128,0,283547:0:0:0:0:
256,192,283506,128,0,283628:0:0:0:0:
182,192,283547,128,0,283628:0:0:0:0:
475,192,283628,128,0,283790:0:0:0:0:
402,192,283628,1,0,0:0:0:0:
256,192,283709,128,0,283871:0:0:0:0:
182,192,283709,128,0,283844:0:0:0:0:
109,192,283709,128,0,283817:0:0:0:0:
329,192,283709,1,0,0:0:0:0:
36,192,283709,1,0,0:0:0:0:
402,192,283790,128,0,283871:0:0:0:0:
36,192,283871,128,0,284033:0:0:0:0:
475,192,283871,1,0,0:0:0:0:
329,192,283871,128,0,284114:0:0:0:0:
109,192,283898,128,0,284006:0:0:0:0:
182,192,283925,128,0,283979:0:0:0:0:
256,192,283952,1,0,0:0:0:0:
402,192,284033,128,0,284155:0:0:0:0:
475,192,284033,128,0,284277:0:0:0:0:
256,192,284033,128,0,284094:0:0:0:0:
182,192,284074,128,0,284317:0:0:0:0:
109,192,284114,128,0,284277:0:0:0:0:
36,192,284155,128,0,284236:0:0:0:0:
256,192,284195,128,0,284520:0:0:0:0:
329,192,284236,128,0,284439:0:0:0:0:
402,192,284277,128,0,284358:0:0:0:0:
109,192,284358,1,0,0:0:0:0:
475,192,284358,1,0,0:0:0:0:
36,192,284358,128,0,284682:0:0:0:0:
182,192,284439,1,0,0:0:0:0:
109,192,284520,128,0,284601:0:0:0:0:
329,192,284520,128,0,284601:0:0:0:0:
475,192,284520,128,0,284601:0:0:0:0:
256,192,284601,128,0,284682:0:0:0:0:
475,192,284682,1,0,0:0:0:0:
402,192,284682,128,0,284722:0:0:0:0:
182,192,284682,128,0,284844:0:0:0:0:
109,192,284722,1,0,0:0:0:0:
36,192,284763,128,0,284925:0:0:0:0:
329,192,284763,128,0,284804:0:0:0:0:
109,192,284844,128,0,285006:0:0:0:0:
256,192,284844,128,0,284885:0:0:0:0:
475,192,284844,1,0,0:0:0:0:
182,192,284925,128,0,285087:0:0:0:0:
329,192,284925,128,0,284966:0:0:0:0:
475,192,284925,1,0,0:0:0:0:
36,192,285006,128,0,285047:0:0:0:0:
256,192,285006,128,0,285168:0:0:0:0:
402,192,285006,128,0,285047:0:0:0:0:
109,192,285087,128,0,285128:0:0:0:0:
329,192,285087,128,0,285249:0:0:0:0:
182,192,285168,128,0,285209:0:0:0:0:
402,192,285168,1,0,0:0:0:0:
475,192,285168,128,0,285331:0:0:0:0:
256,192,285249,128,0,285290:0:0:0:0:
109,192,285249,128,0,285574:0:0:0:0:
36,192,285331,128,0,285412:0:0:0:0:
329,192,285331,128,0,285412:0:0:0:0:
402,192,285385,128,0,285547:0:0:0:0:
182,192,285412,128,0,285493:0:0:0:0:
475,192,285439,128,0,285493:0:0:0:0:
36,192,285493,128,0,285574:0:0:0:0:
329,192,285493,128,0,285709:0:0:0:0:
256,192,285547,128,0,285655:0:0:0:0:
182,192,285601,1,0,0:0:0:0:
36,192,285655,128,0,285898:0:0:0:0:
475,192,285655,128,0,285736:0:0:0:0:
109,192,285655,128,0,285695:0:0:0:0:
402,192,285736,128,0,285817:0:0:0:0:
182,192,285736,128,0,285777:0:0:0:0:
256,192,285817,1,0,0:0:0:0:
109,192,285817,128,0,285979:0:0:0:0:
329,192,285817,128,0,285858:0:0:0:0:
256,192,285898,1,0,0:0:0:0:
402,192,285898,128,0,285939:0:0:0:0:
182,192,285898,128,0,285979:0:0:0:0:
36,192,285979,128,0,286020:0:0:0:0:
475,192,285979,128,0,286222:0:0:0:0:
329,192,285979,128,0,286141:0:0:0:0:
109,192,286060,128,0,286101:0:0:0:0:
182,192,286060,1,0,0:0:0:0:
36,192,286141,1,0,0:0:0:0:
402,192,286141,128,0,286222:0:0:0:0:
256,192,286141,128,0,286182:0:0:0:0:
329,192,286222,128,0,286263:0:0:0:0:
109,192,286222,1,0,0:0:0:0:
475,192,286304,128,0,286527:0:0:0:0:
182,192,286304,128,0,286425:0:0:0:0:
36,192,286304,1,0,0:0:0:0:
256,192,286304,128,0,286344:0:0:0:0:
402,192,286344,128,0,286547:0:0:0:0:
329,192,286385,128,0,286567:0:0:0:0:
109,192,286385,128,0,286445:0:0:0:0:
256,192,286466,128,0,286587:0:0:0:0:
182,192,286493,128,0,286655:0:0:0:0:
109,192,286520,128,0,286736:0:0:0:0:
36,192,286547,128,0,286628:0:0:0:0:
475,192,286574,128,0,286736:0:0:0:0:
402,192,286601,128,0,286790:0:0:0:0:
329,192,286628,128,0,286682:0:0:0:0:
256,192,286655,128,0,286763:0:0:0:0:
36,192,286668,128,0,286770:0:0:0:0:
182,192,286709,128,0,286810:0:0:0:0:
329,192,286749,128,0,286851:0:0:0:0:
109,192,286790,128,0,286871:0:0:0:0:
256,192,286831,128,0,287033:0:0:0:0:
402,192,286871,128,0,286952:0:0:0:0:
475,192,286912,128,0,287033:0:0:0:0:
329,192,286952,128,0,287114:0:0:0:0:
182,192,286952,128,0,287277:0:0:0:0:
109,192,286952,1,0,0:0:0:0:
36,192,286952,128,0,287114:0:0:0:0:
402,192,287033,128,0,287195:0:0:0:0:
475,192,287114,1,0,0:0:0:0:
256,192,287114,1,0,0:0:0:0:
109,192,287114,128,0,287195:0:0:0:0:
329,192,287195,128,0,287277:0:0:0:0:
36,192,287277,128,0,287317:0:0:0:0:
475,192,287277,128,0,287358:0:0:0:0:
256,192,287277,128,0,287358:0:0:0:0:
402,192,287317,1,0,0:0:0:0:
109,192,287358,128,0,287398:0:0:0:0:
329,192,287358,128,0,287601:0:0:0:0:
182,192,287439,128,0,287479:0:0:0:0:
475,192,287439,1,0,0:0:0:0:
36,192,287439,1,0,0:0:0:0:
109,192,287520,128,0,287560:0:0:0:0:
475,192,287520,1,0,0:0:0:0:
256,192,287520,128,0,287763:0:0:0:0:
182,192,287601,128,0,287682:0:0:0:0:
402,192,287601,128,0,287641:0:0:0:0:
36,192,287601,128,0,287844:0:0:0:0:
329,192,287682,128,0,287844:0:0:0:0:
475,192,287682,128,0,287722:0:0:0:0:
109,192,287763,1,0,0:0:0:0:
182,192,287763,128,0,287804:0:0:0:0:
402,192,287763,128,0,288006:0:0:0:0:
256,192,287844,128,0,287885:0:0:0:0:
475,192,287844,128,0,287925:0:0:0:0:
329,192,287925,128,0,288087:0:0:0:0:
182,192,287925,128,0,288006:0:0:0:0:
109,192,287925,128,0,288087:0:0:0:0:
256,192,288006,128,0,288168:0:0:0:0:
36,192,288006,128,0,288168:0:0:0:0:
475,192,288006,128,0,288087:0:0:0:0:
182,192,288087,128,0,288249:0:0:0:0:
402,192,288087,128,0,288168:0:0:0:0:
329,192,288168,128,0,288249:0:0:0:0:
109,192,288168,128,0,288331:0:0:0:0:
256,192,288249,128,0,288290:0:0:0:0:
402,192,288249,128,0,288574:0:0:0:0:
475,192,288249,128,0,288331:0:0:0:0:
36,192,288249,1,0,0:0:0:0:
182,192,288331,128,0,288371:0:0:0:0:
329,192,288331,128,0,288412:0:0:0:0:
475,192,288412,128,0,288452:0:0:0:0:
256,192,288412,128,0,288493:0:0:0:0:
36,192,288412,128,0,288493:0:0:0:0:
329,192,288493,128,0,288533:0:0:0:0:
109,192,288493,128,0,288574:0:0:0:0:
182,192,288574,128,0,288614:0:0:0:0:
256,192,288574,128,0,288736:0:0:0:0:
475,192,288574,128,0,288736:0:0:0:0:
109,192,288655,128,0,288695:0:0:0:0:
36,192,288655,128,0,288817:0:0:0:0:
329,192,288655,1,0,0:0:0:0:
402,192,288736,128,0,288777:0:0:0:0:
182,192,288736,1,0,0:0:0:0:
256,192,288817,128,0,288858:0:0:0:0:
329,192,288817,128,0,288979:0:0:0:0:
475,192,288817,128,0,288979:0:0:0:0:
402,192,288898,1,0,0:0:0:0:
182,192,288898,128,0,288939:0:0:0:0:
109,192,288898,128,0,289141:0:0:0:0:
36,192,288898,128,0,288979:0:0:0:0:
256,192,288979,128,0,289060:0:0:0:0:
182,192,289060,128,0,289141:0:0:0:0:
402,192,289060,128,0,289141:0:0:0:0:
475,192,289060,1,0,0:0:0:0:
329,192,289141,128,0,289222:0:0:0:0:
475,192,289222,128,0,289466:0:0:0:0:
182,192,289222,1,0,0:0:0:0:
402,192,289222,128,0,289344:0:0:0:0:
256,192,289222,128,0,289304:0:0:0:0:
36,192,289263,128,0,289506:0:0:0:0:
109,192,289304,128,0,289466:0:0:0:0:
182,192,289344,128,0,289425:0:0:0:0:
329,192,289385,128,0,289547:0:0:0:0:
402,192,289425,1,0,0:0:0:0:
256,192,289466,128,0,289628:0:0:0:0:
182,192,289506,128,0,289709:0:0:0:0:
109,192,289547,1,0,0:0:0:0:
402,192,289547,1,0,0:0:0:0:
475,192,289547,128,0,289871:0:0:0:0:
36,192,289628,1,0,0:0:0:0:
329,192,289709,128,0,289790:0:0:0:0:
109,192,289709,128,0,289790:0:0:0:0:
256,192,289749,1,0,0:0:0:0:
182,192,289790,128,0,289871:0:0:0:0:
36,192,289871,128,0,289952:0:0:0:0:
329,192,289871,128,0,289912:0:0:0:0:
402,192,289871,1,0,0:0:0:0:
109,192,289912,1,0,0:0:0:0:
182,192,289952,128,0,290114:0:0:0:0:
475,192,289952,128,0,289993:0:0:0:0:
329,192,290033,1,0,0:0:0:0:
402,192,290033,128,0,290074:0:0:0:0:
36,192,290033,128,0,290195:0:0:0:0:
329,192,290114,1,0,0:0:0:0:
256,192,290114,128,0,290155:0:0:0:0:
109,192,290114,128,0,290277:0:0:0:0:
182,192,290195,128,0,290358:0:0:0:0:
402,192,290195,128,0,290236:0:0:0:0:
475,192,290195,128,0,290439:0:0:0:0:
256,192,290277,128,0,290439:0:0:0:0:
36,192,290277,128,0,290317:0:0:0:0:
109,192,290358,128,0,290398:0:0:0:0:
329,192,290358,128,0,290520:0:0:0:0:
402,192,290358,1,0,0:0:0:0:
182,192,290439,128,0,290479:0:0:0:0:
36,192,290439,128,0,290763:0:0:0:0:
475,192,290520,128,0,290736:0:0:0:0:
256,192,290520,128,0,290601:0:0:0:0:
402,192,290574,128,0,290682:0:0:0:0:
182,192,290601,128,0,290790:0:0:0:0:
329,192,290628,1,0,0:0:0:0:
256,192,290682,128,0,290817:0:0:0:0:
109,192,290682,1,0,0:0:0:0:
329,192,290736,128,0,290844:0:0:0:0:
402,192,290790,128,0,290925:0:0:0:0:
109,192,290844,128,0,291087:0:0:0:0:
36,192,290844,128,0,290885:0:0:0:0:
475,192,290844,1,0,0:0:0:0:
182,192,290925,128,0,290966:0:0:0:0:
329,192,290925,128,0,291006:0:0:0:0:
256,192,291006,128,0,291047:0:0:0:0:
475,192,291006,1,0,0:0:0:0:
36,192,291006,128,0,291087:0:0:0:0:
475,192,291087,1,0,0:0:0:0:
182,192,291087,128,0,291168:0:0:0:0:
402,192,291087,128,0,291128:0:0:0:0:
36,192,291168,128,0,291412:0:0:0:0:
329,192,291168,128,0,291249:0:0:0:0:
256,192,291168,1,0,0:0:0:0:
109,192,291209,128,0,291371:0:0:0:0:
475,192,291209,128,0,291412:0:0:0:0:
182,192,291249,128,0,291331:0:0:0:0:
256,192,291290,1,0,0:0:0:0:
402,192,291331,128,0,291452:0:0:0:0:
329,192,291371,128,0,291574:0:0:0:0:
256,192,291412,128,0,291493:0:0:0:0:
182,192,291452,1,0,0:0:0:0:
109,192,291493,128,0,291574:0:0:0:0:
475,192,291493,128,0,291736:0:0:0:0:
36,192,291493,128,0,291533:0:0:0:0:
256,192,291574,128,0,291655:0:0:0:0:
402,192,291655,128,0,291736:0:0:0:0:
182,192,291655,128,0,291736:0:0:0:0:
109,192,291655,128,0,291695:0:0:0:0:
329,192,291736,128,0,291817:0:0:0:0:
36,192,291817,128,0,292020:0:0:0:0:
256,192,291817,128,0,291939:0:0:0:0:
182,192,291817,128,0,291898:0:0:0:0:
475,192,291817,128,0,291979:0:0:0:0:
402,192,291858,128,0,292020:0:0:0:0:
329,192,291898,128,0,292060:0:0:0:0:
109,192,291939,128,0,292060:0:0:0:0:
182,192,291979,128,0,292101:0:0:0:0:
256,192,292020,128,0,292222:0:0:0:0:
475,192,292060,128,0,292304:0:0:0:0:
402,192,292101,128,0,292222:0:0:0:0:
36,192,292141,1,0,0:0:0:0:
329,192,292141,1,0,0:0:0:0:
109,192,292141,128,0,292466:0:0:0:0:
182,192,292222,1,0,0:0:0:0:
402,192,292304,128,0,292385:0:0:0:0:
36,192,292304,128,0,292385:0:0:0:0:
256,192,292304,128,0,292385:0:0:0:0:
475,192,292385,128,0,292466:0:0:0:0:
36,192,292466,128,0,292506:0:0:0:0:
256,192,292466,128,0,292547:0:0:0:0:
182,192,292466,1,0,0:0:0:0:
329,192,292506,1,0,0:0:0:0:
109,192,292547,128,0,292587:0:0:0:0:
402,192,292547,128,0,292709:0:0:0:0:
329,192,292628,128,0,292790:0:0:0:0:
475,192,292628,1,0,0:0:0:0:
182,192,292628,128,0,292668:0:0:0:0:
475,192,292709,1,0,0:0:0:0:
256,192,292709,128,0,292871:0:0:0:0:
109,192,292709,128,0,292749:0:0:0:0:
182,192,292790,128,0,292952:0:0:0:0:
36,192,292790,128,0,292831:0:0:0:0:
402,192,292790,128,0,293033:0:0:0:0:
329,192,292871,128,0,292912:0:0:0:0:
109,192,292871,128,0,293114:0:0:0:0:
36,192,292952,128,0,293033:0:0:0:0:
256,192,292952,128,0,292993:0:0:0:0:
475,192,292993,1,0,0:0:0:0:
182,192,293033,128,0,293195:0:0:0:0:
329,192,293033,128,0,293074:0:0:0:0:
256,192,293114,128,0,293276:0:0:0:0:
36,192,293114,128,0,293317:0:0:0:0:
475,192,293114,128,0,293317:0:0:0:0:
402,192,293155,128,0,293236:0:0:0:0:
109,192,293195,128,0,293358:0:0:0:0:
329,192,293236,128,0,293439:0:0:0:0:
182,192,293276,128,0,293398:0:0:0:0:
402,192,293317,128,0,293682:0:0:0:0:
256,192,293358,128,0,293601:0:0:0:0:
475,192,293398,128,0,293479:0:0:0:0:
36,192,293439,1,0,0:0:0:0:
109,192,293439,128,0,293520:0:0:0:0:
182,192,293479,128,0,293560:0:0:0:0:
329,192,293520,128,0,293641:0:0:0:0:
475,192,293560,128,0,293722:0:0:0:0:
109,192,293601,1,0,0:0:0:0:
182,192,293641,1,0,0:0:0:0:
256,192,293682,1,0,0:0:0:0:
329,192,293722,1,0,0:0:0:0:
36,192,293763,128,0,293925:0:0:0:0:
109,192,293763,128,0,293804:0:0:0:0:
402,192,293763,128,0,293844:0:0:0:0:
256,192,293844,128,0,294006:0:0:0:0:
182,192,293844,128,0,293885:0:0:0:0:
475,192,293844,128,0,293925:0:0:0:0:
329,192,293925,128,0,294006:0:0:0:0:
402,192,293925,128,0,293966:0:0:0:0:
109,192,294006,128,0,294168:0:0:0:0:
182,192,294006,128,0,294047:0:0:0:0:
475,192,294006,128,0,294087:0:0:0:0:
256,192,294087,128,0,294128:0:0:0:0:
36,192,294087,128,0,294168:0:0:0:0:
329,192,294087,128,0,294331:0:0:0:0:
402,192,294087,1,0,0:0:0:0:
182,192,294168,128,0,294249:0:0:0:0:
109,192,294249,128,0,294331:0:0:0:0:
402,192,294249,128,0,294331:0:0:0:0:
475,192,294249,1,0,0:0:0:0:
256,192,294331,128,0,294412:0:0:0:0:
36,192,294412,128,0,294655:0:0:0:0:
182,192,294412,128,0,294493:0:0:0:0:
109,192,294412,128,0,294533:0:0:0:0:
475,192,294412,1,0,0:0:0:0:
329,192,294452,128,0,294695:0:0:0:0:
402,192,294493,128,0,294655:0:0:0:0:
475,192,294533,128,0,294614:0:0:0:0:
256,192,294574,128,0,294898:0:0:0:0:
182,192,294614,128,0,294817:0:0:0:0:
109,192,294655,128,0,294736:0:0:0:0:
475,192,294736,128,0,295060:0:0:0:0:
402,192,294736,1,0,0:0:0:0:
36,192,294736,1,0,0:0:0:0:
329,192,294817,1,0,0:0:0:0:
36,192,294898,128,0,294979:0:0:0:0:
402,192,294898,128,0,294979:0:0:0:0:
182,192,294898,128,0,294979:0:0:0:0:
256,192,294979,128,0,295060:0:0:0:0:
329,192,295060,128,0,295222:0:0:0:0:
36,192,295060,1,0,0:0:0:0:
109,192,295060,128,0,295101:0:0:0:0:
402,192,295101,1,0,0:0:0:0:
182,192,295141,128,0,295182:0:0:0:0:
475,192,295141,128,0,295304:0:0:0:0:
36,192,295222,1,0,0:0:0:0:
402,192,295222,128,0,295385:0:0:0:0:
256,192,295222,128,0,295263:0:0:0:0:
329,192,295304,128,0,295466:0:0:0:0:
36,192,295304,1,0,0:0:0:0:
182,192,295304,128,0,295344:0:0:0:0:
475,192,295385,128,0,295425:0:0:0:0:
109,192,295385,128,0,295425:0:0:0:0:
256,192,295385,128,0,295547:0:0:0:0:
182,192,295466,128,0,295628:0:0:0:0:
402,192,295466,128,0,295506:0:0:0:0:
36,192,295547,128,0,295709:0:0:0:0:
329,192,295547,128,0,295587:0:0:0:0:
109,192,295547,1,0,0:0:0:0:
256,192,295628,128,0,295668:0:0:0:0:
402,192,295628,128,0,295952:0:0:0:0:
475,192,295709,128,0,295790:0:0:0:0:
182,192,295709,128,0,295790:0:0:0:0:
109,192,295763,128,0,295925:0:0:0:0:
329,192,295790,128,0,295871:0:0:0:0:
36,192,295817,128,0,295871:0:0:0:0:
182,192,295871,128,0,296087:0:0:0:0:
475,192,295871,128,0,295952:0:0:0:0:
256,192,295925,128,0,296033:0:0:0:0:
329,192,295979,1,0,0:0:0:0:
475,192,296033,128,0,296276:0:0:0:0:
402,192,296033,128,0,296074:0:0:0:0:
36,192,296033,128,0,296114:0:0:0:0:
329,192,296114,128,0,296155:0:0:0:0:
109,192,296114,128,0,296195:0:0:0:0:
182,192,296195,128,0,296236:0:0:0:0:
256,192,296195,1,0,0:0:0:0:
402,192,296195,128,0,296358:0:0:0:0:
256,192,296276,1,0,0:0:0:0:
329,192,296276,128,0,296358:0:0:0:0:
109,192,296276,128,0,296317:0:0:0:0:
475,192,296358,128,0,296398:0:0:0:0:
182,192,296358,128,0,296520:0:0:0:0:
36,192,296358,128,0,296601:0:0:0:0:
402,192,296439,128,0,296479:0:0:0:0:
329,192,296439,1,0,0:0:0:0:
109,192,296520,128,0,296601:0:0:0:0:
256,192,296520,128,0,296560:0:0:0:0:
475,192,296520,1,0,0:0:0:0:
182,192,296601,128,0,296641:0:0:0:0:
402,192,296601,1,0,0:0:0:0:
36,192,296682,128,0,296905:0:0:0:0:
329,192,296682,128,0,296804:0:0:0:0:
475,192,296682,1,0,0:0:0:0:
256,192,296682,128,0,296722:0:0:0:0:
109,192,296722,128,0,296925:0:0:0:0:
182,192,296763,128,0,296945:0:0:0:0:
402,192,296763,128,0,296824:0:0:0:0:
256,192,296844,128,0,296966:0:0:0:0:
329,192,296871,128,0,297033:0:0:0:0:
402,192,296898,128,0,297114:0:0:0:0:
475,192,296925,128,0,297006:0:0:0:0:
36,192,296952,128,0,297114:0:0:0:0:
109,192,296979,128,0,297168:0:0:0:0:
182,192,297006,128,0,297060:0:0:0:0:
256,192,297033,128,0,297141:0:0:0:0:
475,192,297047,128,0,297148:0:0:0:0:
329,192,297087,128,0,297189:0:0:0:0:
182,192,297128,128,0,297229:0:0:0:0:
402,192,297168,128,0,297249:0:0:0:0:
256,192,297209,128,0,297412:0:0:0:0:
109,192,297249,128,0,297331:0:0:0:0:
36,192,297290,128,0,297412:0:0:0:0:
475,192,297331,128,0,297493:0:0:0:0:
402,192,297331,1,0,0:0:0:0:
182,192,297331,128,0,297493:0:0:0:0:
329,192,297331,128,0,297655:0:0:0:0:
109,192,297412,128,0,297574:0:0:0:0:
402,192,297493,128,0,297574:0:0:0:0:
36,192,297493,1,0,0:0:0:0:
256,192,297493,1,0,0:0:0:0:
182,192,297574,128,0,297655:0:0:0:0:
256,192,297655,128,0,297736:0:0:0:0:
475,192,297655,128,0,297695:0:0:0:0:
36,192,297655,128,0,297736:0:0:0:0:
109,192,297695,1,0,0:0:0:0:
182,192,297736,128,0,297979:0:0:0:0:
402,192,297736,128,0,297776:0:0:0:0:
475,192,297817,1,0,0:0:0:0:
329,192,297817,128,0,297858:0:0:0:0:
36,192,297817,1,0,0:0:0:0:
256,192,297898,128,0,298141:0:0:0:0:
402,192,297898,128,0,297939:0:0:0:0:
36,192,297898,1,0,0:0:0:0:
475,192,297979,128,0,298222:0:0:0:0:
329,192,297979,128,0,298060:0:0:0:0:
109,192,297979,128,0,298020:0:0:0:0:
36,192,298060,128,0,298101:0:0:0:0:
182,192,298060,128,0,298222:0:0:0:0:
109,192,298141,128,0,298385:0:0:0:0:
402,192,298141,1,0,0:0:0:0:
329,192,298141,128,0,298182:0:0:0:0:
36,192,298222,128,0,298304:0:0:0:0:
256,192,298222,128,0,298263:0:0:0:0:
402,192,298304,128,0,298466:0:0:0:0:
182,192,298304,128,0,298466:0:0:0:0:
329,192,298304,128,0,298385:0:0:0:0:
36,192,298385,128,0,298466:0:0:0:0:
256,192,298385,128,0,298547:0:0:0:0:
475,192,298385,128,0,298547:0:0:0:0:
329,192,298466,128,0,298628:0:0:0:0:
109,192,298466,128,0,298547:0:0:0:0:
402,192,298547,128,0,298709:0:0:0:0:
182,192,298547,128,0,298628:0:0:0:0:
475,192,298628,1,0,0:0:0:0:
256,192,298628,128,0,298668:0:0:0:0:
109,192,298628,128,0,298952:0:0:0:0:
36,192,298628,128,0,298709:0:0:0:0:
182,192,298709,128,0,298790:0:0:0:0:
329,192,298709,128,0,298749:0:0:0:0:
36,192,298790,128,0,298831:0:0:0:0:
475,192,298790,128,0,298871:0:0:0:0:
256,192,298790,128,0,298871:0:0:0:0:
402,192,298871,128,0,298952:0:0:0:0:
182,192,298871,128,0,298912:0:0:0:0:
36,192,298952,128,0,299114:0:0:0:0:
329,192,298952,128,0,298993:0:0:0:0:
256,192,298952,128,0,299114:0:0:0:0:
182,192,299033,1,0,0:0:0:0:
402,192,299033,128,0,299074:0:0:0:0:
475,192,299033,128,0,299195:0:0:0:0:
329,192,299114,1,0,0:0:0:0:
109,192,299114,128,0,299155:0:0:0:0:
36,192,299195,128,0,299358:0:0:0:0:
256,192,299195,128,0,299236:0:0:0:0:
182,192,299195,128,0,299358:0:0:0:0:
475,192,299276,128,0,299358:0:0:0:0:
402,192,299276,128,0,299520:0:0:0:0:
109,192,299276,1,0,0:0:0:0:
329,192,299276,128,0,299317:0:0:0:0:
256,192,299358,128,0,299439:0:0:0:0:
36,192,299439,1,0,0:0:0:0:
329,192,299439,128,0,299520:0:0:0:0:
109,192,299439,128,0,299520:0:0:0:0:
182,192,299520,128,0,299601:0:0:0:0:
256,192,299601,128,0,299682:0:0:0:0:
36,192,299601,128,0,299844:0:0:0:0:
329,192,299601,1,0,0:0:0:0:
109,192,299601,128,0,299722:0:0:0:0:
475,192,299641,128,0,299844:0:0:0:0:
402,192,299682,128,0,299824:0:0:0:0:
329,192,299722,128,0,299804:0:0:0:0:
182,192,299763,128,0,300087:0:0:0:0:
256,192,299844,128,0,300047:0:0:0:0:
109,192,299844,1,0,0:0:0:0:
329,192,299885,128,0,300006:0:0:0:0:
36,192,299925,128,0,300168:0:0:0:0:
402,192,299925,1,0,0:0:0:0:
475,192,299925,128,0,300168:0:0:0:0:
109,192,300006,1,0,0:0:0:0:
329,192,300087,128,0,300168:0:0:0:0:
402,192,300087,1,0,0:0:0:0:
256,192,300128,128,0,300209:0:0:0:0:
182,192,300168,128,0,300249:0:0:0:0:
475,192,300249,128,0,300331:0:0:0:0:
36,192,300249,128,0,300290:0:0:0:0:
109,192,300249,1,0,0:0:0:0:
402,192,300290,1,0,0:0:0:0:
329,192,300331,128,0,300412:0:0:0:0:
182,192,300331,128,0,300371:0:0:0:0:
36,192,300412,1,0,0:0:0:0:
402,192,300412,128,0,300574:0:0:0:0:
109,192,300412,128,0,300452:0:0:0:0:
36,192,300493,1,0,0:0:0:0:
329,192,300493,128,0,300655:0:0:0:0:
182,192,300493,128,0,300533:0:0:0:0:
256,192,300574,128,0,300736:0:0:0:0:
109,192,300574,128,0,300614:0:0:0:0:
475,192,300574,128,0,300817:0:0:0:0:
182,192,300655,128,0,300817:0:0:0:0:
36,192,300655,128,0,300695:0:0:0:0:
109,192,300736,128,0,300979:0:0:0:0:
329,192,300736,128,0,300776:0:0:0:0:
402,192,300736,1,0,0:0:0:0:
36,192,300817,128,0,300898:0:0:0:0:
256,192,300817,128,0,300858:0:0:0:0:
329,192,300898,128,0,300979:0:0:0:0:
402,192,300898,128,0,301060:0:0:0:0:
182,192,300898,128,0,301060:0:0:0:0:
475,192,300979,128,0,301141:0:0:0:0:
36,192,300979,128,0,301060:0:0:0:0:
256,192,300979,128,0,301141:0:0:0:0:
109,192,301060,128,0,301141:0:0:0:0:
329,192,301060,128,0,301304:0:0:0:0:
182,192,301141,128,0,301222:0:0:0:0:
402,192,301141,128,0,301222:0:0:0:0:
475,192,301222,128,0,301547:0:0:0:0:
36,192,301222,128,0,301304:0:0:0:0:
109,192,301222,1,0,0:0:0:0:
256,192,301222,128,0,301466:0:0:0:0:
402,192,301304,128,0,301344:0:0:0:0:
182,192,301304,128,0,301385:0:0:0:0:
36,192,301385,1,0,0:0:0:0:
329,192,301385,128,0,301425:0:0:0:0:
109,192,301385,128,0,301466:0:0:0:0:
402,192,301466,128,0,301506:0:0:0:0:
182,192,301466,128,0,301547:0:0:0:0:
329,192,301547,128,0,301709:0:0:0:0:
36,192,301547,128,0,301628:0:0:0:0:
256,192,301547,128,0,301587:0:0:0:0:
475,192,301628,128,0,301790:0:0:0:0:
402,192,301628,128,0,301668:0:0:0:0:
109,192,301628,1,0,0:0:0:0:
182,192,301709,128,0,301749:0:0:0:0:
36,192,301709,1,0,0:0:0:0:
256,192,301790,128,0,301952:0:0:0:0:
109,192,301790,128,0,301871:0:0:0:0:
329,192,301790,128,0,301831:0:0:0:0:
475,192,301871,128,0,301912:0:0:0:0:
402,192,301871,128,0,302114:0:0:0:0:
182,192,301871,1,0,0:0:0:0:
36,192,301871,128,0,301952:0:0:0:0:
329,192,301952,128,0,302033:0:0:0:0:
36,192,302033,128,0,302114:0:0:0:0:
256,192,302033,128,0,302114:0:0:0:0:
475,192,302033,1,0,0:0:0:0:
182,192,302114,128,0,302195:0:0:0:0:
36,192,302195,128,0,302358:0:0:0:0:
256,192,302195,128,0,302317:0:0:0:0:
475,192,302195,128,0,302398:0:0:0:0:
329,192,302195,128,0,302276:0:0:0:0:
109,192,302236,128,0,302398:0:0:0:0:
182,192,302276,128,0,302439:0:0:0:0:
402,192,302317,128,0,302439:0:0:0:0:
329,192,302358,128,0,302479:0:0:0:0:
256,192,302398,128,0,302601:0:0:0:0:
36,192,302439,128,0,302763:0:0:0:0:
109,192,302479,128,0,302601:0:0:0:0:
402,192,302520,128,0,302844:0:0:0:0:
475,192,302520,1,0,0:0:0:0:
182,192,302520,128,0,302601:0:0:0:0:
329,192,302601,1,0,0:0:0:0:
182,192,302682,128,0,302763:0:0:0:0:
475,192,302682,128,0,302763:0:0:0:0:
256,192,302722,1,0,0:0:0:0:
329,192,302763,128,0,302844:0:0:0:0:
475,192,302844,128,0,302885:0:0:0:0:
36,192,302844,1,0,0:0:0:0:
109,192,302844,128,0,303087:0:0:0:0:
182,192,302885,1,0,0:0:0:0:
256,192,302925,128,0,303006:0:0:0:0:
402,192,302925,128,0,302966:0:0:0:0:
182,192,303006,128,0,303168:0:0:0:0:
329,192,303006,128,0,303047:0:0:0:0:
475,192,303006,1,0,0:0:0:0:
256,192,303087,128,0,303249:0:0:0:0:
402,192,303087,128,0,303128:0:0:0:0:
475,192,303087,1,0,0:0:0:0:
329,192,303168,128,0,303331:0:0:0:0:
109,192,303168,128,0,303209:0:0:0:0:
36,192,303168,128,0,303412:0:0:0:0:
402,192,303249,128,0,303574:0:0:0:0:
182,192,303249,128,0,303290:0:0:0:0:
475,192,303331,128,0,303493:0:0:0:0:
109,192,303331,1,0,0:0:0:0:
256,192,303331,128,0,303371:0:0:0:0:
329,192,303412,128,0,303655:0:0:0:0:
182,192,303412,128,0,303452:0:0:0:0:
256,192,303493,128,0,303655:0:0:0:0:
109,192,303493,128,0,303574:0:0:0:0:
36,192,303493,128,0,303574:0:0:0:0:
182,192,303574,128,0,303655:0:0:0:0:
475,192,303574,128,0,303736:0:0:0:0:
402,192,303655,128,0,303736:0:0:0:0:
109,192,303655,128,0,303736:0:0:0:0:
36,192,303655,128,0,303736:0:0:0:0:
182,192,303736,128,0,303817:0:0:0:0:
256,192,303736,128,0,303817:0:0:0:0:
329,192,303736,128,0,303898:0:0:0:0:
402,192,303817,128,0,303898:0:0:0:0:
109,192,303817,128,0,303979:0:0:0:0:
475,192,303817,128,0,304060:0:0:0:0:
36,192,303817,128,0,303898:0:0:0:0:
182,192,303898,128,0,303979:0:0:0:0:
256,192,303898,128,0,304101:0:0:0:0:
329,192,303979,128,0,304060:0:0:0:0:
36,192,303979,128,0,304141:0:0:0:0:
402,192,303979,128,0,304182:0:0:0:0:
182,192,304060,128,0,304141:0:0:0:0:
109,192,304060,128,0,304263:0:0:0:0:
329,192,304141,128,0,304304:0:0:0:0:
475,192,304141,128,0,304222:0:0:0:0:
256,192,304182,128,0,304385:0:0:0:0:
36,192,304222,128,0,304405:0:0:0:0:
182,192,304222,128,0,304304:0:0:0:0:
402,192,304263,128,0,304344:0:0:0:0:
475,192,304304,128,0,304385:0:0:0:0:
109,192,304344,128,0,304445:0:0:0:0:
182,192,304385,128,0,304486:0:0:0:0:
329,192,304385,128,0,304526:0:0:0:0:
402,192,304425,128,0,304567:0:0:0:0:
256,192,304466,128,0,304648:0:0:0:0:
475,192,304466,128,0,304648:0:0:0:0:
36,192,304466,128,0,304567:0:0:0:0:
109,192,304506,128,0,304608:0:0:0:0:
182,192,304547,128,0,304749:0:0:0:0:
329,192,304587,128,0,304689:0:0:0:0:
36,192,304628,128,0,304749:0:0:0:0:
402,192,304628,128,0,304790:0:0:0:0:
109,192,304668,128,0,304749:0:0:0:0:
475,192,304709,128,0,304790:0:0:0:0:
256,192,304709,128,0,304830:0:0:0:0:
329,192,304749,1,0,0:0:0:0:
182,192,304790,128,0,304872:0:0:0:0:
109,192,304790,128,0,304954:0:0:0:0:
36,192,304790,128,0,305118:0:0:0:0:
109,192,305447,1,0,0:0:0:0:
256,192,306105,1,0,0:0:0:0:
475,192,306105,128,0,306757:0:0:0:0:
329,192,306757,1,0,0:0:0:0:
475,192,307409,1,0,0:0:0:0:
182,192,307409,128,0,308062:0:0:0:0:
256,192,307898,1,0,0:0:0:0:
182,192,308722,1,0,0:0:0:0:
36,192,310047,128,0,310710:0:0:0:0:
256,192,310710,1,0,0:0:0:0:
109,192,311373,1,0,0:0:0:0:
475,192,311373,128,0,311539:0:0:0:0:
402,192,311539,128,0,311705:0:0:0:0:
475,192,311705,128,0,311872:0:0:0:0:
402,192,311872,128,0,312038:0:0:0:0:
182,192,312038,1,0,0:0:0:0:
36,192,312704,1,0,0:0:0:0:
256,192,312704,128,0,313373:0:0:0:0:
475,192,312704,1,0,0:0:0:0:
36,192,313373,128,0,313457:0:0:0:0:
109,192,313708,128,0,313792:0:0:0:0:
182,192,314043,128,0,314126:0:0:0:0:
256,192,314378,128,0,314461:0:0:0:0:
329,192,314712,128,0,314796:0:0:0:0:
402,192,315047,128,0,315131:0:0:0:0:
182,192,315382,1,0,0:0:0:0:
109,192,315382,1,0,0:0:0:0:
475,192,315382,128,0,316066:0:0:0:0:
36,192,316751,1,0,0:0:0:0:
329,192,316751,128,0,317435:0:0:0:0:
109,192,316751,1,0,0:0:0:0:
109,192,318120,128,0,318804:0:0:0:0:
402,192,318120,1,0,0:0:0:0:
256,192,318462,1,0,0:0:0:0:
329,192,318804,1,0,0:0:0:0:
182,192,319146,1,0,0:0:0:0:
36,192,319489,1,0,0:0:0:0:
475,192,319489,128,0,320173:0:0:0:0:
329,192,319489,128,0,319831:0:0:0:0:
109,192,319831,1,0,0:0:0:0:
182,192,320173,1,0,0:0:0:0:
402,192,320858,128,0,321542:0:0:0:0:
36,192,320858,1,0,0:0:0:0:
182,192,321200,128,0,321542:0:0:0:0:
182,192,322569,128,0,322911:0:0:0:0:
329,192,322911,1,0,0:0:0:0:
475,192,322911,1,0,0:0:0:0:
402,192,322911,1,0,0:0:0:0:
36,192,323596,1,0,0:0:0:0:
256,192,323596,128,0,326334:0:0:0:0:
329,192,324281,128,0,326334:0:0:0:0:
182,192,324623,128,0,326334:0:0:0:0:
402,192,324965,128,0,326334:0:0:0:0:
109,192,325307,128,0,326334:0:0:0:0:
475,192,325650,128,0,326334:0:0:0:0:
36,192,325992,128,0,326334:0:0:0:0:
475,192,326449,1,0,0:0:0:0:
182,192,326449,128,0,329272:0:0:0:0:
329,192,326449,128,0,327507:0:0:0:0:
36,192,326449,128,0,327860:0:0:0:0:
475,192,326978,128,0,330331:0:0:0:0:
109,192,327154,1,0,0:0:0:0:
109,192,327507,128,0,328390:0:0:0:0:
402,192,327860,1,0,0:0:0:0:
256,192,327860,128,0,328919:0:0:0:0:
402,192,328390,128,0,332096:0:0:0:0:
109,192,328919,128,0,334919:0:0:0:0:
329,192,329272,1,0,0:0:0:0:
36,192,329272,128,0,333507:0:0:0:0:
475,192,330684,1,0,0:0:0:0:
256,192,330684,128,0,331743:0:0:0:0:
182,192,331390,1,0,0:0:0:0:
256,192,332096,1,0,0:0:0:0:
182,192,332801,128,0,336860:0:0:0:0:
329,192,332801,1,0,0:0:0:0:
475,192,333507,1,0,0:0:0:0:
329,192,333507,128,0,335449:0:0:0:0:
402,192,334213,128,0,334919:0:0:0:0:
256,192,334919,1,0,0:0:0:0:
36,192,334919,128,0,337743:0:0:0:0:
475,192,334919,128,0,336331:0:0:0:0:
256,192,335449,128,0,336331:0:0:0:0:
329,192,335978,128,0,337743:0:0:0:0:
402,192,336331,128,0,337390:0:0:0:0:
256,192,336860,128,0,342684:0:0:0:0:
182,192,337390,128,0,341625:0:0:0:0:
402,192,337743,1,0,0:0:0:0:
109,192,337743,128,0,341272:0:0:0:0:
475,192,337743,128,0,343213:0:0:0:0:
402,192,339154,128,0,341978:0:0:0:0:
36,192,339154,1,0,0:0:0:0:
329,192,340566,1,0,0:0:0:0:
109,192,341978,1,0,0:0:0:0:
329,192,341978,128,0,344449:0:0:0:0:
36,192,341978,128,0,344801:0:0:0:0:
109,192,342684,128,0,343390:0:0:0:0:
182,192,342684,1,0,0:0:0:0:
475,192,343390,1,0,0:0:0:0:
182,192,343390,128,0,346213:0:0:0:0:
256,192,343390,128,0,343919:0:0:0:0:
475,192,343919,128,0,349743:0:0:0:0:
109,192,344096,1,0,0:0:0:0:
109,192,344449,128,0,345331:0:0:0:0:
402,192,344801,1,0,0:0:0:0:
256,192,344801,128,0,345860:0:0:0:0:
402,192,345331,128,0,349037:0:0:0:0:
109,192,345860,128,0,351860:0:0:0:0:
329,192,346213,1,0,0:0:0:0:
36,192,346213,128,0,350449:0:0:0:0:
329,192,347625,1,0,0:0:0:0:
256,192,347625,128,0,349037:0:0:0:0:
182,192,349037,1,0,0:0:0:0:
182,192,349743,128,0,353801:0:0:0:0:
329,192,349743,1,0,0:0:0:0:
475,192,350449,1,0,0:0:0:0:
329,192,350449,128,0,352390:0:0:0:0:
402,192,351154,128,0,351860:0:0:0:0:
256,192,351860,1,0,0:0:0:0:
36,192,351860,128,0,354684:0:0:0:0:
475,192,351860,128,0,353272:0:0:0:0:
256,192,352390,128,0,353272:0:0:0:0:
329,192,352919,128,0,354684:0:0:0:0:
402,192,353272,128,0,354331:0:0:0:0:
109,192,353272,1,0,0:0:0:0:
256,192,353801,128,0,356096:0:0:0:0:
182,192,354331,128,0,360243:0:0:0:0:
402,192,354684,1,0,0:0:0:0:
109,192,354684,128,0,358743:0:0:0:0:
475,192,354684,128,0,360243:0:0:0:0:
402,192,356096,128,0,360243:0:0:0:0:
329,192,356096,1,0,0:0:0:0:
36,192,356096,128,0,360243:0:0:0:0:
329,192,357507,1,0,0:0:0:0:
329,192,358919,128,0,360243:0:0:0:0:
109,192,358919,128,0,360243:0:0:0:0:
256,192,358919,1,0,0:0:0:0:
36,192,360331,128,0,361213:0:0:0:0:
256,192,360331,128,0,360684:0:0:0:0:
475,192,360331,128,0,360684:0:0:0:0:
402,192,360331,128,0,361037:0:0:0:0:
109,192,360507,128,0,361213:0:0:0:0:
182,192,360684,128,0,360860:0:0:0:0:
256,192,360860,128,0,361037:0:0:0:0:
475,192,360860,128,0,361566:0:0:0:0:
182,192,361037,128,0,361566:0:0:0:0:
256,192,361213,128,0,361919:0:0:0:0:
109,192,361390,128,0,361566:0:0:0:0:
329,192,361390,128,0,361743:0:0:0:0:
402,192,361566,128,0,361743:0:0:0:0:
182,192,361743,128,0,361919:0:0:0:0:
36,192,361743,128,0,362625:0:0:0:0:
475,192,361743,128,0,362801:0:0:0:0:
402,192,361919,128,0,362801:0:0:0:0:
329,192,362096,128,0,362272:0:0:0:0:
256,192,362272,128,0,362449:0:0:0:0:
109,192,362272,128,0,362978:0:0:0:0:
329,192,362449,128,0,363154:0:0:0:0:
256,192,362625,128,0,362978:0:0:0:0:
36,192,362801,128,0,362978:0:0:0:0:
182,192,362801,128,0,363331:0:0:0:0:
402,192,362978,128,0,363154:0:0:0:0:
256,192,363154,128,0,364390:0:0:0:0:
109,192,363154,1,0,0:0:0:0:
36,192,363154,128,0,363860:0:0:0:0:
475,192,363154,128,0,364037:0:0:0:0:
402,192,363331,128,0,364037:0:0:0:0:
329,192,363507,128,0,364390:0:0:0:0:
182,192,363684,128,0,364566:0:0:0:0:
109,192,363860,128,0,364213:0:0:0:0:
36,192,364037,128,0,364213:0:0:0:0:
402,192,364213,128,0,364390:0:0:0:0:
109,192,364390,128,0,365096:0:0:0:0:
256,192,364566,128,0,365801:0:0:0:0:
475,192,364566,128,0,365978:0:0:0:0:
36,192,364566,128,0,365096:0:0:0:0:
182,192,364743,128,0,365449:0:0:0:0:
329,192,364919,128,0,365272:0:0:0:0:
402,192,365096,128,0,365625:0:0:0:0:
109,192,365272,128,0,365449:0:0:0:0:
329,192,365449,128,0,365625:0:0:0:0:
182,192,365625,128,0,365801:0:0:0:0:
402,192,365801,128,0,365978:0:0:0:0:
182,192,365978,128,0,366684:0:0:0:0:
109,192,365978,1,0,0:0:0:0:
329,192,365978,128,0,366331:0:0:0:0:
36,192,365978,128,0,367213:0:0:0:0:
402,192,366154,128,0,367037:0:0:0:0:
475,192,366331,128,0,367213:0:0:0:0:
329,192,366507,128,0,366860:0:0:0:0:
109,192,366684,128,0,367213:0:0:0:0:
182,192,366860,128,0,367213:0:0:0:0:
256,192,367037,128,0,367213:0:0:0:0:
402,192,367213,128,0,367390:0:0:0:0:
182,192,367390,1,0,0:0:0:0:
256,192,367390,128,0,368096:0:0:0:0:
109,192,367390,128,0,368625:0:0:0:0:
475,192,367390,128,0,367743:0:0:0:0:
402,192,367566,128,0,368625:0:0:0:0:
329,192,367743,128,0,368096:0:0:0:0:
475,192,367919,128,0,368449:0:0:0:0:
36,192,368096,128,0,368625:0:0:0:0:
256,192,368272,128,0,368449:0:0:0:0:
182,192,368449,128,0,368625:0:0:0:0:
329,192,368625,128,0,368801:0:0:0:0:
475,192,368801,128,0,369684:0:0:0:0:
256,192,368801,128,0,369154:0:0:0:0:
36,192,368801,128,0,369154:0:0:0:0:
109,192,368801,128,0,369507:0:0:0:0:
402,192,368978,128,0,369684:0:0:0:0:
329,192,369154,128,0,369331:0:0:0:0:
256,192,369331,128,0,369507:0:0:0:0:
36,192,369331,128,0,370037:0:0:0:0:
329,192,369507,128,0,370037:0:0:0:0:
256,192,369684,128,0,370390:0:0:0:0:
402,192,369860,128,0,370037:0:0:0:0:
182,192,369860,128,0,370213:0:0:0:0:
109,192,370037,128,0,370213:0:0:0:0:
329,192,370213,128,0,370390:0:0:0:0:
475,192,370213,128,0,371096:0:0:0:0:
36,192,370213,128,0,371272:0:0:0:0:
109,192,370390,128,0,371272:0:0:0:0:
182,192,370566,128,0,370743:0:0:0:0:
256,192,370743,128,0,370919:0:0:0:0:
402,192,370743,128,0,371449:0:0:0:0:
182,192,370919,128,0,371625:0:0:0:0:
256,192,371096,128,0,371449:0:0:0:0:
475,192,371272,128,0,371449:0:0:0:0:
329,192,371272,128,0,371801:0:0:0:0:
109,192,371449,128,0,371625:0:0:0:0:
256,192,371625,128,0,372860:0:0:0:0:
402,192,371625,1,0,0:0:0:0:
475,192,371625,128,0,372331:0:0:0:0:
36,192,371625,128,0,372507:0:0:0:0:
109,192,371801,128,0,372507:0:0:0:0:
182,192,371978,128,0,372860:0:0:0:0:
329,192,372154,128,0,373037:0:0:0:0:
402,192,372331,128,0,372684:0:0:0:0:
475,192,372507,128,0,372684:0:0:0:0:
109,192,372684,128,0,372860:0:0:0:0:
402,192,372860,128,0,373566:0:0:0:0:
182,192,373037,128,0,373743:0:0:0:0:
36,192,373037,128,0,374449:0:0:0:0:
475,192,373037,128,0,373566:0:0:0:0:
329,192,373213,128,0,373919:0:0:0:0:
256,192,373390,128,0,374272:0:0:0:0:
109,192,373566,128,0,374096:0:0:0:0:
402,192,373743,128,0,373919:0:0:0:0:
182,192,373919,128,0,374449:0:0:0:0:
329,192,374096,128,0,374272:0:0:0:0:
109,192,374272,1,0,0:0:0:0:
402,192,374449,1,0,0:0:0:0:
256,192,374449,128,0,375331:0:0:0:0:
329,192,374449,128,0,374801:0:0:0:0:
475,192,374449,128,0,374978:0:0:0:0:
109,192,374449,128,0,375154:0:0:0:0:
36,192,374625,1,0,0:0:0:0:
402,192,374625,128,0,375507:0:0:0:0:
182,192,374801,1,0,0:0:0:0:
36,192,374801,128,0,375684:0:0:0:0:
329,192,374978,1,0,0:0:0:0:
182,192,374978,128,0,375860:0:0:0:0:
475,192,375154,1,0,0:0:0:0:
329,192,375154,128,0,375684:0:0:0:0:
109,192,375331,1,0,0:0:0:0:
475,192,375331,128,0,375684:0:0:0:0:
256,192,375507,1,0,0:0:0:0:
109,192,375507,128,0,375684:0:0:0:0:
402,192,375684,1,0,0:0:0:0:
256,192,375684,128,0,376037:0:0:0:0:
402,192,375860,128,0,376390:0:0:0:0:
109,192,375860,1,0,0:0:0:0:
36,192,375860,128,0,376390:0:0:0:0:
475,192,375860,128,0,376390:0:0:0:0:
329,192,375860,128,0,376213:0:0:0:0:
182,192,376037,1,0,0:0:0:0:
109,192,376037,128,0,377007:0:0:0:0:
256,192,376213,1,0,0:0:0:0:
182,192,376213,128,0,376831:0:0:0:0:
329,192,376390,1,0,0:0:0:0:
256,192,376390,128,0,376654:0:0:0:0:
36,192,376566,128,0,377184:0:0:0:0:
329,192,376566,128,0,376654:0:0:0:0:
402,192,376566,128,0,376654:0:0:0:0:
475,192,376566,128,0,377184:0:0:0:0:
402,192,376743,128,0,377184:0:0:0:0:
256,192,376743,128,0,376831:0:0:0:0:
329,192,376743,128,0,376831:0:0:0:0:
329,192,376919,128,0,377184:0:0:0:0:
182,192,376919,128,0,377007:0:0:0:0:
256,192,376919,128,0,377007:0:0:0:0:
256,192,377096,128,0,377184:0:0:0:0:
182,192,377096,128,0,377184:0:0:0:0:
109,192,377096,128,0,377184:0:0:0:0:
402,192,377233,128,0,377938:0:0:0:0:
182,192,377233,1,0,0:0:0:0:
109,192,377233,1,0,0:0:0:0:
36,192,377233,1,0,0:0:0:0:
36,192,378997,1,0,0:0:0:0:
109,192,379019,1,0,0:0:0:0:
182,192,379041,1,0,0:0:0:0:
329,192,379063,1,0,0:0:0:0:
402,192,379108,1,0,0:0:0:0:
36,192,379130,1,0,0:0:0:0:
256,192,379174,1,0,0:0:0:0:
475,192,379218,1,0,0:0:0:0:
109,192,379240,1,0,0:0:0:0:
182,192,379306,1,0,0:0:0:0:
329,192,379350,1,0,0:0:0:0:
402,192,379372,1,0,0:0:0:0:
475,192,379394,1,0,0:0:0:0:
256,192,379438,128,0,379505:0:0:0:0:
182,192,379460,128,0,379549:0:0:0:0:
109,192,379483,128,0,379593:0:0:0:0:
36,192,379505,128,0,379637:0:0:0:0:
36,192,380056,128,0,380254:0:0:0:0:
329,192,380056,1,0,0:0:0:0:
402,192,380056,128,0,380100:0:0:0:0:
475,192,380056,128,0,380144:0:0:0:0:
109,192,380144,128,0,380210:0:0:0:0:
182,192,380166,128,0,380497:0:0:0:0:
256,192,380188,128,0,380342:0:0:0:0:
329,192,380210,128,0,380298:0:0:0:0:
402,192,380232,128,0,380453:0:0:0:0:
109,192,380276,128,0,380386:0:0:0:0:
36,192,380320,128,0,380453:0:0:0:0:
329,192,380364,128,0,380585:0:0:0:0:
256,192,380408,128,0,380541:0:0:0:0:
109,192,380453,128,0,380585:0:0:0:0:
475,192,380497,128,0,380673:0:0:0:0:
402,192,380541,128,0,380629:0:0:0:0:
182,192,380585,128,0,380651:0:0:0:0:
256,192,380629,128,0,380695:0:0:0:0:
329,192,380673,128,0,380806:0:0:0:0:
109,192,380717,1,0,0:0:0:0:
36,192,380761,1,0,0:0:0:0:
256,192,380761,128,0,380806:0:0:0:0:
402,192,380761,128,0,380806:0:0:0:0:
475,192,380761,128,0,380806:0:0:0:0:
109,192,380850,1,0,0:0:0:0:
182,192,380894,1,0,0:0:0:0:
329,192,380938,1,0,0:0:0:0:
475,192,380982,1,0,0:0:0:0:
256,192,381004,1,0,0:0:0:0:
36,192,381026,1,0,0:0:0:0:
182,192,381070,1,0,0:0:0:0:
329,192,381136,1,0,0:0:0:0:
256,192,381203,1,0,0:0:0:0:
182,192,381225,1,0,0:0:0:0:
109,192,381269,1,0,0:0:0:0:
402,192,381291,1,0,0:0:0:0:
329,192,381335,1,0,0:0:0:0:
256,192,381357,1,0,0:0:0:0:
475,192,381379,128,0,381467:0:0:0:0:
109,192,381467,1,0,0:0:0:0:
36,192,381467,128,0,381511:0:0:0:0:
402,192,381467,1,0,0:0:0:0:
329,192,381467,128,0,381798:0:0:0:0:
256,192,381556,128,0,381842:0:0:0:0:
182,192,381578,128,0,381710:0:0:0:0:
109,192,381600,128,0,381666:0:0:0:0:
36,192,381622,128,0,381820:0:0:0:0:
402,192,381644,128,0,381908:0:0:0:0:
475,192,381688,128,0,381754:0:0:0:0:
109,192,381732,128,0,381864:0:0:0:0:
182,192,381776,128,0,381997:0:0:0:0:
475,192,381820,128,0,382019:0:0:0:0:
329,192,381864,128,0,381953:0:0:0:0:
256,192,381908,128,0,382041:0:0:0:0:
109,192,381953,128,0,382085:0:0:0:0:
402,192,381997,128,0,382063:0:0:0:0:
329,192,382041,128,0,382107:0:0:0:0:
182,192,382085,128,0,382217:0:0:0:0:
402,192,382129,1,0,0:0:0:0:
256,192,382173,128,0,382217:0:0:0:0:
109,192,382173,128,0,382217:0:0:0:0:
36,192,382173,128,0,382217:0:0:0:0:
475,192,382173,128,0,382438:0:0:0:0:
329,192,382261,1,0,0:0:0:0:
182,192,382306,1,0,0:0:0:0:
256,192,382350,1,0,0:0:0:0:
109,192,382394,1,0,0:0:0:0:
182,192,382438,1,0,0:0:0:0:
36,192,382482,1,0,0:0:0:0:
402,192,382526,128,0,382614:0:0:0:0:
329,192,382548,1,0,0:0:0:0:
256,192,382570,128,0,382703:0:0:0:0:
256,192,382791,128,0,382835:0:0:0:0:
182,192,382879,1,0,0:0:0:0:
402,192,382879,1,0,0:0:0:0:
36,192,382879,128,0,382923:0:0:0:0:
109,192,382879,128,0,383254:0:0:0:0:
475,192,382967,128,0,383166:0:0:0:0:
402,192,382989,128,0,383210:0:0:0:0:
329,192,383011,128,0,383078:0:0:0:0:
256,192,383033,128,0,383122:0:0:0:0:
182,192,383056,128,0,383364:0:0:0:0:
36,192,383100,128,0,383298:0:0:0:0:
329,192,383144,128,0,383408:0:0:0:0:
256,192,383188,128,0,383320:0:0:0:0:
475,192,383232,128,0,383364:0:0:0:0:
402,192,383276,128,0,383497:0:0:0:0:
109,192,383320,128,0,383408:0:0:0:0:
36,192,383364,1,0,0:0:0:0:
256,192,383408,128,0,383475:0:0:0:0:
182,192,383453,128,0,383519:0:0:0:0:
109,192,383497,128,0,383629:0:0:0:0:
329,192,383541,1,0,0:0:0:0:
36,192,383585,128,0,383629:0:0:0:0:
182,192,383585,128,0,383629:0:0:0:0:
256,192,383585,128,0,383629:0:0:0:0:
475,192,383585,1,0,0:0:0:0:
402,192,383644,1,0,0:0:0:0:
329,192,383703,1,0,0:0:0:0:
109,192,383761,1,0,0:0:0:0:
182,192,383761,1,0,0:0:0:0:
329,192,383806,1,0,0:0:0:0:
402,192,383806,1,0,0:0:0:0:
182,192,383850,1,0,0:0:0:0:
256,192,383916,1,0,0:0:0:0:
36,192,383960,1,0,0:0:0:0:
109,192,383960,1,0,0:0:0:0:
329,192,384048,1,0,0:0:0:0:
256,192,384048,1,0,0:0:0:0:
109,192,384158,1,0,0:0:0:0:
402,192,384158,1,0,0:0:0:0:
329,192,384158,128,0,384247:0:0:0:0:
182,192,384269,1,0,0:0:0:0:
475,192,384291,1,0,0:0:0:0:
36,192,384291,128,0,384335:0:0:0:0:
256,192,384291,128,0,384578:0:0:0:0:
109,192,384357,1,0,0:0:0:0:
402,192,384379,128,0,384445:0:0:0:0:
329,192,384401,128,0,384710:0:0:0:0:
182,192,384423,128,0,384533:0:0:0:0:
109,192,384445,128,0,384710:0:0:0:0:
36,192,384467,128,0,384622:0:0:0:0:
402,192,384511,128,0,384666:0:0:0:0:
475,192,384556,128,0,384820:0:0:0:0:
182,192,384600,128,0,384754:0:0:0:0:
256,192,384644,128,0,384820:0:0:0:0:
36,192,384688,1,0,0:0:0:0:
402,192,384732,128,0,384864:0:0:0:0:
329,192,384776,128,0,384931:0:0:0:0:
182,192,384820,128,0,384886:0:0:0:0:
109,192,384864,128,0,384931:0:0:0:0:
36,192,384908,128,0,385041:0:0:0:0:
402,192,384953,1,0,0:0:0:0:
109,192,384997,128,0,385041:0:0:0:0:
256,192,384997,128,0,385041:0:0:0:0:
182,192,384997,128,0,385041:0:0:0:0:
475,192,384997,1,0,0:0:0:0:
329,192,385085,1,0,0:0:0:0:
182,192,385144,1,0,0:0:0:0:
329,192,385203,1,0,0:0:0:0:
256,192,385261,1,0,0:0:0:0:
109,192,385306,1,0,0:0:0:0:
475,192,385350,1,0,0:0:0:0:
402,192,385372,1,0,0:0:0:0:
329,192,385394,1,0,0:0:0:0:
109,192,385460,1,0,0:0:0:0:
182,192,385504,1,0,0:0:0:0:
109,192,385548,1,0,0:0:0:0:
329,192,385570,1,0,0:0:0:0:
475,192,385703,128,0,385901:0:0:0:0:
182,192,385703,1,0,0:0:0:0:
109,192,385703,128,0,385747:0:0:0:0:
36,192,385703,128,0,385791:0:0:0:0:
402,192,385791,128,0,385857:0:0:0:0:
329,192,385813,128,0,386144:0:0:0:0:
256,192,385835,128,0,385989:0:0:0:0:
182,192,385857,128,0,385945:0:0:0:0:
109,192,385879,128,0,386100:0:0:0:0:
402,192,385923,128,0,386033:0:0:0:0:
475,192,385967,128,0,386100:0:0:0:0:
182,192,386011,128,0,386232:0:0:0:0:
256,192,386056,128,0,386188:0:0:0:0:
402,192,386100,128,0,386232:0:0:0:0:
36,192,386144,128,0,386320:0:0:0:0:
109,192,386188,128,0,386276:0:0:0:0:
329,192,386232,128,0,386298:0:0:0:0:
256,192,386276,128,0,386342:0:0:0:0:
182,192,386320,128,0,386453:0:0:0:0:
402,192,386364,1,0,0:0:0:0:
475,192,386408,1,0,0:0:0:0:
256,192,386408,128,0,386453:0:0:0:0:
109,192,386408,128,0,386453:0:0:0:0:
36,192,386408,128,0,386453:0:0:0:0:
402,192,386497,1,0,0:0:0:0:
329,192,386541,1,0,0:0:0:0:
182,192,386585,1,0,0:0:0:0:
36,192,386629,1,0,0:0:0:0:
256,192,386651,1,0,0:0:0:0:
475,192,386673,1,0,0:0:0:0:
329,192,386739,1,0,0:0:0:0:
182,192,386783,1,0,0:0:0:0:
256,192,386850,1,0,0:0:0:0:
402,192,386872,1,0,0:0:0:0:
475,192,386916,1,0,0:0:0:0:
109,192,386938,1,0,0:0:0:0:
182,192,386982,1,0,0:0:0:0:
329,192,387004,1,0,0:0:0:0:
36,192,387026,128,0,387114:0:0:0:0:
402,192,387114,1,0,0:0:0:0:
475,192,387114,128,0,387158:0:0:0:0:
109,192,387114,1,0,0:0:0:0:
182,192,387114,128,0,387445:0:0:0:0:
256,192,387203,128,0,387489:0:0:0:0:
329,192,387225,128,0,387357:0:0:0:0:
402,192,387247,128,0,387313:0:0:0:0:
475,192,387269,128,0,387467:0:0:0:0:
109,192,387291,128,0,387556:0:0:0:0:
36,192,387335,128,0,387401:0:0:0:0:
402,192,387379,128,0,387511:0:0:0:0:
329,192,387423,128,0,387644:0:0:0:0:
36,192,387467,128,0,387666:0:0:0:0:
182,192,387511,128,0,387600:0:0:0:0:
256,192,387556,128,0,387688:0:0:0:0:
402,192,387600,128,0,387732:0:0:0:0:
109,192,387644,128,0,387710:0:0:0:0:
182,192,387688,128,0,387754:0:0:0:0:
329,192,387732,128,0,387864:0:0:0:0:
109,192,387776,1,0,0:0:0:0:
256,192,387820,128,0,387864:0:0:0:0:
402,192,387820,128,0,387864:0:0:0:0:
475,192,387820,128,0,387864:0:0:0:0:
36,192,387820,128,0,388085:0:0:0:0:
182,192,387908,1,0,0:0:0:0:
329,192,387953,1,0,0:0:0:0:
256,192,387997,1,0,0:0:0:0:
402,192,388041,1,0,0:0:0:0:
329,192,388085,1,0,0:0:0:0:
475,192,388129,1,0,0:0:0:0:
109,192,388173,128,0,388261:0:0:0:0:
182,192,388195,1,0,0:0:0:0:
256,192,388217,128,0,388350:0:0:0:0:
256,192,388438,128,0,388482:0:0:0:0:
329,192,388526,1,0,0:0:0:0:
109,192,388526,1,0,0:0:0:0:
475,192,388526,128,0,388570:0:0:0:0:
402,192,388526,128,0,388901:0:0:0:0:
36,192,388614,128,0,388813:0:0:0:0:
109,192,388636,128,0,388857:0:0:0:0:
182,192,388658,128,0,388725:0:0:0:0:
256,192,388681,128,0,388769:0:0:0:0:
329,192,388703,128,0,389011:0:0:0:0:
475,192,388747,128,0,388945:0:0:0:0:
182,192,388791,128,0,389056:0:0:0:0:
256,192,388835,128,0,388967:0:0:0:0:
36,192,388879,128,0,389011:0:0:0:0:
109,192,388923,128,0,389144:0:0:0:0:
402,192,388967,128,0,389056:0:0:0:0:
475,192,389011,1,0,0:0:0:0:
256,192,389056,128,0,389122:0:0:0:0:
329,192,389100,128,0,389166:0:0:0:0:
402,192,389144,128,0,389276:0:0:0:0:
182,192,389188,1,0,0:0:0:0:
475,192,389232,128,0,389276:0:0:0:0:
329,192,389232,128,0,389276:0:0:0:0:
256,192,389232,128,0,389276:0:0:0:0:
36,192,389232,1,0,0:0:0:0:
109,192,389291,1,0,0:0:0:0:
182,192,389350,1,0,0:0:0:0:
402,192,389408,1,0,0:0:0:0:
329,192,389408,1,0,0:0:0:0:
182,192,389453,1,0,0:0:0:0:
109,192,389453,1,0,0:0:0:0:
329,192,389497,1,0,0:0:0:0:
256,192,389563,1,0,0:0:0:0:
402,192,389607,1,0,0:0:0:0:
475,192,389607,1,0,0:0:0:0:
182,192,389695,1,0,0:0:0:0:
256,192,389695,1,0,0:0:0:0:
402,192,389806,1,0,0:0:0:0:
109,192,389806,1,0,0:0:0:0:
182,192,389806,128,0,389894:0:0:0:0:
329,192,389916,1,0,0:0:0:0:
36,192,389938,1,0,0:0:0:0:
256,192,389938,1,0,0:0:0:0:
475,192,389938,128,0,390225:0:0:0:0:
402,192,390026,128,0,390158:0:0:0:0:
329,192,390048,128,0,390114:0:0:0:0:
36,192,390114,1,0,0:0:0:0:
109,192,390158,1,0,0:0:0:0:
182,192,390247,1,0,0:0:0:0:
256,192,390335,1,0,0:0:0:0:
109,192,390423,1,0,0:0:0:0:
256,192,390467,1,0,0:0:0:0:
402,192,390526,1,0,0:0:0:0:
329,192,390585,1,0,0:0:0:0:
475,192,390644,1,0,0:0:0:0:
402,192,390688,1,0,0:0:0:0:
256,192,390754,1,0,0:0:0:0:
109,192,390798,1,0,0:0:0:0:
182,192,390864,1,0,0:0:0:0:
109,192,390931,1,0,0:0:0:0:
475,192,390997,128,0,391261:0:0:0:0:
329,192,391041,1,0,0:0:0:0:
402,192,391063,1,0,0:0:0:0:
182,192,391107,1,0,0:0:0:0:
256,192,391151,1,0,0:0:0:0:
329,192,391173,128,0,391306:0:0:0:0:
109,192,391195,1,0,0:0:0:0:
36,192,391239,1,0,0:0:0:0:
182,192,391261,128,0,391350:0:0:0:0:
109,192,391306,1,0,0:0:0:0:
256,192,391350,128,0,391696:0:0:0:0:
475,192,391350,1,0,0:0:0:0:
402,192,391350,1,0,0:0:0:0:
109,192,391436,128,0,391610:0:0:0:0:
36,192,391480,128,0,391566:0:0:0:0:
475,192,391610,1,0,0:0:0:0:
475,192,391870,1,0,0:0:0:0:
329,192,392043,1,0,0:0:0:0:
329,192,392303,1,0,0:0:0:0:
329,192,392563,1,0,0:0:0:0:
256,192,392672,1,0,0:0:0:0:
182,192,392693,1,0,0:0:0:0:
109,192,392715,1,0,0:0:0:0:
402,192,392737,1,0,0:0:0:0:
475,192,392737,1,0,0:0:0:0:
36,192,392737,128,0,392906:0:0:0:0:
329,192,392737,128,0,392991:0:0:0:0:
109,192,392821,128,0,392934:0:0:0:0:
182,192,392849,128,0,392962:0:0:0:0:
256,192,392878,128,0,393104:0:0:0:0:
402,192,392906,128,0,393019:0:0:0:0:
475,192,392934,128,0,393160:0:0:0:0:
36,192,392962,128,0,393047:0:0:0:0:
109,192,392991,128,0,393075:0:0:0:0:
182,192,393019,128,0,393217:0:0:0:0:
329,192,393047,128,0,393132:0:0:0:0:
402,192,393075,128,0,393273:0:0:0:0:
36,192,393104,128,0,393188:0:0:0:0:
109,192,393132,128,0,393330:0:0:0:0:
256,192,393160,128,0,393245:0:0:0:0:
329,192,393188,128,0,393386:0:0:0:0:
475,192,393217,128,0,393301:0:0:0:0:
36,192,393245,128,0,393499:0:0:0:0:
182,192,393273,128,0,393358:0:0:0:0:
256,192,393301,128,0,393471:0:0:0:0:
402,192,393330,128,0,393414:0:0:0:0:
475,192,393358,128,0,393443:0:0:0:0:
109,192,393386,128,0,393527:0:0:0:0:
182,192,393414,128,0,393556:0:0:0:0:
329,192,393443,128,0,393584:0:0:0:0:
402,192,393471,128,0,393612:0:0:0:0:
475,192,393499,128,0,393697:0:0:0:0:
256,192,393527,128,0,393640:0:0:0:0:
36,192,393556,128,0,393640:0:0:0:0:
109,192,393584,128,0,393669:0:0:0:0:
182,192,393612,128,0,393725:0:0:0:0:
329,192,393640,128,0,393697:0:0:0:0:
402,192,393669,128,0,393810:0:0:0:0:
256,192,393697,128,0,393753:0:0:0:0:
36,192,393725,1,0,0:0:0:0:
475,192,393753,128,0,394008:0:0:0:0:
109,192,393753,1,0,0:0:0:0:
329,192,393753,128,0,393881:0:0:0:0:
182,192,393796,1,0,0:0:0:0:
256,192,393838,128,0,393965:0:0:0:0:
109,192,393881,1,0,0:0:0:0:
402,192,393923,128,0,394008:0:0:0:0:
182,192,393923,128,0,394092:0:0:0:0:
36,192,393965,1,0,0:0:0:0:
329,192,394008,1,0,0:0:0:0:
109,192,394008,1,0,0:0:0:0:
475,192,394092,1,0,0:0:0:0:
36,192,394092,1,0,0:0:0:0:
402,192,394092,1,0,0:0:0:0:
256,192,394092,1,0,0:0:0:0:
36,192,394340,1,0,0:0:0:0:
36,192,394589,1,0,0:0:0:0:
182,192,394754,1,0,0:0:0:0:
182,192,395003,1,0,0:0:0:0:
182,192,395252,1,0,0:0:0:0:
256,192,395355,1,0,0:0:0:0:
329,192,395376,1,0,0:0:0:0:
402,192,395397,1,0,0:0:0:0:
182,192,395417,1,0,0:0:0:0:
36,192,395417,1,0,0:0:0:0:
475,192,395417,128,0,395609:0:0:0:0:
109,192,395417,128,0,395737:0:0:0:0:
402,192,395513,128,0,395641:0:0:0:0:
329,192,395545,128,0,395673:0:0:0:0:
256,192,395577,128,0,395705:0:0:0:0:
182,192,395609,128,0,395802:0:0:0:0:
36,192,395641,128,0,395930:0:0:0:0:
475,192,395673,128,0,395769:0:0:0:0:
402,192,395705,128,0,395834:0:0:0:0:
329,192,395737,128,0,395898:0:0:0:0:
256,192,395769,128,0,395994:0:0:0:0:
109,192,395802,128,0,395866:0:0:0:0:
475,192,395834,128,0,396154:0:0:0:0:
182,192,395866,128,0,396026:0:0:0:0:
402,192,395898,128,0,395962:0:0:0:0:
109,192,395930,128,0,396058:0:0:0:0:
329,192,395962,128,0,396154:0:0:0:0:
36,192,395994,128,0,396090:0:0:0:0:
402,192,396026,128,0,396154:0:0:0:0:
256,192,396058,128,0,396245:0:0:0:0:
182,192,396090,128,0,396187:0:0:0:0:
109,192,396122,128,0,396219:0:0:0:0:
36,192,396154,128,0,396315:0:0:0:0:
329,192,396219,1,0,0:0:0:0:
475,192,396219,1,0,0:0:0:0:
402,192,396219,128,0,396433:0:0:0:0:
182,192,396299,128,0,396433:0:0:0:0:
256,192,396326,128,0,396379:0:0:0:0:
329,192,396352,1,0,0:0:0:0:
475,192,396379,128,0,396459:0:0:0:0:
36,192,396379,1,0,0:0:0:0:
109,192,396379,128,0,396593:0:0:0:0:
329,192,396459,128,0,396593:0:0:0:0:
256,192,396486,128,0,396539:0:0:0:0:
182,192,396513,1,0,0:0:0:0:
475,192,396539,1,0,0:0:0:0:
36,192,396539,128,0,396620:0:0:0:0:
402,192,396539,128,0,396752:0:0:0:0:
182,192,396620,1,0,0:0:0:0:
256,192,396646,1,0,0:0:0:0:
329,192,396673,1,0,0:0:0:0:
475,192,396700,128,0,396778:0:0:0:0:
36,192,396700,128,0,397015:0:0:0:0:
109,192,396700,1,0,0:0:0:0:
182,192,396778,128,0,396936:0:0:0:0:
256,192,396818,128,0,396897:0:0:0:0:
402,192,396857,1,0,0:0:0:0:
329,192,396936,1,0,0:0:0:0:
256,192,397015,1,0,0:0:0:0:
109,192,397094,1,0,0:0:0:0:
256,192,397173,1,0,0:0:0:0:
475,192,397173,1,0,0:0:0:0:
109,192,397252,1,0,0:0:0:0:
329,192,397331,1,0,0:0:0:0:
36,192,397331,1,0,0:0:0:0:
182,192,397410,1,0,0:0:0:0:
329,192,397489,1,0,0:0:0:0:
182,192,397568,1,0,0:0:0:0:
109,192,397568,1,0,0:0:0:0:
402,192,397647,1,0,0:0:0:0:
256,192,397726,1,0,0:0:0:0:
402,192,397805,1,0,0:0:0:0:
182,192,397805,1,0,0:0:0:0:
256,192,397884,1,0,0:0:0:0:
329,192,397963,1,0,0:0:0:0:
36,192,397963,1,0,0:0:0:0:
475,192,398042,1,0,0:0:0:0:
329,192,398121,1,0,0:0:0:0:
475,192,398200,1,0,0:0:0:0:
109,192,398200,1,0,0:0:0:0:
256,192,398278,1,0,0:0:0:0:
402,192,398357,1,0,0:0:0:0:
256,192,398436,1,0,0:0:0:0:
36,192,398436,1,0,0:0:0:0:
402,192,398515,1,0,0:0:0:0:
182,192,398594,1,0,0:0:0:0:
475,192,398594,1,0,0:0:0:0:
329,192,398673,1,0,0:0:0:0:
182,192,398752,1,0,0:0:0:0:
329,192,398831,1,0,0:0:0:0:
402,192,398831,1,0,0:0:0:0:
109,192,398910,1,0,0:0:0:0:
256,192,398989,1,0,0:0:0:0:
109,192,399068,1,0,0:0:0:0:
329,192,399068,1,0,0:0:0:0:
256,192,399147,1,0,0:0:0:0:
36,192,399226,1,0,0:0:0:0:
402,192,399226,1,0,0:0:0:0:
182,192,399305,1,0,0:0:0:0:
36,192,399384,1,0,0:0:0:0:
109,192,399463,1,0,0:0:0:0:
329,192,399463,1,0,0:0:0:0:
182,192,399542,1,0,0:0:0:0:
109,192,399621,1,0,0:0:0:0:
182,192,399700,1,0,0:0:0:0:
402,192,399700,1,0,0:0:0:0:
256,192,399778,1,0,0:0:0:0:
109,192,399857,1,0,0:0:0:0:
475,192,399857,1,0,0:0:0:0:
36,192,399857,1,0,0:0:0:0:
329,192,399936,1,0,0:0:0:0:
475,192,400015,1,0,0:0:0:0:
182,192,400094,1,0,0:0:0:0:
402,192,400094,1,0,0:0:0:0:
329,192,400173,1,0,0:0:0:0:
36,192,400173,1,0,0:0:0:0:
402,192,400252,1,0,0:0:0:0:
109,192,400331,1,0,0:0:0:0:
329,192,400331,1,0,0:0:0:0:
256,192,400410,1,0,0:0:0:0:
182,192,400489,1,0,0:0:0:0:
36,192,400489,1,0,0:0:0:0:
475,192,400489,1,0,0:0:0:0:
402,192,400528,1,0,0:0:0:0:
329,192,400568,1,0,0:0:0:0:
256,192,400607,1,0,0:0:0:0:
109,192,400647,1,0,0:0:0:0:
182,192,400686,1,0,0:0:0:0:
329,192,400726,1,0,0:0:0:0:
402,192,400765,1,0,0:0:0:0:
256,192,400805,1,0,0:0:0:0:
36,192,400805,1,0,0:0:0:0:
475,192,400805,1,0,0:0:0:0:
109,192,400844,1,0,0:0:0:0:
182,192,400884,1,0,0:0:0:0:
256,192,400923,1,0,0:0:0:0:
402,192,400963,1,0,0:0:0:0:
329,192,401002,1,0,0:0:0:0:
182,192,401042,1,0,0:0:0:0:
109,192,401081,1,0,0:0:0:0:
36,192,401121,1,0,0:0:0:0:
475,192,401121,1,0,0:0:0:0:
256,192,401121,1,0,0:0:0:0:
402,192,401160,1,0,0:0:0:0:
329,192,401200,1,0,0:0:0:0:
109,192,401200,1,0,0:0:0:0:
256,192,401239,1,0,0:0:0:0:
182,192,401278,1,0,0:0:0:0:
475,192,401278,1,0,0:0:0:0:
402,192,401318,1,0,0:0:0:0:
109,192,401357,1,0,0:0:0:0:
329,192,401397,1,0,0:0:0:0:
36,192,401436,1,0,0:0:0:0:
256,192,401436,1,0,0:0:0:0:
475,192,401436,1,0,0:0:0:0:
109,192,401476,1,0,0:0:0:0:
182,192,401515,1,0,0:0:0:0:
402,192,401515,1,0,0:0:0:0:
256,192,401555,1,0,0:0:0:0:
36,192,401594,1,0,0:0:0:0:
329,192,401594,1,0,0:0:0:0:
109,192,401634,1,0,0:0:0:0:
402,192,401673,1,0,0:0:0:0:
182,192,401713,1,0,0:0:0:0:
36,192,401752,1,0,0:0:0:0:
475,192,401752,1,0,0:0:0:0:
256,192,401752,1,0,0:0:0:0:
256,192,401910,1,0,0:0:0:0:
402,192,401910,1,0,0:0:0:0:
475,192,401910,1,0,0:0:0:0:
256,192,401989,1,0,0:0:0:0:
109,192,401989,1,0,0:0:0:0:
36,192,401989,1,0,0:0:0:0:
182,192,402068,128,0,402146:0:0:0:0:
109,192,402068,128,0,402186:0:0:0:0:
36,192,402068,128,0,402225:0:0:0:0:
475,192,402068,128,0,402304:0:0:0:0:
402,192,402107,128,0,402304:0:0:0:0:
329,192,402146,128,0,402462:0:0:0:0:
256,192,402186,128,0,402304:0:0:0:0:
182,192,402225,128,0,402304:0:0:0:0:
109,192,402265,128,0,402304:0:0:0:0:
36,192,402304,1,0,0:0:0:0:
256,192,402383,1,0,0:0:0:0:
182,192,402383,1,0,0:0:0:0:
402,192,402383,128,0,402462:0:0:0:0:
475,192,402383,128,0,402778:0:0:0:0:
182,192,402462,128,0,402502:0:0:0:0:
109,192,402541,128,0,402581:0:0:0:0:
36,192,402541,128,0,402581:0:0:0:0:
182,192,402620,128,0,402660:0:0:0:0:
256,192,402620,128,0,402660:0:0:0:0:
36,192,402699,128,0,403094:0:0:0:0:
329,192,402699,1,0,0:0:0:0:
109,192,402699,1,0,0:0:0:0:
402,192,402699,128,0,402778:0:0:0:0:
256,192,402778,128,0,402857:0:0:0:0:
329,192,402778,128,0,402857:0:0:0:0:
182,192,402857,128,0,402936:0:0:0:0:
109,192,402857,128,0,402936:0:0:0:0:
402,192,402936,128,0,403015:0:0:0:0:
329,192,402936,128,0,403015:0:0:0:0:
475,192,403015,128,0,403410:0:0:0:0:
182,192,403015,1,0,0:0:0:0:
256,192,403015,1,0,0:0:0:0:
109,192,403015,128,0,403094:0:0:0:0:
182,192,403094,128,0,403173:0:0:0:0:
329,192,403094,128,0,403173:0:0:0:0:
109,192,403173,128,0,403252:0:0:0:0:
402,192,403173,128,0,403252:0:0:0:0:
329,192,403252,128,0,403331:0:0:0:0:
182,192,403252,128,0,403331:0:0:0:0:
36,192,403331,128,0,403725:0:0:0:0:
256,192,403331,1,0,0:0:0:0:
109,192,403331,1,0,0:0:0:0:
402,192,403331,128,0,403410:0:0:0:0:
256,192,403410,128,0,403489:0:0:0:0:
182,192,403410,128,0,403489:0:0:0:0:
402,192,403489,128,0,403568:0:0:0:0:
329,192,403489,128,0,403568:0:0:0:0:
182,192,403568,128,0,403646:0:0:0:0:
109,192,403568,128,0,403646:0:0:0:0:
475,192,403646,128,0,404041:0:0:0:0:
256,192,403646,1,0,0:0:0:0:
329,192,403646,1,0,0:0:0:0:
402,192,403646,128,0,403725:0:0:0:0:
329,192,403725,128,0,403804:0:0:0:0:
182,192,403725,128,0,403804:0:0:0:0:
109,192,403804,128,0,403883:0:0:0:0:
402,192,403804,128,0,403883:0:0:0:0:
182,192,403883,128,0,403962:0:0:0:0:
329,192,403883,128,0,403962:0:0:0:0:
256,192,403962,1,0,0:0:0:0:
402,192,403962,1,0,0:0:0:0:
36,192,403962,128,0,404120:0:0:0:0:
109,192,403962,128,0,404357:0:0:0:0:
256,192,404041,128,0,404120:0:0:0:0:
402,192,404041,128,0,404120:0:0:0:0:
182,192,404120,128,0,404199:0:0:0:0:
329,192,404120,128,0,404199:0:0:0:0:
475,192,404199,128,0,404278:0:0:0:0:
256,192,404199,128,0,404357:0:0:0:0:
402,192,404278,128,0,404515:0:0:0:0:
36,192,404278,128,0,404357:0:0:0:0:
182,192,404278,1,0,0:0:0:0:
329,192,404278,128,0,404357:0:0:0:0:
475,192,404357,128,0,404436:0:0:0:0:
329,192,404436,128,0,404515:0:0:0:0:
109,192,404436,128,0,404515:0:0:0:0:
182,192,404436,128,0,404515:0:0:0:0:
36,192,404436,1,0,0:0:0:0:
256,192,404515,1,0,0:0:0:0:
329,192,404594,128,0,404673:0:0:0:0:
402,192,404594,128,0,404712:0:0:0:0:
475,192,404594,128,0,404752:0:0:0:0:
36,192,404594,128,0,404831:0:0:0:0:
109,192,404633,128,0,404831:0:0:0:0:
182,192,404673,128,0,404989:0:0:0:0:
256,192,404712,128,0,404831:0:0:0:0:
329,192,404752,128,0,404831:0:0:0:0:
402,192,404791,128,0,404831:0:0:0:0:
475,192,404831,1,0,0:0:0:0:
256,192,404910,1,0,0:0:0:0:
329,192,404910,1,0,0:0:0:0:
109,192,404910,128,0,404989:0:0:0:0:
36,192,404910,128,0,405304:0:0:0:0:
329,192,404989,128,0,405028:0:0:0:0:
402,192,405068,128,0,405107:0:0:0:0:
475,192,405068,128,0,405107:0:0:0:0:
329,192,405146,128,0,405186:0:0:0:0:
256,192,405146,128,0,405186:0:0:0:0:
475,192,405225,128,0,405620:0:0:0:0:
182,192,405225,1,0,0:0:0:0:
402,192,405225,1,0,0:0:0:0:
109,192,405225,128,0,405304:0:0:0:0:
256,192,405304,128,0,405383:0:0:0:0:
182,192,405304,128,0,405383:0:0:0:0:
329,192,405383,128,0,405462:0:0:0:0:
402,192,405383,128,0,405462:0:0:0:0:
109,192,405462,128,0,405541:0:0:0:0:
182,192,405462,128,0,405541:0:0:0:0:
36,192,405541,128,0,405936:0:0:0:0:
329,192,405541,1,0,0:0:0:0:
256,192,405541,1,0,0:0:0:0:
402,192,405541,128,0,405620:0:0:0:0:
329,192,405620,128,0,405699:0:0:0:0:
182,192,405620,128,0,405699:0:0:0:0:
402,192,405699,128,0,405778:0:0:0:0:
109,192,405699,128,0,405778:0:0:0:0:
182,192,405778,128,0,405857:0:0:0:0:
329,192,405778,128,0,405857:0:0:0:0:
475,192,405857,128,0,406252:0:0:0:0:
256,192,405857,1,0,0:0:0:0:
402,192,405857,1,0,0:0:0:0:
109,192,405857,128,0,405936:0:0:0:0:
256,192,405936,128,0,406015:0:0:0:0:
329,192,405936,128,0,406015:0:0:0:0:
109,192,406015,128,0,406094:0:0:0:0:
182,192,406015,128,0,406094:0:0:0:0:
329,192,406094,128,0,406173:0:0:0:0:
402,192,406094,128,0,406173:0:0:0:0:
36,192,406173,128,0,406568:0:0:0:0:
256,192,406173,1,0,0:0:0:0:
182,192,406173,1,0,0:0:0:0:
109,192,406173,128,0,406252:0:0:0:0:
182,192,406252,128,0,406331:0:0:0:0:
329,192,406252,128,0,406331:0:0:0:0:
402,192,406331,128,0,406410:0:0:0:0:
109,192,406331,128,0,406410:0:0:0:0:
329,192,406410,128,0,406489:0:0:0:0:
182,192,406410,128,0,406489:0:0:0:0:
402,192,406489,128,0,406725:0:0:0:0:
109,192,406489,1,0,0:0:0:0:
475,192,406489,128,0,406646:0:0:0:0:
256,192,406489,128,0,406568:0:0:0:0:
329,192,406646,1,0,0:0:0:0:
256,192,406646,1,0,0:0:0:0:
36,192,406646,1,0,0:0:0:0:
182,192,406646,1,0,0:0:0:0:
182,192,406725,1,0,0:0:0:0:
36,192,406725,1,0,0:0:0:0:
256,192,406725,1,0,0:0:0:0:
329,192,406725,1,0,0:0:0:0:
402,192,406804,128,0,406844:0:0:0:0:
475,192,406804,128,0,406844:0:0:0:0:
109,192,406804,128,0,407061:0:0:0:0:
329,192,406804,128,0,406844:0:0:0:0:
256,192,406883,1,0,0:0:0:0:
36,192,406962,128,0,407041:0:0:0:0:
182,192,406962,128,0,407081:0:0:0:0:
402,192,406962,128,0,407041:0:0:0:0:
329,192,406962,128,0,407041:0:0:0:0:
475,192,407120,1,0,0:0:0:0:
36,192,407120,128,0,407357:0:0:0:0:
402,192,407120,128,0,407278:0:0:0:0:
256,192,407120,128,0,407239:0:0:0:0:
182,192,407160,128,0,407357:0:0:0:0:
329,192,407199,128,0,407515:0:0:0:0:
475,192,407239,128,0,407357:0:0:0:0:
109,192,407278,128,0,407357:0:0:0:0:
256,192,407318,128,0,407357:0:0:0:0:
402,192,407357,1,0,0:0:0:0:
109,192,407436,128,0,407515:0:0:0:0:
182,192,407436,128,0,407831:0:0:0:0:
36,192,407436,128,0,407515:0:0:0:0:
475,192,407436,1,0,0:0:0:0:
475,192,407515,128,0,407554:0:0:0:0:
109,192,407594,128,0,407633:0:0:0:0:
256,192,407594,128,0,407633:0:0:0:0:
402,192,407673,128,0,407712:0:0:0:0:
475,192,407673,128,0,407712:0:0:0:0:
329,192,407752,128,0,408146:0:0:0:0:
109,192,407752,1,0,0:0:0:0:
36,192,407752,1,0,0:0:0:0:
256,192,407752,128,0,407831:0:0:0:0:
36,192,407831,128,0,407910:0:0:0:0:
402,192,407831,128,0,407910:0:0:0:0:
182,192,407910,128,0,407989:0:0:0:0:
475,192,407910,128,0,407989:0:0:0:0:
109,192,407989,128,0,408068:0:0:0:0:
36,192,407989,128,0,408068:0:0:0:0:
402,192,408068,1,0,0:0:0:0:
475,192,408068,1,0,0:0:0:0:
256,192,408068,128,0,408146:0:0:0:0:
182,192,408068,128,0,408304:0:0:0:0:
475,192,408146,128,0,408225:0:0:0:0:
109,192,408146,128,0,408225:0:0:0:0:
36,192,408225,128,0,408304:0:0:0:0:
329,192,408225,1,0,0:0:0:0:
256,192,408225,128,0,408462:0:0:0:0:
402,192,408304,128,0,408383:0:0:0:0:
475,192,408304,128,0,408383:0:0:0:0:
329,192,408383,128,0,408778:0:0:0:0:
109,192,408383,1,0,0:0:0:0:
36,192,408383,1,0,0:0:0:0:
182,192,408383,128,0,408462:0:0:0:0:
36,192,408462,128,0,408541:0:0:0:0:
402,192,408462,128,0,408541:0:0:0:0:
475,192,408541,128,0,408620:0:0:0:0:
182,192,408541,128,0,408620:0:0:0:0:
109,192,408620,128,0,408699:0:0:0:0:
36,192,408620,128,0,408699:0:0:0:0:
182,192,408699,128,0,409094:0:0:0:0:
256,192,408699,128,0,408778:0:0:0:0:
402,192,408699,1,0,0:0:0:0:
475,192,408699,1,0,0:0:0:0:
475,192,408778,128,0,408857:0:0:0:0:
109,192,408778,128,0,408857:0:0:0:0:
256,192,408857,128,0,408936:0:0:0:0:
36,192,408857,128,0,408936:0:0:0:0:
329,192,408936,128,0,409015:0:0:0:0:
475,192,408936,128,0,409015:0:0:0:0:
402,192,409015,128,0,409410:0:0:0:0:
109,192,409015,1,0,0:0:0:0:
36,192,409015,1,0,0:0:0:0:
256,192,409015,128,0,409173:0:0:0:0:
329,192,409094,128,0,409252:0:0:0:0:
36,192,409094,128,0,409173:0:0:0:0:
109,192,409173,128,0,409252:0:0:0:0:
475,192,409173,128,0,409252:0:0:0:0:
256,192,409252,128,0,409331:0:0:0:0:
182,192,409252,128,0,409489:0:0:0:0:
329,192,409331,128,0,409410:0:0:0:0:
475,192,409331,128,0,409410:0:0:0:0:
36,192,409331,128,0,409568:0:0:0:0:
109,192,409331,1,0,0:0:0:0:
256,192,409410,1,0,0:0:0:0:
109,192,409489,128,0,409568:0:0:0:0:
329,192,409489,128,0,409528:0:0:0:0:
402,192,409489,128,0,409528:0:0:0:0:
475,192,409489,128,0,409528:0:0:0:0:
182,192,409568,1,0,0:0:0:0:
36,192,409646,1,0,0:0:0:0:
475,192,409646,128,0,409883:0:0:0:0:
109,192,409646,128,0,409804:0:0:0:0:
256,192,409646,128,0,409765:0:0:0:0:
329,192,409686,128,0,409883:0:0:0:0:
182,192,409725,128,0,410041:0:0:0:0:
36,192,409765,128,0,409883:0:0:0:0:
402,192,409804,128,0,409883:0:0:0:0:
256,192,409844,128,0,409883:0:0:0:0:
109,192,409883,1,0,0:0:0:0:
402,192,409962,128,0,410041:0:0:0:0:
329,192,409962,128,0,410357:0:0:0:0:
475,192,409962,128,0,410041:0:0:0:0:
36,192,409962,1,0,0:0:0:0:
36,192,410041,128,0,410081:0:0:0:0:
402,192,410120,128,0,410160:0:0:0:0:
256,192,410120,128,0,410160:0:0:0:0:
109,192,410199,128,0,410239:0:0:0:0:
36,192,410199,128,0,410239:0:0:0:0:
402,192,410278,1,0,0:0:0:0:
475,192,410278,1,0,0:0:0:0:
256,192,410278,128,0,410357:0:0:0:0:
182,192,410278,128,0,410515:0:0:0:0:
402,192,410357,128,0,410436:0:0:0:0:
36,192,410357,128,0,410436:0:0:0:0:
329,192,410436,1,0,0:0:0:0:
109,192,410436,128,0,410515:0:0:0:0:
256,192,410436,128,0,410673:0:0:0:0:
402,192,410515,128,0,410594:0:0:0:0:
475,192,410515,128,0,410594:0:0:0:0:
329,192,410594,128,0,410831:0:0:0:0:
182,192,410594,128,0,410673:0:0:0:0:
36,192,410594,1,0,0:0:0:0:
109,192,410594,1,0,0:0:0:0:
109,192,410673,128,0,410752:0:0:0:0:
475,192,410673,128,0,410752:0:0:0:0:
182,192,410752,1,0,0:0:0:0:
402,192,410752,128,0,410831:0:0:0:0:
256,192,410752,128,0,410910:0:0:0:0:
109,192,410831,128,0,410910:0:0:0:0:
36,192,410831,128,0,410910:0:0:0:0:
475,192,410910,1,0,0:0:0:0:
402,192,410910,1,0,0:0:0:0:
329,192,410910,1,0,0:0:0:0:
182,192,410910,1,0,0:0:0:0:
329,192,410989,1,0,0:0:0:0:
402,192,410989,1,0,0:0:0:0:
475,192,410989,1,0,0:0:0:0:
182,192,411068,1,0,0:0:0:0:
109,192,411068,1,0,0:0:0:0:
36,192,411068,1,0,0:0:0:0:
182,192,411146,1,0,0:0:0:0:
109,192,411146,1,0,0:0:0:0:
36,192,411146,1,0,0:0:0:0:
36,192,411225,128,0,411265:0:0:0:0:
329,192,411225,128,0,411620:0:0:0:0:
256,192,411225,128,0,411265:0:0:0:0:
475,192,411225,128,0,411265:0:0:0:0:
182,192,411225,128,0,411265:0:0:0:0:
402,192,411304,1,0,0:0:0:0:
256,192,411383,128,0,411581:0:0:0:0:
182,192,411383,128,0,411541:0:0:0:0:
475,192,411383,128,0,411462:0:0:0:0:
109,192,411462,1,0,0:0:0:0:
36,192,411541,1,0,0:0:0:0:
402,192,411541,1,0,0:0:0:0:
475,192,411541,128,0,411778:0:0:0:0:
109,192,411581,1,0,0:0:0:0:
182,192,411620,1,0,0:0:0:0:
109,192,411660,1,0,0:0:0:0:
36,192,411699,1,0,0:0:0:0:
329,192,411699,128,0,411778:0:0:0:0:
256,192,411857,1,0,0:0:0:0:
182,192,411857,1,0,0:0:0:0:
329,192,411857,1,0,0:0:0:0:
329,192,412015,1,0,0:0:0:0:
256,192,412015,1,0,0:0:0:0:
182,192,412015,1,0,0:0:0:0:
182,192,412094,1,0,0:0:0:0:
256,192,412094,1,0,0:0:0:0:
329,192,412094,1,0,0:0:0:0:
36,192,412173,1,0,0:0:0:0:
402,192,412173,1,0,0:0:0:0:
475,192,412173,1,0,0:0:0:0:
109,192,412193,1,0,0:0:0:0:
182,192,412212,1,0,0:0:0:0:
256,192,412232,1,0,0:0:0:0:
329,192,412252,1,0,0:0:0:0:
402,192,412331,1,0,0:0:0:0:
109,192,412331,1,0,0:0:0:0:
109,192,412410,1,0,0:0:0:0:
329,192,412410,1,0,0:0:0:0:
182,192,412489,1,0,0:0:0:0:
475,192,412489,1,0,0:0:0:0:
36,192,412489,1,0,0:0:0:0:
402,192,412508,1,0,0:0:0:0:
329,192,412528,1,0,0:0:0:0:
256,192,412548,1,0,0:0:0:0:
182,192,412568,1,0,0:0:0:0:
402,192,412646,1,0,0:0:0:0:
109,192,412646,1,0,0:0:0:0:
402,192,412725,1,0,0:0:0:0:
182,192,412725,1,0,0:0:0:0:
109,192,412804,1,0,0:0:0:0:
36,192,412804,1,0,0:0:0:0:
475,192,412804,1,0,0:0:0:0:
256,192,412824,1,0,0:0:0:0:
329,192,412844,1,0,0:0:0:0:
402,192,412864,1,0,0:0:0:0:
475,192,412883,1,0,0:0:0:0:
182,192,412962,1,0,0:0:0:0:
109,192,412962,1,0,0:0:0:0:
329,192,413002,1,0,0:0:0:0:
36,192,413120,1,0,0:0:0:0:
475,192,413120,1,0,0:0:0:0:
402,192,413120,1,0,0:0:0:0:
256,192,413140,1,0,0:0:0:0:
182,192,413160,1,0,0:0:0:0:
109,192,413179,1,0,0:0:0:0:
36,192,413199,1,0,0:0:0:0:
329,192,413278,1,0,0:0:0:0:
402,192,413278,1,0,0:0:0:0:
182,192,413318,1,0,0:0:0:0:
329,192,413436,1,0,0:0:0:0:
475,192,413436,1,0,0:0:0:0:
36,192,413436,1,0,0:0:0:0:
109,192,413456,1,0,0:0:0:0:
182,192,413475,1,0,0:0:0:0:
256,192,413495,1,0,0:0:0:0:
329,192,413515,1,0,0:0:0:0:
109,192,413594,1,0,0:0:0:0:
402,192,413594,1,0,0:0:0:0:
329,192,413673,1,0,0:0:0:0:
109,192,413673,1,0,0:0:0:0:
36,192,413752,1,0,0:0:0:0:
182,192,413752,1,0,0:0:0:0:
475,192,413752,1,0,0:0:0:0:
402,192,413771,1,0,0:0:0:0:
329,192,413791,1,0,0:0:0:0:
256,192,413811,1,0,0:0:0:0:
182,192,413831,1,0,0:0:0:0:
109,192,413910,1,0,0:0:0:0:
402,192,413910,1,0,0:0:0:0:
402,192,413989,1,0,0:0:0:0:
182,192,413989,1,0,0:0:0:0:
36,192,414068,1,0,0:0:0:0:
475,192,414068,1,0,0:0:0:0:
329,192,414068,1,0,0:0:0:0:
256,192,414087,1,0,0:0:0:0:
182,192,414107,1,0,0:0:0:0:
109,192,414127,1,0,0:0:0:0:
36,192,414146,1,0,0:0:0:0:
256,192,414225,1,0,0:0:0:0:
329,192,414265,1,0,0:0:0:0:
402,192,414304,1,0,0:0:0:0:
36,192,414383,1,0,0:0:0:0:
182,192,414383,1,0,0:0:0:0:
109,192,414383,1,0,0:0:0:0:
256,192,414403,1,0,0:0:0:0:
329,192,414423,1,0,0:0:0:0:
402,192,414443,1,0,0:0:0:0:
475,192,414462,1,0,0:0:0:0:
109,192,414489,1,0,0:0:0:0:
36,192,414524,1,0,0:0:0:0:
329,192,414559,1,0,0:0:0:0:
256,192,414594,1,0,0:0:0:0:
182,192,414629,1,0,0:0:0:0:
109,192,414664,1,0,0:0:0:0:
256,192,414699,1,0,0:0:0:0:
36,192,414699,1,0,0:0:0:0:
475,192,414699,1,0,0:0:0:0:
329,192,414719,1,0,0:0:0:0:
402,192,414739,1,0,0:0:0:0:
182,192,414758,1,0,0:0:0:0:
475,192,414778,1,0,0:0:0:0:
329,192,414857,1,0,0:0:0:0:
109,192,414857,1,0,0:0:0:0:
182,192,414936,1,0,0:0:0:0:
329,192,414936,1,0,0:0:0:0:
36,192,415015,1,0,0:0:0:0:
256,192,415015,1,0,0:0:0:0:
475,192,415015,1,0,0:0:0:0:
182,192,415035,1,0,0:0:0:0:
109,192,415054,1,0,0:0:0:0:
329,192,415074,1,0,0:0:0:0:
36,192,415094,1,0,0:0:0:0:
182,192,415173,1,0,0:0:0:0:
402,192,415173,1,0,0:0:0:0:
182,192,415252,1,0,0:0:0:0:
329,192,415252,1,0,0:0:0:0:
109,192,415331,1,0,0:0:0:0:
36,192,415331,1,0,0:0:0:0:
256,192,415331,1,0,0:0:0:0:
329,192,415350,1,0,0:0:0:0:
402,192,415370,1,0,0:0:0:0:
475,192,415390,1,0,0:0:0:0:
36,192,415410,1,0,0:0:0:0:
256,192,415489,1,0,0:0:0:0:
329,192,415489,1,0,0:0:0:0:
109,192,415528,1,0,0:0:0:0:
256,192,415646,1,0,0:0:0:0:
402,192,415646,1,0,0:0:0:0:
475,192,415646,1,0,0:0:0:0:
182,192,415666,1,0,0:0:0:0:
109,192,415686,1,0,0:0:0:0:
36,192,415706,1,0,0:0:0:0:
475,192,415725,1,0,0:0:0:0:
256,192,415804,1,0,0:0:0:0:
182,192,415804,1,0,0:0:0:0:
402,192,415844,1,0,0:0:0:0:
36,192,415962,1,0,0:0:0:0:
329,192,415962,1,0,0:0:0:0:
109,192,415962,1,0,0:0:0:0:
475,192,415982,1,0,0:0:0:0:
182,192,416002,1,0,0:0:0:0:
402,192,416021,1,0,0:0:0:0:
109,192,416041,1,0,0:0:0:0:
475,192,416120,1,0,0:0:0:0:
256,192,416120,1,0,0:0:0:0:
256,192,416199,1,0,0:0:0:0:
109,192,416199,1,0,0:0:0:0:
182,192,416278,1,0,0:0:0:0:
402,192,416278,1,0,0:0:0:0:
475,192,416278,1,0,0:0:0:0:
36,192,416298,1,0,0:0:0:0:
329,192,416318,1,0,0:0:0:0:
109,192,416337,1,0,0:0:0:0:
402,192,416357,1,0,0:0:0:0:
256,192,416436,1,0,0:0:0:0:
36,192,416436,1,0,0:0:0:0:
256,192,416515,1,0,0:0:0:0:
402,192,416515,1,0,0:0:0:0:
109,192,416594,1,0,0:0:0:0:
36,192,416594,1,0,0:0:0:0:
475,192,416594,1,0,0:0:0:0:
329,192,416614,1,0,0:0:0:0:
256,192,416633,1,0,0:0:0:0:
182,192,416653,1,0,0:0:0:0:
109,192,416673,1,0,0:0:0:0:
475,192,416752,1,0,0:0:0:0:
182,192,416752,1,0,0:0:0:0:
402,192,416778,1,0,0:0:0:0:
36,192,416804,1,0,0:0:0:0:
329,192,416804,1,0,0:0:0:0:
256,192,416831,1,0,0:0:0:0:
36,192,416910,1,0,0:0:0:0:
402,192,416910,1,0,0:0:0:0:
329,192,416910,1,0,0:0:0:0:
475,192,416910,1,0,0:0:0:0:
109,192,416929,1,0,0:0:0:0:
182,192,416949,1,0,0:0:0:0:
256,192,416969,1,0,0:0:0:0:
402,192,417068,1,0,0:0:0:0:
109,192,417068,1,0,0:0:0:0:
329,192,417146,1,0,0:0:0:0:
475,192,417225,128,0,417541:0:0:0:0:
182,192,417225,128,0,417383:0:0:0:0:
109,192,417225,1,0,0:0:0:0:
36,192,417225,128,0,417304:0:0:0:0:
256,192,417225,128,0,417304:0:0:0:0:
402,192,417304,128,0,417462:0:0:0:0:
329,192,417344,128,0,417423:0:0:0:0:
36,192,417383,1,0,0:0:0:0:
182,192,417462,1,0,0:0:0:0:
329,192,417541,1,0,0:0:0:0:
256,192,417541,1,0,0:0:0:0:
109,192,417541,1,0,0:0:0:0:
36,192,417541,1,0,0:0:0:0:
182,192,417620,1,0,0:0:0:0:
402,192,417620,1,0,0:0:0:0:
329,192,417699,1,0,0:0:0:0:
109,192,417699,1,0,0:0:0:0:
402,192,417778,1,0,0:0:0:0:
256,192,417778,1,0,0:0:0:0:
109,192,417857,1,0,0:0:0:0:
36,192,417857,1,0,0:0:0:0:
182,192,417857,1,0,0:0:0:0:
475,192,417857,1,0,0:0:0:0:
402,192,417936,1,0,0:0:0:0:
329,192,417936,1,0,0:0:0:0:
182,192,418015,1,0,0:0:0:0:
36,192,418015,1,0,0:0:0:0:
256,192,418094,1,0,0:0:0:0:
329,192,418094,1,0,0:0:0:0:
109,192,418173,1,0,0:0:0:0:
36,192,418173,1,0,0:0:0:0:
402,192,418173,1,0,0:0:0:0:
475,192,418173,1,0,0:0:0:0:
256,192,418252,1,0,0:0:0:0:
182,192,418252,1,0,0:0:0:0:
329,192,418331,1,0,0:0:0:0:
475,192,418331,1,0,0:0:0:0:
182,192,418410,1,0,0:0:0:0:
109,192,418410,1,0,0:0:0:0:
256,192,418489,1,0,0:0:0:0:
36,192,418489,1,0,0:0:0:0:
402,192,418489,1,0,0:0:0:0:
475,192,418489,1,0,0:0:0:0:
329,192,418568,1,0,0:0:0:0:
109,192,418568,1,0,0:0:0:0:
182,192,418646,1,0,0:0:0:0:
36,192,418646,1,0,0:0:0:0:
402,192,418646,1,0,0:0:0:0:
329,192,418725,1,0,0:0:0:0:
256,192,418725,1,0,0:0:0:0:
109,192,418804,1,0,0:0:0:0:
36,192,418804,1,0,0:0:0:0:
402,192,418804,1,0,0:0:0:0:
475,192,418804,1,0,0:0:0:0:
256,192,418883,1,0,0:0:0:0:
182,192,418883,1,0,0:0:0:0:
109,192,418962,1,0,0:0:0:0:
329,192,418962,1,0,0:0:0:0:
475,192,418962,1,0,0:0:0:0:
402,192,419041,1,0,0:0:0:0:
182,192,419041,1,0,0:0:0:0:
329,192,419120,1,0,0:0:0:0:
256,192,419120,1,0,0:0:0:0:
36,192,419120,1,0,0:0:0:0:
475,192,419120,1,0,0:0:0:0:
402,192,419199,1,0,0:0:0:0:
109,192,419199,1,0,0:0:0:0:
329,192,419278,1,0,0:0:0:0:
182,192,419278,1,0,0:0:0:0:
36,192,419278,1,0,0:0:0:0:
256,192,419357,1,0,0:0:0:0:
475,192,419357,1,0,0:0:0:0:
329,192,419436,1,0,0:0:0:0:
109,192,419436,1,0,0:0:0:0:
182,192,419436,1,0,0:0:0:0:
402,192,419436,1,0,0:0:0:0:
36,192,419515,1,0,0:0:0:0:
256,192,419515,1,0,0:0:0:0:
329,192,419594,1,0,0:0:0:0:
475,192,419594,1,0,0:0:0:0:
182,192,419594,1,0,0:0:0:0:
109,192,419673,1,0,0:0:0:0:
402,192,419673,1,0,0:0:0:0:
256,192,419752,1,0,0:0:0:0:
182,192,419752,1,0,0:0:0:0:
36,192,419752,1,0,0:0:0:0:
475,192,419752,1,0,0:0:0:0:
402,192,419831,1,0,0:0:0:0:
329,192,419870,1,0,0:0:0:0:
256,192,419910,1,0,0:0:0:0:
36,192,419910,1,0,0:0:0:0:
182,192,419949,1,0,0:0:0:0:
109,192,419989,1,0,0:0:0:0:
402,192,419989,1,0,0:0:0:0:
36,192,420068,1,0,0:0:0:0:
475,192,420068,1,0,0:0:0:0:
256,192,420068,1,0,0:0:0:0:
329,192,420068,1,0,0:0:0:0:
109,192,420146,1,0,0:0:0:0:
182,192,420146,1,0,0:0:0:0:
475,192,420225,1,0,0:0:0:0:
256,192,420225,1,0,0:0:0:0:
402,192,420225,1,0,0:0:0:0:
36,192,420304,1,0,0:0:0:0:
109,192,420304,1,0,0:0:0:0:
329,192,420304,1,0,0:0:0:0:
402,192,420383,1,0,0:0:0:0:
182,192,420383,1,0,0:0:0:0:
256,192,420383,1,0,0:0:0:0:
475,192,420383,1,0,0:0:0:0:
36,192,420462,1,0,0:0:0:0:
329,192,420462,1,0,0:0:0:0:
402,192,420462,1,0,0:0:0:0:
109,192,420541,1,0,0:0:0:0:
475,192,420541,1,0,0:0:0:0:
256,192,420541,1,0,0:0:0:0:
182,192,420620,1,0,0:0:0:0:
402,192,420620,1,0,0:0:0:0:
329,192,420620,1,0,0:0:0:0:
329,192,420699,1,0,0:0:0:0:
256,192,420699,1,0,0:0:0:0:
109,192,420699,1,0,0:0:0:0:
36,192,420699,1,0,0:0:0:0:
182,192,420778,1,0,0:0:0:0:
109,192,420778,1,0,0:0:0:0:
475,192,420778,1,0,0:0:0:0:
402,192,420857,1,0,0:0:0:0:
256,192,420857,1,0,0:0:0:0:
36,192,420857,1,0,0:0:0:0:
329,192,420936,1,0,0:0:0:0:
109,192,420936,1,0,0:0:0:0:
182,192,420936,1,0,0:0:0:0:
256,192,421015,1,0,0:0:0:0:
182,192,421015,1,0,0:0:0:0:
402,192,421015,1,0,0:0:0:0:
475,192,421015,1,0,0:0:0:0:
475,192,421094,1,0,0:0:0:0:
329,192,421094,1,0,0:0:0:0:
109,192,421094,1,0,0:0:0:0:
402,192,421173,1,0,0:0:0:0:
256,192,421173,1,0,0:0:0:0:
36,192,421173,1,0,0:0:0:0:
402,192,421252,1,0,0:0:0:0:
475,192,421252,1,0,0:0:0:0:
182,192,421252,1,0,0:0:0:0:
329,192,421331,1,0,0:0:0:0:
256,192,421331,1,0,0:0:0:0:
109,192,421331,1,0,0:0:0:0:
36,192,421331,1,0,0:0:0:0:
182,192,421410,1,0,0:0:0:0:
36,192,421410,1,0,0:0:0:0:
402,192,421410,1,0,0:0:0:0:
256,192,421489,1,0,0:0:0:0:
109,192,421489,1,0,0:0:0:0:
475,192,421489,1,0,0:0:0:0:
329,192,421568,1,0,0:0:0:0:
109,192,421568,1,0,0:0:0:0:
36,192,421568,1,0,0:0:0:0:
182,192,421646,1,0,0:0:0:0:
402,192,421646,1,0,0:0:0:0:
475,192,421646,1,0,0:0:0:0:
256,192,421646,1,0,0:0:0:0:
329,192,421725,1,0,0:0:0:0:
182,192,421725,1,0,0:0:0:0:
36,192,421725,1,0,0:0:0:0:
109,192,421804,1,0,0:0:0:0:
402,192,421804,1,0,0:0:0:0:
256,192,421804,1,0,0:0:0:0:
182,192,421883,1,0,0:0:0:0:
329,192,421883,1,0,0:0:0:0:
475,192,421883,1,0,0:0:0:0:
329,192,421962,1,0,0:0:0:0:
256,192,421962,1,0,0:0:0:0:
109,192,421962,1,0,0:0:0:0:
36,192,421962,128,0,422199:0:0:0:0:
402,192,422041,1,0,0:0:0:0:
182,192,422041,128,0,422225:0:0:0:0:
329,192,422120,128,0,422252:0:0:0:0:
109,192,422120,1,0,0:0:0:0:
475,192,422199,128,0,422278:0:0:0:0:
256,192,422199,1,0,0:0:0:0:
36,192,422278,1,0,0:0:0:0:
256,192,422436,1,0,0:0:0:0:
402,192,422436,1,0,0:0:0:0:
256,192,422515,1,0,0:0:0:0:
109,192,422515,1,0,0:0:0:0:
182,192,422594,128,0,422672:0:0:0:0:
109,192,422594,128,0,422712:0:0:0:0:
36,192,422594,128,0,422751:0:0:0:0:
475,192,422594,128,0,422830:0:0:0:0:
402,192,422633,128,0,422830:0:0:0:0:
329,192,422672,128,0,422988:0:0:0:0:
256,192,422712,128,0,422830:0:0:0:0:
182,192,422751,128,0,422830:0:0:0:0:
109,192,422791,128,0,422830:0:0:0:0:
36,192,422830,1,0,0:0:0:0:
402,192,422909,128,0,422988:0:0:0:0:
475,192,422909,128,0,423304:0:0:0:0:
109,192,422909,128,0,422988:0:0:0:0:
256,192,422909,1,0,0:0:0:0:
36,192,422988,128,0,423146:0:0:0:0:
182,192,422988,128,0,423067:0:0:0:0:
256,192,423067,1,0,0:0:0:0:
329,192,423067,128,0,423146:0:0:0:0:
109,192,423146,128,0,423225:0:0:0:0:
256,192,423146,1,0,0:0:0:0:
402,192,423225,128,0,423304:0:0:0:0:
329,192,423225,128,0,423620:0:0:0:0:
36,192,423225,1,0,0:0:0:0:
182,192,423225,128,0,423304:0:0:0:0:
256,192,423304,128,0,423462:0:0:0:0:
109,192,423304,128,0,423383:0:0:0:0:
36,192,423383,1,0,0:0:0:0:
475,192,423383,128,0,423462:0:0:0:0:
182,192,423462,128,0,423541:0:0:0:0:
36,192,423462,1,0,0:0:0:0:
109,192,423541,128,0,423620:0:0:0:0:
402,192,423541,128,0,423620:0:0:0:0:
475,192,423541,128,0,423936:0:0:0:0:
256,192,423541,1,0,0:0:0:0:
36,192,423620,128,0,423778:0:0:0:0:
182,192,423620,128,0,423699:0:0:0:0:
256,192,423699,1,0,0:0:0:0:
329,192,423699,128,0,423778:0:0:0:0:
109,192,423778,128,0,423857:0:0:0:0:
256,192,423778,1,0,0:0:0:0:
329,192,423857,128,0,423936:0:0:0:0:
182,192,423857,128,0,424251:0:0:0:0:
402,192,423857,128,0,423936:0:0:0:0:
36,192,423857,1,0,0:0:0:0:
109,192,423936,128,0,424094:0:0:0:0:
256,192,423936,128,0,424015:0:0:0:0:
329,192,424015,128,0,424094:0:0:0:0:
402,192,424015,1,0,0:0:0:0:
402,192,424094,1,0,0:0:0:0:
36,192,424094,128,0,424172:0:0:0:0:
256,192,424172,128,0,424251:0:0:0:0:
329,192,424172,128,0,424567:0:0:0:0:
475,192,424172,128,0,424251:0:0:0:0:
109,192,424172,1,0,0:0:0:0:
402,192,424251,128,0,424409:0:0:0:0:
36,192,424251,128,0,424330:0:0:0:0:
182,192,424330,128,0,424409:0:0:0:0:
109,192,424330,1,0,0:0:0:0:
109,192,424409,1,0,0:0:0:0:
475,192,424409,128,0,424488:0:0:0:0:
256,192,424488,128,0,424567:0:0:0:0:
182,192,424488,128,0,424883:0:0:0:0:
36,192,424488,128,0,424567:0:0:0:0:
402,192,424488,1,0,0:0:0:0:
109,192,424567,128,0,424725:0:0:0:0:
475,192,424567,128,0,424646:0:0:0:0:
329,192,424646,128,0,424725:0:0:0:0:
402,192,424646,1,0,0:0:0:0:
402,192,424725,1,0,0:0:0:0:
36,192,424725,128,0,424804:0:0:0:0:
256,192,424804,128,0,424883:0:0:0:0:
329,192,424804,128,0,424883:0:0:0:0:
109,192,424804,1,0,0:0:0:0:
475,192,424804,128,0,424883:0:0:0:0:
36,192,424883,128,0,425041:0:0:0:0:
109,192,424962,128,0,425041:0:0:0:0:
329,192,424962,128,0,425041:0:0:0:0:
256,192,424962,128,0,425041:0:0:0:0:
402,192,424962,128,0,425041:0:0:0:0:
182,192,425041,1,0,0:0:0:0:
329,192,425120,128,0,425199:0:0:0:0:
402,192,425120,128,0,425238:0:0:0:0:
475,192,425120,128,0,425278:0:0:0:0:
36,192,425120,128,0,425357:0:0:0:0:
109,192,425159,128,0,425357:0:0:0:0:
182,192,425199,128,0,425515:0:0:0:0:
256,192,425238,128,0,425357:0:0:0:0:
329,192,425278,128,0,425357:0:0:0:0:
402,192,425317,128,0,425357:0:0:0:0:
475,192,425357,1,0,0:0:0:0:
109,192,425436,128,0,425515:0:0:0:0:
36,192,425436,128,0,425830:0:0:0:0:
402,192,425436,128,0,425515:0:0:0:0:
256,192,425436,1,0,0:0:0:0:
475,192,425515,128,0,425672:0:0:0:0:
329,192,425515,128,0,425594:0:0:0:0:
256,192,425594,1,0,0:0:0:0:
182,192,425594,128,0,425672:0:0:0:0:
402,192,425672,128,0,425751:0:0:0:0:
256,192,425672,1,0,0:0:0:0:
109,192,425751,128,0,425830:0:0:0:0:
182,192,425751,128,0,426146:0:0:0:0:
475,192,425751,1,0,0:0:0:0:
329,192,425751,128,0,425830:0:0:0:0:
256,192,425830,128,0,425988:0:0:0:0:
402,192,425830,128,0,425909:0:0:0:0:
475,192,425909,1,0,0:0:0:0:
36,192,425909,128,0,425988:0:0:0:0:
329,192,425988,128,0,426067:0:0:0:0:
475,192,425988,1,0,0:0:0:0:
402,192,426067,128,0,426146:0:0:0:0:
109,192,426067,128,0,426146:0:0:0:0:
36,192,426067,128,0,426462:0:0:0:0:
256,192,426067,1,0,0:0:0:0:
475,192,426146,128,0,426304:0:0:0:0:
329,192,426146,128,0,426225:0:0:0:0:
256,192,426225,1,0,0:0:0:0:
182,192,426225,128,0,426304:0:0:0:0:
402,192,426304,128,0,426383:0:0:0:0:
256,192,426304,1,0,0:0:0:0:
182,192,426383,128,0,426462:0:0:0:0:
329,192,426383,128,0,426778:0:0:0:0:
109,192,426383,128,0,426462:0:0:0:0:
475,192,426383,1,0,0:0:0:0:
402,192,426462,128,0,426620:0:0:0:0:
256,192,426462,128,0,426541:0:0:0:0:
182,192,426541,128,0,426620:0:0:0:0:
109,192,426541,1,0,0:0:0:0:
109,192,426620,1,0,0:0:0:0:
475,192,426620,128,0,426699:0:0:0:0:
256,192,426699,128,0,426778:0:0:0:0:
182,192,426699,128,0,427094:0:0:0:0:
36,192,426699,128,0,426778:0:0:0:0:
402,192,426699,1,0,0:0:0:0:
109,192,426778,128,0,426936:0:0:0:0:
475,192,426778,128,0,426857:0:0:0:0:
329,192,426857,128,0,426936:0:0:0:0:
402,192,426857,1,0,0:0:0:0:
402,192,426936,1,0,0:0:0:0:
36,192,426936,128,0,427251:0:0:0:0:
256,192,427015,128,0,427094:0:0:0:0:
329,192,427015,128,0,427094:0:0:0:0:
109,192,427015,1,0,0:0:0:0:
475,192,427015,128,0,427094:0:0:0:0:
182,192,427172,1,0,0:0:0:0:
256,192,427172,1,0,0:0:0:0:
475,192,427172,1,0,0:0:0:0:
329,192,427172,1,0,0:0:0:0:
256,192,427251,1,0,0:0:0:0:
182,192,427251,1,0,0:0:0:0:
329,192,427251,1,0,0:0:0:0:
475,192,427251,1,0,0:0:0:0:
182,192,427330,128,0,427370:0:0:0:0:
109,192,427330,128,0,427370:0:0:0:0:
36,192,427330,128,0,427370:0:0:0:0:
402,192,427330,128,0,427587:0:0:0:0:
256,192,427409,1,0,0:0:0:0:
475,192,427488,128,0,427567:0:0:0:0:
329,192,427488,128,0,427607:0:0:0:0:
182,192,427488,128,0,427567:0:0:0:0:
109,192,427488,128,0,427567:0:0:0:0:
475,192,427646,128,0,427883:0:0:0:0:
109,192,427646,128,0,427765:0:0:0:0:
36,192,427646,128,0,427804:0:0:0:0:
256,192,427646,128,0,427686:0:0:0:0:
402,192,427686,128,0,427883:0:0:0:0:
182,192,427725,128,0,427883:0:0:0:0:
256,192,427765,128,0,428041:0:0:0:0:
329,192,427804,128,0,427883:0:0:0:0:
109,192,427844,128,0,427883:0:0:0:0:
36,192,427883,1,0,0:0:0:0:
329,192,427962,128,0,428041:0:0:0:0:
402,192,427962,128,0,428357:0:0:0:0:
109,192,427962,128,0,428041:0:0:0:0:
475,192,427962,128,0,428041:0:0:0:0:
182,192,428041,128,0,428199:0:0:0:0:
36,192,428041,128,0,428120:0:0:0:0:
256,192,428120,128,0,428199:0:0:0:0:
475,192,428120,1,0,0:0:0:0:
109,192,428199,128,0,428278:0:0:0:0:
475,192,428199,1,0,0:0:0:0:
329,192,428278,128,0,428357:0:0:0:0:
256,192,428278,128,0,428672:0:0:0:0:
36,192,428278,128,0,428357:0:0:0:0:
182,192,428278,1,0,0:0:0:0:
109,192,428357,128,0,428515:0:0:0:0:
475,192,428357,128,0,428436:0:0:0:0:
402,192,428436,128,0,428515:0:0:0:0:
182,192,428436,1,0,0:0:0:0:
36,192,428515,128,0,428594:0:0:0:0:
182,192,428515,1,0,0:0:0:0:
402,192,428594,128,0,428830:0:0:0:0:
109,192,428594,128,0,428672:0:0:0:0:
475,192,428594,128,0,428672:0:0:0:0:
329,192,428594,128,0,428672:0:0:0:0:
182,192,428672,128,0,428830:0:0:0:0:
36,192,428751,128,0,428830:0:0:0:0:
109,192,428751,1,0,0:0:0:0:
256,192,428751,128,0,428909:0:0:0:0:
475,192,428751,128,0,428830:0:0:0:0:
329,192,428830,128,0,428988:0:0:0:0:
402,192,428909,1,0,0:0:0:0:
109,192,428909,128,0,429304:0:0:0:0:
36,192,428909,128,0,428988:0:0:0:0:
475,192,428909,128,0,429067:0:0:0:0:
182,192,428988,128,0,429146:0:0:0:0:
256,192,428988,128,0,429067:0:0:0:0:
402,192,429067,128,0,429146:0:0:0:0:
329,192,429067,1,0,0:0:0:0:
36,192,429146,128,0,429225:0:0:0:0:
329,192,429146,1,0,0:0:0:0:
402,192,429225,128,0,429620:0:0:0:0:
475,192,429225,128,0,429304:0:0:0:0:
182,192,429225,1,0,0:0:0:0:
256,192,429225,128,0,429304:0:0:0:0:
329,192,429304,128,0,429462:0:0:0:0:
36,192,429304,128,0,429383:0:0:0:0:
109,192,429383,128,0,429462:0:0:0:0:
182,192,429383,1,0,0:0:0:0:
182,192,429462,1,0,0:0:0:0:
475,192,429462,128,0,429541:0:0:0:0:
109,192,429541,128,0,429936:0:0:0:0:
36,192,429541,128,0,429620:0:0:0:0:
329,192,429541,1,0,0:0:0:0:
256,192,429541,128,0,429620:0:0:0:0:
182,192,429620,128,0,429778:0:0:0:0:
475,192,429620,128,0,429699:0:0:0:0:
402,192,429699,128,0,429778:0:0:0:0:
329,192,429699,1,0,0:0:0:0:
329,192,429778,1,0,0:0:0:0:
36,192,429778,128,0,429857:0:0:0:0:
256,192,429857,128,0,429936:0:0:0:0:
182,192,429857,128,0,429936:0:0:0:0:
402,192,429857,128,0,430094:0:0:0:0:
475,192,429857,128,0,429936:0:0:0:0:
329,192,429936,128,0,430015:0:0:0:0:
475,192,430015,128,0,430094:0:0:0:0:
182,192,430015,128,0,430054:0:0:0:0:
109,192,430015,128,0,430054:0:0:0:0:
36,192,430015,128,0,430054:0:0:0:0:
329,192,430094,1,0,0:0:0:0:
36,192,430172,128,0,430409:0:0:0:0:
402,192,430172,128,0,430291:0:0:0:0:
475,192,430172,128,0,430330:0:0:0:0:
256,192,430172,128,0,430212:0:0:0:0:
109,192,430212,128,0,430409:0:0:0:0:
329,192,430251,128,0,430409:0:0:0:0:
256,192,430291,128,0,430567:0:0:0:0:
182,192,430330,128,0,430409:0:0:0:0:
402,192,430370,128,0,430409:0:0:0:0:
475,192,430409,1,0,0:0:0:0:
182,192,430488,128,0,430567:0:0:0:0:
109,192,430488,128,0,430883:0:0:0:0:
402,192,430488,128,0,430567:0:0:0:0:
36,192,430488,128,0,430567:0:0:0:0:
329,192,430567,128,0,430725:0:0:0:0:
475,192,430567,128,0,430646:0:0:0:0:
256,192,430646,128,0,430725:0:0:0:0:
36,192,430646,1,0,0:0:0:0:
402,192,430725,128,0,430804:0:0:0:0:
36,192,430725,1,0,0:0:0:0:
182,192,430804,128,0,430883:0:0:0:0:
475,192,430804,128,0,430883:0:0:0:0:
329,192,430804,1,0,0:0:0:0:
256,192,430804,128,0,431041:0:0:0:0:
36,192,430883,128,0,430962:0:0:0:0:
182,192,430962,128,0,431041:0:0:0:0:
329,192,430962,128,0,431199:0:0:0:0:
402,192,430962,1,0,0:0:0:0:
475,192,430962,128,0,431041:0:0:0:0:
109,192,431041,128,0,431120:0:0:0:0:
256,192,431120,128,0,431199:0:0:0:0:
402,192,431120,128,0,431357:0:0:0:0:
36,192,431120,128,0,431199:0:0:0:0:
475,192,431120,1,0,0:0:0:0:
182,192,431199,128,0,431278:0:0:0:0:
329,192,431278,128,0,431357:0:0:0:0:
475,192,431278,128,0,431515:0:0:0:0:
109,192,431278,128,0,431357:0:0:0:0:
36,192,431278,1,0,0:0:0:0:
256,192,431357,128,0,431436:0:0:0:0:
402,192,431436,128,0,431515:0:0:0:0:
182,192,431436,1,0,0:0:0:0:
109,192,431436,1,0,0:0:0:0:
36,192,431436,1,0,0:0:0:0:
182,192,431515,5,0,0:0:0:0:
109,192,431515,1,0,0:0:0:0:
36,192,431515,1,0,0:0:0:0:
329,192,431594,1,0,0:0:0:0:
402,192,431594,1,0,0:0:0:0:
475,192,431594,1,0,0:0:0:0:
329,192,431672,1,0,0:0:0:0:
402,192,431672,1,0,0:0:0:0:
475,192,431672,1,0,0:0:0:0:
36,192,431751,128,0,431791:0:0:0:0:
329,192,431751,128,0,431791:0:0:0:0:
256,192,431751,128,0,431791:0:0:0:0:
475,192,431751,128,0,431791:0:0:0:0:
182,192,431751,128,0,431988:0:0:0:0:
109,192,431830,1,0,0:0:0:0:
36,192,431909,128,0,431988:0:0:0:0:
256,192,431909,128,0,431988:0:0:0:0:
329,192,431909,128,0,431988:0:0:0:0:
402,192,431988,1,0,0:0:0:0:
36,192,432067,128,0,432186:0:0:0:0:
182,192,432067,128,0,432225:0:0:0:0:
256,192,432067,128,0,432304:0:0:0:0:
329,192,432067,128,0,432383:0:0:0:0:
475,192,432067,128,0,432541:0:0:0:0:
109,192,432225,1,0,0:0:0:0:
182,192,432304,1,0,0:0:0:0:
256,192,432383,1,0,0:0:0:0:
256,192,432541,1,0,0:0:0:0:
329,192,432620,1,0,0:0:0:0:
475,192,432699,5,0,0:0:0:0:
182,192,432699,1,0,0:0:0:0:
402,192,432738,1,0,0:0:0:0:
329,192,432778,1,0,0:0:0:0:
109,192,432778,1,0,0:0:0:0:
402,192,432817,1,0,0:0:0:0:
475,192,432857,1,0,0:0:0:0:
182,192,432857,128,0,432936:0:0:0:0:
36,192,433015,1,0,0:0:0:0:
256,192,433015,1,0,0:0:0:0:
109,192,433054,1,0,0:0:0:0:
329,192,433054,1,0,0:0:0:0:
182,192,433094,1,0,0:0:0:0:
402,192,433094,1,0,0:0:0:0:
256,192,433133,1,0,0:0:0:0:
36,192,433133,1,0,0:0:0:0:
109,192,433172,1,0,0:0:0:0:
182,192,433251,1,0,0:0:0:0:
402,192,433330,1,0,0:0:0:0:
475,192,433330,1,0,0:0:0:0:
36,192,433330,1,0,0:0:0:0:
109,192,433369,1,0,0:0:0:0:
256,192,433408,1,0,0:0:0:0:
329,192,433408,1,0,0:0:0:0:
475,192,433448,1,0,0:0:0:0:
182,192,433487,1,0,0:0:0:0:
109,192,433487,1,0,0:0:0:0:
329,192,433527,1,0,0:0:0:0:
36,192,433566,1,0,0:0:0:0:
475,192,433566,1,0,0:0:0:0:
182,192,433606,1,0,0:0:0:0:
329,192,433645,1,0,0:0:0:0:
402,192,433645,1,0,0:0:0:0:
36,192,433685,1,0,0:0:0:0:
182,192,433724,1,0,0:0:0:0:
256,192,433724,1,0,0:0:0:0:
402,192,433764,1,0,0:0:0:0:
109,192,433803,1,0,0:0:0:0:
36,192,433803,1,0,0:0:0:0:
256,192,433843,1,0,0:0:0:0:
402,192,433882,1,0,0:0:0:0:
475,192,433882,1,0,0:0:0:0:
109,192,433922,1,0,0:0:0:0:
256,192,433961,1,0,0:0:0:0:
329,192,433961,1,0,0:0:0:0:
475,192,434001,1,0,0:0:0:0:
182,192,434040,1,0,0:0:0:0:
109,192,434040,1,0,0:0:0:0:
329,192,434080,1,0,0:0:0:0:
36,192,434119,1,0,0:0:0:0:
475,192,434119,1,0,0:0:0:0:
182,192,434158,1,0,0:0:0:0:
329,192,434198,1,0,0:0:0:0:
402,192,434198,1,0,0:0:0:0:
36,192,434237,1,0,0:0:0:0:
256,192,434277,1,0,0:0:0:0:
182,192,434277,1,0,0:0:0:0:
402,192,434316,1,0,0:0:0:0:
109,192,434356,1,0,0:0:0:0:
36,192,434356,1,0,0:0:0:0:
256,192,434395,1,0,0:0:0:0:
402,192,434435,1,0,0:0:0:0:
475,192,434435,1,0,0:0:0:0:
109,192,434474,1,0,0:0:0:0:
256,192,434514,1,0,0:0:0:0:
329,192,434514,1,0,0:0:0:0:
475,192,434553,1,0,0:0:0:0:
182,192,434593,1,0,0:0:0:0:
109,192,434593,1,0,0:0:0:0:
329,192,434632,1,0,0:0:0:0:
36,192,434672,1,0,0:0:0:0:
475,192,434672,1,0,0:0:0:0:
182,192,434711,1,0,0:0:0:0:
329,192,434751,1,0,0:0:0:0:
402,192,434751,1,0,0:0:0:0:
36,192,434790,1,0,0:0:0:0:
182,192,434830,1,0,0:0:0:0:
256,192,434830,1,0,0:0:0:0:
402,192,434869,1,0,0:0:0:0:
109,192,434908,1,0,0:0:0:0:
36,192,434908,1,0,0:0:0:0:
475,192,434908,1,0,0:0:0:0:
109,192,434987,1,0,0:0:0:0:
256,192,434987,1,0,0:0:0:0:
329,192,434987,1,0,0:0:0:0:
402,192,435066,1,0,0:0:0:0:
475,192,435066,1,0,0:0:0:0:
36,192,435066,1,0,0:0:0:0:
182,192,435145,1,0,0:0:0:0:
256,192,435145,1,0,0:0:0:0:
402,192,435145,1,0,0:0:0:0:
329,192,435224,1,0,0:0:0:0:
109,192,435224,1,0,0:0:0:0:
36,192,435224,1,0,0:0:0:0:
402,192,435264,1,0,0:0:0:0:
182,192,435303,1,0,0:0:0:0:
475,192,435303,1,0,0:0:0:0:
329,192,435382,1,0,0:0:0:0:
256,192,435382,1,0,0:0:0:0:
109,192,435382,1,0,0:0:0:0:
182,192,435461,1,0,0:0:0:0:
402,192,435461,1,0,0:0:0:0:
475,192,435461,1,0,0:0:0:0:
109,192,435501,1,0,0:0:0:0:
36,192,435540,1,0,0:0:0:0:
329,192,435540,1,0,0:0:0:0:
256,192,435619,1,0,0:0:0:0:
182,192,435619,1,0,0:0:0:0:
475,192,435619,1,0,0:0:0:0:
36,192,435698,1,0,0:0:0:0:
402,192,435698,1,0,0:0:0:0:
109,192,435724,1,0,0:0:0:0:
182,192,435751,1,0,0:0:0:0:
256,192,435777,1,0,0:0:0:0:
329,192,435803,1,0,0:0:0:0:
109,192,435856,1,0,0:0:0:0:
36,192,435856,1,0,0:0:0:0:
475,192,435856,1,0,0:0:0:0:
402,192,435895,1,0,0:0:0:0:
256,192,435935,1,0,0:0:0:0:
182,192,435935,1,0,0:0:0:0:
36,192,435974,1,0,0:0:0:0:
329,192,436014,1,0,0:0:0:0:
402,192,436014,1,0,0:0:0:0:
182,192,436053,1,0,0:0:0:0:
475,192,436093,1,0,0:0:0:0:
36,192,436093,1,0,0:0:0:0:
329,192,436132,1,0,0:0:0:0:
182,192,436172,1,0,0:0:0:0:
109,192,436172,1,0,0:0:0:0:
475,192,436211,1,0,0:0:0:0:
329,192,436251,1,0,0:0:0:0:
256,192,436251,1,0,0:0:0:0:
109,192,436290,1,0,0:0:0:0:
402,192,436330,1,0,0:0:0:0:
475,192,436330,1,0,0:0:0:0:
256,192,436369,1,0,0:0:0:0:
109,192,436408,1,0,0:0:0:0:
36,192,436408,1,0,0:0:0:0:
402,192,436448,1,0,0:0:0:0:
256,192,436487,1,0,0:0:0:0:
182,192,436487,1,0,0:0:0:0:
36,192,436527,1,0,0:0:0:0:
329,192,436566,1,0,0:0:0:0:
402,192,436566,1,0,0:0:0:0:
182,192,436606,1,0,0:0:0:0:
475,192,436645,1,0,0:0:0:0:
36,192,436645,1,0,0:0:0:0:
329,192,436685,1,0,0:0:0:0:
182,192,436724,1,0,0:0:0:0:
109,192,436724,1,0,0:0:0:0:
475,192,436764,1,0,0:0:0:0:
256,192,436803,1,0,0:0:0:0:
329,192,436803,1,0,0:0:0:0:
109,192,436843,1,0,0:0:0:0:
402,192,436882,1,0,0:0:0:0:
475,192,436882,1,0,0:0:0:0:
256,192,436922,1,0,0:0:0:0:
109,192,436961,1,0,0:0:0:0:
36,192,436961,1,0,0:0:0:0:
402,192,437001,1,0,0:0:0:0:
256,192,437040,1,0,0:0:0:0:
182,192,437040,1,0,0:0:0:0:
36,192,437080,1,0,0:0:0:0:
329,192,437119,1,0,0:0:0:0:
402,192,437119,1,0,0:0:0:0:
182,192,437158,1,0,0:0:0:0:
475,192,437198,1,0,0:0:0:0:
36,192,437198,1,0,0:0:0:0:
329,192,437237,1,0,0:0:0:0:
182,192,437277,1,0,0:0:0:0:
109,192,437277,1,0,0:0:0:0:
475,192,437316,1,0,0:0:0:0:
329,192,437356,1,0,0:0:0:0:
256,192,437356,1,0,0:0:0:0:
109,192,437395,1,0,0:0:0:0:
402,192,437435,1,0,0:0:0:0:
475,192,437435,1,0,0:0:0:0:
36,192,437435,1,0,0:0:0:0:
402,192,437514,1,0,0:0:0:0:
256,192,437514,1,0,0:0:0:0:
182,192,437514,1,0,0:0:0:0:
109,192,437593,1,0,0:0:0:0:
36,192,437593,1,0,0:0:0:0:
475,192,437593,1,0,0:0:0:0:
329,192,437672,1,0,0:0:0:0:
256,192,437672,1,0,0:0:0:0:
109,192,437672,1,0,0:0:0:0:
182,192,437751,1,0,0:0:0:0:
402,192,437751,1,0,0:0:0:0:
475,192,437751,1,0,0:0:0:0:
109,192,437790,1,0,0:0:0:0:
329,192,437830,1,0,0:0:0:0:
36,192,437830,1,0,0:0:0:0:
182,192,437908,1,0,0:0:0:0:
256,192,437908,1,0,0:0:0:0:
402,192,437908,1,0,0:0:0:0:
329,192,437987,1,0,0:0:0:0:
109,192,437987,1,0,0:0:0:0:
36,192,437987,1,0,0:0:0:0:
402,192,438027,1,0,0:0:0:0:
475,192,438066,1,0,0:0:0:0:
182,192,438066,1,0,0:0:0:0:
182,192,438224,1,0,0:0:0:0:
256,192,438224,1,0,0:0:0:0:
329,192,438224,1,0,0:0:0:0:
109,192,438382,1,0,0:0:0:0:
36,192,438382,1,0,0:0:0:0:
329,192,438382,128,0,438461:0:0:0:0:
475,192,438382,128,0,438422:0:0:0:0:
256,192,438422,128,0,438501:0:0:0:0:
402,192,438461,1,0,0:0:0:0:
182,192,438461,128,0,438540:0:0:0:0:
109,192,438501,128,0,438580:0:0:0:0:
329,192,438540,1,0,0:0:0:0:
36,192,438540,128,0,438619:0:0:0:0:
475,192,438580,128,0,438658:0:0:0:0:
182,192,438619,1,0,0:0:0:0:
402,192,438619,128,0,438698:0:0:0:0:
329,192,438658,128,0,438737:0:0:0:0:
36,192,438698,1,0,0:0:0:0:
256,192,438698,128,0,438777:0:0:0:0:
182,192,438737,128,0,438816:0:0:0:0:
402,192,438777,1,0,0:0:0:0:
109,192,438777,128,0,438856:0:0:0:0:
36,192,438816,128,0,438895:0:0:0:0:
256,192,438856,1,0,0:0:0:0:
475,192,438856,128,0,438935:0:0:0:0:
402,192,438895,128,0,438974:0:0:0:0:
329,192,438935,128,0,439014:0:0:0:0:
109,192,438935,1,0,0:0:0:0:
256,192,438974,128,0,439053:0:0:0:0:
475,192,439014,1,0,0:0:0:0:
182,192,439014,128,0,439093:0:0:0:0:
109,192,439053,128,0,439132:0:0:0:0:
329,192,439093,1,0,0:0:0:0:
36,192,439093,128,0,439172:0:0:0:0:
475,192,439132,128,0,439211:0:0:0:0:
402,192,439172,128,0,439251:0:0:0:0:
182,192,439172,1,0,0:0:0:0:
329,192,439211,128,0,439290:0:0:0:0:
256,192,439251,128,0,439330:0:0:0:0:
36,192,439251,1,0,0:0:0:0:
182,192,439290,128,0,439369:0:0:0:0:
109,192,439330,128,0,439408:0:0:0:0:
402,192,439330,1,0,0:0:0:0:
36,192,439369,128,0,439448:0:0:0:0:
475,192,439408,128,0,439487:0:0:0:0:
256,192,439408,1,0,0:0:0:0:
402,192,439448,128,0,439527:0:0:0:0:
109,192,439487,1,0,0:0:0:0:
329,192,439487,128,0,439566:0:0:0:0:
256,192,439527,128,0,439606:0:0:0:0:
182,192,439566,128,0,439645:0:0:0:0:
475,192,439566,1,0,0:0:0:0:
109,192,439606,128,0,439685:0:0:0:0:
36,192,439645,128,0,439724:0:0:0:0:
329,192,439645,1,0,0:0:0:0:
475,192,439685,128,0,439764:0:0:0:0:
182,192,439724,1,0,0:0:0:0:
402,192,439724,128,0,439803:0:0:0:0:
329,192,439764,128,0,439843:0:0:0:0:
36,192,439803,1,0,0:0:0:0:
256,192,439803,128,0,439882:0:0:0:0:
182,192,439843,128,0,439922:0:0:0:0:
402,192,439882,1,0,0:0:0:0:
109,192,439882,128,0,439961:0:0:0:0:
36,192,439922,128,0,440001:0:0:0:0:
256,192,439961,1,0,0:0:0:0:
329,192,439961,1,0,0:0:0:0:
475,192,439961,1,0,0:0:0:0:
329,192,440040,1,0,0:0:0:0:
109,192,440040,1,0,0:0:0:0:
402,192,440040,1,0,0:0:0:0:
182,192,440119,1,0,0:0:0:0:
475,192,440119,1,0,0:0:0:0:
256,192,440119,1,0,0:0:0:0:
329,192,440198,1,0,0:0:0:0:
256,192,440198,1,0,0:0:0:0:
36,192,440198,1,0,0:0:0:0:
182,192,440277,1,0,0:0:0:0:
475,192,440277,1,0,0:0:0:0:
109,192,440277,1,0,0:0:0:0:
402,192,440316,1,0,0:0:0:0:
329,192,440356,1,0,0:0:0:0:
36,192,440356,1,0,0:0:0:0:
182,192,440435,1,0,0:0:0:0:
256,192,440435,1,0,0:0:0:0:
475,192,440435,1,0,0:0:0:0:
329,192,440514,1,0,0:0:0:0:
402,192,440514,1,0,0:0:0:0:
36,192,440514,1,0,0:0:0:0:
109,192,440553,1,0,0:0:0:0:
182,192,440593,1,0,0:0:0:0:
475,192,440593,1,0,0:0:0:0:
329,192,440672,1,0,0:0:0:0:
109,192,440672,1,0,0:0:0:0:
402,192,440672,1,0,0:0:0:0:
182,192,440751,1,0,0:0:0:0:
36,192,440751,1,0,0:0:0:0:
256,192,440777,1,0,0:0:0:0:
329,192,440803,1,0,0:0:0:0:
402,192,440830,1,0,0:0:0:0:
475,192,440856,1,0,0:0:0:0:
36,192,440908,128,0,441106:0:0:0:0:
256,192,440908,1,0,0:0:0:0:
402,192,440908,1,0,0:0:0:0:
109,192,440948,1,0,0:0:0:0:
182,192,440987,128,0,441185:0:0:0:0:
475,192,440987,1,0,0:0:0:0:
256,192,441027,1,0,0:0:0:0:
109,192,441066,128,0,441145:0:0:0:0:
329,192,441066,128,0,441264:0:0:0:0:
402,192,441106,1,0,0:0:0:0:
256,192,441145,128,0,441224:0:0:0:0:
475,192,441145,128,0,441343:0:0:0:0:
36,192,441185,1,0,0:0:0:0:
402,192,441224,128,0,441303:0:0:0:0:
109,192,441224,128,0,441422:0:0:0:0:
182,192,441264,1,0,0:0:0:0:
36,192,441303,128,0,441382:0:0:0:0:
256,192,441303,128,0,441501:0:0:0:0:
329,192,441343,1,0,0:0:0:0:
182,192,441382,128,0,441461:0:0:0:0:
402,192,441382,128,0,441580:0:0:0:0:
475,192,441422,1,0,0:0:0:0:
329,192,441461,128,0,441540:0:0:0:0:
36,192,441461,128,0,441658:0:0:0:0:
109,192,441501,1,0,0:0:0:0:
475,192,441540,128,0,441619:0:0:0:0:
182,192,441540,128,0,441737:0:0:0:0:
256,192,441580,1,0,0:0:0:0:
109,192,441619,128,0,441698:0:0:0:0:
329,192,441619,128,0,441816:0:0:0:0:
402,192,441658,1,0,0:0:0:0:
256,192,441698,128,0,441777:0:0:0:0:
475,192,441698,128,0,441895:0:0:0:0:
36,192,441737,128,0,441856:0:0:0:0:
109,192,441777,128,0,441856:0:0:0:0:
402,192,441777,128,0,441856:0:0:0:0:
182,192,441816,128,0,441856:0:0:0:0:
256,192,441856,1,0,0:0:0:0:
329,192,441935,1,0,0:0:0:0:
36,192,441935,128,0,442014:0:0:0:0:
182,192,442014,1,0,0:0:0:0:
402,192,442014,1,0,0:0:0:0:
329,192,442014,128,0,442093:0:0:0:0:
402,192,442093,1,0,0:0:0:0:
109,192,442093,1,0,0:0:0:0:
182,192,442093,128,0,442172:0:0:0:0:
256,192,442172,1,0,0:0:0:0:
109,192,442172,1,0,0:0:0:0:
475,192,442172,128,0,442330:0:0:0:0:
402,192,442211,128,0,442330:0:0:0:0:
329,192,442251,128,0,442330:0:0:0:0:
36,192,442251,1,0,0:0:0:0:
256,192,442290,128,0,442330:0:0:0:0:
182,192,442330,1,0,0:0:0:0:
256,192,442408,1,0,0:0:0:0:
402,192,442408,1,0,0:0:0:0:
36,192,442408,128,0,442566:0:0:0:0:
109,192,442448,128,0,442566:0:0:0:0:
182,192,442487,128,0,442566:0:0:0:0:
475,192,442487,1,0,0:0:0:0:
256,192,442527,128,0,442566:0:0:0:0:
329,192,442566,1,0,0:0:0:0:
182,192,442645,1,0,0:0:0:0:
109,192,442645,128,0,442724:0:0:0:0:
329,192,442685,1,0,0:0:0:0:
402,192,442685,128,0,442764:0:0:0:0:
182,192,442724,1,0,0:0:0:0:
329,192,442764,1,0,0:0:0:0:
256,192,442803,128,0,442961:0:0:0:0:
475,192,442803,128,0,442961:0:0:0:0:
36,192,442803,128,0,442961:0:0:0:0:
182,192,442843,1,0,0:0:0:0:
109,192,442882,1,0,0:0:0:0:
402,192,442882,128,0,442961:0:0:0:0:
329,192,442922,128,0,442961:0:0:0:0:
182,192,442961,1,0,0:0:0:0:
256,192,443040,128,0,443198:0:0:0:0:
36,192,443040,128,0,443198:0:0:0:0:
475,192,443040,128,0,443198:0:0:0:0:
329,192,443080,1,0,0:0:0:0:
402,192,443119,1,0,0:0:0:0:
109,192,443119,128,0,443198:0:0:0:0:
182,192,443158,128,0,443198:0:0:0:0:
329,192,443198,1,0,0:0:0:0:
109,192,443277,1,0,0:0:0:0:
36,192,443277,128,0,443356:0:0:0:0:
256,192,443277,128,0,443395:0:0:0:0:
402,192,443316,1,0,0:0:0:0:
475,192,443316,128,0,443395:0:0:0:0:
109,192,443356,1,0,0:0:0:0:
402,192,443395,1,0,0:0:0:0:
182,192,443435,1,0,0:0:0:0:
36,192,443435,1,0,0:0:0:0:
329,192,443435,1,0,0:0:0:0:
109,192,443814,1,0,0:0:0:0:
182,192,443877,1,0,0:0:0:0:
256,192,443940,1,0,0:0:0:0:
402,192,444003,1,0,0:0:0:0:
475,192,444066,1,0,0:0:0:0:
256,192,444066,1,0,0:0:0:0:
182,192,444066,128,0,444224:0:0:0:0:
402,192,444193,1,0,0:0:0:0:
329,192,444343,1,0,0:0:0:0:
329,192,444408,1,0,0:0:0:0:
109,192,444566,1,0,0:0:0:0:
36,192,444698,128,0,444786:0:0:0:0:
109,192,444698,128,0,445050:0:0:0:0:
402,192,444698,128,0,445050:0:0:0:0:
182,192,444698,128,0,445756:0:0:0:0:
256,192,444698,128,0,448933:0:0:0:0:
329,192,444698,128,0,445756:0:0:0:0:
475,192,444698,128,0,444786:0:0:0:0:
109,192,450168,128,0,456698:0:0:0:0:
182,192,451227,128,0,458286:0:0:0:0:
402,192,453168,128,0,457933:0:0:0:0:
256,192,453815,1,0,0:0:0:0:
329,192,455639,128,0,458815:0:0:0:0:
36,192,456698,128,0,461462:0:0:0:0:
256,192,457403,128,0,460050:0:0:0:0:
475,192,457933,128,0,458815:0:0:0:0:
109,192,458286,128,0,460756:0:0:0:0:
256,192,460227,1,0,0:0:0:0:
109,192,460933,1,0,0:0:0:0:
36,192,461639,1,0,0:0:0:0:
329,192,461639,1,0,0:0:0:0:
256,192,461683,1,0,0:0:0:0:
329,192,463050,1,0,0:0:0:0:
402,192,463050,1,0,0:0:0:0:
109,192,464374,1,0,0:0:0:0:
256,192,464418,1,0,0:0:0:0:
475,192,464462,1,0,0:0:0:0:
182,192,466227,1,0,0:0:0:0:
256,192,466933,1,0,0:0:0:0:
182,192,467286,1,0,0:0:0:0:
109,192,467286,1,0,0:0:0:0:
402,192,468698,1,0,0:0:0:0:
36,192,470021,1,0,0:0:0:0:
329,192,470021,128,0,471256:0:0:0:0:
109,192,470087,1,0,0:0:0:0:
475,192,470109,128,0,471256:0:0:0:0:
182,192,470109,1,0,0:0:0:0:
109,192,470682,128,0,472888:0:0:0:0:
402,192,471256,128,0,472623:0:0:0:0:
36,192,471609,128,0,472844:0:0:0:0:
182,192,472138,128,0,472976:0:0:0:0:
256,192,472579,1,0,0:0:0:0:
329,192,472623,128,0,474410:0:0:0:0:
475,192,473020,128,0,475623:0:0:0:0:
109,192,473020,128,0,475094:0:0:0:0:
256,192,474410,128,0,475381:0:0:0:0:
402,192,474949,128,0,475705:0:0:0:0:
182,192,475094,128,0,475800:0:0:0:0:
329,192,475381,128,0,475800:0:0:0:0:
109,192,475866,128,0,477741:0:0:0:0:
402,192,475866,128,0,478645:0:0:0:0:
36,192,476329,128,0,476836:0:0:0:0:
182,192,476836,128,0,477211:0:0:0:0:
36,192,477211,128,0,478535:0:0:0:0:
182,192,477741,128,0,478491:0:0:0:0:
256,192,478248,128,0,478447:0:0:0:0:
109,192,478579,1,0,0:0:0:0:
182,192,478645,128,0,481314:0:0:0:0:
329,192,478645,128,0,481359:0:0:0:0:
256,192,479991,1,0,0:0:0:0:
36,192,480035,128,0,481270:0:0:0:0:
475,192,480829,128,0,481403:0:0:0:0:
109,192,481359,1,0,0:0:0:0:
36,192,481403,128,0,481579:0:0:0:0:
256,192,481403,128,0,482109:0:0:0:0:
402,192,481403,1,0,0:0:0:0:
109,192,481579,128,0,481756:0:0:0:0:
402,192,481756,128,0,481932:0:0:0:0:
36,192,481932,128,0,482109:0:0:0:0:
475,192,481976,128,0,482638:0:0:0:0:
182,192,482109,128,0,482285:0:0:0:0:
329,192,482285,128,0,482461:0:0:0:0:
109,192,482417,128,0,482991:0:0:0:0:
256,192,482461,128,0,482638:0:0:0:0:
402,192,482638,128,0,482814:0:0:0:0:
36,192,482814,128,0,483520:0:0:0:0:
329,192,482814,128,0,482991:0:0:0:0:
475,192,482991,128,0,483167:0:0:0:0:
329,192,483167,128,0,483344:0:0:0:0:
256,192,483344,128,0,483520:0:0:0:0:
475,192,483432,128,0,484050:0:0:0:0:
182,192,483520,128,0,483697:0:0:0:0:
36,192,483697,128,0,483873:0:0:0:0:
256,192,483873,128,0,484050:0:0:0:0:
402,192,483932,128,0,484403:0:0:0:0:
109,192,484050,128,0,484226:0:0:0:0:
182,192,484226,1,0,0:0:0:0:
36,192,484226,128,0,484403:0:0:0:0:
329,192,484314,128,0,485461:0:0:0:0:
109,192,484403,128,0,484579:0:0:0:0:
256,192,484579,128,0,484756:0:0:0:0:
36,192,484756,128,0,484932:0:0:0:0:
109,192,484932,128,0,485109:0:0:0:0:
182,192,485109,128,0,485285:0:0:0:0:
402,192,485285,128,0,485461:0:0:0:0:
36,192,485344,128,0,485461:0:0:0:0:
109,192,485403,128,0,485520:0:0:0:0:
182,192,485461,128,0,485814:0:0:0:0:
475,192,485461,128,0,485638:0:0:0:0:
402,192,485638,128,0,485814:0:0:0:0:
36,192,485682,128,0,486520:0:0:0:0:
329,192,485814,128,0,485991:0:0:0:0:
182,192,485991,128,0,486167:0:0:0:0:
475,192,486167,128,0,486344:0:0:0:0:
256,192,486300,128,0,486873:0:0:0:0:
402,192,486344,128,0,486520:0:0:0:0:
109,192,486520,128,0,486697:0:0:0:0:
36,192,486697,128,0,486873:0:0:0:0:
475,192,486741,128,0,486961:0:0:0:0:
329,192,486873,128,0,487050:0:0:0:0:
109,192,487050,128,0,487226:0:0:0:0:
256,192,487050,1,0,0:0:0:0:
475,192,487138,128,0,487756:0:0:0:0:
182,192,487226,128,0,487403:0:0:0:0:
256,192,487403,128,0,487579:0:0:0:0:
36,192,487579,128,0,487756:0:0:0:0:
329,192,487667,128,0,488285:0:0:0:0:
109,192,487756,128,0,487932:0:0:0:0:
182,192,487932,128,0,488109:0:0:0:0:
36,192,488109,128,0,488285:0:0:0:0:
475,192,488197,128,0,488638:0:0:0:0:
182,192,488285,128,0,488461:0:0:0:0:
36,192,488461,128,0,488638:0:0:0:0:
256,192,488528,128,0,489256:0:0:0:0:
109,192,488638,128,0,488814:0:0:0:0:
402,192,488814,128,0,488991:0:0:0:0:
36,192,488991,128,0,489167:0:0:0:0:
182,192,489123,128,0,489211:0:0:0:0:
402,192,489167,128,0,489344:0:0:0:0:
475,192,489344,128,0,489520:0:0:0:0:
182,192,489344,128,0,489520:0:0:0:0:
402,192,489520,128,0,489697:0:0:0:0:
109,192,489520,128,0,489873:0:0:0:0:
329,192,489697,128,0,489873:0:0:0:0:
182,192,489873,1,0,0:0:0:0:
256,192,489873,128,0,490403:0:0:0:0:
402,192,489873,128,0,491461:0:0:0:0:
36,192,489961,128,0,491109:0:0:0:0:
182,192,490050,128,0,492050:0:0:0:0:
329,192,490226,1,0,0:0:0:0:
329,192,490403,128,0,492050:0:0:0:0:
475,192,490579,1,0,0:0:0:0:
475,192,490756,128,0,491991:0:0:0:0:
109,192,490932,1,0,0:0:0:0:
109,192,491109,128,0,492020:0:0:0:0:
36,192,491285,128,0,491991:0:0:0:0:
256,192,491285,1,0,0:0:0:0:
256,192,491461,128,0,491903:0:0:0:0:
402,192,491638,1,0,0:0:0:0:
402,192,491814,128,0,492020:0:0:0:0:
256,192,491991,128,0,492609:0:0:0:0:
109,192,492344,1,0,0:0:0:0:
36,192,492344,1,0,0:0:0:0:
402,192,492432,1,0,0:0:0:0:
329,192,492432,1,0,0:0:0:0:
109,192,492520,1,0,0:0:0:0:
182,192,492520,1,0,0:0:0:0:
475,192,492609,1,0,0:0:0:0:
402,192,492609,1,0,0:0:0:0:
109,192,492697,128,0,493138:0:0:0:0:
329,192,492697,128,0,493314:0:0:0:0:
402,192,492697,128,0,493138:0:0:0:0:
475,192,492697,128,0,492961:0:0:0:0:
256,192,492697,128,0,492785:0:0:0:0:
182,192,492697,128,0,492961:0:0:0:0:
36,192,492697,128,0,493138:0:0:0:0:
256,192,492873,128,0,492961:0:0:0:0:
256,192,493050,128,0,493491:0:0:0:0:
182,192,493050,128,0,493138:0:0:0:0:
475,192,493226,128,0,493314:0:0:0:0:
182,192,493226,128,0,493667:0:0:0:0:
109,192,493226,128,0,493844:0:0:0:0:
36,192,493226,128,0,493844:0:0:0:0:
402,192,493403,128,0,493491:0:0:0:0:
475,192,493403,128,0,493491:0:0:0:0:
329,192,493579,128,0,493667:0:0:0:0:
402,192,493579,128,0,494020:0:0:0:0:
475,192,493579,128,0,494020:0:0:0:0:
329,192,493756,128,0,494020:0:0:0:0:
256,192,493756,128,0,494020:0:0:0:0:
182,192,493756,1,0,0:0:0:0:
182,192,493932,1,0,0:0:0:0:
109,192,493932,128,0,494550:0:0:0:0:
36,192,494109,128,0,494197:0:0:0:0:
256,192,494109,128,0,494373:0:0:0:0:
402,192,494109,128,0,494550:0:0:0:0:
329,192,494109,1,0,0:0:0:0:
475,192,494109,128,0,494726:0:0:0:0:
36,192,494285,128,0,494550:0:0:0:0:
182,192,494285,128,0,494373:0:0:0:0:
182,192,494461,128,0,495079:0:0:0:0:
329,192,494461,128,0,494550:0:0:0:0:
402,192,494638,128,0,494903:0:0:0:0:
109,192,494638,128,0,494726:0:0:0:0:
36,192,494638,128,0,494903:0:0:0:0:
329,192,494638,128,0,495256:0:0:0:0:
109,192,494814,128,0,495079:0:0:0:0:
256,192,494814,128,0,494903:0:0:0:0:
475,192,494814,128,0,495079:0:0:0:0:
402,192,494991,128,0,495079:0:0:0:0:
36,192,494991,128,0,495256:0:0:0:0:
256,192,494991,128,0,495432:0:0:0:0:
109,192,495167,128,0,495256:0:0:0:0:
182,192,495167,128,0,495432:0:0:0:0:
402,192,495167,128,0,495256:0:0:0:0:
475,192,495167,1,0,0:0:0:0:
329,192,495344,128,0,495432:0:0:0:0:
475,192,495344,1,0,0:0:0:0:
256,192,495520,1,0,0:0:0:0:
109,192,495520,128,0,495785:0:0:0:0:
402,192,495520,128,0,495961:0:0:0:0:
475,192,495520,128,0,496491:0:0:0:0:
36,192,495520,128,0,496314:0:0:0:0:
256,192,495697,128,0,496314:0:0:0:0:
109,192,495873,128,0,495961:0:0:0:0:
182,192,495873,128,0,496491:0:0:0:0:
109,192,496050,128,0,496314:0:0:0:0:
402,192,496050,128,0,496138:0:0:0:0:
329,192,496050,128,0,496138:0:0:0:0:
402,192,496226,128,0,496667:0:0:0:0:
36,192,496403,128,0,496491:0:0:0:0:
109,192,496403,128,0,496667:0:0:0:0:
36,192,496579,128,0,496844:0:0:0:0:
475,192,496579,128,0,496667:0:0:0:0:
256,192,496579,128,0,496844:0:0:0:0:
182,192,496756,128,0,496844:0:0:0:0:
402,192,496756,128,0,496844:0:0:0:0:
475,192,496756,128,0,496844:0:0:0:0:
329,192,496844,128,0,497197:0:0:0:0:
182,192,496932,128,0,497197:0:0:0:0:
36,192,496932,128,0,497373:0:0:0:0:
402,192,496932,128,0,497373:0:0:0:0:
475,192,496932,128,0,497373:0:0:0:0:
256,192,496932,128,0,497373:0:0:0:0:
109,192,496932,1,0,0:0:0:0:
109,192,497109,128,0,497550:0:0:0:0:
182,192,497285,128,0,497726:0:0:0:0:
329,192,497285,128,0,497550:0:0:0:0:
36,192,497461,128,0,497726:0:0:0:0:
256,192,497461,128,0,497903:0:0:0:0:
402,192,497461,128,0,497726:0:0:0:0:
475,192,497461,128,0,497550:0:0:0:0:
109,192,497638,128,0,497903:0:0:0:0:
475,192,497638,128,0,497903:0:0:0:0:
329,192,497638,128,0,498079:0:0:0:0:
36,192,497814,1,0,0:0:0:0:
182,192,497814,128,0,498079:0:0:0:0:
402,192,497814,128,0,498079:0:0:0:0:
109,192,497991,128,0,498079:0:0:0:0:
36,192,497991,128,0,498256:0:0:0:0:
256,192,497991,128,0,498079:0:0:0:0:
475,192,497991,128,0,498256:0:0:0:0:
402,192,498167,1,0,0:0:0:0:
256,192,498167,128,0,498256:0:0:0:0:
182,192,498344,128,0,498785:0:0:0:0:
109,192,498344,128,0,498785:0:0:0:0:
36,192,498344,128,0,499138:0:0:0:0:
329,192,498344,128,0,498432:0:0:0:0:
475,192,498344,128,0,498785:0:0:0:0:
256,192,498344,1,0,0:0:0:0:
329,192,498520,128,0,498609:0:0:0:0:
329,192,498697,128,0,499138:0:0:0:0:
256,192,498697,128,0,498785:0:0:0:0:
256,192,498873,128,0,499138:0:0:0:0:
182,192,498873,128,0,499314:0:0:0:0:
109,192,498873,128,0,499138:0:0:0:0:
475,192,498873,128,0,498961:0:0:0:0:
402,192,499050,128,0,499138:0:0:0:0:
475,192,499050,128,0,499491:0:0:0:0:
256,192,499226,128,0,499314:0:0:0:0:
402,192,499226,128,0,499491:0:0:0:0:
329,192,499226,128,0,499667:0:0:0:0:
109,192,499403,1,0,0:0:0:0:
36,192,499403,128,0,499667:0:0:0:0:
256,192,499403,128,0,499667:0:0:0:0:
182,192,499403,128,0,500020:0:0:0:0:
109,192,499579,1,0,0:0:0:0:
36,192,499756,128,0,500197:0:0:0:0:
329,192,499756,128,0,500197:0:0:0:0:
402,192,499756,128,0,500020:0:0:0:0:
475,192,499756,128,0,500197:0:0:0:0:
256,192,499756,1,0,0:0:0:0:
109,192,499932,128,0,500197:0:0:0:0:
256,192,499932,128,0,500020:0:0:0:0:
256,192,500109,128,0,500373:0:0:0:0:
402,192,500109,128,0,500726:0:0:0:0:
182,192,500285,128,0,500550:0:0:0:0:
475,192,500285,128,0,500550:0:0:0:0:
109,192,500285,128,0,500903:0:0:0:0:
329,192,500285,128,0,500373:0:0:0:0:
36,192,500461,128,0,500726:0:0:0:0:
256,192,500461,128,0,500550:0:0:0:0:
329,192,500461,128,0,500550:0:0:0:0:
182,192,500638,128,0,500726:0:0:0:0:
475,192,500638,128,0,500903:0:0:0:0:
256,192,500638,128,0,500726:0:0:0:0:
402,192,500814,1,0,0:0:0:0:
36,192,500814,128,0,501079:0:0:0:0:
329,192,500814,128,0,501079:0:0:0:0:
182,192,500814,128,0,500903:0:0:0:0:
109,192,500991,128,0,501079:0:0:0:0:
402,192,500991,1,0,0:0:0:0:
256,192,501167,1,0,0:0:0:0:
36,192,501167,128,0,501432:0:0:0:0:
182,192,501167,128,0,501432:0:0:0:0:
329,192,501167,128,0,501609:0:0:0:0:
402,192,501167,128,0,502491:0:0:0:0:
475,192,501167,128,0,501609:0:0:0:0:
256,192,501344,128,0,502491:0:0:0:0:
182,192,501520,128,0,502138:0:0:0:0:
36,192,501520,128,0,501609:0:0:0:0:
36,192,501697,128,0,502138:0:0:0:0:
329,192,501697,128,0,502138:0:0:0:0:
475,192,501697,128,0,501785:0:0:0:0:
475,192,501873,128,0,502314:0:0:0:0:
109,192,502050,128,0,502314:0:0:0:0:
182,192,502226,128,0,502491:0:0:0:0:
329,192,502226,128,0,502314:0:0:0:0:
109,192,502403,128,0,502844:0:0:0:0:
329,192,502579,1,0,0:0:0:0:
36,192,502579,128,0,503197:0:0:0:0:
402,192,502579,128,0,503020:0:0:0:0:
256,192,502579,128,0,503373:0:0:0:0:
182,192,502579,128,0,502667:0:0:0:0:
475,192,502579,128,0,502667:0:0:0:0:
329,192,502756,128,0,502844:0:0:0:0:
475,192,502756,128,0,502844:0:0:0:0:
329,192,502932,128,0,503197:0:0:0:0:
182,192,502932,128,0,503020:0:0:0:0:
182,192,503109,128,0,503550:0:0:0:0:
109,192,503109,128,0,503197:0:0:0:0:
402,192,503109,128,0,503197:0:0:0:0:
109,192,503285,128,0,503550:0:0:0:0:
36,192,503285,128,0,503373:0:0:0:0:
329,192,503285,128,0,503373:0:0:0:0:
402,192,503285,1,0,0:0:0:0:
475,192,503285,128,0,503903:0:0:0:0:
36,192,503461,128,0,503726:0:0:0:0:
256,192,503461,128,0,503550:0:0:0:0:
329,192,503461,128,0,503814:0:0:0:0:
256,192,503638,128,0,503814:0:0:0:0:
109,192,503638,128,0,503726:0:0:0:0:
182,192,503638,128,0,503814:0:0:0:0:
109,192,503814,128,0,503903:0:0:0:0:
402,192,503814,128,0,503903:0:0:0:0:
256,192,503903,128,0,503991:0:0:0:0:
402,192,503991,128,0,504432:0:0:0:0:
182,192,503991,128,0,504609:0:0:0:0:
109,192,503991,128,0,504432:0:0:0:0:
329,192,503991,128,0,504256:0:0:0:0:
475,192,503991,128,0,504432:0:0:0:0:
36,192,503991,128,0,504256:0:0:0:0:
256,192,504167,128,0,504256:0:0:0:0:
256,192,504344,128,0,504785:0:0:0:0:
329,192,504344,128,0,504432:0:0:0:0:
36,192,504520,128,0,504609:0:0:0:0:
329,192,504520,128,0,504961:0:0:0:0:
402,192,504520,128,0,505138:0:0:0:0:
475,192,504520,128,0,505138:0:0:0:0:
109,192,504697,128,0,504785:0:0:0:0:
36,192,504697,128,0,504785:0:0:0:0:
182,192,504873,128,0,504961:0:0:0:0:
109,192,504873,128,0,505314:0:0:0:0:
36,192,504873,128,0,505314:0:0:0:0:
182,192,505050,128,0,505314:0:0:0:0:
256,192,505050,128,0,505314:0:0:0:0:
329,192,505050,1,0,0:0:0:0:
329,192,505226,1,0,0:0:0:0:
402,192,505226,128,0,505844:0:0:0:0:
475,192,505403,128,0,505491:0:0:0:0:
256,192,505403,128,0,505667:0:0:0:0:
109,192,505403,128,0,505844:0:0:0:0:
182,192,505403,1,0,0:0:0:0:
36,192,505403,128,0,506020:0:0:0:0:
475,192,505579,128,0,505844:0:0:0:0:
329,192,505579,128,0,505667:0:0:0:0:
329,192,505756,128,0,506373:0:0:0:0:
182,192,505756,128,0,505844:0:0:0:0:
109,192,505932,128,0,506197:0:0:0:0:
402,192,505932,128,0,506020:0:0:0:0:
475,192,505932,128,0,506197:0:0:0:0:
182,192,505932,128,0,506550:0:0:0:0:
402,192,506109,128,0,506373:0:0:0:0:
256,192,506109,128,0,506197:0:0:0:0:
36,192,506109,128,0,506373:0:0:0:0:
109,192,506285,128,0,506373:0:0:0:0:
475,192,506285,128,0,506550:0:0:0:0:
256,192,506285,128,0,506726:0:0:0:0:
402,192,506461,128,0,506550:0:0:0:0:
329,192,506461,128,0,506726:0:0:0:0:
109,192,506461,128,0,506550:0:0:0:0:
36,192,506461,1,0,0:0:0:0:
182,192,506638,128,0,506726:0:0:0:0:
36,192,506638,1,0,0:0:0:0:
256,192,506814,1,0,0:0:0:0:
402,192,506814,128,0,507079:0:0:0:0:
109,192,506814,128,0,507256:0:0:0:0:
36,192,506814,128,0,507785:0:0:0:0:
475,192,506814,128,0,507609:0:0:0:0:
256,192,506991,128,0,507609:0:0:0:0:
402,192,507167,128,0,507256:0:0:0:0:
329,192,507167,128,0,507785:0:0:0:0:
402,192,507344,128,0,507609:0:0:0:0:
109,192,507344,128,0,507432:0:0:0:0:
182,192,507344,128,0,507432:0:0:0:0:
109,192,507520,128,0,507961:0:0:0:0:
475,192,507697,128,0,507785:0:0:0:0:
402,192,507697,128,0,507961:0:0:0:0:
475,192,507873,128,0,508138:0:0:0:0:
36,192,507873,128,0,507961:0:0:0:0:
256,192,507873,128,0,508138:0:0:0:0:
329,192,508050,128,0,508138:0:0:0:0:
109,192,508050,128,0,508138:0:0:0:0:
36,192,508050,128,0,508138:0:0:0:0:
182,192,508138,128,0,508491:0:0:0:0:
329,192,508226,128,0,508491:0:0:0:0:
475,192,508226,128,0,508667:0:0:0:0:
36,192,508226,128,0,508667:0:0:0:0:
256,192,508226,128,0,508667:0:0:0:0:
402,192,508226,1,0,0:0:0:0:
109,192,508226,128,0,508314:0:0:0:0:
402,192,508403,128,0,508667:0:0:0:0:
182,192,508579,128,0,508844:0:0:0:0:
329,192,508579,128,0,508844:0:0:0:0:
475,192,508756,128,0,509020:0:0:0:0:
109,192,508756,128,0,509020:0:0:0:0:
36,192,508756,128,0,508844:0:0:0:0:
402,192,508756,1,0,0:0:0:0:
256,192,508756,128,0,509020:0:0:0:0:
402,192,508932,128,0,509197:0:0:0:0:
36,192,508932,128,0,509197:0:0:0:0:
182,192,508932,128,0,509197:0:0:0:0:
475,192,509109,1,0,0:0:0:0:
329,192,509109,128,0,509373:0:0:0:0:
109,192,509109,128,0,509373:0:0:0:0:
256,192,509285,128,0,509373:0:0:0:0:
36,192,509285,128,0,509550:0:0:0:0:
402,192,509285,128,0,509550:0:0:0:0:
475,192,509285,128,0,509373:0:0:0:0:
109,192,509461,1,0,0:0:0:0:
256,192,509461,128,0,509550:0:0:0:0:
329,192,509638,128,0,510079:0:0:0:0:
402,192,509638,128,0,510079:0:0:0:0:
182,192,509638,128,0,509726:0:0:0:0:
36,192,509638,128,0,510079:0:0:0:0:
475,192,509638,128,0,510609:0:0:0:0:
182,192,509814,128,0,509903:0:0:0:0:
182,192,509991,128,0,510432:0:0:0:0:
256,192,509991,128,0,510079:0:0:0:0:
256,192,510167,128,0,510432:0:0:0:0:
329,192,510167,128,0,510609:0:0:0:0:
402,192,510167,128,0,510432:0:0:0:0:
36,192,510167,128,0,510256:0:0:0:0:
109,192,510344,128,0,510432:0:0:0:0:
36,192,510344,128,0,510785:0:0:0:0:
256,192,510520,128,0,510609:0:0:0:0:
109,192,510520,128,0,510785:0:0:0:0:
182,192,510520,128,0,510961:0:0:0:0:
256,192,510697,128,0,510961:0:0:0:0:
329,192,510697,128,0,511314:0:0:0:0:
475,192,510697,1,0,0:0:0:0:
475,192,510873,1,0,0:0:0:0:
109,192,510961,1,0,0:0:0:0:
475,192,511050,128,0,511491:0:0:0:0:
182,192,511050,128,0,511491:0:0:0:0:
36,192,511050,128,0,511491:0:0:0:0:
256,192,511050,1,0,0:0:0:0:
402,192,511050,128,0,511138:0:0:0:0:
402,192,511226,128,0,511491:0:0:0:0:
256,192,511226,128,0,511314:0:0:0:0:
256,192,511403,128,0,511667:0:0:0:0:
109,192,511403,128,0,512020:0:0:0:0:
329,192,511579,128,0,511844:0:0:0:0:
182,192,511579,128,0,511667:0:0:0:0:
36,192,511579,128,0,511844:0:0:0:0:
402,192,511579,128,0,512197:0:0:0:0:
475,192,511756,128,0,512020:0:0:0:0:
256,192,511756,128,0,511844:0:0:0:0:
182,192,511756,128,0,512020:0:0:0:0:
329,192,511932,128,0,512020:0:0:0:0:
256,192,511932,128,0,512197:0:0:0:0:
36,192,511932,128,0,512197:0:0:0:0:
109,192,512109,1,0,0:0:0:0:
475,192,512109,128,0,512373:0:0:0:0:
329,192,512109,128,0,512373:0:0:0:0:
182,192,512109,128,0,512373:0:0:0:0:
402,192,512285,128,0,512373:0:0:0:0:
36,192,512285,1,0,0:0:0:0:
109,192,512285,128,0,512373:0:0:0:0:
256,192,512373,1,0,0:0:0:0:
475,192,512461,128,0,512726:0:0:0:0:
329,192,512461,128,0,512726:0:0:0:0:
36,192,512461,128,0,512903:0:0:0:0:
402,192,512461,1,0,0:0:0:0:
182,192,512461,128,0,512726:0:0:0:0:
109,192,512461,128,0,513432:0:0:0:0:
256,192,512638,128,0,512903:0:0:0:0:
475,192,512814,128,0,512903:0:0:0:0:
329,192,512814,128,0,513432:0:0:0:0:
475,192,512991,128,0,513432:0:0:0:0:
36,192,512991,128,0,513079:0:0:0:0:
182,192,512991,128,0,513256:0:0:0:0:
36,192,513167,128,0,513609:0:0:0:0:
402,192,513167,1,0,0:0:0:0:
256,192,513167,128,0,513785:0:0:0:0:
402,192,513344,128,0,513609:0:0:0:0:
475,192,513520,128,0,513785:0:0:0:0:
182,192,513520,128,0,513785:0:0:0:0:
329,192,513520,128,0,513609:0:0:0:0:
109,192,513697,128,0,513785:0:0:0:0:
329,192,513697,1,0,0:0:0:0:
256,192,513873,128,0,514050:0:0:0:0:
329,192,513873,128,0,513961:0:0:0:0:
402,192,513873,128,0,513961:0:0:0:0:
475,192,513873,128,0,514138:0:0:0:0:
36,192,513873,128,0,514314:0:0:0:0:
182,192,513873,1,0,0:0:0:0:
109,192,513961,128,0,514138:0:0:0:0:
402,192,514050,128,0,514138:0:0:0:0:
329,192,514050,128,0,514403:0:0:0:0:
182,192,514050,128,0,514226:0:0:0:0:
256,192,514138,128,0,514314:0:0:0:0:
402,192,514226,128,0,514491:0:0:0:0:
475,192,514226,128,0,514314:0:0:0:0:
109,192,514226,128,0,514403:0:0:0:0:
182,192,514314,128,0,514491:0:0:0:0:
475,192,514403,128,0,514491:0:0:0:0:
256,192,514403,128,0,514579:0:0:0:0:
36,192,514403,128,0,514491:0:0:0:0:
329,192,514491,128,0,514667:0:0:0:0:
109,192,514491,128,0,514667:0:0:0:0:
475,192,514579,128,0,514844:0:0:0:0:
402,192,514579,128,0,514756:0:0:0:0:
182,192,514579,128,0,514667:0:0:0:0:
36,192,514579,128,0,514667:0:0:0:0:
256,192,514667,128,0,514844:0:0:0:0:
329,192,514756,128,0,514932:0:0:0:0:
182,192,514756,128,0,515020:0:0:0:0:
109,192,514756,128,0,514844:0:0:0:0:
36,192,514756,128,0,515020:0:0:0:0:
402,192,514844,128,0,514932:0:0:0:0:
109,192,514932,128,0,515197:0:0:0:0:
475,192,514932,128,0,515020:0:0:0:0:
256,192,514932,128,0,515109:0:0:0:0:
402,192,515020,128,0,515197:0:0:0:0:
329,192,515020,128,0,515109:0:0:0:0:
475,192,515109,128,0,515197:0:0:0:0:
36,192,515109,128,0,515197:0:0:0:0:
182,192,515109,128,0,515373:0:0:0:0:
329,192,515197,128,0,515550:0:0:0:0:
256,192,515197,128,0,515373:0:0:0:0:
475,192,515285,128,0,516256:0:0:0:0:
109,192,515285,128,0,515726:0:0:0:0:
402,192,515285,128,0,515726:0:0:0:0:
36,192,515285,128,0,515726:0:0:0:0:
182,192,515461,128,0,515726:0:0:0:0:
329,192,515638,1,0,0:0:0:0:
256,192,515638,128,0,515903:0:0:0:0:
329,192,515814,128,0,515903:0:0:0:0:
402,192,515814,128,0,516079:0:0:0:0:
109,192,515814,128,0,516256:0:0:0:0:
182,192,515814,128,0,516256:0:0:0:0:
36,192,515991,1,0,0:0:0:0:
256,192,515991,128,0,516256:0:0:0:0:
329,192,516167,128,0,516432:0:0:0:0:
475,192,516344,128,0,516961:0:0:0:0:
36,192,516344,128,0,516609:0:0:0:0:
402,192,516344,128,0,516609:0:0:0:0:
109,192,516344,128,0,516609:0:0:0:0:
182,192,516344,128,0,516609:0:0:0:0:
329,192,516520,128,0,516961:0:0:0:0:
182,192,516697,1,0,0:0:0:0:
402,192,516697,128,0,516785:0:0:0:0:
36,192,516697,128,0,516961:0:0:0:0:
109,192,516697,128,0,516785:0:0:0:0:
256,192,516697,128,0,517138:0:0:0:0:
182,192,516873,128,0,517314:0:0:0:0:
109,192,516873,1,0,0:0:0:0:
402,192,517050,128,0,517667:0:0:0:0:
36,192,517050,1,0,0:0:0:0:
109,192,517050,128,0,517491:0:0:0:0:
36,192,517226,128,0,517491:0:0:0:0:
329,192,517226,1,0,0:0:0:0:
475,192,517226,128,0,517491:0:0:0:0:
329,192,517403,128,0,517667:0:0:0:0:
256,192,517403,128,0,517667:0:0:0:0:
182,192,517403,1,0,0:0:0:0:
109,192,517579,128,0,517667:0:0:0:0:
475,192,517579,1,0,0:0:0:0:
182,192,517579,128,0,517667:0:0:0:0:
256,192,517756,128,0,518020:0:0:0:0:
475,192,517756,128,0,518020:0:0:0:0:
402,192,517756,128,0,517844:0:0:0:0:
109,192,517756,128,0,517844:0:0:0:0:
36,192,517756,128,0,517844:0:0:0:0:
182,192,517932,128,0,518550:0:0:0:0:
329,192,517932,128,0,518020:0:0:0:0:
36,192,517932,128,0,519079:0:0:0:0:
475,192,518109,1,0,0:0:0:0:
109,192,518109,1,0,0:0:0:0:
402,192,518109,128,0,518373:0:0:0:0:
256,192,518109,128,0,518726:0:0:0:0:
329,192,518109,128,0,518197:0:0:0:0:
475,192,518285,128,0,518550:0:0:0:0:
109,192,518461,128,0,519256:0:0:0:0:
402,192,518461,1,0,0:0:0:0:
329,192,518461,128,0,518903:0:0:0:0:
475,192,518638,1,0,0:0:0:0:
182,192,518638,128,0,518726:0:0:0:0:
402,192,518638,128,0,519079:0:0:0:0:
256,192,518814,128,0,518903:0:0:0:0:
475,192,518814,128,0,519256:0:0:0:0:
329,192,518991,128,0,519079:0:0:0:0:
182,192,518991,128,0,519079:0:0:0:0:
182,192,519167,128,0,519256:0:0:0:0:
256,192,519167,128,0,519432:0:0:0:0:
402,192,519167,128,0,519256:0:0:0:0:
36,192,519167,128,0,520491:0:0:0:0:
329,192,519344,128,0,519432:0:0:0:0:
109,192,519344,128,0,519432:0:0:0:0:
475,192,519344,1,0,0:0:0:0:
182,192,519432,128,0,519961:0:0:0:0:
109,192,519520,1,0,0:0:0:0:
329,192,519520,128,0,519785:0:0:0:0:
256,192,519520,128,0,520138:0:0:0:0:
475,192,519520,128,0,519785:0:0:0:0:
402,192,519520,128,0,519609:0:0:0:0:
402,192,519697,128,0,519961:0:0:0:0:
109,192,519873,128,0,519961:0:0:0:0:
329,192,519873,128,0,519961:0:0:0:0:
475,192,519873,128,0,519961:0:0:0:0:
182,192,520050,128,0,520138:0:0:0:0:
475,192,520050,128,0,520314:0:0:0:0:
402,192,520050,128,0,520138:0:0:0:0:
329,192,520050,128,0,520314:0:0:0:0:
109,192,520226,128,0,520491:0:0:0:0:
256,192,520226,128,0,520314:0:0:0:0:
402,192,520226,128,0,520491:0:0:0:0:
182,192,520403,128,0,520491:0:0:0:0:
475,192,520403,128,0,520844:0:0:0:0:
329,192,520403,128,0,520491:0:0:0:0:
329,192,520579,128,0,520844:0:0:0:0:
182,192,520579,128,0,520667:0:0:0:0:
109,192,520579,128,0,520667:0:0:0:0:
256,192,520579,128,0,520844:0:0:0:0:
36,192,520579,128,0,521020:0:0:0:0:
182,192,520756,1,0,0:0:0:0:
329,192,520932,128,0,521373:0:0:0:0:
402,192,520932,128,0,521373:0:0:0:0:
256,192,520932,128,0,521373:0:0:0:0:
109,192,520932,128,0,521020:0:0:0:0:
182,192,520932,128,0,521197:0:0:0:0:
475,192,520932,128,0,521197:0:0:0:0:
109,192,521108,1,0,0:0:0:0:
182,192,521285,1,0,0:0:0:0:
109,192,521285,128,0,521726:0:0:0:0:
329,192,521461,128,0,521903:0:0:0:0:
402,192,521461,128,0,521903:0:0:0:0:
182,192,521461,128,0,521550:0:0:0:0:
475,192,521461,128,0,522256:0:0:0:0:
36,192,521461,128,0,521550:0:0:0:0:
182,192,521638,1,0,0:0:0:0:
36,192,521638,128,0,521903:0:0:0:0:
256,192,521814,1,0,0:0:0:0:
182,192,521814,128,0,522256:0:0:0:0:
256,192,521991,128,0,522256:0:0:0:0:
329,192,521991,128,0,522256:0:0:0:0:
402,192,521991,128,0,522785:0:0:0:0:
36,192,521991,128,0,522432:0:0:0:0:
109,192,522167,1,0,0:0:0:0:
475,192,522344,128,0,522432:0:0:0:0:
182,192,522344,128,0,522785:0:0:0:0:
256,192,522344,128,0,522785:0:0:0:0:
109,192,522344,128,0,522432:0:0:0:0:
329,192,522344,128,0,523138:0:0:0:0:
36,192,522520,1,0,0:0:0:0:
475,192,522520,128,0,522785:0:0:0:0:
109,192,522697,1,0,0:0:0:0:
36,192,522697,128,0,522961:0:0:0:0:
256,192,522873,128,0,522961:0:0:0:0:
402,192,522873,128,0,523314:0:0:0:0:
475,192,522873,128,0,523314:0:0:0:0:
109,192,522873,128,0,522961:0:0:0:0:
182,192,523050,128,0,523138:0:0:0:0:
36,192,523050,128,0,523138:0:0:0:0:
256,192,523050,128,0,523314:0:0:0:0:
109,192,523226,128,0,523314:0:0:0:0:
329,192,523226,128,0,523314:0:0:0:0:
182,192,523226,128,0,523491:0:0:0:0:
109,192,523403,1,0,0:0:0:0:
256,192,523403,128,0,523491:0:0:0:0:
475,192,523403,128,0,523491:0:0:0:0:
36,192,523403,128,0,523667:0:0:0:0:
329,192,523403,128,0,523667:0:0:0:0:
109,192,523579,128,0,524726:0:0:0:0:
182,192,523579,128,0,525079:0:0:0:0:
402,192,523579,128,0,523667:0:0:0:0:
36,192,523756,128,0,524197:0:0:0:0:
329,192,523756,1,0,0:0:0:0:
475,192,523756,128,0,524020:0:0:0:0:
402,192,523756,128,0,524197:0:0:0:0:
256,192,523756,128,0,523844:0:0:0:0:
329,192,523932,128,0,524373:0:0:0:0:
256,192,524108,128,0,524197:0:0:0:0:
475,192,524108,128,0,524197:0:0:0:0:
36,192,524285,128,0,524726:0:0:0:0:
256,192,524285,128,0,524550:0:0:0:0:
402,192,524285,128,0,524373:0:0:0:0:
329,192,524461,128,0,524550:0:0:0:0:
475,192,524461,128,0,524550:0:0:0:0:
256,192,524638,128,0,524726:0:0:0:0:
402,192,524638,128,0,524726:0:0:0:0:
475,192,524638,128,0,525079:0:0:0:0:
109,192,524814,128,0,525079:0:0:0:0:
402,192,524814,128,0,525079:0:0:0:0:
329,192,524814,128,0,524903:0:0:0:0:
256,192,524814,1,0,0:0:0:0:
329,192,524991,128,0,525697:0:0:0:0:
36,192,525167,128,0,525256:0:0:0:0:
182,192,525167,128,0,525256:0:0:0:0:
256,192,525167,128,0,525344:0:0:0:0:
402,192,525167,128,0,525256:0:0:0:0:
475,192,525167,128,0,525432:0:0:0:0:
109,192,525256,128,0,525432:0:0:0:0:
36,192,525344,128,0,525609:0:0:0:0:
182,192,525344,128,0,525520:0:0:0:0:
402,192,525344,128,0,526050:0:0:0:0:
256,192,525432,128,0,525609:0:0:0:0:
475,192,525520,128,0,525609:0:0:0:0:
109,192,525520,128,0,525785:0:0:0:0:
182,192,525609,128,0,525785:0:0:0:0:
475,192,525697,128,0,525785:0:0:0:0:
256,192,525697,128,0,525873:0:0:0:0:
36,192,525697,128,0,525785:0:0:0:0:
329,192,525785,128,0,525961:0:0:0:0:
475,192,525873,128,0,526138:0:0:0:0:
36,192,525873,128,0,525961:0:0:0:0:
109,192,525873,128,0,525961:0:0:0:0:
182,192,525873,128,0,526138:0:0:0:0:
256,192,525961,128,0,526138:0:0:0:0:
109,192,526050,128,0,526138:0:0:0:0:
36,192,526050,128,0,526314:0:0:0:0:
329,192,526050,128,0,526226:0:0:0:0:
402,192,526138,128,0,526491:0:0:0:0:
182,192,526226,128,0,526314:0:0:0:0:
109,192,526226,128,0,526491:0:0:0:0:
256,192,526226,128,0,526403:0:0:0:0:
475,192,526226,128,0,526314:0:0:0:0:
329,192,526314,128,0,526403:0:0:0:0:
36,192,526403,128,0,526491:0:0:0:0:
475,192,526403,128,0,526491:0:0:0:0:
182,192,526403,128,0,526844:0:0:0:0:
256,192,526491,128,0,526667:0:0:0:0:
329,192,526491,128,0,526667:0:0:0:0:
109,192,526579,128,0,527020:0:0:0:0:
475,192,526579,128,0,527020:0:0:0:0:
36,192,526579,128,0,527550:0:0:0:0:
402,192,526579,128,0,527020:0:0:0:0:
329,192,526756,128,0,527020:0:0:0:0:
256,192,526932,128,0,527197:0:0:0:0:
182,192,526932,1,0,0:0:0:0:
402,192,527109,128,0,527550:0:0:0:0:
329,192,527109,128,0,527550:0:0:0:0:
182,192,527109,128,0,527197:0:0:0:0:
109,192,527109,128,0,527373:0:0:0:0:
256,192,527285,128,0,527550:0:0:0:0:
475,192,527285,1,0,0:0:0:0:
182,192,527461,128,0,527726:0:0:0:0:
402,192,527638,128,0,527903:0:0:0:0:
329,192,527638,128,0,527903:0:0:0:0:
475,192,527638,128,0,527903:0:0:0:0:
109,192,527638,128,0,527726:0:0:0:0:
36,192,527638,128,0,527903:0:0:0:0:
182,192,527814,128,0,528256:0:0:0:0:
109,192,527814,128,0,528079:0:0:0:0:
402,192,527991,128,0,528079:0:0:0:0:
256,192,527991,128,0,528432:0:0:0:0:
475,192,527991,128,0,528256:0:0:0:0:
329,192,527991,1,0,0:0:0:0:
36,192,527991,128,0,528079:0:0:0:0:
402,192,528167,1,0,0:0:0:0:
329,192,528167,128,0,528609:0:0:0:0:
402,192,528344,128,0,528785:0:0:0:0:
475,192,528344,1,0,0:0:0:0:
109,192,528344,128,0,528961:0:0:0:0:
36,192,528520,128,0,528785:0:0:0:0:
182,192,528520,1,0,0:0:0:0:
475,192,528520,128,0,528785:0:0:0:0:
329,192,528697,1,0,0:0:0:0:
256,192,528697,128,0,528961:0:0:0:0:
182,192,528697,128,0,528961:0:0:0:0:
329,192,528873,128,0,528961:0:0:0:0:
36,192,528873,1,0,0:0:0:0:
402,192,528873,128,0,528961:0:0:0:0:
402,192,529050,128,0,529138:0:0:0:0:
109,192,529050,128,0,529138:0:0:0:0:
256,192,529050,128,0,529314:0:0:0:0:
36,192,529050,128,0,529314:0:0:0:0:
475,192,529050,128,0,529314:0:0:0:0:
182,192,529226,128,0,529314:0:0:0:0:
329,192,529226,128,0,529844:0:0:0:0:
256,192,529403,128,0,530020:0:0:0:0:
109,192,529403,128,0,529667:0:0:0:0:
36,192,529403,1,0,0:0:0:0:
475,192,529403,128,0,530373:0:0:0:0:
182,192,529403,128,0,529491:0:0:0:0:
402,192,529403,128,0,530373:0:0:0:0:
36,192,529579,128,0,529844:0:0:0:0:
182,192,529756,128,0,530197:0:0:0:0:
109,192,529756,1,0,0:0:0:0:
109,192,529932,128,0,530373:0:0:0:0:
329,192,529932,128,0,530020:0:0:0:0:
36,192,529932,1,0,0:0:0:0:
36,192,530109,128,0,530550:0:0:0:0:
256,192,530109,128,0,530197:0:0:0:0:
329,192,530285,128,0,530373:0:0:0:0:
182,192,530285,128,0,530373:0:0:0:0:
109,192,530461,128,0,530550:0:0:0:0:
329,192,530461,128,0,530550:0:0:0:0:
256,192,530461,128,0,530726:0:0:0:0:
402,192,530461,128,0,530550:0:0:0:0:
36,192,530638,1,0,0:0:0:0:
402,192,530638,128,0,530726:0:0:0:0:
182,192,530638,128,0,530726:0:0:0:0:
475,192,530638,128,0,531079:0:0:0:0:
329,192,530726,128,0,531256:0:0:0:0:
36,192,530814,128,0,531079:0:0:0:0:
109,192,530814,128,0,530903:0:0:0:0:
256,192,530814,128,0,531432:0:0:0:0:
402,192,530814,1,0,0:0:0:0:
182,192,530814,128,0,531079:0:0:0:0:
109,192,530991,128,0,531256:0:0:0:0:
182,192,531167,128,0,531256:0:0:0:0:
36,192,531167,128,0,532138:0:0:0:0:
475,192,531167,128,0,531256:0:0:0:0:
109,192,531344,128,0,531432:0:0:0:0:
182,192,531344,128,0,531609:0:0:0:0:
329,192,531344,128,0,531432:0:0:0:0:
475,192,531344,128,0,531609:0:0:0:0:
402,192,531344,1,0,0:0:0:0:
256,192,531520,128,0,531609:0:0:0:0:
402,192,531520,128,0,531785:0:0:0:0:
109,192,531520,128,0,531785:0:0:0:0:
182,192,531697,128,0,531785:0:0:0:0:
329,192,531697,128,0,531785:0:0:0:0:
475,192,531697,128,0,531785:0:0:0:0:
256,192,531873,128,0,532138:0:0:0:0:
402,192,531873,128,0,531961:0:0:0:0:
182,192,531873,128,0,532138:0:0:0:0:
329,192,531873,128,0,531961:0:0:0:0:
475,192,531873,128,0,532314:0:0:0:0:
329,192,532050,1,0,0:0:0:0:
182,192,532226,128,0,533373:0:0:0:0:
109,192,532226,128,0,532667:0:0:0:0:
36,192,532226,128,0,532667:0:0:0:0:
256,192,532226,128,0,532667:0:0:0:0:
329,192,532226,128,0,532491:0:0:0:0:
402,192,532226,128,0,532314:0:0:0:0:
402,192,532403,1,0,0:0:0:0:
402,192,532579,128,0,533020:0:0:0:0:
329,192,532579,1,0,0:0:0:0:
36,192,532756,128,0,533550:0:0:0:0:
475,192,532756,128,0,532844:0:0:0:0:
329,192,532756,128,0,532844:0:0:0:0:
256,192,532756,128,0,533020:0:0:0:0:
109,192,532756,128,0,533373:0:0:0:0:
475,192,532932,128,0,533197:0:0:0:0:
329,192,532932,1,0,0:0:0:0:
329,192,533109,128,0,533550:0:0:0:0:
256,192,533109,1,0,0:0:0:0:
402,192,533285,1,0,0:0:0:0:
475,192,533285,128,0,533550:0:0:0:0:
256,192,533285,128,0,533550:0:0:0:0:
109,192,533461,128,0,534079:0:0:0:0:
182,192,533461,128,0,533903:0:0:0:0:
36,192,533638,128,0,533726:0:0:0:0:
402,192,533638,128,0,534079:0:0:0:0:
329,192,533638,1,0,0:0:0:0:
475,192,533638,128,0,533726:0:0:0:0:
256,192,533638,128,0,533903:0:0:0:0:
329,192,533814,1,0,0:0:0:0:
36,192,533814,128,0,534256:0:0:0:0:
475,192,533991,1,0,0:0:0:0:
256,192,533991,128,0,534785:0:0:0:0:
329,192,533991,128,0,534256:0:0:0:0:
109,192,534167,128,0,534256:0:0:0:0:
182,192,534167,128,0,534432:0:0:0:0:
475,192,534167,128,0,534785:0:0:0:0:
402,192,534167,1,0,0:0:0:0:
36,192,534344,128,0,534609:0:0:0:0:
402,192,534344,128,0,534432:0:0:0:0:
329,192,534344,128,0,534609:0:0:0:0:
109,192,534520,128,0,534609:0:0:0:0:
182,192,534520,128,0,534609:0:0:0:0:
402,192,534520,1,0,0:0:0:0:
109,192,534697,128,0,534961:0:0:0:0:
402,192,534697,128,0,534785:0:0:0:0:
329,192,534697,128,0,534785:0:0:0:0:
36,192,534697,128,0,534961:0:0:0:0:
256,192,534873,128,0,535844:0:0:0:0:
182,192,534873,1,0,0:0:0:0:
475,192,534873,1,0,0:0:0:0:
402,192,534961,1,0,0:0:0:0:
36,192,535050,1,0,0:0:0:0:
475,192,535050,128,0,535314:0:0:0:0:
182,192,535050,128,0,536020:0:0:0:0:
329,192,535050,128,0,535667:0:0:0:0:
109,192,535050,128,0,535491:0:0:0:0:
402,192,535226,128,0,535491:0:0:0:0:
475,192,535403,128,0,535491:0:0:0:0:
36,192,535403,128,0,535491:0:0:0:0:
402,192,535579,128,0,535667:0:0:0:0:
36,192,535579,128,0,535844:0:0:0:0:
109,192,535756,128,0,535844:0:0:0:0:
329,192,535756,128,0,535844:0:0:0:0:
475,192,535756,128,0,536020:0:0:0:0:
256,192,535932,128,0,536020:0:0:0:0:
402,192,535932,1,0,0:0:0:0:
36,192,535932,128,0,536197:0:0:0:0:
475,192,536109,128,0,536197:0:0:0:0:
402,192,536109,128,0,536197:0:0:0:0:
329,192,536109,128,0,536373:0:0:0:0:
182,192,536109,128,0,536726:0:0:0:0:
109,192,536109,128,0,536197:0:0:0:0:
109,192,536285,1,0,0:0:0:0:
402,192,536285,1,0,0:0:0:0:
256,192,536461,128,0,536550:0:0:0:0:
402,192,536461,128,0,537256:0:0:0:0:
329,192,536461,128,0,536726:0:0:0:0:
36,192,536461,128,0,536726:0:0:0:0:
475,192,536461,128,0,537167:0:0:0:0:
256,192,536638,128,0,536903:0:0:0:0:
109,192,536638,128,0,536903:0:0:0:0:
329,192,536814,128,0,537079:0:0:0:0:
182,192,536814,128,0,537079:0:0:0:0:
256,192,536991,128,0,537256:0:0:0:0:
109,192,536991,128,0,537079:0:0:0:0:
36,192,536991,128,0,537344:0:0:0:0:
329,192,537167,128,0,537432:0:0:0:0:
182,192,537167,128,0,537256:0:0:0:0:
109,192,537167,128,0,537520:0:0:0:0:
475,192,537256,128,0,537432:0:0:0:0:
256,192,537344,128,0,537432:0:0:0:0:
402,192,537344,128,0,537609:0:0:0:0:
182,192,537344,128,0,537609:0:0:0:0:
36,192,537432,128,0,537697:0:0:0:0:
256,192,537520,128,0,537609:0:0:0:0:
475,192,537520,128,0,537609:0:0:0:0:
329,192,537520,128,0,537785:0:0:0:0:
109,192,537609,128,0,537785:0:0:0:0:
182,192,537697,128,0,537785:0:0:0:0:
402,192,537697,128,0,537785:0:0:0:0:
475,192,537697,128,0,537961:0:0:0:0:
256,192,537697,128,0,538050:0:0:0:0:
36,192,537785,128,0,537961:0:0:0:0:
109,192,537873,128,0,537961:0:0:0:0:
182,192,537873,128,0,540609:0:0:0:0:
402,192,537873,128,0,537961:0:0:0:0:
329,192,537873,128,0,543432:0:0:0:0:
109,192,538403,1,0,0:0:0:0:
402,192,538932,1,0,0:0:0:0:
475,192,539285,1,0,0:0:0:0:
402,192,539814,1,0,0:0:0:0:
109,192,540344,1,0,0:0:0:0:
36,192,540609,1,0,0:0:0:0:
109,192,540653,1,0,0:0:0:0:
182,192,540697,1,0,0:0:0:0:
182,192,541976,1,0,0:0:0:0:
475,192,542109,1,0,0:0:0:0:
402,192,542638,1,0,0:0:0:0:
109,192,543167,1,0,0:0:0:0:
329,192,543520,1,0,0:0:0:0:
36,192,543520,128,0,544844:0:0:0:0:
182,192,543520,1,0,0:0:0:0:
256,192,543520,128,0,543609:0:0:0:0:
402,192,544050,1,0,0:0:0:0:
329,192,544579,1,0,0:0:0:0:
256,192,544932,1,0,0:0:0:0:
36,192,544932,1,0,0:0:0:0:
329,192,545461,1,0,0:0:0:0:
109,192,545991,1,0,0:0:0:0:
182,192,546226,1,0,0:0:0:0:
109,192,546285,1,0,0:0:0:0:
36,192,546344,1,0,0:0:0:0:
329,192,546344,128,0,546432:0:0:0:0:
475,192,546344,128,0,547667:0:0:0:0:
475,192,547756,1,0,0:0:0:0:
109,192,548461,1,0,0:0:0:0:
402,192,549167,1,0,0:0:0:0:
36,192,549167,128,0,550138:0:0:0:0:
182,192,549197,128,0,549609:0:0:0:0:
329,192,549226,128,0,549344:0:0:0:0:
182,192,549697,1,0,0:0:0:0:
36,192,550226,1,0,0:0:0:0:
256,192,550579,1,0,0:0:0:0:
36,192,551109,1,0,0:0:0:0:
182,192,551638,1,0,0:0:0:0:
109,192,551903,1,0,0:0:0:0:
256,192,551961,128,0,552079:0:0:0:0:
475,192,551991,1,0,0:0:0:0:
402,192,551991,128,0,552961:0:0:0:0:
402,192,553050,1,0,0:0:0:0:
475,192,553226,1,0,0:0:0:0:
402,192,553403,1,0,0:0:0:0:
109,192,553403,128,0,553844:0:0:0:0:
109,192,553932,1,0,0:0:0:0:
182,192,554461,1,0,0:0:0:0:
36,192,554814,1,0,0:0:0:0:
475,192,554814,128,0,555785:0:0:0:0:
329,192,554844,128,0,555256:0:0:0:0:
182,192,554873,128,0,554991:0:0:0:0:
329,192,555344,1,0,0:0:0:0:
475,192,555873,1,0,0:0:0:0:
329,192,556226,128,0,556667:0:0:0:0:
109,192,556226,1,0,0:0:0:0:
329,192,556756,1,0,0:0:0:0:
182,192,557285,1,0,0:0:0:0:
36,192,557461,1,0,0:0:0:0:
109,192,557520,1,0,0:0:0:0:
182,192,557579,1,0,0:0:0:0:
256,192,557638,128,0,557756:0:0:0:0:
36,192,557638,128,0,560373:0:0:0:0:
402,192,557667,1,0,0:0:0:0:
182,192,559050,128,0,560373:0:0:0:0:
182,192,560461,1,0,0:0:0:0:
36,192,560461,1,0,0:0:0:0:
