osu file format v14

[General]
AudioFilename: audio.ogg
AudioLeadIn: 0
PreviewTime: 492344
Countdown: 0
SampleSet: Soft
StackLeniency: 0.7
Mode: 3
LetterboxInBreaks: 0
EpilepsyWarning: 1
SpecialStyle: 0
WidescreenStoryboard: 1

[Editor]
DistanceSpacing: 0.5
BeatDivisor: 5
GridSize: 16
TimelineZoom: 4.399999

[Metadata]
Title:Rite of Ascendancy
TitleUnicode:Rite of Ascendancy
Artist:DeltaH, Gardens, glasse, Musature, Myntian, Sad Keyboard Guy
ArtistUnicode:ΔH, Gardens, glasse, Musature, Myntian, Sad Keyboard Guy
Creator:FLeVI
Version:After Ragnarok // 4K
Source:
Tags:tyrcs RiceSS egmaforever lovely_hyahya etherea as the universe so the soul electronic instrumental artcore dnb d&b drum & bass drum'n'bass dubstep colorbass colourbass ambient extratone rawstyle orchestral marathon hybrid technical ln long notes
BeatmapID:3935369
BeatmapSetID:1908304

[Difficulty]
HPDrainRate:8
CircleSize:4
OverallDifficulty:7.5
ApproachRate:5
SliderMultiplier:1.4
SliderTickRate:1

[Events]
//Background and Video events
0,0,"z-4.jpg",0,0
//Break Periods
2,174604,178079
2,249500,250678
//Storyboard Layer 0 (Background)
//Storyboard Layer 1 (Fail)
//Storyboard Layer 2 (Pass)
//Storyboard Layer 3 (Foreground)
Sprite,Foreground,Centre,"sb\scene1\z-4-4_gray.jpg",320,240 S,0,3029,,0.4943357 F,0,3029,7528,0,1 F,0,55528,57028,1,0
Sprite,Foreground,CentreLeft,"sb\font\0052.png",140,120 S,0,3029,,0.5 C,0,3029,,185,185,185 F,6,3324,3524,0,1 F,7,8648,8848,1,0
Sprite,Foreground,CentreLeft,"sb\font\0069.png",161.5,120 S,0,3029,,0.5 C,0,3029,,220,220,220 F,6,3605,3805,0,1 F,7,8808,9008,1,0
Sprite,Foreground,CentreLeft,"sb\font\0074.png",167,120 S,0,3029,,0.5 C,0,3029,,245,245,245 F,6,3381,3581,0,1 F,7,8647,8847,1,0
Sprite,Foreground,CentreLeft,"sb\font\0065.png",182,120 S,0,3029,,0.5 C,0,3029,,229,229,229 F,6,3442,3642,0,1 F,7,8459,8659,1,0
Sprite,Foreground,CentreLeft,"sb\font\006f.png",211.5,120 S,0,3029,,0.5 C,0,3029,,204,204,204 F,6,3135,3335,0,1 F,7,8497,8697,1,0
Sprite,Foreground,CentreLeft,"sb\font\0066.png",230.5,120 S,0,3029,,0.5 C,0,3029,,240,240,240 F,6,3202,3402,0,1 F,7,8442,8642,1,0
Sprite,Foreground,CentreLeft,"sb\font\0041.png",257,120 S,0,3029,,0.5 C,0,3029,,211,211,211 F,6,3539,3739,0,1 F,7,8314,8514,1,0
Sprite,Foreground,CentreLeft,"sb\font\0073.png",281.5,120 S,0,3029,,0.5 C,0,3029,,217,217,217 F,6,3166,3366,0,1 F,7,8641,8841,1,0
Sprite,Foreground,CentreLeft,"sb\font\0063.png",301,120 S,0,3029,,0.5 C,0,3029,,202,202,202 F,6,3277,3477,0,1 F,7,8283,8483,1,0
Sprite,Foreground,CentreLeft,"sb\font\0065.png",319.5,120 S,0,3029,,0.5 C,0,3029,,204,204,204 F,6,3571,3771,0,1 F,7,8609,8809,1,0
Sprite,Foreground,CentreLeft,"sb\font\006e.png",339,120 S,0,3029,,0.5 C,0,3029,,231,231,231 F,6,3156,3356,0,1 F,7,8577,8777,1,0
Sprite,Foreground,CentreLeft,"sb\font\0064.png",358,120 S,0,3029,,0.5 C,0,3029,,236,236,236 F,6,3127,3327,0,1 F,7,8666,8866,1,0
Sprite,Foreground,CentreLeft,"sb\font\0061.png",377.5,120 S,0,3029,,0.5 C,0,3029,,225,225,225 F,6,3518,3718,0,1 F,7,8424,8624,1,0
Sprite,Foreground,CentreLeft,"sb\font\006e.png",396.5,120 S,0,3029,,0.5 C,0,3029,,210,210,210 F,6,3265,3465,0,1 F,7,8585,8785,1,0
Sprite,Foreground,CentreLeft,"sb\font\0063.png",415.5,120 S,0,3029,,0.5 C,0,3029,,189,189,189 F,6,3503,3703,0,1 F,7,8555,8755,1,0
Sprite,Foreground,CentreLeft,"sb\font\0079.png",434,120 S,0,3029,,0.5 C,0,3029,,246,246,246 F,6,3191,3391,0,1 F,7,8426,8626,1,0
Sprite,Foreground,CentreLeft,"sb\font\0042.png",190,50 S,0,9029,,0.5 C,0,9029,,253,253,253 F,6,9282,9482,0,1 F,7,18419,18619,1,0
Sprite,Foreground,CentreLeft,"sb\font\0079.png",212,50 S,0,9029,,0.5 C,0,9029,,231,231,231 F,6,9156,9356,0,1 F,7,18254,18454,1,0
Sprite,Foreground,CentreLeft,"sb\font\0044.png",241.5,50 S,0,9029,,0.5 C,0,9029,,226,226,226 F,6,9560,9760,0,1 F,7,18541,18741,1,0
Sprite,Foreground,CentreLeft,"sb\font\0065.png",263,50 S,0,9029,,0.5 C,0,9029,,238,238,238 F,6,9420,9620,0,1 F,7,18062,18262,1,0
Sprite,Foreground,CentreLeft,"sb\font\006c.png",282.5,50 S,0,9029,,0.5 C,0,9029,,195,195,195 F,6,9308,9508,0,1 F,7,18616,18816,1,0
Sprite,Foreground,CentreLeft,"sb\font\0074.png",288,50 S,0,9029,,0.5 C,0,9029,,253,253,253 F,6,9519,9719,0,1 F,7,18457,18657,1,0
Sprite,Foreground,CentreLeft,"sb\font\0061.png",303,50 S,0,9029,,0.5 C,0,9029,,246,246,246 F,6,9165,9365,0,1 F,7,18548,18748,1,0
Sprite,Foreground,CentreLeft,"sb\font\0048.png",322,50 S,0,9029,,0.5 C,0,9029,,211,211,211 F,6,9510,9710,0,1 F,7,18374,18574,1,0
Sprite,Foreground,CentreLeft,"sb\font\002c.png",344,50 S,0,9029,,0.5 C,0,9029,,252,252,252 F,6,9530,9730,0,1 F,7,18409,18609,1,0
Sprite,Foreground,CentreLeft,"sb\font\0047.png",362.5,50 S,0,9029,,0.5 C,0,9029,,218,218,218 F,6,9242,9442,0,1 F,7,18573,18773,1,0
Sprite,Foreground,CentreLeft,"sb\font\0061.png",385,50 S,0,9029,,0.5 C,0,9029,,212,212,212 F,6,9487,9687,0,1 F,7,18123,18323,1,0
Sprite,Foreground,CentreLeft,"sb\font\0072.png",404,50 S,0,9029,,0.5 C,0,9029,,218,218,218 F,6,9576,9776,0,1 F,7,18620,18820,1,0
Sprite,Foreground,CentreLeft,"sb\font\0064.png",418,50 S,0,9029,,0.5 C,0,9029,,233,233,233 F,6,9110,9310,0,1 F,7,18354,18554,1,0
Sprite,Foreground,CentreLeft,"sb\font\0065.png",437.5,50 S,0,9029,,0.5 C,0,9029,,200,200,200 F,6,9343,9543,0,1 F,7,18432,18632,1,0
Sprite,Foreground,CentreLeft,"sb\font\006e.png",457,50 S,0,9029,,0.5 C,0,9029,,234,234,234 F,6,9497,9697,0,1 F,7,18260,18460,1,0
Sprite,Foreground,CentreLeft,"sb\font\0073.png",476,50 S,0,9029,,0.5 C,0,9029,,204,204,204 F,6,9560,9760,0,1 F,7,18048,18248,1,0
Sprite,Foreground,CentreLeft,"sb\font\002c.png",495.5,50 S,0,9029,,0.5 C,0,9029,,196,196,196 F,6,9290,9490,0,1 F,7,18407,18607,1,0
Sprite,Foreground,CentreLeft,"sb\font\0067.png",514,50 S,0,9029,,0.5 C,0,9029,,168,168,168 F,6,9456,9656,0,1 F,7,18516,18716,1,0
Sprite,Foreground,CentreLeft,"sb\font\006c.png",533.5,50 S,0,9029,,0.5 C,0,9029,,217,217,217 F,6,9366,9566,0,1 F,7,18198,18398,1,0
Sprite,Foreground,CentreLeft,"sb\font\0061.png",539,50 S,0,9029,,0.5 C,0,9029,,230,230,230 F,6,9103,9303,0,1 F,7,18227,18427,1,0
Sprite,Foreground,CentreLeft,"sb\font\0073.png",558,50 S,0,9029,,0.5 C,0,9029,,188,188,188 F,6,9209,9409,0,1 F,7,18482,18682,1,0
Sprite,Foreground,CentreLeft,"sb\font\0073.png",577.5,50 S,0,9029,,0.5 C,0,9029,,199,199,199 F,6,9113,9313,0,1 F,7,18105,18305,1,0
Sprite,Foreground,CentreLeft,"sb\font\0065.png",597,50 S,0,9029,,0.5 C,0,9029,,190,190,190 F,6,9310,9510,0,1 F,7,18410,18610,1,0
Sprite,Foreground,CentreLeft,"sb\font\004d.png",50,90 S,0,9029,,0.5 C,0,9029,,252,252,252 F,6,9300,9500,0,1 F,7,18071,18271,1,0
Sprite,Foreground,CentreLeft,"sb\font\0075.png",78,90 S,0,9029,,0.5 C,0,9029,,233,233,233 F,6,9229,9429,0,1 F,7,18197,18397,1,0
Sprite,Foreground,CentreLeft,"sb\font\0073.png",97.5,90 S,0,9029,,0.5 C,0,9029,,204,204,204 F,6,9046,9246,0,1 F,7,18357,18557,1,0
Sprite,Foreground,CentreLeft,"sb\font\0061.png",117,90 S,0,9029,,0.5 C,0,9029,,208,208,208 F,6,9446,9646,0,1 F,7,18555,18755,1,0
Sprite,Foreground,CentreLeft,"sb\font\0074.png",136,90 S,0,9029,,0.5 C,0,9029,,192,192,192 F,6,9299,9499,0,1 F,7,18333,18533,1,0
Sprite,Foreground,CentreLeft,"sb\font\0075.png",151,90 S,0,9029,,0.5 C,0,9029,,211,211,211 F,6,9267,9467,0,1 F,7,18157,18357,1,0
Sprite,Foreground,CentreLeft,"sb\font\0072.png",170.5,90 S,0,9029,,0.5 C,0,9029,,195,195,195 F,6,9465,9665,0,1 F,7,18369,18569,1,0
Sprite,Foreground,CentreLeft,"sb\font\0065.png",184.5,90 S,0,9029,,0.5 C,0,9029,,205,205,205 F,6,9143,9343,0,1 F,7,18505,18705,1,0
Sprite,Foreground,CentreLeft,"sb\font\002c.png",204,90 S,0,9029,,0.5 C,0,9029,,181,181,181 F,6,9079,9279,0,1 F,7,18555,18755,1,0
Sprite,Foreground,CentreLeft,"sb\font\004d.png",222.5,90 S,0,9029,,0.5 C,0,9029,,219,219,219 F,6,9468,9668,0,1 F,7,18324,18524,1,0
Sprite,Foreground,CentreLeft,"sb\font\0079.png",250.5,90 S,0,9029,,0.5 C,0,9029,,243,243,243 F,6,9166,9366,0,1 F,7,18454,18654,1,0
Sprite,Foreground,CentreLeft,"sb\font\006e.png",270,90 S,0,9029,,0.5 C,0,9029,,237,237,237 F,6,9469,9669,0,1 F,7,18618,18818,1,0
Sprite,Foreground,CentreLeft,"sb\font\0074.png",289,90 S,0,9029,,0.5 C,0,9029,,196,196,196 F,6,9269,9469,0,1 F,7,18148,18348,1,0
Sprite,Foreground,CentreLeft,"sb\font\0069.png",304,90 S,0,9029,,0.5 C,0,9029,,251,251,251 F,6,9062,9262,0,1 F,7,18196,18396,1,0
Sprite,Foreground,CentreLeft,"sb\font\0061.png",309.5,90 S,0,9029,,0.5 C,0,9029,,194,194,194 F,6,9046,9246,0,1 F,7,18280,18480,1,0
Sprite,Foreground,CentreLeft,"sb\font\006e.png",328.5,90 S,0,9029,,0.5 C,0,9029,,239,239,239 F,6,9098,9298,0,1 F,7,18506,18706,1,0
Sprite,Foreground,CentreLeft,"sb\font\002c.png",347.5,90 S,0,9029,,0.5 C,0,9029,,201,201,201 F,6,9030,9230,0,1 F,7,18597,18797,1,0
Sprite,Foreground,CentreLeft,"sb\font\0053.png",366,90 S,0,9029,,0.5 C,0,9029,,241,241,241 F,6,9494,9694,0,1 F,7,18170,18370,1,0
Sprite,Foreground,CentreLeft,"sb\font\0061.png",387.5,90 S,0,9029,,0.5 C,0,9029,,251,251,251 F,6,9139,9339,0,1 F,7,18471,18671,1,0
Sprite,Foreground,CentreLeft,"sb\font\0064.png",406.5,90 S,0,9029,,0.5 C,0,9029,,232,232,232 F,6,9032,9232,0,1 F,7,18203,18403,1,0
Sprite,Foreground,CentreLeft,"sb\font\004b.png",436,90 S,0,9029,,0.5 C,0,9029,,235,235,235 F,6,9033,9233,0,1 F,7,18570,18770,1,0
Sprite,Foreground,CentreLeft,"sb\font\0065.png",456,90 S,0,9029,,0.5 C,0,9029,,254,254,254 F,6,9080,9280,0,1 F,7,18379,18579,1,0
Sprite,Foreground,CentreLeft,"sb\font\0079.png",475.5,90 S,0,9029,,0.5 C,0,9029,,241,241,241 F,6,9213,9413,0,1 F,7,18548,18748,1,0
Sprite,Foreground,CentreLeft,"sb\font\0062.png",495,90 S,0,9029,,0.5 C,0,9029,,201,201,201 F,6,9324,9524,0,1 F,7,18363,18563,1,0
Sprite,Foreground,CentreLeft,"sb\font\006f.png",514.5,90 S,0,9029,,0.5 C,0,9029,,208,208,208 F,6,9401,9601,0,1 F,7,18614,18814,1,0
Sprite,Foreground,CentreLeft,"sb\font\0061.png",533.5,90 S,0,9029,,0.5 C,0,9029,,237,237,237 F,6,9476,9676,0,1 F,7,18475,18675,1,0
Sprite,Foreground,CentreLeft,"sb\font\0072.png",552.5,90 S,0,9029,,0.5 C,0,9029,,189,189,189 F,6,9445,9645,0,1 F,7,18480,18680,1,0
Sprite,Foreground,CentreLeft,"sb\font\0064.png",566.5,90 S,0,9029,,0.5 C,0,9029,,197,197,197 F,6,9065,9265,0,1 F,7,18558,18758,1,0
Sprite,Foreground,CentreLeft,"sb\font\0047.png",596,90 S,0,9029,,0.5 C,0,9029,,235,235,235 F,6,9044,9244,0,1 F,7,18183,18383,1,0
Sprite,Foreground,CentreLeft,"sb\font\0075.png",618.5,90 S,0,9029,,0.5 C,0,9029,,189,189,189 F,6,9564,9764,0,1 F,7,18087,18287,1,0
Sprite,Foreground,CentreLeft,"sb\font\0079.png",638,90 S,0,9029,,0.5 C,0,9029,,213,213,213 F,6,9588,9788,0,1 F,7,18288,18488,1,0
Sprite,Foreground,CentreLeft,"sb\font\004d.png",250,90 S,0,19528,,0.5 C,0,19528,,247,247,247 F,6,19992,20192,0,1 F,7,26396,26596,1,0
Sprite,Foreground,CentreLeft,"sb\font\0061.png",278,90 S,0,19528,,0.5 C,0,19528,,225,225,225 F,6,19535,19735,0,1 F,7,26749,26949,1,0
Sprite,Foreground,CentreLeft,"sb\font\0070.png",297,90 S,0,19528,,0.5 C,0,19528,,187,187,187 F,6,19854,20054,0,1 F,7,26645,26845,1,0
Sprite,Foreground,CentreLeft,"sb\font\0070.png",316.5,90 S,0,19528,,0.5 C,0,19528,,189,189,189 F,6,19778,19978,0,1 F,7,26721,26921,1,0
Sprite,Foreground,CentreLeft,"sb\font\0065.png",336,90 S,0,19528,,0.5 C,0,19528,,205,205,205 F,6,20013,20213,0,1 F,7,26698,26898,1,0
Sprite,Foreground,CentreLeft,"sb\font\0064.png",355.5,90 S,0,19528,,0.5 C,0,19528,,207,207,207 F,6,19909,20109,0,1 F,7,26713,26913,1,0
Sprite,Foreground,CentreLeft,"sb\font\0062.png",385,90 S,0,19528,,0.5 C,0,19528,,198,198,198 F,6,20008,20208,0,1 F,7,26587,26787,1,0
Sprite,Foreground,CentreLeft,"sb\font\0079.png",404.5,90 S,0,19528,,0.5 C,0,19528,,217,217,217 F,6,20026,20226,0,1 F,7,26477,26677,1,0
Sprite,Foreground,CentreLeft,"sb\font\0046.png",434,90 S,0,19528,,0.5 C,0,19528,,196,196,196 F,6,19669,19869,0,1 F,7,26625,26825,1,0
Sprite,Foreground,CentreLeft,"sb\font\004c.png",454,90 S,0,19528,,0.5 C,0,19528,,216,216,216 F,6,19702,19902,0,1 F,7,26369,26569,1,0
Sprite,Foreground,CentreLeft,"sb\font\0065.png",474,90 S,0,19528,,0.5 C,0,19528,,201,201,201 F,6,20018,20218,0,1 F,7,26400,26600,1,0
Sprite,Foreground,CentreLeft,"sb\font\0056.png",493.5,90 S,0,19528,,0.5 C,0,19528,,212,212,212 F,6,19685,19885,0,1 F,7,26575,26775,1,0
Sprite,Foreground,CentreLeft,"sb\font\0049.png",517.5,90 S,0,19528,,0.5 C,0,19528,,183,183,183 F,6,20010,20210,0,1 F,7,26768,26968,1,0
Sprite,Foreground,CentreLeft,"sb\font\0053.png",250,90 S,0,27028,,0.5 C,0,27028,,193,193,193 F,6,27442,27642,0,1 F,7,33078,33278,1,0
Sprite,Foreground,CentreLeft,"sb\font\0074.png",271.5,90 S,0,27028,,0.5 C,0,27028,,185,185,185 F,6,27574,27774,0,1 F,7,33165,33365,1,0
Sprite,Foreground,CentreLeft,"sb\font\006f.png",286.5,90 S,0,27028,,0.5 C,0,27028,,212,212,212 F,6,27175,27375,0,1 F,7,33354,33554,1,0
Sprite,Foreground,CentreLeft,"sb\font\0072.png",305.5,90 S,0,27028,,0.5 C,0,27028,,198,198,198 F,6,27483,27683,0,1 F,7,33438,33638,1,0
Sprite,Foreground,CentreLeft,"sb\font\0079.png",319.5,90 S,0,27028,,0.5 C,0,27028,,243,243,243 F,6,27237,27437,0,1 F,7,33507,33707,1,0
Sprite,Foreground,CentreLeft,"sb\font\0062.png",339,90 S,0,27028,,0.5 C,0,27028,,231,231,231 F,6,27266,27466,0,1 F,7,33309,33509,1,0
Sprite,Foreground,CentreLeft,"sb\font\006f.png",358.5,90 S,0,27028,,0.5 C,0,27028,,209,209,209 F,6,27347,27547,0,1 F,7,33551,33751,1,0
Sprite,Foreground,CentreLeft,"sb\font\0061.png",377.5,90 S,0,27028,,0.5 C,0,27028,,194,194,194 F,6,27461,27661,0,1 F,7,33260,33460,1,0
Sprite,Foreground,CentreLeft,"sb\font\0072.png",396.5,90 S,0,27028,,0.5 C,0,27028,,173,173,173 F,6,27462,27662,0,1 F,7,33401,33601,1,0
Sprite,Foreground,CentreLeft,"sb\font\0064.png",410.5,90 S,0,27028,,0.5 C,0,27028,,186,186,186 F,6,27211,27411,0,1 F,7,33232,33432,1,0
Sprite,Foreground,CentreLeft,"sb\font\0062.png",440,90 S,0,27028,,0.5 C,0,27028,,180,180,180 F,6,27226,27426,0,1 F,7,33512,33712,1,0
Sprite,Foreground,CentreLeft,"sb\font\0079.png",459.5,90 S,0,27028,,0.5 C,0,27028,,205,205,205 F,6,27031,27231,0,1 F,7,33617,33817,1,0
Sprite,Foreground,CentreLeft,"sb\font\0052.png",489,90 S,0,27028,,0.5 C,0,27028,,220,220,220 F,6,27310,27510,0,1 F,7,33601,33801,1,0
Sprite,Foreground,CentreLeft,"sb\font\0069.png",510.5,90 S,0,27028,,0.5 C,0,27028,,171,171,171 F,6,27494,27694,0,1 F,7,33599,33799,1,0
Sprite,Foreground,CentreLeft,"sb\font\0063.png",516,90 S,0,27028,,0.5 C,0,27028,,188,188,188 F,6,27315,27515,0,1 F,7,33532,33732,1,0
Sprite,Foreground,CentreLeft,"sb\font\0065.png",534.5,90 S,0,27028,,0.5 C,0,27028,,179,179,179 F,6,27183,27383,0,1 F,7,33338,33538,1,0
Sprite,Foreground,CentreLeft,"sb\font\0053.png",554,90 S,0,27028,,0.5 C,0,27028,,243,243,243 F,6,27524,27724,0,1 F,7,33138,33338,1,0
Sprite,Foreground,CentreLeft,"sb\font\0053.png",575.5,90 S,0,27028,,0.5 C,0,27028,,187,187,187 F,6,27064,27264,0,1 F,7,33551,33751,1,0
Sprite,Foreground,CentreLeft,"sb\font\0053.png",180,90 S,0,34528,,0.5 C,0,34528,,176,176,176 F,6,34657,34857,0,1 F,7,39614,39814,1,0
Sprite,Foreground,CentreLeft,"sb\font\0070.png",201.5,90 S,0,34528,,0.5 C,0,34528,,224,224,224 F,6,34792,34992,0,1 F,7,39227,39427,1,0
Sprite,Foreground,CentreLeft,"sb\font\0065.png",221,90 S,0,34528,,0.5 C,0,34528,,220,220,220 F,6,34658,34858,0,1 F,7,39262,39462,1,0
Sprite,Foreground,CentreLeft,"sb\font\0063.png",240.5,90 S,0,34528,,0.5 C,0,34528,,235,235,235 F,6,34878,35078,0,1 F,7,39455,39655,1,0
Sprite,Foreground,CentreLeft,"sb\font\0069.png",259,90 S,0,34528,,0.5 C,0,34528,,238,238,238 F,6,35001,35201,0,1 F,7,39267,39467,1,0
Sprite,Foreground,CentreLeft,"sb\font\0061.png",264.5,90 S,0,34528,,0.5 C,0,34528,,211,211,211 F,6,35023,35223,0,1 F,7,39355,39555,1,0
Sprite,Foreground,CentreLeft,"sb\font\006c.png",283.5,90 S,0,34528,,0.5 C,0,34528,,239,239,239 F,6,34547,34747,0,1 F,7,39129,39329,1,0
Sprite,Foreground,CentreLeft,"sb\font\0054.png",299,90 S,0,34528,,0.5 C,0,34528,,241,241,241 F,6,34825,35025,0,1 F,7,39338,39538,1,0
Sprite,Foreground,CentreLeft,"sb\font\0068.png",318,90 S,0,34528,,0.5 C,0,34528,,223,223,223 F,6,34781,34981,0,1 F,7,39504,39704,1,0
Sprite,Foreground,CentreLeft,"sb\font\0061.png",338.5,90 S,0,34528,,0.5 C,0,34528,,238,238,238 F,6,34904,35104,0,1 F,7,39173,39373,1,0
Sprite,Foreground,CentreLeft,"sb\font\006e.png",357.5,90 S,0,34528,,0.5 C,0,34528,,183,183,183 F,6,34777,34977,0,1 F,7,39606,39806,1,0
Sprite,Foreground,CentreLeft,"sb\font\006b.png",376.5,90 S,0,34528,,0.5 C,0,34528,,243,243,243 F,6,34938,35138,0,1 F,7,39032,39232,1,0
Sprite,Foreground,CentreLeft,"sb\font\0073.png",397,90 S,0,34528,,0.5 C,0,34528,,189,189,189 F,6,35096,35296,0,1 F,7,39455,39655,1,0
Sprite,Foreground,CentreLeft,"sb\font\004c.png",426.5,90 S,0,34528,,0.5 C,0,34528,,229,229,229 F,6,34647,34847,0,1 F,7,39068,39268,1,0
Sprite,Foreground,CentreLeft,"sb\font\006f.png",446.5,90 S,0,34528,,0.5 C,0,34528,,231,231,231 F,6,34633,34833,0,1 F,7,39335,39535,1,0
Sprite,Foreground,CentreLeft,"sb\font\0076.png",465.5,90 S,0,34528,,0.5 C,0,34528,,197,197,197 F,6,35059,35259,0,1 F,7,39389,39589,1,0
Sprite,Foreground,CentreLeft,"sb\font\0065.png",485.5,90 S,0,34528,,0.5 C,0,34528,,234,234,234 F,6,35052,35252,0,1 F,7,39169,39369,1,0
Sprite,Foreground,CentreLeft,"sb\font\006c.png",505,90 S,0,34528,,0.5 C,0,34528,,239,239,239 F,6,35082,35282,0,1 F,7,39290,39490,1,0
Sprite,Foreground,CentreLeft,"sb\font\0079.png",510.5,90 S,0,34528,,0.5 C,0,34528,,222,222,222 F,6,34898,35098,0,1 F,7,39344,39544,1,0
Sprite,Foreground,CentreLeft,"sb\font\005f.png",530,90 S,0,34528,,0.5 C,0,34528,,245,245,245 F,6,34962,35162,0,1 F,7,39589,39789,1,0
Sprite,Foreground,CentreLeft,"sb\font\0068.png",549.5,90 S,0,34528,,0.5 C,0,34528,,186,186,186 F,6,35065,35265,0,1 F,7,39227,39427,1,0
Sprite,Foreground,CentreLeft,"sb\font\0079.png",570,90 S,0,34528,,0.5 C,0,34528,,236,236,236 F,6,34629,34829,0,1 F,7,39541,39741,1,0
Sprite,Foreground,CentreLeft,"sb\font\0061.png",589.5,90 S,0,34528,,0.5 C,0,34528,,206,206,206 F,6,34895,35095,0,1 F,7,39099,39299,1,0
Sprite,Foreground,CentreLeft,"sb\font\0068.png",608.5,90 S,0,34528,,0.5 C,0,34528,,183,183,183 F,6,34938,35138,0,1 F,7,39335,39535,1,0
Sprite,Foreground,CentreLeft,"sb\font\0079.png",629,90 S,0,34528,,0.5 C,0,34528,,241,241,241 F,6,35072,35272,0,1 F,7,39100,39300,1,0
Sprite,Foreground,CentreLeft,"sb\font\0061.png",648.5,90 S,0,34528,,0.5 C,0,34528,,206,206,206 F,6,34926,35126,0,1 F,7,39319,39519,1,0
Sprite,Foreground,CentreLeft,"sb\font\0061.png",180,90 S,0,40528,,0.5 C,0,40528,,219,219,219 F,6,40868,41068,0,1 F,7,56007,56207,1,0
Sprite,Foreground,CentreLeft,"sb\font\0073.png",199,90 S,0,40528,,0.5 C,0,40528,,232,232,232 F,6,40538,40738,0,1 F,7,55719,55919,1,0
Sprite,Foreground,CentreLeft,"sb\font\0074.png",228.5,90 S,0,40528,,0.5 C,0,40528,,188,188,188 F,6,40759,40959,0,1 F,7,55847,56047,1,0
Sprite,Foreground,CentreLeft,"sb\font\0068.png",243.5,90 S,0,40528,,0.5 C,0,40528,,221,221,221 F,6,40964,41164,0,1 F,7,55691,55891,1,0
Sprite,Foreground,CentreLeft,"sb\font\0065.png",264,90 S,0,40528,,0.5 C,0,40528,,177,177,177 F,6,41030,41230,0,1 F,7,56120,56320,1,0
Sprite,Foreground,CentreLeft,"sb\font\0075.png",293.5,90 S,0,40528,,0.5 C,0,40528,,240,240,240 F,6,41016,41216,0,1 F,7,55547,55747,1,0
Sprite,Foreground,CentreLeft,"sb\font\006e.png",313,90 S,0,40528,,0.5 C,0,40528,,178,178,178 F,6,40688,40888,0,1 F,7,55670,55870,1,0
Sprite,Foreground,CentreLeft,"sb\font\0069.png",332,90 S,0,40528,,0.5 C,0,40528,,220,220,220 F,6,41092,41292,0,1 F,7,55935,56135,1,0
Sprite,Foreground,CentreLeft,"sb\font\0076.png",337.5,90 S,0,40528,,0.5 C,0,40528,,210,210,210 F,6,40613,40813,0,1 F,7,55747,55947,1,0
Sprite,Foreground,CentreLeft,"sb\font\0065.png",357.5,90 S,0,40528,,0.5 C,0,40528,,209,209,209 F,6,41014,41214,0,1 F,7,55964,56164,1,0
Sprite,Foreground,CentreLeft,"sb\font\0072.png",377,90 S,0,40528,,0.5 C,0,40528,,202,202,202 F,6,40632,40832,0,1 F,7,55757,55957,1,0
Sprite,Foreground,CentreLeft,"sb\font\0073.png",391,90 S,0,40528,,0.5 C,0,40528,,184,184,184 F,6,40609,40809,0,1 F,7,55951,56151,1,0
Sprite,Foreground,CentreLeft,"sb\font\0065.png",410.5,90 S,0,40528,,0.5 C,0,40528,,229,229,229 F,6,40881,41081,0,1 F,7,56113,56313,1,0
Sprite,Foreground,CentreLeft,"sb\font\002c.png",430,90 S,0,40528,,0.5 C,0,40528,,229,229,229 F,6,40712,40912,0,1 F,7,55759,55959,1,0
Sprite,Foreground,CentreLeft,"sb\font\0073.png",448.5,90 S,0,40528,,0.5 C,0,40528,,216,216,216 F,6,41089,41289,0,1 F,7,56091,56291,1,0
Sprite,Foreground,CentreLeft,"sb\font\006f.png",468,90 S,0,40528,,0.5 C,0,40528,,238,238,238 F,6,40746,40946,0,1 F,7,55732,55932,1,0
Sprite,Foreground,CentreLeft,"sb\font\0074.png",497,90 S,0,40528,,0.5 C,0,40528,,233,233,233 F,6,40631,40831,0,1 F,7,56107,56307,1,0
Sprite,Foreground,CentreLeft,"sb\font\0068.png",512,90 S,0,40528,,0.5 C,0,40528,,206,206,206 F,6,40562,40762,0,1 F,7,55624,55824,1,0
Sprite,Foreground,CentreLeft,"sb\font\0065.png",532.5,90 S,0,40528,,0.5 C,0,40528,,190,190,190 F,6,40916,41116,0,1 F,7,56057,56257,1,0
Sprite,Foreground,CentreLeft,"sb\font\0073.png",562,90 S,0,40528,,0.5 C,0,40528,,209,209,209 F,6,40710,40910,0,1 F,7,55956,56156,1,0
Sprite,Foreground,CentreLeft,"sb\font\006f.png",581.5,90 S,0,40528,,0.5 C,0,40528,,216,216,216 F,6,40618,40818,0,1 F,7,55719,55919,1,0
Sprite,Foreground,CentreLeft,"sb\font\0075.png",600.5,90 S,0,40528,,0.5 C,0,40528,,252,252,252 F,6,40568,40768,0,1 F,7,55937,56137,1,0
Sprite,Foreground,CentreLeft,"sb\font\006c.png",620,90 S,0,40528,,0.5 C,0,40528,,237,237,237 F,6,40930,41130,0,1 F,7,55936,56136,1,0
Sprite,Foreground,Centre,"sb\common_eff\s\s0.png",0,0 L,19040,6 MX,0,0,6000,480,-200 MY,0,0,6000,412,115 F,0,19040,,0.2 S,0,19040,,0.5 F,0,55528,56828,0.2,0
Sprite,Foreground,Centre,"sb\common_eff\s\s6.png",0,0 L,19494,6 MX,0,0,6000,480,-200 MY,0,0,6000,302,226 F,0,19494,,0.2 S,0,19494,,0.5 F,0,55528,56828,0.2,0
Sprite,Foreground,Centre,"sb\common_eff\s\s5.png",0,0 L,22662,6 MX,0,0,6000,480,-200 MY,0,0,6000,476,103 F,0,22662,,0.2 S,0,22662,,0.5 F,0,55528,56828,0.2,0
Sprite,Foreground,Centre,"sb\common_eff\s\s4.png",0,0 L,19034,6 MX,0,0,6000,480,-200 MY,0,0,6000,407,163 F,0,19034,,0.2 S,0,19034,,0.5 F,0,55528,56828,0.2,0
Sprite,Foreground,Centre,"sb\common_eff\s\s3.png",0,0 L,21319,6 MX,0,0,6000,480,-200 MY,0,0,6000,365,219 F,0,21319,,0.2 S,0,21319,,0.5 F,0,55528,56828,0.2,0
Sprite,Foreground,Centre,"sb\common_eff\s\s1.png",0,0 L,19699,6 MX,0,0,6000,480,-200 MY,0,0,6000,469,139 F,0,19699,,0.2 S,0,19699,,0.5 F,0,55528,56828,0.2,0
Sprite,Foreground,Centre,"sb\common_eff\s\s4.png",0,0 L,23833,6 MX,0,0,6000,480,-200 MY,0,0,6000,390,296 F,0,23833,,0.2 S,0,23833,,0.5 F,0,55528,56828,0.2,0
Sprite,Foreground,Centre,"sb\common_eff\s\s0.png",0,0 L,22398,6 MX,0,0,6000,480,-200 MY,0,0,6000,365,245 F,0,22398,,0.2 S,0,22398,,0.5 F,0,55528,56828,0.2,0
Sprite,Foreground,Centre,"sb\common_eff\s\s1.png",0,0 L,22285,6 MX,0,0,6000,480,-200 MY,0,0,6000,307,293 F,0,22285,,0.2 S,0,22285,,0.5 F,0,55528,56828,0.2,0
Sprite,Foreground,Centre,"sb\common_eff\s\s0.png",0,0 L,24425,6 MX,0,0,6000,480,-200 MY,0,0,6000,422,238 F,0,24425,,0.2 S,0,24425,,0.5 F,0,55528,56828,0.2,0
Sprite,Foreground,Centre,"sb\common_eff\s\s5.png",0,0 L,23945,6 MX,0,0,6000,480,-200 MY,0,0,6000,368,142 F,0,23945,,0.2 S,0,23945,,0.5 F,0,55528,56828,0.2,0
Sprite,Foreground,Centre,"sb\common_eff\s\s3.png",0,0 L,22468,6 MX,0,0,6000,480,-200 MY,0,0,6000,330,272 F,0,22468,,0.2 S,0,22468,,0.5 F,0,55528,56828,0.2,0
Sprite,Foreground,Centre,"sb\common_eff\s\s7.png",0,0 L,24141,6 MX,0,0,6000,480,-200 MY,0,0,6000,459,109 F,0,24141,,0.2 S,0,24141,,0.5 F,0,55528,56828,0.2,0
Sprite,Foreground,Centre,"sb\common_eff\s\s0.png",0,0 L,20389,6 MX,0,0,6000,480,-200 MY,0,0,6000,495,279 F,0,20389,,0.2 S,0,20389,,0.5 F,0,55528,56828,0.2,0
Sprite,Foreground,Centre,"sb\common_eff\s\s3.png",0,0 L,20227,6 MX,0,0,6000,480,-200 MY,0,0,6000,338,215 F,0,20227,,0.2 S,0,20227,,0.5 F,0,55528,56828,0.2,0
Sprite,Foreground,Centre,"sb\common_eff\s\s0.png",0,0 L,21134,6 MX,0,0,6000,480,-200 MY,0,0,6000,295,219 F,0,21134,,0.2 S,0,21134,,0.5 F,0,55528,56828,0.2,0
Sprite,Foreground,Centre,"sb\common_eff\s\s1.png",0,0 L,20959,6 MX,0,0,6000,480,-200 MY,0,0,6000,381,273 F,0,20959,,0.2 S,0,20959,,0.5 F,0,55528,56828,0.2,0
Sprite,Foreground,Centre,"sb\common_eff\s\s4.png",0,0 L,21545,6 MX,0,0,6000,480,-200 MY,0,0,6000,369,174 F,0,21545,,0.2 S,0,21545,,0.5 F,0,55528,56828,0.2,0
Sprite,Foreground,Centre,"sb\common_eff\s\s5.png",0,0 L,23393,6 MX,0,0,6000,480,-200 MY,0,0,6000,444,186 F,0,23393,,0.2 S,0,23393,,0.5 F,0,55528,56828,0.2,0
Sprite,Foreground,Centre,"sb\common_eff\s\s5.png",0,0 L,23425,6 MX,0,0,6000,480,-200 MY,0,0,6000,411,177 F,0,23425,,0.2 S,0,23425,,0.5 F,0,55528,56828,0.2,0
Sprite,Foreground,Centre,"sb\common_eff\s\s4.png",0,0 L,20868,6 MX,0,0,6000,480,-200 MY,0,0,6000,308,227 F,0,20868,,0.2 S,0,20868,,0.5 F,0,55528,56828,0.2,0
Sprite,Foreground,Centre,"sb\common_eff\s\s2.png",0,0 L,20246,6 MX,0,0,6000,480,-200 MY,0,0,6000,385,214 F,0,20246,,0.2 S,0,20246,,0.5 F,0,55528,56828,0.2,0
Sprite,Foreground,Centre,"sb\common_eff\s\s1.png",0,0 L,19931,6 MX,0,0,6000,480,-200 MY,0,0,6000,442,210 F,0,19931,,0.2 S,0,19931,,0.5 F,0,55528,56828,0.2,0
Sprite,Foreground,Centre,"sb\common_eff\s\s0.png",0,0 L,23692,6 MX,0,0,6000,480,-200 MY,0,0,6000,352,257 F,0,23692,,0.2 S,0,23692,,0.5 F,0,55528,56828,0.2,0
Sprite,Foreground,Centre,"sb\common_eff\s\s6.png",0,0 L,22929,6 MX,0,0,6000,480,-200 MY,0,0,6000,468,190 F,0,22929,,0.2 S,0,22929,,0.5 F,0,55528,56828,0.2,0
Sprite,Foreground,Centre,"sb\common_eff\s\s2.png",0,0 L,18903,6 MX,0,0,6000,480,-200 MY,0,0,6000,374,160 F,0,18903,,0.2 S,0,18903,,0.5 F,0,55528,56828,0.2,0
Sprite,Foreground,Centre,"sb\common_eff\s\s3.png",0,0 L,22312,6 MX,0,0,6000,480,-200 MY,0,0,6000,348,220 F,0,22312,,0.2 S,0,22312,,0.5 F,0,55528,56828,0.2,0
Sprite,Foreground,Centre,"sb\common_eff\s\s4.png",0,0 L,20445,6 MX,0,0,6000,480,-200 MY,0,0,6000,315,219 F,0,20445,,0.2 S,0,20445,,0.5 F,0,55528,56828,0.2,0
Sprite,Foreground,Centre,"sb\common_eff\s\s6.png",0,0 L,23620,6 MX,0,0,6000,480,-200 MY,0,0,6000,338,256 F,0,23620,,0.2 S,0,23620,,0.5 F,0,55528,56828,0.2,0
Sprite,Foreground,Centre,"sb\common_eff\s\s3.png",0,0 L,24697,6 MX,0,0,6000,480,-200 MY,0,0,6000,364,110 F,0,24697,,0.2 S,0,24697,,0.5 F,0,55528,56828,0.2,0
Sprite,Foreground,Centre,"sb\common_eff\s\s6.png",0,0 L,23024,6 MX,0,0,6000,480,-200 MY,0,0,6000,432,154 F,0,23024,,0.2 S,0,23024,,0.5 F,0,55528,56828,0.2,0
Sprite,Foreground,Centre,"sb\common_eff\s\s6.png",0,0 L,23960,6 MX,0,0,6000,480,-200 MY,0,0,6000,406,243 F,0,23960,,0.2 S,0,23960,,0.5 F,0,55528,56828,0.2,0
Sprite,Foreground,Centre,"sb\common_eff\s\s7.png",0,0 L,20992,6 MX,0,0,6000,480,-200 MY,0,0,6000,445,299 F,0,20992,,0.2 S,0,20992,,0.5 F,0,55528,56828,0.2,0
Sprite,Foreground,Centre,"sb\common_eff\s\s1.png",0,0 L,23538,6 MX,0,0,6000,480,-200 MY,0,0,6000,366,105 F,0,23538,,0.2 S,0,23538,,0.5 F,0,55528,56828,0.2,0
Sprite,Foreground,Centre,"sb\common_eff\s\s6.png",0,0 L,20038,6 MX,0,0,6000,480,-200 MY,0,0,6000,300,262 F,0,20038,,0.2 S,0,20038,,0.5 F,0,55528,56828,0.2,0
Sprite,Foreground,Centre,"sb\common_eff\s\s6.png",0,0 L,18992,6 MX,0,0,6000,480,-200 MY,0,0,6000,351,229 F,0,18992,,0.2 S,0,18992,,0.5 F,0,55528,56828,0.2,0
Sprite,Foreground,Centre,"sb\common_eff\s\s1.png",0,0 L,19172,6 MX,0,0,6000,480,-200 MY,0,0,6000,446,294 F,0,19172,,0.2 S,0,19172,,0.5 F,0,55528,56828,0.2,0
Sprite,Foreground,Centre,"sb\common_eff\s\s4.png",0,0 L,23699,6 MX,0,0,6000,480,-200 MY,0,0,6000,457,160 F,0,23699,,0.2 S,0,23699,,0.5 F,0,55528,56828,0.2,0
Sprite,Foreground,Centre,"sb\common_eff\s\s6.png",0,0 L,21319,6 MX,0,0,6000,480,-200 MY,0,0,6000,445,131 F,0,21319,,0.2 S,0,21319,,0.5 F,0,55528,56828,0.2,0
Sprite,Foreground,Centre,"sb\common_eff\s\s1.png",0,0 L,22649,6 MX,0,0,6000,480,-200 MY,0,0,6000,382,253 F,0,22649,,0.2 S,0,22649,,0.5 F,0,55528,56828,0.2,0
Sprite,Foreground,Centre,"sb\common_eff\s\s4.png",0,0 L,24061,6 MX,0,0,6000,480,-200 MY,0,0,6000,338,165 F,0,24061,,0.2 S,0,24061,,0.5 F,0,55528,56828,0.2,0
Sprite,Foreground,Centre,"sb\common_eff\s\s0.png",0,0 L,23606,6 MX,0,0,6000,480,-200 MY,0,0,6000,459,235 F,0,23606,,0.2 S,0,23606,,0.5 F,0,55528,56828,0.2,0
Sprite,Foreground,Centre,"sb\common_eff\s\s1.png",0,0 L,21661,6 MX,0,0,6000,480,-200 MY,0,0,6000,409,139 F,0,21661,,0.2 S,0,21661,,0.5 F,0,55528,56828,0.2,0
Sprite,Foreground,Centre,"sb\common_eff\s\s4.png",0,0 L,20825,6 MX,0,0,6000,480,-200 MY,0,0,6000,293,270 F,0,20825,,0.2 S,0,20825,,0.5 F,0,55528,56828,0.2,0
Sprite,Foreground,Centre,"sb\common_eff\s\s0.png",0,0 L,22195,6 MX,0,0,6000,480,-200 MY,0,0,6000,333,247 F,0,22195,,0.2 S,0,22195,,0.5 F,0,55528,56828,0.2,0
Sprite,Foreground,Centre,"sb\common_eff\s\s4.png",0,0 L,19235,6 MX,0,0,6000,480,-200 MY,0,0,6000,478,270 F,0,19235,,0.2 S,0,19235,,0.5 F,0,55528,56828,0.2,0
Sprite,Foreground,Centre,"sb\common_eff\s\s3.png",0,0 L,19679,6 MX,0,0,6000,480,-200 MY,0,0,6000,410,299 F,0,19679,,0.2 S,0,19679,,0.5 F,0,55528,56828,0.2,0
Sprite,Foreground,Centre,"sb\common_eff\s\s1.png",0,0 L,21101,6 MX,0,0,6000,480,-200 MY,0,0,6000,369,116 F,0,21101,,0.2 S,0,21101,,0.5 F,0,55528,56828,0.2,0
Sprite,Foreground,Centre,"sb\common_eff\s\s2.png",0,0 L,20871,6 MX,0,0,6000,480,-200 MY,0,0,6000,485,195 F,0,20871,,0.2 S,0,20871,,0.5 F,0,55528,56828,0.2,0
Sprite,Foreground,Centre,"sb\common_eff\s\s7.png",0,0 L,22516,6 MX,0,0,6000,480,-200 MY,0,0,6000,466,288 F,0,22516,,0.2 S,0,22516,,0.5 F,0,55528,56828,0.2,0
Sprite,Foreground,Centre,"sb\scene1\architecture_gray.png",320,240 S,0,3029,,0.4943357 F,0,3029,7528,0,1 F,0,55528,57028,1,0
Sprite,Foreground,Centre,"sb\common_eff\s\s7.png",0,0 L,21970,4 MX,0,0,8000,890,-200 MY,0,0,8000,357,489 F,0,21970,,0.2 F,0,55528,56828,0.2,0
Sprite,Foreground,Centre,"sb\common_eff\s\s7.png",0,0 L,21493,4 MX,0,0,8000,890,-200 MY,0,0,8000,459,404 F,0,21493,,0.2 F,0,55528,56828,0.2,0
Sprite,Foreground,Centre,"sb\common_eff\s\s2.png",0,0 L,23929,4 MX,0,0,8000,890,-200 MY,0,0,8000,377,473 F,0,23929,,0.2 F,0,55528,56828,0.2,0
Sprite,Foreground,Centre,"sb\common_eff\s\s3.png",0,0 L,26356,4 MX,0,0,8000,890,-200 MY,0,0,8000,446,437 F,0,26356,,0.2 F,0,55528,56828,0.2,0
Sprite,Foreground,Centre,"sb\common_eff\s\s0.png",0,0 L,23461,4 MX,0,0,8000,890,-200 MY,0,0,8000,307,325 F,0,23461,,0.2 F,0,55528,56828,0.2,0
Sprite,Foreground,Centre,"sb\common_eff\s\s4.png",0,0 L,25011,4 MX,0,0,8000,890,-200 MY,0,0,8000,404,325 F,0,25011,,0.2 F,0,55528,56828,0.2,0
Sprite,Foreground,Centre,"sb\common_eff\s\s1.png",0,0 L,23889,4 MX,0,0,8000,890,-200 MY,0,0,8000,475,356 F,0,23889,,0.2 F,0,55528,56828,0.2,0
Sprite,Foreground,Centre,"sb\common_eff\s\s7.png",0,0 L,21927,4 MX,0,0,8000,890,-200 MY,0,0,8000,448,399 F,0,21927,,0.2 F,0,55528,56828,0.2,0
Sprite,Foreground,Centre,"sb\common_eff\s\s7.png",0,0 L,22923,4 MX,0,0,8000,890,-200 MY,0,0,8000,401,348 F,0,22923,,0.2 F,0,55528,56828,0.2,0
Sprite,Foreground,Centre,"sb\common_eff\s\s2.png",0,0 L,20485,4 MX,0,0,8000,890,-200 MY,0,0,8000,430,425 F,0,20485,,0.2 F,0,55528,56828,0.2,0
Sprite,Foreground,Centre,"sb\common_eff\s\s4.png",0,0 L,25513,4 MX,0,0,8000,890,-200 MY,0,0,8000,321,483 F,0,25513,,0.2 F,0,55528,56828,0.2,0
Sprite,Foreground,Centre,"sb\common_eff\s\s4.png",0,0 L,22908,4 MX,0,0,8000,890,-200 MY,0,0,8000,325,457 F,0,22908,,0.2 F,0,55528,56828,0.2,0
Sprite,Foreground,Centre,"sb\common_eff\s\s2.png",0,0 L,24384,4 MX,0,0,8000,890,-200 MY,0,0,8000,452,476 F,0,24384,,0.2 F,0,55528,56828,0.2,0
Sprite,Foreground,Centre,"sb\common_eff\s\s7.png",0,0 L,22286,4 MX,0,0,8000,890,-200 MY,0,0,8000,348,461 F,0,22286,,0.2 F,0,55528,56828,0.2,0
Sprite,Foreground,Centre,"sb\common_eff\s\s1.png",0,0 L,21592,4 MX,0,0,8000,890,-200 MY,0,0,8000,354,325 F,0,21592,,0.2 F,0,55528,56828,0.2,0
Sprite,Foreground,Centre,"sb\common_eff\s\s4.png",0,0 L,19296,4 MX,0,0,8000,890,-200 MY,0,0,8000,316,449 F,0,19296,,0.2 F,0,55528,56828,0.2,0
Sprite,Foreground,Centre,"sb\common_eff\s\s7.png",0,0 L,23258,4 MX,0,0,8000,890,-200 MY,0,0,8000,363,304 F,0,23258,,0.2 F,0,55528,56828,0.2,0
Sprite,Foreground,Centre,"sb\common_eff\s\s4.png",0,0 L,26261,4 MX,0,0,8000,890,-200 MY,0,0,8000,389,346 F,0,26261,,0.2 F,0,55528,56828,0.2,0
Sprite,Foreground,Centre,"sb\common_eff\s\s3.png",0,0 L,22030,4 MX,0,0,8000,890,-200 MY,0,0,8000,349,345 F,0,22030,,0.2 F,0,55528,56828,0.2,0
Sprite,Foreground,Centre,"sb\common_eff\s\s5.png",0,0 L,22342,4 MX,0,0,8000,890,-200 MY,0,0,8000,417,326 F,0,22342,,0.2 F,0,55528,56828,0.2,0
Sprite,Foreground,Centre,"sb\common_eff\cube.png",320,240 V,0,491991,,427,240 F,2,491991,492609,0,1 F,1,492785,493050,1,0
Sprite,Foreground,Centre,"sb\common_eff\cube.png",320,240 V,0,537167,,427,240 F,2,537167,537785,0,1 F,1,537961,538314,1,0
Sprite,Foreground,Centre,"sb\common_eff\bar.png",0,0 M,0,538579,,135,230 V,2,538579,539479,0.13,0,0.13,0.15 V,2,559050,559550,0.13,0.15,0.13,0
Sprite,Foreground,Centre,"sb\common_eff\bar.png",0,0 M,0,538579,,135,250 V,2,538579,539479,0.13,0,0.13,0.15 V,2,559050,559550,0.13,0.15,0.13,0
Sprite,Foreground,Centre,"sb\common_eff\bar.png",0,0 M,0,538579,,135,270 V,2,538579,539479,0.13,0,0.13,0.15 V,2,559050,559550,0.13,0.15,0.13,0
Sprite,Foreground,Centre,"sb\common_eff\bar.png",0,0 M,0,538579,,135,290 V,2,538579,539479,0.13,0,0.13,0.15 V,2,559050,559550,0.13,0.15,0.13,0
Sprite,Foreground,Centre,"sb\common_eff\bar.png",0,0 M,0,538579,,135,310 V,2,538579,539479,0.13,0,0.13,0.15 V,2,559050,559550,0.13,0.15,0.13,0
Sprite,Foreground,Centre,"sb\common_eff\bar.png",0,0 M,0,538579,,135,350 V,2,538579,539479,0.13,0,0.13,0.15 V,2,559050,559550,0.13,0.15,0.13,0
Sprite,Foreground,CentreLeft,"sb\font2\0052.png",139.75,0 S,0,538579,,0.5 F,6,539122,539622,0,1 MY,2,539122,539622,120,150 F,7,559295,559795,1,0 MY,2,559295,559795,150,120
Sprite,Foreground,CentreLeft,"sb\font2\0069.png",165.75,0 S,0,538579,,0.5 F,6,539068,539568,0,1 MY,2,539068,539568,120,150 F,7,559398,559898,1,0 MY,2,559398,559898,150,120
Sprite,Foreground,CentreLeft,"sb\font2\0074.png",177.25,0 S,0,538579,,0.5 F,6,539029,539529,0,1 MY,2,539029,539529,120,150 F,7,559190,559690,1,0 MY,2,559190,559690,150,120
Sprite,Foreground,CentreLeft,"sb\font2\0065.png",193.25,0 S,0,538579,,0.5 F,6,539133,539633,0,1 MY,2,539133,539633,120,150 F,7,559400,559900,1,0 MY,2,559400,559900,150,120
Sprite,Foreground,CentreLeft,"sb\font2\006f.png",225.25,0 S,0,538579,,0.5 F,6,539174,539674,0,1 MY,2,539174,539674,120,150 F,7,559081,559581,1,0 MY,2,559081,559581,150,120
Sprite,Foreground,CentreLeft,"sb\font2\0066.png",249.25,0 S,0,538579,,0.5 F,6,538908,539408,0,1 MY,2,538908,539408,120,150 F,7,559146,559646,1,0 MY,2,559146,559646,150,120
Sprite,Foreground,CentreLeft,"sb\font2\0041.png",274.25,0 S,0,538579,,0.5 F,6,539158,539658,0,1 MY,2,539158,539658,120,150 F,7,559315,559815,1,0 MY,2,559315,559815,150,120
Sprite,Foreground,CentreLeft,"sb\font2\0073.png",304.25,0 S,0,538579,,0.5 F,6,538837,539337,0,1 MY,2,538837,539337,120,150 F,7,559604,560104,1,0 MY,2,559604,560104,150,120
Sprite,Foreground,CentreLeft,"sb\font2\0063.png",322.25,0 S,0,538579,,0.5 F,6,538612,539112,0,1 MY,2,538612,539112,120,150 F,7,559434,559934,1,0 MY,2,559434,559934,150,120
Sprite,Foreground,CentreLeft,"sb\font2\0065.png",341.25,0 S,0,538579,,0.5 F,6,538763,539263,0,1 MY,2,538763,539263,120,150 F,7,559649,560149,1,0 MY,2,559649,560149,150,120
Sprite,Foreground,CentreLeft,"sb\font2\006e.png",363.25,0 S,0,538579,,0.5 F,6,539098,539598,0,1 MY,2,539098,539598,120,150 F,7,559322,559822,1,0 MY,2,559322,559822,150,120
Sprite,Foreground,CentreLeft,"sb\font2\0064.png",388.25,0 S,0,538579,,0.5 F,6,538979,539479,0,1 MY,2,538979,539479,120,150 F,7,559106,559606,1,0 MY,2,559106,559606,150,120
Sprite,Foreground,CentreLeft,"sb\font2\0061.png",412.75,0 S,0,538579,,0.5 F,6,539174,539674,0,1 MY,2,539174,539674,120,150 F,7,559463,559963,1,0 MY,2,559463,559963,150,120
Sprite,Foreground,CentreLeft,"sb\font2\006e.png",435.25,0 S,0,538579,,0.5 F,6,538609,539109,0,1 MY,2,538609,539109,120,150 F,7,559579,560079,1,0 MY,2,559579,560079,150,120
Sprite,Foreground,CentreLeft,"sb\font2\0063.png",460.25,0 S,0,538579,,0.5 F,6,538999,539499,0,1 MY,2,538999,539499,120,150 F,7,559252,559752,1,0 MY,2,559252,559752,150,120
Sprite,Foreground,CentreLeft,"sb\font2\0079.png",479.25,0 S,0,538579,,0.5 F,6,539068,539568,0,1 MY,2,539068,539568,120,150 F,7,559613,560113,1,0 MY,2,559613,560113,150,120
Sprite,Foreground,CentreLeft,"sb\font2\0054.png",112.75,0 S,0,538579,,0.5 F,6,538890,539390,0,1 MY,2,538890,539390,160,190 F,7,559160,559660,1,0 MY,2,559160,559660,190,160
Sprite,Foreground,CentreLeft,"sb\font2\0068.png",136.25,0 S,0,538579,,0.5 F,6,538885,539385,0,1 MY,2,538885,539385,160,190 F,7,559280,559780,1,0 MY,2,559280,559780,190,160
Sprite,Foreground,CentreLeft,"sb\font2\0061.png",161.25,0 S,0,538579,,0.5 F,6,538805,539305,0,1 MY,2,538805,539305,160,190 F,7,559362,559862,1,0 MY,2,559362,559862,190,160
Sprite,Foreground,CentreLeft,"sb\font2\006e.png",183.75,0 S,0,538579,,0.5 F,6,538809,539309,0,1 MY,2,538809,539309,160,190 F,7,559224,559724,1,0 MY,2,559224,559724,190,160
Sprite,Foreground,CentreLeft,"sb\font2\006b.png",208.75,0 S,0,538579,,0.5 F,6,539078,539578,0,1 MY,2,539078,539578,160,190 F,7,559524,560024,1,0 MY,2,559524,560024,190,160
Sprite,Foreground,CentreLeft,"sb\font2\0079.png",241.75,0 S,0,538579,,0.5 F,6,539016,539516,0,1 MY,2,539016,539516,160,190 F,7,559292,559792,1,0 MY,2,559292,559792,190,160
Sprite,Foreground,CentreLeft,"sb\font2\006f.png",263.75,0 S,0,538579,,0.5 F,6,538900,539400,0,1 MY,2,538900,539400,160,190 F,7,559304,559804,1,0 MY,2,559304,559804,190,160
Sprite,Foreground,CentreLeft,"sb\font2\0075.png",287.75,0 S,0,538579,,0.5 F,6,538623,539123,0,1 MY,2,538623,539123,160,190 F,7,559250,559750,1,0 MY,2,559250,559750,190,160
Sprite,Foreground,CentreLeft,"sb\font2\0066.png",322.25,0 S,0,538579,,0.5 F,6,539128,539628,0,1 MY,2,539128,539628,160,190 F,7,559515,560015,1,0 MY,2,559515,560015,190,160
Sprite,Foreground,CentreLeft,"sb\font2\006f.png",337.25,0 S,0,538579,,0.5 F,6,538970,539470,0,1 MY,2,538970,539470,160,190 F,7,559544,560044,1,0 MY,2,559544,560044,190,160
Sprite,Foreground,CentreLeft,"sb\font2\0072.png",361.25,0 S,0,538579,,0.5 F,6,538721,539221,0,1 MY,2,538721,539221,160,190 F,7,559553,560053,1,0 MY,2,559553,560053,190,160
Sprite,Foreground,CentreLeft,"sb\font2\0070.png",387.25,0 S,0,538579,,0.5 F,6,538913,539413,0,1 MY,2,538913,539413,160,190 F,7,559320,559820,1,0 MY,2,559320,559820,190,160
Sprite,Foreground,CentreLeft,"sb\font2\006c.png",411.75,0 S,0,538579,,0.5 F,6,539024,539524,0,1 MY,2,539024,539524,160,190 F,7,559482,559982,1,0 MY,2,559482,559982,190,160
Sprite,Foreground,CentreLeft,"sb\font2\0061.png",423.25,0 S,0,538579,,0.5 F,6,538932,539432,0,1 MY,2,538932,539432,160,190 F,7,559087,559587,1,0 MY,2,559087,559587,190,160
Sprite,Foreground,CentreLeft,"sb\font2\0079.png",445.75,0 S,0,538579,,0.5 F,6,538688,539188,0,1 MY,2,538688,539188,160,190 F,7,559074,559574,1,0 MY,2,559074,559574,190,160
Sprite,Foreground,CentreLeft,"sb\font2\0069.png",467.75,0 S,0,538579,,0.5 F,6,539109,539609,0,1 MY,2,539109,539609,160,190 F,7,559442,559942,1,0 MY,2,559442,559942,190,160
Sprite,Foreground,CentreLeft,"sb\font2\006e.png",479.25,0 S,0,538579,,0.5 F,6,538720,539220,0,1 MY,2,538720,539220,160,190 F,7,559415,559915,1,0 MY,2,559415,559915,190,160
Sprite,Foreground,CentreLeft,"sb\font2\0067.png",504.25,0 S,0,538579,,0.5 F,6,538963,539463,0,1 MY,2,538963,539463,160,190 F,7,559519,560019,1,0 MY,2,559519,560019,190,160
Sprite,Foreground,CentreLeft,"sb\font2\004d.png",140,0 S,0,538579,,0.24 F,6,539138,539638,0,1 MY,2,539138,539638,200,230 F,7,559077,559577,1,0 MY,2,559077,559577,230,200
Sprite,Foreground,CentreLeft,"sb\font2\0061.png",156.32,0 S,0,538579,,0.24 F,6,538906,539406,0,1 MY,2,538906,539406,200,230 F,7,559370,559870,1,0 MY,2,559370,559870,230,200
Sprite,Foreground,CentreLeft,"sb\font2\0070.png",167.12,0 S,0,538579,,0.24 F,6,538733,539233,0,1 MY,2,538733,539233,200,230 F,7,559060,559560,1,0 MY,2,559060,559560,230,200
Sprite,Foreground,CentreLeft,"sb\font2\0073.png",178.88,0 S,0,538579,,0.24 F,6,538679,539179,0,1 MY,2,538679,539179,200,230 F,7,559094,559594,1,0 MY,2,559094,559594,230,200
Sprite,Foreground,CentreLeft,"sb\font2\0065.png",187.52,0 S,0,538579,,0.24 F,6,539014,539514,0,1 MY,2,539014,539514,200,230 F,7,559207,559707,1,0 MY,2,559207,559707,230,200
Sprite,Foreground,CentreLeft,"sb\font2\0074.png",198.08,0 S,0,538579,,0.24 F,6,538914,539414,0,1 MY,2,538914,539414,200,230 F,7,559390,559890,1,0 MY,2,559390,559890,230,200
Sprite,Foreground,CentreLeft,"sb\font2\0068.png",215.76,0 S,0,538579,,0.24 F,6,538947,539447,0,1 MY,2,538947,539447,200,230 F,7,559480,559980,1,0 MY,2,559480,559980,230,200
Sprite,Foreground,CentreLeft,"sb\font2\006f.png",227.76,0 S,0,538579,,0.24 F,6,539158,539658,0,1 MY,2,539158,539658,200,230 F,7,559604,560104,1,0 MY,2,559604,560104,230,200
Sprite,Foreground,CentreLeft,"sb\font2\0073.png",239.28,0 S,0,538579,,0.24 F,6,538990,539490,0,1 MY,2,538990,539490,200,230 F,7,559645,560145,1,0 MY,2,559645,560145,230,200
Sprite,Foreground,CentreLeft,"sb\font2\0074.png",247.92,0 S,0,538579,,0.24 F,6,539000,539500,0,1 MY,2,539000,539500,200,230 F,7,559458,559958,1,0 MY,2,559458,559958,230,200
Sprite,Foreground,CentreLeft,"sb\font2\0065.png",255.6,0 S,0,538579,,0.24 F,6,538954,539454,0,1 MY,2,538954,539454,200,230 F,7,559085,559585,1,0 MY,2,559085,559585,230,200
Sprite,Foreground,CentreLeft,"sb\font2\0064.png",266.16,0 S,0,538579,,0.24 F,6,538964,539464,0,1 MY,2,538964,539464,200,230 F,7,559443,559943,1,0 MY,2,559443,559943,230,200
Sprite,Foreground,CentreLeft,"sb\font2\0062.png",287.92,0 S,0,538579,,0.24 F,6,539138,539638,0,1 MY,2,539138,539638,200,230 F,7,559242,559742,1,0 MY,2,559242,559742,230,200
Sprite,Foreground,CentreLeft,"sb\font2\0079.png",299.44,0 S,0,538579,,0.24 F,6,538643,539143,0,1 MY,2,538643,539143,200,230 F,7,559524,560024,1,0 MY,2,559524,560024,230,200
Sprite,Foreground,CentreLeft,"sb\font2\0046.png",320,0 S,0,538579,,0.24 F,6,539122,539622,0,1 MY,2,539122,539622,200,230 F,7,559094,559594,1,0 MY,2,559094,559594,230,200
Sprite,Foreground,CentreLeft,"sb\font2\004c.png",331.04,0 S,0,538579,,0.24 F,6,538680,539180,0,1 MY,2,538680,539180,200,230 F,7,559605,560105,1,0 MY,2,559605,560105,230,200
Sprite,Foreground,CentreLeft,"sb\font2\0065.png",341.36,0 S,0,538579,,0.24 F,6,539049,539549,0,1 MY,2,539049,539549,200,230 F,7,559225,559725,1,0 MY,2,559225,559725,230,200
Sprite,Foreground,CentreLeft,"sb\font2\0056.png",351.92,0 S,0,538579,,0.24 F,6,538820,539320,0,1 MY,2,538820,539320,200,230 F,7,559572,560072,1,0 MY,2,559572,560072,230,200
Sprite,Foreground,CentreLeft,"sb\font2\0049.png",365.36,0 S,0,538579,,0.24 F,6,538717,539217,0,1 MY,2,538717,539217,200,230 F,7,559120,559620,1,0 MY,2,559120,559620,230,200
Sprite,Foreground,CentreLeft,"sb\font2\004d.png",140,0 S,0,538579,,0.24 F,6,538918,539418,0,1 MY,2,538918,539418,220,250 F,7,559181,559681,1,0 MY,2,559181,559681,250,220
Sprite,Foreground,CentreLeft,"sb\font2\0061.png",156.32,0 S,0,538579,,0.24 F,6,538982,539482,0,1 MY,2,538982,539482,220,250 F,7,559339,559839,1,0 MY,2,559339,559839,250,220
Sprite,Foreground,CentreLeft,"sb\font2\0070.png",167.12,0 S,0,538579,,0.24 F,6,539014,539514,0,1 MY,2,539014,539514,220,250 F,7,559338,559838,1,0 MY,2,559338,559838,250,220
Sprite,Foreground,CentreLeft,"sb\font2\0070.png",178.88,0 S,0,538579,,0.24 F,6,538676,539176,0,1 MY,2,538676,539176,220,250 F,7,559062,559562,1,0 MY,2,559062,559562,250,220
Sprite,Foreground,CentreLeft,"sb\font2\0065.png",190.64,0 S,0,538579,,0.24 F,6,538847,539347,0,1 MY,2,538847,539347,220,250 F,7,559329,559829,1,0 MY,2,559329,559829,250,220
Sprite,Foreground,CentreLeft,"sb\font2\0064.png",201.2,0 S,0,538579,,0.24 F,6,538623,539123,0,1 MY,2,538623,539123,220,250 F,7,559625,560125,1,0 MY,2,559625,560125,250,220
Sprite,Foreground,CentreLeft,"sb\font2\0062.png",222.96,0 S,0,538579,,0.24 F,6,539160,539660,0,1 MY,2,539160,539660,220,250 F,7,559196,559696,1,0 MY,2,559196,559696,250,220
Sprite,Foreground,CentreLeft,"sb\font2\0079.png",234.48,0 S,0,538579,,0.24 F,6,539122,539622,0,1 MY,2,539122,539622,220,250 F,7,559626,560126,1,0 MY,2,559626,560126,250,220
Sprite,Foreground,CentreLeft,"sb\font2\0046.png",255.04,0 S,0,538579,,0.24 F,6,538672,539172,0,1 MY,2,538672,539172,220,250 F,7,559574,560074,1,0 MY,2,559574,560074,250,220
Sprite,Foreground,CentreLeft,"sb\font2\004c.png",266.08,0 S,0,538579,,0.24 F,6,538821,539321,0,1 MY,2,538821,539321,220,250 F,7,559583,560083,1,0 MY,2,559583,560083,250,220
Sprite,Foreground,CentreLeft,"sb\font2\0065.png",276.4,0 S,0,538579,,0.24 F,6,538940,539440,0,1 MY,2,538940,539440,220,250 F,7,559611,560111,1,0 MY,2,559611,560111,250,220
Sprite,Foreground,CentreLeft,"sb\font2\0056.png",286.96,0 S,0,538579,,0.24 F,6,539124,539624,0,1 MY,2,539124,539624,220,250 F,7,559275,559775,1,0 MY,2,559275,559775,250,220
Sprite,Foreground,CentreLeft,"sb\font2\0049.png",300.4,0 S,0,538579,,0.24 F,6,538679,539179,0,1 MY,2,538679,539179,220,250 F,7,559440,559940,1,0 MY,2,559440,559940,250,220
Sprite,Foreground,CentreLeft,"sb\font2\0053.png",140,0 S,0,538579,,0.24 F,6,538634,539134,0,1 MY,2,538634,539134,240,270 F,7,559429,559929,1,0 MY,2,559429,559929,270,240
Sprite,Foreground,CentreLeft,"sb\font2\0074.png",149.84,0 S,0,538579,,0.24 F,6,539049,539549,0,1 MY,2,539049,539549,240,270 F,7,559243,559743,1,0 MY,2,559243,559743,270,240
Sprite,Foreground,CentreLeft,"sb\font2\006f.png",157.52,0 S,0,538579,,0.24 F,6,538767,539267,0,1 MY,2,538767,539267,240,270 F,7,559107,559607,1,0 MY,2,559107,559607,270,240
Sprite,Foreground,CentreLeft,"sb\font2\0072.png",169.04,0 S,0,538579,,0.24 F,6,538995,539495,0,1 MY,2,538995,539495,240,270 F,7,559390,559890,1,0 MY,2,559390,559890,270,240
Sprite,Foreground,CentreLeft,"sb\font2\0079.png",176.72,0 S,0,538579,,0.24 F,6,538834,539334,0,1 MY,2,538834,539334,240,270 F,7,559340,559840,1,0 MY,2,559340,559840,270,240
Sprite,Foreground,CentreLeft,"sb\font2\0062.png",187.28,0 S,0,538579,,0.24 F,6,538583,539083,0,1 MY,2,538583,539083,240,270 F,7,559136,559636,1,0 MY,2,559136,559636,270,240
Sprite,Foreground,CentreLeft,"sb\font2\006f.png",198.8,0 S,0,538579,,0.24 F,6,538779,539279,0,1 MY,2,538779,539279,240,270 F,7,559146,559646,1,0 MY,2,559146,559646,270,240
Sprite,Foreground,CentreLeft,"sb\font2\0061.png",210.32,0 S,0,538579,,0.24 F,6,538875,539375,0,1 MY,2,538875,539375,240,270 F,7,559596,560096,1,0 MY,2,559596,560096,270,240
Sprite,Foreground,CentreLeft,"sb\font2\0072.png",221.12,0 S,0,538579,,0.24 F,6,539102,539602,0,1 MY,2,539102,539602,240,270 F,7,559435,559935,1,0 MY,2,559435,559935,270,240
Sprite,Foreground,CentreLeft,"sb\font2\0064.png",228.8,0 S,0,538579,,0.24 F,6,539008,539508,0,1 MY,2,539008,539508,240,270 F,7,559618,560118,1,0 MY,2,559618,560118,270,240
Sprite,Foreground,CentreLeft,"sb\font2\0062.png",250.56,0 S,0,538579,,0.24 F,6,538642,539142,0,1 MY,2,538642,539142,240,270 F,7,559604,560104,1,0 MY,2,559604,560104,270,240
Sprite,Foreground,CentreLeft,"sb\font2\0079.png",262.08,0 S,0,538579,,0.24 F,6,538591,539091,0,1 MY,2,538591,539091,240,270 F,7,559543,560043,1,0 MY,2,559543,560043,270,240
Sprite,Foreground,CentreLeft,"sb\font2\0052.png",282.64,0 S,0,538579,,0.24 F,6,538661,539161,0,1 MY,2,538661,539161,240,270 F,7,559366,559866,1,0 MY,2,559366,559866,270,240
Sprite,Foreground,CentreLeft,"sb\font2\0069.png",295.12,0 S,0,538579,,0.24 F,6,538859,539359,0,1 MY,2,538859,539359,240,270 F,7,559254,559754,1,0 MY,2,559254,559754,270,240
Sprite,Foreground,CentreLeft,"sb\font2\0063.png",300.64,0 S,0,538579,,0.24 F,6,538888,539388,0,1 MY,2,538888,539388,240,270 F,7,559427,559927,1,0 MY,2,559427,559927,270,240
Sprite,Foreground,CentreLeft,"sb\font2\0065.png",309.76,0 S,0,538579,,0.24 F,6,538765,539265,0,1 MY,2,538765,539265,240,270 F,7,559227,559727,1,0 MY,2,559227,559727,270,240
Sprite,Foreground,CentreLeft,"sb\font2\0053.png",320.32,0 S,0,538579,,0.24 F,6,538767,539267,0,1 MY,2,538767,539267,240,270 F,7,559094,559594,1,0 MY,2,559094,559594,270,240
Sprite,Foreground,CentreLeft,"sb\font2\0053.png",330.16,0 S,0,538579,,0.24 F,6,538811,539311,0,1 MY,2,538811,539311,240,270 F,7,559368,559868,1,0 MY,2,559368,559868,270,240
Sprite,Foreground,CentreLeft,"sb\font2\0054.png",140,0 S,0,538579,,0.24 F,6,538721,539221,0,1 MY,2,538721,539221,260,290 F,7,559125,559625,1,0 MY,2,559125,559625,290,260
Sprite,Foreground,CentreLeft,"sb\font2\0068.png",151.28,0 S,0,538579,,0.24 F,6,538669,539169,0,1 MY,2,538669,539169,260,290 F,7,559637,560137,1,0 MY,2,559637,560137,290,260
Sprite,Foreground,CentreLeft,"sb\font2\0061.png",163.28,0 S,0,538579,,0.24 F,6,538738,539238,0,1 MY,2,538738,539238,260,290 F,7,559290,559790,1,0 MY,2,559290,559790,290,260
Sprite,Foreground,CentreLeft,"sb\font2\006e.png",174.08,0 S,0,538579,,0.24 F,6,539069,539569,0,1 MY,2,539069,539569,260,290 F,7,559303,559803,1,0 MY,2,559303,559803,290,260
Sprite,Foreground,CentreLeft,"sb\font2\006b.png",186.08,0 S,0,538579,,0.24 F,6,539150,539650,0,1 MY,2,539150,539650,260,290 F,7,559057,559557,1,0 MY,2,559057,559557,290,260
Sprite,Foreground,CentreLeft,"sb\font2\0073.png",197.12,0 S,0,538579,,0.24 F,6,538902,539402,0,1 MY,2,538902,539402,260,290 F,7,559195,559695,1,0 MY,2,559195,559695,290,260
Sprite,Foreground,CentreLeft,"sb\font2\0066.png",215.76,0 S,0,538579,,0.24 F,6,538816,539316,0,1 MY,2,538816,539316,260,290 F,7,559464,559964,1,0 MY,2,559464,559964,290,260
Sprite,Foreground,CentreLeft,"sb\font2\006f.png",222.96,0 S,0,538579,,0.24 F,6,538617,539117,0,1 MY,2,538617,539117,260,290 F,7,559210,559710,1,0 MY,2,559210,559710,290,260
Sprite,Foreground,CentreLeft,"sb\font2\0072.png",234.48,0 S,0,538579,,0.24 F,6,538974,539474,0,1 MY,2,538974,539474,260,290 F,7,559182,559682,1,0 MY,2,559182,559682,290,260
Sprite,Foreground,CentreLeft,"sb\font2\006c.png",252.16,0 S,0,538579,,0.24 F,6,538906,539406,0,1 MY,2,538906,539406,260,290 F,7,559151,559651,1,0 MY,2,559151,559651,290,260
Sprite,Foreground,CentreLeft,"sb\font2\006f.png",257.68,0 S,0,538579,,0.24 F,6,538946,539446,0,1 MY,2,538946,539446,260,290 F,7,559626,560126,1,0 MY,2,559626,560126,290,260
Sprite,Foreground,CentreLeft,"sb\font2\0076.png",269.2,0 S,0,538579,,0.24 F,6,538689,539189,0,1 MY,2,538689,539189,260,290 F,7,559522,560022,1,0 MY,2,559522,560022,290,260
Sprite,Foreground,CentreLeft,"sb\font2\0065.png",279.76,0 S,0,538579,,0.24 F,6,538955,539455,0,1 MY,2,538955,539455,260,290 F,7,559262,559762,1,0 MY,2,559262,559762,290,260
Sprite,Foreground,CentreLeft,"sb\font2\006c.png",290.32,0 S,0,538579,,0.24 F,6,538609,539109,0,1 MY,2,538609,539109,260,290 F,7,559527,560027,1,0 MY,2,559527,560027,290,260
Sprite,Foreground,CentreLeft,"sb\font2\0079.png",295.84,0 S,0,538579,,0.24 F,6,538682,539182,0,1 MY,2,538682,539182,260,290 F,7,559477,559977,1,0 MY,2,559477,559977,290,260
Sprite,Foreground,CentreLeft,"sb\font2\005f.png",306.4,0 S,0,538579,,0.24 F,6,539076,539576,0,1 MY,2,539076,539576,260,290 F,7,559206,559706,1,0 MY,2,559206,559706,290,260
Sprite,Foreground,CentreLeft,"sb\font2\0068.png",315.28,0 S,0,538579,,0.24 F,6,539043,539543,0,1 MY,2,539043,539543,260,290 F,7,559627,560127,1,0 MY,2,559627,560127,290,260
Sprite,Foreground,CentreLeft,"sb\font2\0079.png",327.28,0 S,0,538579,,0.24 F,6,538983,539483,0,1 MY,2,538983,539483,260,290 F,7,559498,559998,1,0 MY,2,559498,559998,290,260
Sprite,Foreground,CentreLeft,"sb\font2\0061.png",337.84,0 S,0,538579,,0.24 F,6,538873,539373,0,1 MY,2,538873,539373,260,290 F,7,559491,559991,1,0 MY,2,559491,559991,290,260
Sprite,Foreground,CentreLeft,"sb\font2\0068.png",348.64,0 S,0,538579,,0.24 F,6,538987,539487,0,1 MY,2,538987,539487,260,290 F,7,559472,559972,1,0 MY,2,559472,559972,290,260
Sprite,Foreground,CentreLeft,"sb\font2\0079.png",360.64,0 S,0,538579,,0.24 F,6,538643,539143,0,1 MY,2,538643,539143,260,290 F,7,559408,559908,1,0 MY,2,559408,559908,290,260
Sprite,Foreground,CentreLeft,"sb\font2\0061.png",371.2,0 S,0,538579,,0.24 F,6,539100,539600,0,1 MY,2,539100,539600,260,290 F,7,559125,559625,1,0 MY,2,559125,559625,290,260
Sprite,Foreground,CentreLeft,"sb\font2\0027.png",381.9999,0 S,0,538579,,0.24 F,6,539171,539671,0,1 MY,2,539171,539671,260,290 F,7,559184,559684,1,0 MY,2,559184,559684,290,260
Sprite,Foreground,CentreLeft,"sb\font2\0073.png",386.0799,0 S,0,538579,,0.24 F,6,539145,539645,0,1 MY,2,539145,539645,260,290 F,7,559545,560045,1,0 MY,2,559545,560045,290,260
Sprite,Foreground,CentreLeft,"sb\font2\0069.png",404.7199,0 S,0,538579,,0.24 F,6,538918,539418,0,1 MY,2,538918,539418,260,290 F,7,559076,559576,1,0 MY,2,559076,559576,290,260
Sprite,Foreground,CentreLeft,"sb\font2\006d.png",410.2399,0 S,0,538579,,0.24 F,6,538960,539460,0,1 MY,2,538960,539460,260,290 F,7,559106,559606,1,0 MY,2,559106,559606,290,260
Sprite,Foreground,CentreLeft,"sb\font2\0061.png",426.7999,0 S,0,538579,,0.24 F,6,538895,539395,0,1 MY,2,538895,539395,260,290 F,7,559181,559681,1,0 MY,2,559181,559681,290,260
Sprite,Foreground,CentreLeft,"sb\font2\0067.png",437.5999,0 S,0,538579,,0.24 F,6,539129,539629,0,1 MY,2,539129,539629,260,290 F,7,559215,559715,1,0 MY,2,559215,559715,290,260
Sprite,Foreground,CentreLeft,"sb\font2\0065.png",449.3599,0 S,0,538579,,0.24 F,6,539143,539643,0,1 MY,2,539143,539643,260,290 F,7,559268,559768,1,0 MY,2,559268,559768,290,260
Sprite,Foreground,CentreLeft,"sb\font2\0070.png",469.9199,0 S,0,538579,,0.24 F,6,538790,539290,0,1 MY,2,538790,539290,260,290 F,7,559597,560097,1,0 MY,2,559597,560097,290,260
Sprite,Foreground,CentreLeft,"sb\font2\0072.png",481.6799,0 S,0,538579,,0.24 F,6,538789,539289,0,1 MY,2,538789,539289,260,290 F,7,559062,559562,1,0 MY,2,559062,559562,290,260
Sprite,Foreground,CentreLeft,"sb\font2\006f.png",489.3599,0 S,0,538579,,0.24 F,6,538729,539229,0,1 MY,2,538729,539229,260,290 F,7,559194,559694,1,0 MY,2,559194,559694,290,260
Sprite,Foreground,CentreLeft,"sb\font2\0063.png",500.8799,0 S,0,538579,,0.24 F,6,538688,539188,0,1 MY,2,538688,539188,260,290 F,7,559217,559717,1,0 MY,2,559217,559717,290,260
Sprite,Foreground,CentreLeft,"sb\font2\0065.png",509.9999,0 S,0,538579,,0.24 F,6,538860,539360,0,1 MY,2,538860,539360,260,290 F,7,559309,559809,1,0 MY,2,559309,559809,290,260
Sprite,Foreground,CentreLeft,"sb\font2\0073.png",520.5599,0 S,0,538579,,0.24 F,6,538588,539088,0,1 MY,2,538588,539088,260,290 F,7,559239,559739,1,0 MY,2,559239,559739,290,260
Sprite,Foreground,CentreLeft,"sb\font2\0073.png",529.1999,0 S,0,538579,,0.24 F,6,539044,539544,0,1 MY,2,539044,539544,260,290 F,7,559604,560104,1,0 MY,2,559604,560104,290,260
Sprite,Foreground,CentreLeft,"sb\font2\0069.png",537.8399,0 S,0,538579,,0.24 F,6,538902,539402,0,1 MY,2,538902,539402,260,290 F,7,559555,560055,1,0 MY,2,559555,560055,290,260
Sprite,Foreground,CentreLeft,"sb\font2\006e.png",543.3599,0 S,0,538579,,0.24 F,6,538615,539115,0,1 MY,2,538615,539115,260,290 F,7,559059,559559,1,0 MY,2,559059,559559,290,260
Sprite,Foreground,CentreLeft,"sb\font2\0067.png",555.3599,0 S,0,538579,,0.24 F,6,538634,539134,0,1 MY,2,538634,539134,260,290 F,7,559085,559585,1,0 MY,2,559085,559585,290,260
Sprite,Foreground,CentreLeft,"sb\font2\0053.png",140,0 S,0,538579,,0.24 F,6,539058,539558,0,1 MY,2,539058,539558,280,310 F,7,559291,559791,1,0 MY,2,559291,559791,310,280
Sprite,Foreground,CentreLeft,"sb\font2\006f.png",149.84,0 S,0,538579,,0.24 F,6,538824,539324,0,1 MY,2,538824,539324,280,310 F,7,559185,559685,1,0 MY,2,559185,559685,310,280
Sprite,Foreground,CentreLeft,"sb\font2\006e.png",161.36,0 S,0,538579,,0.24 F,6,538716,539216,0,1 MY,2,538716,539216,280,310 F,7,559127,559627,1,0 MY,2,559127,559627,310,280
Sprite,Foreground,CentreLeft,"sb\font2\0067.png",173.36,0 S,0,538579,,0.24 F,6,538624,539124,0,1 MY,2,538624,539124,280,310 F,7,559491,559991,1,0 MY,2,559491,559991,310,280
Sprite,Foreground,CentreLeft,"sb\font2\0062.png",195.12,0 S,0,538579,,0.24 F,6,539019,539519,0,1 MY,2,539019,539519,280,310 F,7,559382,559882,1,0 MY,2,559382,559882,310,280
Sprite,Foreground,CentreLeft,"sb\font2\0079.png",206.64,0 S,0,538579,,0.24 F,6,538606,539106,0,1 MY,2,538606,539106,280,310 F,7,559289,559789,1,0 MY,2,559289,559789,310,280
Sprite,Foreground,CentreLeft,"sb\font2\0044.png",227.2,0 S,0,538579,,0.24 F,6,539062,539562,0,1 MY,2,539062,539562,280,310 F,7,559126,559626,1,0 MY,2,559126,559626,310,280
Sprite,Foreground,CentreLeft,"sb\font2\0065.png",240.88,0 S,0,538579,,0.24 F,6,538809,539309,0,1 MY,2,538809,539309,280,310 F,7,559511,560011,1,0 MY,2,559511,560011,310,280
Sprite,Foreground,CentreLeft,"sb\font2\006c.png",251.44,0 S,0,538579,,0.24 F,6,538791,539291,0,1 MY,2,538791,539291,280,310 F,7,559101,559601,1,0 MY,2,559101,559601,310,280
Sprite,Foreground,CentreLeft,"sb\font2\0074.png",256.96,0 S,0,538579,,0.24 F,6,538787,539287,0,1 MY,2,538787,539287,280,310 F,7,559426,559926,1,0 MY,2,559426,559926,310,280
Sprite,Foreground,CentreLeft,"sb\font2\0061.png",264.64,0 S,0,538579,,0.24 F,6,539144,539644,0,1 MY,2,539144,539644,280,310 F,7,559475,559975,1,0 MY,2,559475,559975,310,280
Sprite,Foreground,CentreLeft,"sb\font2\0048.png",275.44,0 S,0,538579,,0.24 F,6,539032,539532,0,1 MY,2,539032,539532,280,310 F,7,559356,559856,1,0 MY,2,559356,559856,310,280
Sprite,Foreground,CentreLeft,"sb\font2\002c.png",290.08,0 S,0,538579,,0.24 F,6,539064,539564,0,1 MY,2,539064,539564,280,310 F,7,559199,559699,1,0 MY,2,559199,559699,310,280
Sprite,Foreground,CentreLeft,"sb\font2\0047.png",305.36,0 S,0,538579,,0.24 F,6,538739,539239,0,1 MY,2,538739,539239,280,310 F,7,559477,559977,1,0 MY,2,559477,559977,310,280
Sprite,Foreground,CentreLeft,"sb\font2\0061.png",319.28,0 S,0,538579,,0.24 F,6,538911,539411,0,1 MY,2,538911,539411,280,310 F,7,559460,559960,1,0 MY,2,559460,559960,310,280
Sprite,Foreground,CentreLeft,"sb\font2\0072.png",330.08,0 S,0,538579,,0.24 F,6,538673,539173,0,1 MY,2,538673,539173,280,310 F,7,559591,560091,1,0 MY,2,559591,560091,310,280
Sprite,Foreground,CentreLeft,"sb\font2\0064.png",337.7599,0 S,0,538579,,0.24 F,6,538688,539188,0,1 MY,2,538688,539188,280,310 F,7,559579,560079,1,0 MY,2,559579,560079,310,280
Sprite,Foreground,CentreLeft,"sb\font2\0065.png",349.52,0 S,0,538579,,0.24 F,6,538917,539417,0,1 MY,2,538917,539417,280,310 F,7,559619,560119,1,0 MY,2,559619,560119,310,280
Sprite,Foreground,CentreLeft,"sb\font2\006e.png",360.08,0 S,0,538579,,0.24 F,6,538880,539380,0,1 MY,2,538880,539380,280,310 F,7,559124,559624,1,0 MY,2,559124,559624,310,280
Sprite,Foreground,CentreLeft,"sb\font2\0073.png",372.08,0 S,0,538579,,0.24 F,6,539054,539554,0,1 MY,2,539054,539554,280,310 F,7,559122,559622,1,0 MY,2,559122,559622,310,280
Sprite,Foreground,CentreLeft,"sb\font2\002c.png",380.72,0 S,0,538579,,0.24 F,6,538678,539178,0,1 MY,2,538678,539178,280,310 F,7,559318,559818,1,0 MY,2,559318,559818,310,280
Sprite,Foreground,CentreLeft,"sb\font2\0067.png",396,0 S,0,538579,,0.24 F,6,538906,539406,0,1 MY,2,538906,539406,280,310 F,7,559598,560098,1,0 MY,2,559598,560098,310,280
Sprite,Foreground,CentreLeft,"sb\font2\006c.png",407.76,0 S,0,538579,,0.24 F,6,538811,539311,0,1 MY,2,538811,539311,280,310 F,7,559420,559920,1,0 MY,2,559420,559920,310,280
Sprite,Foreground,CentreLeft,"sb\font2\0061.png",413.28,0 S,0,538579,,0.24 F,6,538885,539385,0,1 MY,2,538885,539385,280,310 F,7,559439,559939,1,0 MY,2,559439,559939,310,280
Sprite,Foreground,CentreLeft,"sb\font2\0073.png",424.08,0 S,0,538579,,0.24 F,6,538902,539402,0,1 MY,2,538902,539402,280,310 F,7,559511,560011,1,0 MY,2,559511,560011,310,280
Sprite,Foreground,CentreLeft,"sb\font2\0073.png",432.72,0 S,0,538579,,0.24 F,6,538872,539372,0,1 MY,2,538872,539372,280,310 F,7,559635,560135,1,0 MY,2,559635,560135,310,280
Sprite,Foreground,CentreLeft,"sb\font2\0065.png",441.36,0 S,0,538579,,0.24 F,6,538979,539479,0,1 MY,2,538979,539479,280,310 F,7,559328,559828,1,0 MY,2,559328,559828,310,280
Sprite,Foreground,CentreLeft,"sb\font2\002c.png",451.92,0 S,0,538579,,0.24 F,6,538648,539148,0,1 MY,2,538648,539148,280,310 F,7,559103,559603,1,0 MY,2,559103,559603,310,280
Sprite,Foreground,CentreLeft,"sb\font2\004d.png",467.2,0 S,0,538579,,0.24 F,6,538967,539467,0,1 MY,2,538967,539467,280,310 F,7,559589,560089,1,0 MY,2,559589,560089,310,280
Sprite,Foreground,CentreLeft,"sb\font2\0075.png",483.52,0 S,0,538579,,0.24 F,6,538828,539328,0,1 MY,2,538828,539328,280,310 F,7,559637,560137,1,0 MY,2,559637,560137,310,280
Sprite,Foreground,CentreLeft,"sb\font2\0073.png",495.28,0 S,0,538579,,0.24 F,6,539095,539595,0,1 MY,2,539095,539595,280,310 F,7,559267,559767,1,0 MY,2,559267,559767,310,280
Sprite,Foreground,CentreLeft,"sb\font2\0061.png",503.92,0 S,0,538579,,0.24 F,6,538687,539187,0,1 MY,2,538687,539187,280,310 F,7,559079,559579,1,0 MY,2,559079,559579,310,280
Sprite,Foreground,CentreLeft,"sb\font2\0074.png",514.72,0 S,0,538579,,0.24 F,6,538816,539316,0,1 MY,2,538816,539316,280,310 F,7,559135,559635,1,0 MY,2,559135,559635,310,280
Sprite,Foreground,CentreLeft,"sb\font2\0075.png",522.4,0 S,0,538579,,0.24 F,6,538708,539208,0,1 MY,2,538708,539208,280,310 F,7,559604,560104,1,0 MY,2,559604,560104,310,280
Sprite,Foreground,CentreLeft,"sb\font2\0072.png",534.16,0 S,0,538579,,0.24 F,6,538916,539416,0,1 MY,2,538916,539416,280,310 F,7,559311,559811,1,0 MY,2,559311,559811,310,280
Sprite,Foreground,CentreLeft,"sb\font2\0065.png",541.84,0 S,0,538579,,0.24 F,6,538739,539239,0,1 MY,2,538739,539239,280,310 F,7,559187,559687,1,0 MY,2,559187,559687,310,280
Sprite,Foreground,CentreLeft,"sb\font2\002c.png",552.4,0 S,0,538579,,0.24 F,6,538755,539255,0,1 MY,2,538755,539255,280,310 F,7,559185,559685,1,0 MY,2,559185,559685,310,280
Sprite,Foreground,CentreLeft,"sb\font2\004d.png",226,0 S,0,538579,,0.24 F,6,538856,539356,0,1 MY,2,538856,539356,300,330 F,7,559347,559847,1,0 MY,2,559347,559847,330,300
Sprite,Foreground,CentreLeft,"sb\font2\0079.png",242.32,0 S,0,538579,,0.24 F,6,538677,539177,0,1 MY,2,538677,539177,300,330 F,7,559554,560054,1,0 MY,2,559554,560054,330,300
Sprite,Foreground,CentreLeft,"sb\font2\006e.png",252.88,0 S,0,538579,,0.24 F,6,538652,539152,0,1 MY,2,538652,539152,300,330 F,7,559165,559665,1,0 MY,2,559165,559665,330,300
Sprite,Foreground,CentreLeft,"sb\font2\0074.png",264.88,0 S,0,538579,,0.24 F,6,539022,539522,0,1 MY,2,539022,539522,300,330 F,7,559420,559920,1,0 MY,2,559420,559920,330,300
Sprite,Foreground,CentreLeft,"sb\font2\0069.png",272.56,0 S,0,538579,,0.24 F,6,538683,539183,0,1 MY,2,538683,539183,300,330 F,7,559520,560020,1,0 MY,2,559520,560020,330,300
Sprite,Foreground,CentreLeft,"sb\font2\0061.png",278.08,0 S,0,538579,,0.24 F,6,538696,539196,0,1 MY,2,538696,539196,300,330 F,7,559159,559659,1,0 MY,2,559159,559659,330,300
Sprite,Foreground,CentreLeft,"sb\font2\006e.png",288.88,0 S,0,538579,,0.24 F,6,538719,539219,0,1 MY,2,538719,539219,300,330 F,7,559481,559981,1,0 MY,2,559481,559981,330,300
Sprite,Foreground,CentreLeft,"sb\font2\002c.png",300.88,0 S,0,538579,,0.24 F,6,539038,539538,0,1 MY,2,539038,539538,300,330 F,7,559334,559834,1,0 MY,2,559334,559834,330,300
Sprite,Foreground,CentreLeft,"sb\font2\0053.png",316.16,0 S,0,538579,,0.24 F,6,538760,539260,0,1 MY,2,538760,539260,300,330 F,7,559411,559911,1,0 MY,2,559411,559911,330,300
Sprite,Foreground,CentreLeft,"sb\font2\0061.png",326,0 S,0,538579,,0.24 F,6,539003,539503,0,1 MY,2,539003,539503,300,330 F,7,559537,560037,1,0 MY,2,559537,560037,330,300
Sprite,Foreground,CentreLeft,"sb\font2\0064.png",336.8,0 S,0,538579,,0.24 F,6,538734,539234,0,1 MY,2,538734,539234,300,330 F,7,559531,560031,1,0 MY,2,559531,560031,330,300
Sprite,Foreground,CentreLeft,"sb\font2\004b.png",358.56,0 S,0,538579,,0.24 F,6,538738,539238,0,1 MY,2,538738,539238,300,330 F,7,559347,559847,1,0 MY,2,559347,559847,330,300
Sprite,Foreground,CentreLeft,"sb\font2\0065.png",372.24,0 S,0,538579,,0.24 F,6,538889,539389,0,1 MY,2,538889,539389,300,330 F,7,559197,559697,1,0 MY,2,559197,559697,330,300
Sprite,Foreground,CentreLeft,"sb\font2\0079.png",382.8,0 S,0,538579,,0.24 F,6,538819,539319,0,1 MY,2,538819,539319,300,330 F,7,559401,559901,1,0 MY,2,559401,559901,330,300
Sprite,Foreground,CentreLeft,"sb\font2\0062.png",393.36,0 S,0,538579,,0.24 F,6,538631,539131,0,1 MY,2,538631,539131,300,330 F,7,559112,559612,1,0 MY,2,559112,559612,330,300
Sprite,Foreground,CentreLeft,"sb\font2\006f.png",404.8799,0 S,0,538579,,0.24 F,6,538880,539380,0,1 MY,2,538880,539380,300,330 F,7,559205,559705,1,0 MY,2,559205,559705,330,300
Sprite,Foreground,CentreLeft,"sb\font2\0061.png",416.3999,0 S,0,538579,,0.24 F,6,538987,539487,0,1 MY,2,538987,539487,300,330 F,7,559315,559815,1,0 MY,2,559315,559815,330,300
Sprite,Foreground,CentreLeft,"sb\font2\0072.png",427.1999,0 S,0,538579,,0.24 F,6,538579,539079,0,1 MY,2,538579,539079,300,330 F,7,559422,559922,1,0 MY,2,559422,559922,330,300
Sprite,Foreground,CentreLeft,"sb\font2\0064.png",434.8799,0 S,0,538579,,0.24 F,6,539134,539634,0,1 MY,2,539134,539634,300,330 F,7,559533,560033,1,0 MY,2,559533,560033,330,300
Sprite,Foreground,CentreLeft,"sb\font2\0047.png",456.6399,0 S,0,538579,,0.24 F,6,539044,539544,0,1 MY,2,539044,539544,300,330 F,7,559184,559684,1,0 MY,2,559184,559684,330,300
Sprite,Foreground,CentreLeft,"sb\font2\0075.png",470.5599,0 S,0,538579,,0.24 F,6,538723,539223,0,1 MY,2,538723,539223,300,330 F,7,559196,559696,1,0 MY,2,559196,559696,330,300
Sprite,Foreground,CentreLeft,"sb\font2\0079.png",482.3199,0 S,0,538579,,0.24 F,6,538692,539192,0,1 MY,2,538692,539192,300,330 F,7,559288,559788,1,0 MY,2,559288,559788,330,300
Sprite,Foreground,CentreLeft,"sb\font2\0046.png",140,0 S,0,538579,,0.24 F,6,539090,539590,0,1 MY,2,539090,539590,320,350 F,7,559178,559678,1,0 MY,2,559178,559678,350,320
Sprite,Foreground,CentreLeft,"sb\font2\0072.png",151.04,0 S,0,538579,,0.24 F,6,539123,539623,0,1 MY,2,539123,539623,320,350 F,7,559348,559848,1,0 MY,2,559348,559848,350,320
Sprite,Foreground,CentreLeft,"sb\font2\006f.png",158.72,0 S,0,538579,,0.24 F,6,538674,539174,0,1 MY,2,538674,539174,320,350 F,7,559102,559602,1,0 MY,2,559102,559602,350,320
Sprite,Foreground,CentreLeft,"sb\font2\006d.png",170.24,0 S,0,538579,,0.24 F,6,538659,539159,0,1 MY,2,538659,539159,320,350 F,7,559448,559948,1,0 MY,2,559448,559948,350,320
Sprite,Foreground,CentreLeft,"sb\font2\0041.png",196.8,0 S,0,538579,,0.24 F,6,538891,539391,0,1 MY,2,538891,539391,320,350 F,7,559339,559839,1,0 MY,2,559339,559839,350,320
Sprite,Foreground,CentreLeft,"sb\font2\006c.png",211.2,0 S,0,538579,,0.24 F,6,539158,539658,0,1 MY,2,539158,539658,320,350 F,7,559446,559946,1,0 MY,2,559446,559946,350,320
Sprite,Foreground,CentreLeft,"sb\font2\0062.png",216.72,0 S,0,538579,,0.24 F,6,538716,539216,0,1 MY,2,538716,539216,320,350 F,7,559450,559950,1,0 MY,2,559450,559950,350,320
Sprite,Foreground,CentreLeft,"sb\font2\0075.png",228.24,0 S,0,538579,,0.24 F,6,538773,539273,0,1 MY,2,538773,539273,320,350 F,7,559576,560076,1,0 MY,2,559576,560076,350,320
Sprite,Foreground,CentreLeft,"sb\font2\006d.png",240,0 S,0,538579,,0.24 F,6,539054,539554,0,1 MY,2,539054,539554,320,350 F,7,559141,559641,1,0 MY,2,559141,559641,350,320
Sprite,Foreground,CentreLeft,"sb\font2\003a.png",256.56,0 S,0,538579,,0.24 F,6,538897,539397,0,1 MY,2,538897,539397,320,350 F,7,559091,559591,1,0 MY,2,559091,559591,350,320
Sprite,Foreground,CentreLeft,"sb\font2\0061.png",271.84,0 S,0,538579,,0.24 F,6,538747,539247,0,1 MY,2,538747,539247,320,350 F,7,559612,560112,1,0 MY,2,559612,560112,350,320
Sprite,Foreground,CentreLeft,"sb\font2\0073.png",282.64,0 S,0,538579,,0.24 F,6,538879,539379,0,1 MY,2,538879,539379,320,350 F,7,559525,560025,1,0 MY,2,559525,560025,350,320
Sprite,Foreground,CentreLeft,"sb\font2\0074.png",301.28,0 S,0,538579,,0.24 F,6,539009,539509,0,1 MY,2,539009,539509,320,350 F,7,559136,559636,1,0 MY,2,559136,559636,350,320
Sprite,Foreground,CentreLeft,"sb\font2\0068.png",308.96,0 S,0,538579,,0.24 F,6,538908,539408,0,1 MY,2,538908,539408,320,350 F,7,559347,559847,1,0 MY,2,559347,559847,350,320
Sprite,Foreground,CentreLeft,"sb\font2\0065.png",320.96,0 S,0,538579,,0.24 F,6,539075,539575,0,1 MY,2,539075,539575,320,350 F,7,559340,559840,1,0 MY,2,559340,559840,350,320
Sprite,Foreground,CentreLeft,"sb\font2\0075.png",341.52,0 S,0,538579,,0.24 F,6,538922,539422,0,1 MY,2,538922,539422,320,350 F,7,559059,559559,1,0 MY,2,559059,559559,350,320
Sprite,Foreground,CentreLeft,"sb\font2\006e.png",353.28,0 S,0,538579,,0.24 F,6,538946,539446,0,1 MY,2,538946,539446,320,350 F,7,559571,560071,1,0 MY,2,559571,560071,350,320
Sprite,Foreground,CentreLeft,"sb\font2\0069.png",365.28,0 S,0,538579,,0.24 F,6,538965,539465,0,1 MY,2,538965,539465,320,350 F,7,559232,559732,1,0 MY,2,559232,559732,350,320
Sprite,Foreground,CentreLeft,"sb\font2\0076.png",370.8,0 S,0,538579,,0.24 F,6,538782,539282,0,1 MY,2,538782,539282,320,350 F,7,559591,560091,1,0 MY,2,559591,560091,350,320
Sprite,Foreground,CentreLeft,"sb\font2\0065.png",381.36,0 S,0,538579,,0.24 F,6,538835,539335,0,1 MY,2,538835,539335,320,350 F,7,559050,559550,1,0 MY,2,559050,559550,350,320
Sprite,Foreground,CentreLeft,"sb\font2\0072.png",391.92,0 S,0,538579,,0.24 F,6,539160,539660,0,1 MY,2,539160,539660,320,350 F,7,559552,560052,1,0 MY,2,559552,560052,350,320
Sprite,Foreground,CentreLeft,"sb\font2\0073.png",399.5999,0 S,0,538579,,0.24 F,6,539021,539521,0,1 MY,2,539021,539521,320,350 F,7,559169,559669,1,0 MY,2,559169,559669,350,320
Sprite,Foreground,CentreLeft,"sb\font2\0065.png",408.2399,0 S,0,538579,,0.24 F,6,538864,539364,0,1 MY,2,538864,539364,320,350 F,7,559254,559754,1,0 MY,2,559254,559754,350,320
Sprite,Foreground,CentreLeft,"sb\font2\002c.png",418.7999,0 S,0,538579,,0.24 F,6,538814,539314,0,1 MY,2,538814,539314,320,350 F,7,559205,559705,1,0 MY,2,559205,559705,350,320
Sprite,Foreground,CentreLeft,"sb\font2\0073.png",434.0799,0 S,0,538579,,0.24 F,6,538868,539368,0,1 MY,2,538868,539368,320,350 F,7,559589,560089,1,0 MY,2,559589,560089,350,320
Sprite,Foreground,CentreLeft,"sb\font2\006f.png",442.7199,0 S,0,538579,,0.24 F,6,538838,539338,0,1 MY,2,538838,539338,320,350 F,7,559102,559602,1,0 MY,2,559102,559602,350,320
Sprite,Foreground,CentreLeft,"sb\font2\0074.png",464.2399,0 S,0,538579,,0.24 F,6,539006,539506,0,1 MY,2,539006,539506,320,350 F,7,559121,559621,1,0 MY,2,559121,559621,350,320
Sprite,Foreground,CentreLeft,"sb\font2\0068.png",471.9199,0 S,0,538579,,0.24 F,6,538648,539148,0,1 MY,2,538648,539148,320,350 F,7,559599,560099,1,0 MY,2,559599,560099,350,320
Sprite,Foreground,CentreLeft,"sb\font2\0065.png",483.9199,0 S,0,538579,,0.24 F,6,539006,539506,0,1 MY,2,539006,539506,320,350 F,7,559118,559618,1,0 MY,2,559118,559618,350,320
Sprite,Foreground,CentreLeft,"sb\font2\0073.png",504.4799,0 S,0,538579,,0.24 F,6,539047,539547,0,1 MY,2,539047,539547,320,350 F,7,559059,559559,1,0 MY,2,559059,559559,350,320
Sprite,Foreground,CentreLeft,"sb\font2\006f.png",513.1199,0 S,0,538579,,0.24 F,6,538901,539401,0,1 MY,2,538901,539401,320,350 F,7,559432,559932,1,0 MY,2,559432,559932,350,320
Sprite,Foreground,CentreLeft,"sb\font2\0075.png",524.6399,0 S,0,538579,,0.24 F,6,539081,539581,0,1 MY,2,539081,539581,320,350 F,7,559072,559572,1,0 MY,2,559072,559572,350,320
Sprite,Foreground,CentreLeft,"sb\font2\006c.png",536.3999,0 S,0,538579,,0.24 F,6,539124,539624,0,1 MY,2,539124,539624,320,350 F,7,559619,560119,1,0 MY,2,559619,560119,350,320
//Storyboard Layer 4 (Overlay)
//Storyboard Sound Samples

[TimingPoints]
3029,750,6,2,1,40,1,0
3029,-47.058824,6,2,1,40,0,0
75029,750,4,2,1,40,1,0
75029,-47.058824,4,2,1,40,0,0
126029,375,4,2,1,40,1,0
126029,-94.117647,4,2,1,40,0,1
174029,-94.117647,4,2,1,40,0,0
196529,363.636363636364,4,2,1,40,1,0
196529,-97.058824,4,2,1,40,0,0
197256,342.857142857143,4,2,1,40,1,0
197256,-102.941176,4,2,1,40,0,0
197941,317.460317460317,4,2,1,40,1,0
197941,-111.764706,4,2,1,40,0,0
198576,295.566502463054,4,2,1,40,1,0
198576,-119.411765,4,2,1,40,0,0
199167,281.69014084507,4,2,1,40,1,0
199167,-125.294118,4,2,1,40,0,0
199730,266.666666666667,4,2,1,40,1,0
199730,-132.352941,4,2,1,40,0,0
200263,250,4,2,1,40,1,0
200263,-141.176471,4,2,1,40,0,0
200763,240,4,2,1,40,1,0
200763,-147.058824,4,2,1,40,0,0
201243,237.154150197628,4,2,1,40,1,0
201243,-148.823529,4,2,1,40,0,0
202191,234.375,5,2,1,40,1,0
202191,-150.588235,5,2,1,40,0,1
204534,234.375,4,2,1,40,1,1
204534,-151.515151515152,4,2,1,40,0,1
206409,234.375,5,2,1,40,1,1
206409,-151.515151515152,5,2,1,40,0,1
208753,234.375,6,2,1,40,1,1
208753,-151.515151515152,6,2,1,40,0,1
210159,234.375,5,2,1,40,1,1
210159,-151.515151515152,5,2,1,40,0,1
212503,234.375,6,2,1,40,1,1
212503,-151.515151515152,6,2,1,40,0,1
215316,234.375,5,2,1,40,1,1
215316,-151.515151515152,5,2,1,40,0,1
217659,234.375,6,2,1,40,1,1
217659,-151.515151515152,6,2,1,40,0,1
219066,234.375,4,2,1,40,1,1
219066,-150.588235,4,2,1,40,0,1
249066,-150.588235,4,2,1,40,0,0
259378,240,4,2,1,40,1,0
259378,-147.058824,4,2,1,40,0,0
259738,260.869565217391,4,2,1,40,1,0
259738,-135.294118,4,2,1,40,0,0
260129,279.06976744186,4,2,1,40,1,0
260129,-126.470588,4,2,1,40,0,0
260547,307.692307692308,4,2,1,40,1,0
260547,-114.705882,4,2,1,40,0,0
261008,324.324324324324,4,2,1,40,1,0
261008,-108.823529,4,2,1,40,0,0
263277,324.324324324324,4,2,1,40,1,0
263277,-108.823529,4,2,1,40,0,1
304790,328.767123287671,4,2,1,40,1,0
304790,-107.352941,4,2,1,40,0,0
306105,326.086956521739,4,2,1,40,1,0
306105,-108.235294,4,2,1,40,0,0
307898,329.67032967033,4,2,1,40,1,8
307898,-107.058824,4,2,1,40,0,0
308722,331.491712707182,4,2,1,40,1,0
308722,-106.470588,4,2,1,40,0,0
311373,332.963374028857,4,2,1,40,1,0
311373,-106,4,2,1,40,0,0
312704,334.821428571429,4,2,1,40,1,0
312704,-105.411765,4,2,1,40,0,0
315382,342.270393610953,4,2,1,40,1,0
315382,-103.117647058827,4,2,1,40,0,0
326449,352.941176470588,4,2,1,40,1,0
377233,352.941176470588,4,2,1,40,1,0
380056,352.941176470588,4,2,1,40,1,0
391350,346.820809248555,4,2,1,40,1,0
391350,-101.764706,4,2,1,40,0,0
392737,338.983050847458,4,2,1,40,1,0
392737,-104.117647,4,2,1,40,0,0
394092,331.491712707182,4,2,1,40,1,0
394092,-106.470588,4,2,1,40,0,0
395417,320.855614973262,4,2,1,40,1,0
395417,-110,4,2,1,40,0,0
396700,315.789473684211,4,2,1,40,1,0
396700,-111.764706,4,2,1,40,0,0
402068,315.789473684211,4,2,1,40,1,0
402068,-111.764706,4,2,1,40,0,1
422594,315.789473684211,4,2,1,40,1,1
422594,-111.764706,4,2,1,40,0,1
433330,315.789473684211,4,2,1,40,1,1
433330,-111.764706,4,2,1,40,0,1
443435,-111.764706,4,2,1,40,0,0
444698,352.941176470588,4,2,1,40,1,0
470109,352.941176470588,4,2,1,40,1,0
492697,-100,4,2,1,40,0,1
537873,-100,4,2,1,40,0,0

[HitObjects]
192,192,3029,5,0,0:0:0:0:
448,192,3029,128,0,3404:0:0:0:0:
64,192,3404,1,0,0:0:0:0:
192,192,3779,128,0,3872:0:0:0:0:
320,192,4154,1,0,0:0:0:0:
448,192,4529,1,0,0:0:0:0:
64,192,4529,128,0,4904:0:0:0:0:
320,192,4716,1,0,0:0:0:0:
192,192,4904,1,0,0:0:0:0:
64,192,5279,1,0,0:0:0:0:
320,192,5654,128,0,5747:0:0:0:0:
64,192,6029,1,0,0:0:0:0:
192,192,6029,128,0,6404:0:0:0:0:
448,192,6404,1,0,0:0:0:0:
64,192,6779,1,0,0:0:0:0:
320,192,7154,1,0,0:0:0:0:
192,192,7529,1,0,0:0:0:0:
320,192,7904,1,0,0:0:0:0:
448,192,8279,1,0,0:0:0:0:
64,192,8654,1,0,0:0:0:0:
192,192,9029,1,0,0:0:0:0:
448,192,9029,128,0,9404:0:0:0:0:
64,192,9404,1,0,0:0:0:0:
448,192,9591,128,0,9685:0:0:0:0:
192,192,9779,1,0,0:0:0:0:
448,192,10154,128,0,10247:0:0:0:0:
448,192,10341,128,0,10435:0:0:0:0:
64,192,10529,1,0,0:0:0:0:
320,192,10529,128,0,10904:0:0:0:0:
64,192,10716,1,0,0:0:0:0:
448,192,10904,1,0,0:0:0:0:
448,192,11091,128,0,11185:0:0:0:0:
192,192,11279,1,0,0:0:0:0:
448,192,11654,1,0,0:0:0:0:
320,192,12029,1,0,0:0:0:0:
64,192,12029,128,0,12404:0:0:0:0:
192,192,12404,1,0,0:0:0:0:
448,192,12591,128,0,12685:0:0:0:0:
64,192,12779,1,0,0:0:0:0:
448,192,12966,128,0,13060:0:0:0:0:
320,192,13154,1,0,0:0:0:0:
192,192,13529,128,0,13904:0:0:0:0:
64,192,13716,128,0,13810:0:0:0:0:
448,192,13904,1,0,0:0:0:0:
64,192,14091,128,0,14185:0:0:0:0:
320,192,14279,1,0,0:0:0:0:
192,192,14654,1,0,0:0:0:0:
448,192,15029,128,0,15404:0:0:0:0:
320,192,15029,1,0,0:0:0:0:
64,192,15404,1,0,0:0:0:0:
192,192,15779,1,0,0:0:0:0:
64,192,16154,1,0,0:0:0:0:
448,192,16529,1,0,0:0:0:0:
320,192,16529,128,0,16904:0:0:0:0:
192,192,16904,1,0,0:0:0:0:
320,192,17279,1,0,0:0:0:0:
448,192,17654,1,0,0:0:0:0:
192,192,18029,1,0,0:0:0:0:
64,192,18029,128,0,18404:0:0:0:0:
448,192,18404,1,0,0:0:0:0:
320,192,18779,128,0,22529:0:0:0:0:
64,192,19154,1,0,0:0:0:0:
192,192,19529,1,0,0:0:0:0:
448,192,19529,128,0,19904:0:0:0:0:
64,192,19904,1,0,0:0:0:0:
448,192,20279,1,0,0:0:0:0:
192,192,20654,1,0,0:0:0:0:
64,192,21029,128,0,21404:0:0:0:0:
448,192,21029,1,0,0:0:0:0:
192,192,21404,1,0,0:0:0:0:
448,192,21779,1,0,0:0:0:0:
64,192,22154,1,0,0:0:0:0:
448,192,22529,128,0,24029:0:0:0:0:
192,192,22529,128,0,22904:0:0:0:0:
64,192,22904,1,0,0:0:0:0:
192,192,23279,1,0,0:0:0:0:
320,192,23654,1,0,0:0:0:0:
192,192,24029,128,0,27029:0:0:0:0:
64,192,24029,128,0,24404:0:0:0:0:
448,192,24404,1,0,0:0:0:0:
320,192,24779,1,0,0:0:0:0:
64,192,25154,1,0,0:0:0:0:
448,192,25529,128,0,25904:0:0:0:0:
320,192,25529,1,0,0:0:0:0:
64,192,25904,1,0,0:0:0:0:
448,192,26279,1,0,0:0:0:0:
320,192,26654,1,0,0:0:0:0:
448,192,27029,128,0,28529:0:0:0:0:
64,192,27029,128,0,27404:0:0:0:0:
320,192,27404,1,0,0:0:0:0:
192,192,27779,1,0,0:0:0:0:
64,192,28154,1,0,0:0:0:0:
192,192,28529,128,0,30029:0:0:0:0:
320,192,28529,128,0,28904:0:0:0:0:
64,192,28716,1,0,0:0:0:0:
448,192,28904,1,0,0:0:0:0:
448,192,29091,1,0,0:0:0:0:
64,192,29279,1,0,0:0:0:0:
64,192,29466,1,0,0:0:0:0:
320,192,29654,1,0,0:0:0:0:
64,192,30029,128,0,33779:0:0:0:0:
448,192,30029,128,0,30404:0:0:0:0:
320,192,30404,1,0,0:0:0:0:
192,192,30779,1,0,0:0:0:0:
448,192,31154,1,0,0:0:0:0:
192,192,31529,128,0,31904:0:0:0:0:
448,192,31904,1,0,0:0:0:0:
320,192,32279,1,0,0:0:0:0:
192,192,32654,1,0,0:0:0:0:
320,192,33029,128,0,33404:0:0:0:0:
448,192,33029,1,0,0:0:0:0:
448,192,33404,128,0,34529:0:0:0:0:
320,192,33779,1,0,0:0:0:0:
192,192,34154,1,0,0:0:0:0:
320,192,34529,128,0,38279:0:0:0:0:
64,192,34529,128,0,34904:0:0:0:0:
192,192,34716,1,0,0:0:0:0:
448,192,34904,1,0,0:0:0:0:
192,192,35279,1,0,0:0:0:0:
64,192,35654,1,0,0:0:0:0:
192,192,36029,128,0,36404:0:0:0:0:
448,192,36029,1,0,0:0:0:0:
64,192,36404,1,0,0:0:0:0:
448,192,36779,1,0,0:0:0:0:
192,192,37154,1,0,0:0:0:0:
64,192,37529,1,0,0:0:0:0:
448,192,37529,128,0,37904:0:0:0:0:
192,192,37904,1,0,0:0:0:0:
448,192,38279,1,0,0:0:0:0:
320,192,38654,1,0,0:0:0:0:
448,192,39029,128,0,40529:0:0:0:0:
64,192,39029,128,0,39779:0:0:0:0:
192,192,39029,128,0,39404:0:0:0:0:
320,192,39404,1,0,0:0:0:0:
192,192,39779,1,0,0:0:0:0:
64,192,40154,1,0,0:0:0:0:
192,192,40529,128,0,40904:0:0:0:0:
64,192,40529,128,0,41279:0:0:0:0:
320,192,40716,1,0,0:0:0:0:
320,192,40904,1,0,0:0:0:0:
448,192,41091,1,0,0:0:0:0:
448,192,41279,1,0,0:0:0:0:
64,192,41654,1,0,0:0:0:0:
320,192,42029,128,0,42404:0:0:0:0:
192,192,42029,128,0,42779:0:0:0:0:
448,192,42216,1,0,0:0:0:0:
448,192,42404,1,0,0:0:0:0:
64,192,42591,1,0,0:0:0:0:
64,192,42779,1,0,0:0:0:0:
320,192,43154,1,0,0:0:0:0:
448,192,43529,128,0,43904:0:0:0:0:
64,192,43529,128,0,44279:0:0:0:0:
192,192,43904,1,0,0:0:0:0:
320,192,44279,1,0,0:0:0:0:
64,192,44654,1,0,0:0:0:0:
192,192,45029,128,0,45404:0:0:0:0:
448,192,45029,128,0,45779:0:0:0:0:
320,192,45216,1,0,0:0:0:0:
320,192,45404,1,0,0:0:0:0:
64,192,45591,1,0,0:0:0:0:
64,192,45779,1,0,0:0:0:0:
448,192,46154,1,0,0:0:0:0:
192,192,46529,128,0,46904:0:0:0:0:
64,192,46529,128,0,47279:0:0:0:0:
320,192,46716,1,0,0:0:0:0:
320,192,46904,1,0,0:0:0:0:
448,192,47091,1,0,0:0:0:0:
448,192,47279,1,0,0:0:0:0:
320,192,47654,1,0,0:0:0:0:
192,192,48029,128,0,48404:0:0:0:0:
448,192,48029,128,0,48779:0:0:0:0:
64,192,48216,1,0,0:0:0:0:
320,192,48404,1,0,0:0:0:0:
320,192,48591,1,0,0:0:0:0:
64,192,48779,1,0,0:0:0:0:
64,192,48966,1,0,0:0:0:0:
192,192,49154,1,0,0:0:0:0:
192,192,49341,1,0,0:0:0:0:
320,192,49529,128,0,49904:0:0:0:0:
64,192,49529,128,0,50279:0:0:0:0:
192,192,49716,1,0,0:0:0:0:
448,192,49904,1,0,0:0:0:0:
448,192,50091,1,0,0:0:0:0:
320,192,50279,1,0,0:0:0:0:
320,192,50466,1,0,0:0:0:0:
192,192,50654,1,0,0:0:0:0:
192,192,50841,1,0,0:0:0:0:
448,192,51029,128,0,51779:0:0:0:0:
320,192,51029,128,0,51404:0:0:0:0:
64,192,51216,1,0,0:0:0:0:
192,192,51404,1,0,0:0:0:0:
192,192,51591,1,0,0:0:0:0:
320,192,51779,1,0,0:0:0:0:
320,192,51966,1,0,0:0:0:0:
64,192,52154,1,0,0:0:0:0:
64,192,52341,1,0,0:0:0:0:
448,192,52529,128,0,52904:0:0:0:0:
192,192,52529,128,0,53841:0:0:0:0:
320,192,52716,1,0,0:0:0:0:
64,192,52904,1,0,0:0:0:0:
64,192,53091,1,0,0:0:0:0:
448,192,53279,1,0,0:0:0:0:
448,192,53466,1,0,0:0:0:0:
320,192,53654,1,0,0:0:0:0:
320,192,53841,1,0,0:0:0:0:
192,192,54029,128,0,55529:0:0:0:0:
64,192,54029,128,0,54404:0:0:0:0:
448,192,54216,1,0,0:0:0:0:
320,192,54404,1,0,0:0:0:0:
320,192,54591,1,0,0:0:0:0:
64,192,54779,1,0,0:0:0:0:
64,192,54966,1,0,0:0:0:0:
448,192,55154,1,0,0:0:0:0:
448,192,55341,1,0,0:0:0:0:
320,192,55529,128,0,57029:0:0:0:0:
64,192,55529,128,0,55904:0:0:0:0:
192,192,55716,1,0,0:0:0:0:
448,192,55904,5,0,0:0:0:0:
448,192,56091,128,0,56841:0:0:0:0:
64,192,56279,1,0,0:0:0:0:
64,192,56466,128,0,56841:0:0:0:0:
192,192,56654,1,0,0:0:0:0:
192,192,56841,1,0,0:0:0:0:
448,192,57029,128,0,57404:0:0:0:0:
192,192,57029,128,0,57216:0:0:0:0:
64,192,57029,128,0,57122:0:0:0:0:
64,192,57216,128,0,57591:0:0:0:0:
320,192,57216,128,0,57310:0:0:0:0:
192,192,57404,128,0,57779:0:0:0:0:
320,192,57591,128,0,57779:0:0:0:0:
448,192,57591,128,0,57685:0:0:0:0:
448,192,57779,128,0,58154:0:0:0:0:
320,192,57966,128,0,58341:0:0:0:0:
192,192,58154,128,0,58435:0:0:0:0:
448,192,58341,1,0,0:0:0:0:
64,192,58341,128,0,58435:0:0:0:0:
320,192,58435,1,0,0:0:0:0:
64,192,58529,128,0,58904:0:0:0:0:
192,192,58529,128,0,58622:0:0:0:0:
448,192,58529,128,0,58904:0:0:0:0:
320,192,58716,128,0,59091:0:0:0:0:
192,192,58904,128,0,59279:0:0:0:0:
448,192,59091,128,0,59279:0:0:0:0:
64,192,59279,128,0,59654:0:0:0:0:
320,192,59279,128,0,59372:0:0:0:0:
192,192,59466,128,0,59841:0:0:0:0:
448,192,59654,128,0,59935:0:0:0:0:
64,192,59841,1,0,0:0:0:0:
320,192,59841,128,0,59935:0:0:0:0:
192,192,59935,1,0,0:0:0:0:
320,192,60029,128,0,60216:0:0:0:0:
448,192,60029,128,0,60122:0:0:0:0:
64,192,60029,128,0,60404:0:0:0:0:
448,192,60216,128,0,60591:0:0:0:0:
192,192,60216,128,0,60310:0:0:0:0:
320,192,60404,128,0,60779:0:0:0:0:
192,192,60591,128,0,60779:0:0:0:0:
64,192,60591,128,0,60685:0:0:0:0:
448,192,60779,128,0,61154:0:0:0:0:
192,192,60966,128,0,61341:0:0:0:0:
64,192,61154,128,0,61435:0:0:0:0:
448,192,61341,128,0,61435:0:0:0:0:
448,192,61529,128,0,61904:0:0:0:0:
192,192,61529,128,0,61622:0:0:0:0:
64,192,61529,128,0,61716:0:0:0:0:
320,192,61716,128,0,62091:0:0:0:0:
192,192,61716,128,0,61810:0:0:0:0:
64,192,61904,128,0,62279:0:0:0:0:
448,192,62091,128,0,62279:0:0:0:0:
192,192,62091,128,0,62185:0:0:0:0:
192,192,62279,128,0,62654:0:0:0:0:
448,192,62372,1,0,0:0:0:0:
64,192,62466,128,0,62841:0:0:0:0:
320,192,62560,1,0,0:0:0:0:
448,192,62654,128,0,62935:0:0:0:0:
192,192,62841,1,0,0:0:0:0:
320,192,62841,128,0,62935:0:0:0:0:
64,192,62935,1,0,0:0:0:0:
448,192,63029,128,0,63404:0:0:0:0:
320,192,63029,128,0,63122:0:0:0:0:
192,192,63029,128,0,63404:0:0:0:0:
320,192,63216,128,0,63591:0:0:0:0:
64,192,63404,128,0,63779:0:0:0:0:
192,192,63591,128,0,63779:0:0:0:0:
448,192,63779,128,0,64154:0:0:0:0:
320,192,63779,128,0,63872:0:0:0:0:
64,192,63966,128,0,64341:0:0:0:0:
192,192,64154,128,0,64435:0:0:0:0:
448,192,64341,1,0,0:0:0:0:
320,192,64341,128,0,64435:0:0:0:0:
64,192,64435,1,0,0:0:0:0:
448,192,64529,128,0,64904:0:0:0:0:
320,192,64529,128,0,64716:0:0:0:0:
192,192,64529,128,0,64622:0:0:0:0:
192,192,64716,128,0,65091:0:0:0:0:
64,192,64716,128,0,64810:0:0:0:0:
320,192,64904,128,0,65279:0:0:0:0:
64,192,65091,128,0,65279:0:0:0:0:
448,192,65091,128,0,65185:0:0:0:0:
448,192,65279,128,0,65654:0:0:0:0:
192,192,65372,1,0,0:0:0:0:
320,192,65466,128,0,65841:0:0:0:0:
64,192,65560,1,0,0:0:0:0:
192,192,65654,128,0,65935:0:0:0:0:
448,192,65841,128,0,65935:0:0:0:0:
64,192,65841,1,0,0:0:0:0:
320,192,65935,1,0,0:0:0:0:
192,192,66029,128,0,66216:0:0:0:0:
64,192,66029,128,0,66122:0:0:0:0:
448,192,66029,128,0,66404:0:0:0:0:
64,192,66216,128,0,66591:0:0:0:0:
320,192,66216,128,0,66310:0:0:0:0:
192,192,66404,128,0,66779:0:0:0:0:
320,192,66591,128,0,66779:0:0:0:0:
448,192,66591,128,0,66685:0:0:0:0:
448,192,66779,128,0,67154:0:0:0:0:
320,192,66966,128,0,67341:0:0:0:0:
192,192,67154,128,0,67435:0:0:0:0:
448,192,67341,1,0,0:0:0:0:
64,192,67341,128,0,67435:0:0:0:0:
320,192,67435,1,0,0:0:0:0:
64,192,67529,128,0,67904:0:0:0:0:
192,192,67529,128,0,67622:0:0:0:0:
448,192,67529,128,0,67904:0:0:0:0:
320,192,67716,128,0,68091:0:0:0:0:
192,192,67904,128,0,68279:0:0:0:0:
448,192,68091,128,0,68279:0:0:0:0:
64,192,68279,128,0,68654:0:0:0:0:
320,192,68279,128,0,68372:0:0:0:0:
192,192,68466,128,0,68841:0:0:0:0:
448,192,68654,128,0,68935:0:0:0:0:
64,192,68841,1,0,0:0:0:0:
320,192,68841,128,0,68935:0:0:0:0:
192,192,68935,1,0,0:0:0:0:
320,192,69029,128,0,69216:0:0:0:0:
448,192,69029,128,0,69122:0:0:0:0:
64,192,69029,128,0,69404:0:0:0:0:
448,192,69216,128,0,69591:0:0:0:0:
192,192,69216,128,0,69310:0:0:0:0:
320,192,69404,128,0,69779:0:0:0:0:
192,192,69591,128,0,69779:0:0:0:0:
64,192,69591,128,0,69685:0:0:0:0:
448,192,69779,128,0,70154:0:0:0:0:
192,192,69966,128,0,70341:0:0:0:0:
64,192,70154,128,0,70435:0:0:0:0:
448,192,70341,128,0,70435:0:0:0:0:
448,192,70529,128,0,70904:0:0:0:0:
192,192,70529,128,0,70622:0:0:0:0:
64,192,70529,128,0,70716:0:0:0:0:
320,192,70716,128,0,71091:0:0:0:0:
192,192,70716,128,0,70810:0:0:0:0:
64,192,70904,128,0,71279:0:0:0:0:
448,192,71091,128,0,71279:0:0:0:0:
192,192,71091,128,0,71185:0:0:0:0:
192,192,71279,128,0,71654:0:0:0:0:
320,192,71372,128,0,71560:0:0:0:0:
64,192,71466,128,0,71841:0:0:0:0:
448,192,71654,128,0,71935:0:0:0:0:
192,192,71841,1,0,0:0:0:0:
320,192,71841,128,0,71935:0:0:0:0:
64,192,71935,1,0,0:0:0:0:
448,192,72029,128,0,72404:0:0:0:0:
320,192,72029,128,0,72122:0:0:0:0:
192,192,72029,128,0,72404:0:0:0:0:
320,192,72216,128,0,72591:0:0:0:0:
64,192,72404,128,0,72779:0:0:0:0:
192,192,72591,128,0,72779:0:0:0:0:
448,192,72779,128,0,73154:0:0:0:0:
320,192,72779,128,0,72872:0:0:0:0:
64,192,72966,128,0,73341:0:0:0:0:
192,192,73154,128,0,73435:0:0:0:0:
448,192,73341,1,0,0:0:0:0:
320,192,73341,128,0,73435:0:0:0:0:
64,192,73435,1,0,0:0:0:0:
448,192,73529,128,0,73904:0:0:0:0:
320,192,73529,128,0,73716:0:0:0:0:
192,192,73529,128,0,73622:0:0:0:0:
192,192,73716,128,0,74091:0:0:0:0:
64,192,73716,128,0,73810:0:0:0:0:
320,192,73904,128,0,74279:0:0:0:0:
64,192,74091,128,0,74279:0:0:0:0:
448,192,74091,128,0,74185:0:0:0:0:
448,192,74279,128,0,74560:0:0:0:0:
320,192,74466,128,0,74747:0:0:0:0:
192,192,74466,128,0,74560:0:0:0:0:
64,192,74466,128,0,74560:0:0:0:0:
192,192,74654,128,0,74935:0:0:0:0:
64,192,74654,128,0,74747:0:0:0:0:
448,192,74654,128,0,74747:0:0:0:0:
448,192,74841,128,0,76529:0:0:0:0:
64,192,74841,128,0,77654:0:0:0:0:
320,192,74841,128,0,75029:0:0:0:0:
192,192,75029,128,0,75122:0:0:0:0:
320,192,75310,128,0,75404:0:0:0:0:
192,192,75404,1,0,0:0:0:0:
320,192,75779,128,0,75966:0:0:0:0:
192,192,76154,128,0,76435:0:0:0:0:
320,192,76529,128,0,76904:0:0:0:0:
448,192,76904,128,0,77091:0:0:0:0:
320,192,77279,128,0,77466:0:0:0:0:
192,192,77466,128,0,77560:0:0:0:0:
448,192,77654,128,0,77841:0:0:0:0:
320,192,77841,128,0,77935:0:0:0:0:
192,192,78029,1,0,0:0:0:0:
448,192,78404,1,0,0:0:0:0:
64,192,78779,128,0,80654:0:0:0:0:
192,192,79154,128,0,79529:0:0:0:0:
320,192,79529,128,0,79904:0:0:0:0:
192,192,79904,128,0,80279:0:0:0:0:
448,192,80279,128,0,82904:0:0:0:0:
192,192,80466,1,0,0:0:0:0:
320,192,80654,128,0,81779:0:0:0:0:
192,192,81029,128,0,81404:0:0:0:0:
64,192,81404,128,0,81779:0:0:0:0:
192,192,81779,128,0,82154:0:0:0:0:
320,192,82154,128,0,82529:0:0:0:0:
192,192,82529,1,0,0:0:0:0:
320,192,82904,1,0,0:0:0:0:
64,192,83279,1,0,0:0:0:0:
448,192,83466,1,0,0:0:0:0:
192,192,83654,1,0,0:0:0:0:
64,192,84029,1,0,0:0:0:0:
320,192,84029,1,0,0:0:0:0:
448,192,84404,1,0,0:0:0:0:
320,192,84779,1,0,0:0:0:0:
192,192,85154,1,0,0:0:0:0:
64,192,85529,1,0,0:0:0:0:
448,192,85529,1,0,0:0:0:0:
320,192,85716,1,0,0:0:0:0:
192,192,85904,128,0,87029:0:0:0:0:
320,192,86279,1,0,0:0:0:0:
64,192,86466,1,0,0:0:0:0:
448,192,86654,1,0,0:0:0:0:
320,192,87029,128,0,89279:0:0:0:0:
64,192,87029,1,0,0:0:0:0:
448,192,87216,1,0,0:0:0:0:
192,192,87404,1,0,0:0:0:0:
64,192,87779,1,0,0:0:0:0:
448,192,88154,1,0,0:0:0:0:
192,192,88529,1,0,0:0:0:0:
64,192,88904,1,0,0:0:0:0:
192,192,89279,128,0,90029:0:0:0:0:
448,192,89279,1,0,0:0:0:0:
320,192,89654,1,0,0:0:0:0:
448,192,90029,128,0,92279:0:0:0:0:
64,192,90029,1,0,0:0:0:0:
320,192,90404,1,0,0:0:0:0:
192,192,90779,1,0,0:0:0:0:
64,192,91154,1,0,0:0:0:0:
320,192,91529,1,0,0:0:0:0:
192,192,91904,1,0,0:0:0:0:
64,192,92279,128,0,93029:0:0:0:0:
320,192,92279,1,0,0:0:0:0:
448,192,92654,1,0,0:0:0:0:
192,192,93029,1,0,0:0:0:0:
320,192,93029,128,0,95279:0:0:0:0:
64,192,93404,1,0,0:0:0:0:
448,192,93779,1,0,0:0:0:0:
192,192,94154,1,0,0:0:0:0:
64,192,94529,1,0,0:0:0:0:
192,192,94904,1,0,0:0:0:0:
448,192,95279,128,0,96029:0:0:0:0:
64,192,95279,1,0,0:0:0:0:
192,192,95654,1,0,0:0:0:0:
64,192,96029,1,0,0:0:0:0:
320,192,96029,128,0,97529:0:0:0:0:
192,192,96404,1,0,0:0:0:0:
448,192,96779,1,0,0:0:0:0:
64,192,97154,1,0,0:0:0:0:
448,192,97529,1,0,0:0:0:0:
192,192,97529,128,0,98935:0:0:0:0:
320,192,97904,1,0,0:0:0:0:
64,192,98279,128,0,98935:0:0:0:0:
448,192,98654,128,0,98935:0:0:0:0:
64,192,99029,128,0,100529:0:0:0:0:
320,192,99029,128,0,99154:0:0:0:0:
448,192,99029,128,0,99154:0:0:0:0:
192,192,99154,1,0,0:0:0:0:
320,192,99279,1,0,0:0:0:0:
448,192,99404,1,0,0:0:0:0:
192,192,99529,1,0,0:0:0:0:
448,192,99654,1,0,0:0:0:0:
320,192,99779,1,0,0:0:0:0:
192,192,99904,1,0,0:0:0:0:
448,192,100029,1,0,0:0:0:0:
320,192,100154,1,0,0:0:0:0:
448,192,100279,1,0,0:0:0:0:
192,192,100404,1,0,0:0:0:0:
448,192,100529,128,0,101779:0:0:0:0:
320,192,100529,1,0,0:0:0:0:
64,192,100654,1,0,0:0:0:0:
192,192,100779,1,0,0:0:0:0:
320,192,100904,1,0,0:0:0:0:
64,192,101029,1,0,0:0:0:0:
320,192,101154,1,0,0:0:0:0:
192,192,101279,1,0,0:0:0:0:
64,192,101404,1,0,0:0:0:0:
320,192,101529,1,0,0:0:0:0:
64,192,101654,1,0,0:0:0:0:
192,192,101779,128,0,101904:0:0:0:0:
448,192,101904,128,0,102029:0:0:0:0:
64,192,102029,128,0,103529:0:0:0:0:
320,192,102029,1,0,0:0:0:0:
192,192,102154,1,0,0:0:0:0:
448,192,102279,1,0,0:0:0:0:
192,192,102404,1,0,0:0:0:0:
320,192,102529,1,0,0:0:0:0:
448,192,102654,1,0,0:0:0:0:
192,192,102779,1,0,0:0:0:0:
320,192,102904,1,0,0:0:0:0:
192,192,103029,1,0,0:0:0:0:
448,192,103154,1,0,0:0:0:0:
320,192,103279,1,0,0:0:0:0:
192,192,103404,1,0,0:0:0:0:
320,192,103529,128,0,104279:0:0:0:0:
448,192,103529,1,0,0:0:0:0:
64,192,103654,1,0,0:0:0:0:
192,192,103779,1,0,0:0:0:0:
448,192,103904,1,0,0:0:0:0:
64,192,104029,1,0,0:0:0:0:
448,192,104154,1,0,0:0:0:0:
192,192,104279,128,0,105029:0:0:0:0:
64,192,104279,1,0,0:0:0:0:
448,192,104404,1,0,0:0:0:0:
320,192,104529,1,0,0:0:0:0:
320,192,104654,128,0,104779:0:0:0:0:
64,192,104654,128,0,104779:0:0:0:0:
448,192,104654,128,0,104779:0:0:0:0:
64,192,105029,128,0,106529:0:0:0:0:
448,192,105029,128,0,105154:0:0:0:0:
320,192,105029,128,0,105154:0:0:0:0:
192,192,105154,1,0,0:0:0:0:
448,192,105279,1,0,0:0:0:0:
320,192,105404,1,0,0:0:0:0:
192,192,105529,1,0,0:0:0:0:
320,192,105654,1,0,0:0:0:0:
448,192,105779,1,0,0:0:0:0:
192,192,105904,1,0,0:0:0:0:
320,192,106029,1,0,0:0:0:0:
448,192,106154,1,0,0:0:0:0:
192,192,106279,1,0,0:0:0:0:
320,192,106404,1,0,0:0:0:0:
192,192,106529,128,0,107279:0:0:0:0:
448,192,106529,1,0,0:0:0:0:
64,192,106654,1,0,0:0:0:0:
320,192,106779,1,0,0:0:0:0:
64,192,106904,1,0,0:0:0:0:
448,192,107029,1,0,0:0:0:0:
320,192,107154,1,0,0:0:0:0:
448,192,107279,128,0,108029:0:0:0:0:
64,192,107279,1,0,0:0:0:0:
320,192,107404,1,0,0:0:0:0:
192,192,107529,1,0,0:0:0:0:
64,192,107654,1,0,0:0:0:0:
320,192,107779,1,0,0:0:0:0:
192,192,107904,1,0,0:0:0:0:
320,192,108029,128,0,109529:0:0:0:0:
64,192,108029,1,0,0:0:0:0:
192,192,108154,1,0,0:0:0:0:
448,192,108279,1,0,0:0:0:0:
64,192,108404,1,0,0:0:0:0:
192,192,108529,1,0,0:0:0:0:
64,192,108654,1,0,0:0:0:0:
448,192,108779,1,0,0:0:0:0:
192,192,108904,1,0,0:0:0:0:
64,192,109029,1,0,0:0:0:0:
448,192,109154,1,0,0:0:0:0:
192,192,109279,1,0,0:0:0:0:
64,192,109404,1,0,0:0:0:0:
192,192,109529,128,0,110279:0:0:0:0:
448,192,109529,1,0,0:0:0:0:
320,192,109654,1,0,0:0:0:0:
448,192,109779,1,0,0:0:0:0:
64,192,109904,1,0,0:0:0:0:
320,192,110029,1,0,0:0:0:0:
448,192,110154,1,0,0:0:0:0:
320,192,110279,128,0,111029:0:0:0:0:
64,192,110279,1,0,0:0:0:0:
192,192,110404,1,0,0:0:0:0:
448,192,110529,1,0,0:0:0:0:
448,192,110654,128,0,110779:0:0:0:0:
192,192,110654,128,0,110779:0:0:0:0:
64,192,110654,128,0,110779:0:0:0:0:
192,192,111029,128,0,111404:0:0:0:0:
64,192,111029,128,0,111154:0:0:0:0:
448,192,111029,128,0,111216:0:0:0:0:
320,192,111154,128,0,111279:0:0:0:0:
64,192,111279,128,0,111404:0:0:0:0:
448,192,111404,128,0,111779:0:0:0:0:
320,192,111404,128,0,111529:0:0:0:0:
64,192,111529,128,0,111654:0:0:0:0:
192,192,111654,128,0,111779:0:0:0:0:
64,192,111779,128,0,112154:0:0:0:0:
320,192,111779,128,0,111904:0:0:0:0:
192,192,111904,128,0,112029:0:0:0:0:
448,192,112029,128,0,112154:0:0:0:0:
320,192,112154,128,0,112529:0:0:0:0:
192,192,112154,128,0,112279:0:0:0:0:
448,192,112279,128,0,112404:0:0:0:0:
64,192,112404,128,0,112529:0:0:0:0:
192,192,112529,128,0,112904:0:0:0:0:
448,192,112529,128,0,112654:0:0:0:0:
64,192,112654,128,0,112779:0:0:0:0:
320,192,112779,128,0,112904:0:0:0:0:
448,192,112904,128,0,113279:0:0:0:0:
64,192,112904,128,0,113029:0:0:0:0:
192,192,113029,128,0,113154:0:0:0:0:
320,192,113154,128,0,113279:0:0:0:0:
64,192,113279,128,0,113404:0:0:0:0:
192,192,113341,128,0,113654:0:0:0:0:
448,192,113404,128,0,113529:0:0:0:0:
320,192,113529,128,0,113654:0:0:0:0:
448,192,113654,128,0,113779:0:0:0:0:
64,192,113654,128,0,113904:0:0:0:0:
320,192,113779,128,0,113904:0:0:0:0:
192,192,113904,128,0,114029:0:0:0:0:
448,192,114029,128,0,114404:0:0:0:0:
320,192,114029,128,0,114154:0:0:0:0:
64,192,114029,128,0,114216:0:0:0:0:
192,192,114154,128,0,114279:0:0:0:0:
320,192,114279,128,0,114404:0:0:0:0:
192,192,114404,128,0,114779:0:0:0:0:
64,192,114404,128,0,114529:0:0:0:0:
448,192,114529,128,0,114654:0:0:0:0:
320,192,114654,128,0,114779:0:0:0:0:
448,192,114779,128,0,115154:0:0:0:0:
64,192,114779,128,0,114904:0:0:0:0:
192,192,114904,128,0,115029:0:0:0:0:
320,192,115029,128,0,115154:0:0:0:0:
64,192,115154,128,0,115529:0:0:0:0:
192,192,115154,128,0,115279:0:0:0:0:
448,192,115279,128,0,115404:0:0:0:0:
320,192,115404,128,0,115529:0:0:0:0:
448,192,115529,128,0,115622:0:0:0:0:
192,192,115529,128,0,115654:0:0:0:0:
64,192,115654,128,0,115779:0:0:0:0:
448,192,115716,128,0,115904:0:0:0:0:
320,192,115779,128,0,115904:0:0:0:0:
64,192,115904,128,0,116279:0:0:0:0:
192,192,115904,128,0,116029:0:0:0:0:
320,192,116029,128,0,116154:0:0:0:0:
448,192,116154,128,0,116279:0:0:0:0:
192,192,116279,128,0,116529:0:0:0:0:
320,192,116279,128,0,116404:0:0:0:0:
64,192,116404,128,0,116529:0:0:0:0:
448,192,116529,128,0,116654:0:0:0:0:
320,192,116654,128,0,116841:0:0:0:0:
64,192,116654,128,0,116904:0:0:0:0:
192,192,116654,128,0,116779:0:0:0:0:
448,192,116779,128,0,116904:0:0:0:0:
192,192,116904,128,0,117029:0:0:0:0:
64,192,117029,128,0,117404:0:0:0:0:
320,192,117029,128,0,117216:0:0:0:0:
448,192,117029,128,0,117154:0:0:0:0:
192,192,117154,128,0,117279:0:0:0:0:
448,192,117279,128,0,117404:0:0:0:0:
320,192,117404,128,0,117779:0:0:0:0:
192,192,117404,128,0,117529:0:0:0:0:
64,192,117529,128,0,117654:0:0:0:0:
448,192,117654,128,0,117779:0:0:0:0:
64,192,117779,128,0,118154:0:0:0:0:
192,192,117779,128,0,117904:0:0:0:0:
448,192,117904,128,0,118029:0:0:0:0:
320,192,118029,128,0,118154:0:0:0:0:
448,192,118154,128,0,118529:0:0:0:0:
192,192,118154,128,0,118279:0:0:0:0:
320,192,118279,128,0,118404:0:0:0:0:
64,192,118404,128,0,118529:0:0:0:0:
192,192,118529,128,0,118904:0:0:0:0:
320,192,118529,128,0,118654:0:0:0:0:
64,192,118654,128,0,118779:0:0:0:0:
448,192,118779,128,0,118904:0:0:0:0:
64,192,118904,128,0,119279:0:0:0:0:
320,192,118904,128,0,119029:0:0:0:0:
448,192,119029,128,0,119154:0:0:0:0:
192,192,119154,128,0,119279:0:0:0:0:
448,192,119279,128,0,119404:0:0:0:0:
320,192,119341,128,0,119654:0:0:0:0:
64,192,119404,128,0,119529:0:0:0:0:
192,192,119529,128,0,119654:0:0:0:0:
64,192,119654,128,0,119779:0:0:0:0:
448,192,119654,128,0,119904:0:0:0:0:
192,192,119779,128,0,119904:0:0:0:0:
320,192,119904,128,0,120029:0:0:0:0:
64,192,120029,128,0,120404:0:0:0:0:
192,192,120029,128,0,120154:0:0:0:0:
448,192,120029,128,0,120216:0:0:0:0:
320,192,120154,128,0,120279:0:0:0:0:
192,192,120279,128,0,120404:0:0:0:0:
448,192,120404,128,0,120779:0:0:0:0:
320,192,120404,128,0,120529:0:0:0:0:
192,192,120529,128,0,120654:0:0:0:0:
64,192,120654,128,0,120779:0:0:0:0:
320,192,120779,128,0,121154:0:0:0:0:
192,192,120779,128,0,120904:0:0:0:0:
64,192,120904,128,0,121029:0:0:0:0:
448,192,121029,128,0,121154:0:0:0:0:
192,192,121154,128,0,121404:0:0:0:0:
64,192,121154,128,0,121279:0:0:0:0:
448,192,121279,128,0,121404:0:0:0:0:
320,192,121404,128,0,121529:0:0:0:0:
64,192,121529,128,0,121779:0:0:0:0:
192,192,121529,128,0,121716:0:0:0:0:
448,192,121529,128,0,121654:0:0:0:0:
320,192,121654,128,0,121779:0:0:0:0:
448,192,121779,128,0,121904:0:0:0:0:
192,192,121904,128,0,122154:0:0:0:0:
320,192,121904,128,0,122091:0:0:0:0:
64,192,121904,128,0,122029:0:0:0:0:
448,192,122029,128,0,122154:0:0:0:0:
64,192,122154,128,0,122279:0:0:0:0:
320,192,122279,128,0,122529:0:0:0:0:
448,192,122279,128,0,122466:0:0:0:0:
192,192,122279,128,0,122404:0:0:0:0:
64,192,122404,128,0,122529:0:0:0:0:
192,192,122529,128,0,122654:0:0:0:0:
448,192,122654,128,0,123029:0:0:0:0:
320,192,122654,128,0,122747:0:0:0:0:
64,192,122654,128,0,122904:0:0:0:0:
192,192,122779,128,0,123029:0:0:0:0:
320,192,122904,128,0,123029:0:0:0:0:
64,192,123029,128,0,125935:0:0:0:0:
448,192,123779,1,0,0:0:0:0:
320,192,124529,1,0,0:0:0:0:
192,192,125279,128,0,125935:0:0:0:0:
448,192,125654,128,0,125935:0:0:0:0:
448,192,126029,128,0,126122:0:0:0:0:
64,192,126029,128,0,126310:0:0:0:0:
192,192,126029,128,0,126075:0:0:0:0:
320,192,126075,128,0,126216:0:0:0:0:
192,192,126122,128,0,126263:0:0:0:0:
448,192,126216,128,0,126341:0:0:0:0:
320,192,126310,128,0,126404:0:0:0:0:
64,192,126404,128,0,126591:0:0:0:0:
448,192,126404,1,0,0:0:0:0:
192,192,126404,128,0,126497:0:0:0:0:
320,192,126497,128,0,126685:0:0:0:0:
448,192,126591,128,0,126779:0:0:0:0:
192,192,126685,1,0,0:0:0:0:
64,192,126779,128,0,126872:0:0:0:0:
192,192,126825,128,0,126966:0:0:0:0:
320,192,126966,128,0,127154:0:0:0:0:
448,192,126966,1,0,0:0:0:0:
448,192,127154,1,0,0:0:0:0:
64,192,127154,128,0,127341:0:0:0:0:
192,192,127154,128,0,127247:0:0:0:0:
448,192,127341,128,0,127435:0:0:0:0:
192,192,127388,128,0,127529:0:0:0:0:
320,192,127529,1,0,0:0:0:0:
64,192,127529,1,0,0:0:0:0:
448,192,127622,1,0,0:0:0:0:
64,192,127716,128,0,127810:0:0:0:0:
192,192,127716,1,0,0:0:0:0:
320,192,127763,128,0,127904:0:0:0:0:
64,192,127904,1,0,0:0:0:0:
192,192,127904,128,0,127997:0:0:0:0:
448,192,127904,128,0,128091:0:0:0:0:
320,192,127997,128,0,128138:0:0:0:0:
64,192,128091,128,0,128185:0:0:0:0:
192,192,128279,128,0,128372:0:0:0:0:
320,192,128325,128,0,128466:0:0:0:0:
448,192,128466,1,0,0:0:0:0:
64,192,128466,1,0,0:0:0:0:
192,192,128560,1,0,0:0:0:0:
448,192,128654,128,0,128747:0:0:0:0:
64,192,128654,128,0,128747:0:0:0:0:
320,192,128654,1,0,0:0:0:0:
192,192,128700,128,0,128818:0:0:0:0:
320,192,128747,128,0,128888:0:0:0:0:
64,192,128841,128,0,128966:0:0:0:0:
448,192,128841,128,0,128935:0:0:0:0:
192,192,128935,128,0,129029:0:0:0:0:
448,192,129029,128,0,129122:0:0:0:0:
64,192,129029,128,0,129310:0:0:0:0:
320,192,129075,128,0,129216:0:0:0:0:
192,192,129122,128,0,129263:0:0:0:0:
448,192,129216,128,0,129341:0:0:0:0:
320,192,129310,128,0,129404:0:0:0:0:
64,192,129404,1,0,0:0:0:0:
448,192,129404,128,0,129591:0:0:0:0:
192,192,129404,128,0,129497:0:0:0:0:
320,192,129497,128,0,129685:0:0:0:0:
64,192,129591,128,0,129779:0:0:0:0:
192,192,129685,1,0,0:0:0:0:
320,192,129779,128,0,129872:0:0:0:0:
192,192,129825,128,0,129966:0:0:0:0:
64,192,129966,1,0,0:0:0:0:
448,192,129966,128,0,130154:0:0:0:0:
64,192,130154,1,0,0:0:0:0:
192,192,130154,128,0,130247:0:0:0:0:
320,192,130154,128,0,130341:0:0:0:0:
64,192,130341,128,0,130435:0:0:0:0:
448,192,130341,1,0,0:0:0:0:
192,192,130388,128,0,130529:0:0:0:0:
320,192,130529,1,0,0:0:0:0:
448,192,130529,1,0,0:0:0:0:
192,192,130622,1,0,0:0:0:0:
448,192,130716,128,0,130810:0:0:0:0:
320,192,130763,128,0,130904:0:0:0:0:
64,192,130810,1,0,0:0:0:0:
448,192,130904,128,0,130997:0:0:0:0:
192,192,130904,1,0,0:0:0:0:
64,192,130904,128,0,131091:0:0:0:0:
320,192,130997,128,0,131138:0:0:0:0:
192,192,131091,128,0,131279:0:0:0:0:
448,192,131279,128,0,131372:0:0:0:0:
64,192,131325,128,0,131466:0:0:0:0:
320,192,131466,1,0,0:0:0:0:
448,192,131466,1,0,0:0:0:0:
192,192,131560,1,0,0:0:0:0:
64,192,131654,128,0,131747:0:0:0:0:
448,192,131654,1,0,0:0:0:0:
320,192,131654,128,0,131747:0:0:0:0:
192,192,131700,128,0,131818:0:0:0:0:
448,192,131747,128,0,131888:0:0:0:0:
320,192,131841,128,0,131935:0:0:0:0:
64,192,131841,128,0,131966:0:0:0:0:
192,192,131935,128,0,132029:0:0:0:0:
448,192,132029,128,0,132122:0:0:0:0:
320,192,132029,128,0,132310:0:0:0:0:
64,192,132075,128,0,132216:0:0:0:0:
192,192,132122,128,0,132263:0:0:0:0:
448,192,132216,128,0,132357:0:0:0:0:
64,192,132310,128,0,132404:0:0:0:0:
448,192,132404,128,0,132591:0:0:0:0:
320,192,132404,128,0,132497:0:0:0:0:
192,192,132497,128,0,132685:0:0:0:0:
64,192,132591,128,0,132779:0:0:0:0:
320,192,132685,1,0,0:0:0:0:
448,192,132779,128,0,132872:0:0:0:0:
192,192,132825,128,0,132966:0:0:0:0:
64,192,132966,1,0,0:0:0:0:
320,192,132966,128,0,133154:0:0:0:0:
64,192,133154,128,0,133341:0:0:0:0:
192,192,133154,128,0,133247:0:0:0:0:
448,192,133154,1,0,0:0:0:0:
448,192,133341,128,0,133435:0:0:0:0:
192,192,133388,128,0,133529:0:0:0:0:
320,192,133529,1,0,0:0:0:0:
64,192,133529,1,0,0:0:0:0:
448,192,133622,1,0,0:0:0:0:
64,192,133716,128,0,133810:0:0:0:0:
192,192,133716,1,0,0:0:0:0:
320,192,133763,128,0,133904:0:0:0:0:
448,192,133904,1,0,0:0:0:0:
192,192,133904,128,0,133997:0:0:0:0:
64,192,133904,128,0,134091:0:0:0:0:
320,192,133997,128,0,134138:0:0:0:0:
448,192,134091,128,0,134185:0:0:0:0:
320,192,134279,128,0,134372:0:0:0:0:
192,192,134325,128,0,134466:0:0:0:0:
448,192,134466,1,0,0:0:0:0:
64,192,134466,1,0,0:0:0:0:
320,192,134560,1,0,0:0:0:0:
64,192,134654,128,0,134747:0:0:0:0:
448,192,134654,128,0,134747:0:0:0:0:
192,192,134654,1,0,0:0:0:0:
320,192,134700,128,0,134818:0:0:0:0:
192,192,134747,128,0,134888:0:0:0:0:
64,192,134841,128,0,134935:0:0:0:0:
448,192,134841,128,0,134966:0:0:0:0:
320,192,134935,128,0,135029:0:0:0:0:
448,192,135029,128,0,135310:0:0:0:0:
64,192,135029,1,0,0:0:0:0:
192,192,135075,128,0,135169:0:0:0:0:
320,192,135122,128,0,135216:0:0:0:0:
64,192,135216,128,0,135310:0:0:0:0:
192,192,135263,128,0,135357:0:0:0:0:
320,192,135310,128,0,135404:0:0:0:0:
64,192,135404,1,0,0:0:0:0:
192,192,135404,128,0,135591:0:0:0:0:
448,192,135404,128,0,135497:0:0:0:0:
320,192,135497,128,0,135685:0:0:0:0:
448,192,135591,128,0,135779:0:0:0:0:
64,192,135685,1,0,0:0:0:0:
192,192,135779,128,0,135872:0:0:0:0:
64,192,135825,128,0,135966:0:0:0:0:
448,192,135966,1,0,0:0:0:0:
320,192,135966,1,0,0:0:0:0:
192,192,136060,1,0,0:0:0:0:
320,192,136154,128,0,136388:0:0:0:0:
448,192,136154,128,0,136247:0:0:0:0:
64,192,136200,128,0,136294:0:0:0:0:
192,192,136247,128,0,136341:0:0:0:0:
448,192,136341,128,0,136482:0:0:0:0:
192,192,136435,128,0,136529:0:0:0:0:
64,192,136529,128,0,136810:0:0:0:0:
320,192,136575,128,0,136669:0:0:0:0:
192,192,136622,128,0,136716:0:0:0:0:
448,192,136716,128,0,136810:0:0:0:0:
320,192,136763,128,0,136857:0:0:0:0:
192,192,136810,128,0,136904:0:0:0:0:
448,192,136904,1,0,0:0:0:0:
320,192,136904,128,0,136997:0:0:0:0:
64,192,136904,128,0,137091:0:0:0:0:
192,192,136997,128,0,137138:0:0:0:0:
448,192,137091,128,0,137185:0:0:0:0:
320,192,137138,128,0,137232:0:0:0:0:
64,192,137185,128,0,137279:0:0:0:0:
448,192,137279,128,0,137372:0:0:0:0:
320,192,137325,128,0,137419:0:0:0:0:
192,192,137372,128,0,137466:0:0:0:0:
448,192,137466,1,0,0:0:0:0:
64,192,137466,1,0,0:0:0:0:
320,192,137560,128,0,137654:0:0:0:0:
192,192,137654,128,0,137747:0:0:0:0:
64,192,137654,128,0,137747:0:0:0:0:
320,192,137700,128,0,137818:0:0:0:0:
448,192,137747,128,0,137888:0:0:0:0:
192,192,137841,128,0,137935:0:0:0:0:
64,192,137841,128,0,137966:0:0:0:0:
320,192,137935,128,0,138029:0:0:0:0:
448,192,138029,128,0,138122:0:0:0:0:
64,192,138029,128,0,138310:0:0:0:0:
192,192,138029,128,0,138075:0:0:0:0:
320,192,138075,128,0,138216:0:0:0:0:
192,192,138122,128,0,138263:0:0:0:0:
448,192,138216,128,0,138341:0:0:0:0:
320,192,138310,128,0,138404:0:0:0:0:
448,192,138404,1,0,0:0:0:0:
192,192,138404,128,0,138591:0:0:0:0:
64,192,138404,128,0,138685:0:0:0:0:
320,192,138497,128,0,138732:0:0:0:0:
448,192,138591,128,0,138779:0:0:0:0:
192,192,138685,1,0,0:0:0:0:
64,192,138779,128,0,138872:0:0:0:0:
192,192,138825,128,0,138966:0:0:0:0:
320,192,138966,128,0,139154:0:0:0:0:
448,192,138966,128,0,139060:0:0:0:0:
448,192,139154,1,0,0:0:0:0:
64,192,139154,128,0,139435:0:0:0:0:
192,192,139154,128,0,139294:0:0:0:0:
320,192,139247,128,0,139341:0:0:0:0:
448,192,139341,128,0,139435:0:0:0:0:
192,192,139388,128,0,139529:0:0:0:0:
64,192,139529,1,0,0:0:0:0:
320,192,139529,128,0,139622:0:0:0:0:
448,192,139622,1,0,0:0:0:0:
64,192,139716,128,0,139810:0:0:0:0:
192,192,139716,128,0,139810:0:0:0:0:
320,192,139763,128,0,139904:0:0:0:0:
448,192,139904,1,0,0:0:0:0:
192,192,139904,128,0,140091:0:0:0:0:
64,192,139904,128,0,140185:0:0:0:0:
320,192,139997,128,0,140138:0:0:0:0:
448,192,140091,128,0,140185:0:0:0:0:
192,192,140279,128,0,140372:0:0:0:0:
320,192,140325,128,0,140466:0:0:0:0:
64,192,140466,128,0,140560:0:0:0:0:
448,192,140466,128,0,140560:0:0:0:0:
192,192,140560,1,0,0:0:0:0:
448,192,140654,128,0,140747:0:0:0:0:
64,192,140654,128,0,140747:0:0:0:0:
320,192,140654,1,0,0:0:0:0:
192,192,140700,128,0,140818:0:0:0:0:
320,192,140747,128,0,140888:0:0:0:0:
64,192,140841,128,0,140966:0:0:0:0:
448,192,140841,128,0,140935:0:0:0:0:
192,192,140935,128,0,141029:0:0:0:0:
448,192,141029,128,0,141122:0:0:0:0:
64,192,141029,128,0,141310:0:0:0:0:
320,192,141075,128,0,141216:0:0:0:0:
192,192,141122,128,0,141263:0:0:0:0:
448,192,141216,128,0,141341:0:0:0:0:
320,192,141310,128,0,141404:0:0:0:0:
64,192,141404,1,0,0:0:0:0:
448,192,141404,128,0,141685:0:0:0:0:
192,192,141404,128,0,141591:0:0:0:0:
320,192,141497,128,0,141732:0:0:0:0:
64,192,141591,128,0,141779:0:0:0:0:
192,192,141685,1,0,0:0:0:0:
448,192,141779,128,0,141872:0:0:0:0:
320,192,141825,128,0,141966:0:0:0:0:
448,192,141966,128,0,142154:0:0:0:0:
64,192,141966,128,0,142060:0:0:0:0:
320,192,142154,1,0,0:0:0:0:
64,192,142154,128,0,142294:0:0:0:0:
192,192,142154,128,0,142247:0:0:0:0:
448,192,142247,128,0,142341:0:0:0:0:
192,192,142341,128,0,142435:0:0:0:0:
320,192,142341,128,0,142435:0:0:0:0:
64,192,142388,128,0,142529:0:0:0:0:
448,192,142529,1,0,0:0:0:0:
320,192,142529,128,0,142622:0:0:0:0:
192,192,142622,1,0,0:0:0:0:
448,192,142716,128,0,142810:0:0:0:0:
64,192,142716,128,0,142810:0:0:0:0:
320,192,142763,128,0,142904:0:0:0:0:
192,192,142904,1,0,0:0:0:0:
64,192,142904,128,0,143185:0:0:0:0:
448,192,142904,128,0,142997:0:0:0:0:
320,192,142997,128,0,143138:0:0:0:0:
192,192,143091,128,0,143279:0:0:0:0:
448,192,143091,128,0,143185:0:0:0:0:
320,192,143279,128,0,143372:0:0:0:0:
64,192,143325,128,0,143466:0:0:0:0:
320,192,143466,128,0,143560:0:0:0:0:
448,192,143466,128,0,143560:0:0:0:0:
192,192,143560,1,0,0:0:0:0:
64,192,143654,128,0,143747:0:0:0:0:
448,192,143654,1,0,0:0:0:0:
320,192,143654,128,0,143747:0:0:0:0:
192,192,143700,128,0,143818:0:0:0:0:
448,192,143747,128,0,143888:0:0:0:0:
320,192,143841,128,0,143935:0:0:0:0:
64,192,143841,128,0,143966:0:0:0:0:
192,192,143935,128,0,144029:0:0:0:0:
448,192,144029,128,0,144122:0:0:0:0:
320,192,144029,128,0,144310:0:0:0:0:
64,192,144075,128,0,144216:0:0:0:0:
192,192,144122,128,0,144263:0:0:0:0:
448,192,144216,128,0,144357:0:0:0:0:
64,192,144310,128,0,144404:0:0:0:0:
448,192,144404,128,0,144685:0:0:0:0:
320,192,144404,128,0,144591:0:0:0:0:
192,192,144497,128,0,144685:0:0:0:0:
64,192,144591,128,0,144779:0:0:0:0:
320,192,144685,1,0,0:0:0:0:
448,192,144779,128,0,144872:0:0:0:0:
192,192,144825,128,0,144966:0:0:0:0:
320,192,144966,128,0,145154:0:0:0:0:
64,192,144966,128,0,145060:0:0:0:0:
64,192,145154,128,0,145341:0:0:0:0:
192,192,145154,128,0,145294:0:0:0:0:
448,192,145154,1,0,0:0:0:0:
320,192,145247,128,0,145341:0:0:0:0:
448,192,145341,128,0,145435:0:0:0:0:
192,192,145388,128,0,145529:0:0:0:0:
64,192,145529,1,0,0:0:0:0:
320,192,145529,128,0,145622:0:0:0:0:
448,192,145622,1,0,0:0:0:0:
64,192,145716,128,0,145810:0:0:0:0:
192,192,145716,128,0,145810:0:0:0:0:
320,192,145763,128,0,145904:0:0:0:0:
448,192,145904,1,0,0:0:0:0:
192,192,145904,128,0,146091:0:0:0:0:
64,192,145904,128,0,146185:0:0:0:0:
320,192,145997,128,0,146138:0:0:0:0:
448,192,146091,128,0,146185:0:0:0:0:
320,192,146279,128,0,146372:0:0:0:0:
192,192,146325,128,0,146466:0:0:0:0:
64,192,146466,128,0,146560:0:0:0:0:
448,192,146466,128,0,146560:0:0:0:0:
320,192,146560,1,0,0:0:0:0:
64,192,146654,128,0,146747:0:0:0:0:
448,192,146654,128,0,146747:0:0:0:0:
192,192,146654,1,0,0:0:0:0:
320,192,146700,128,0,146818:0:0:0:0:
192,192,146747,128,0,146888:0:0:0:0:
64,192,146841,128,0,146935:0:0:0:0:
448,192,146841,128,0,146966:0:0:0:0:
320,192,146935,128,0,147029:0:0:0:0:
448,192,147029,128,0,147310:0:0:0:0:
64,192,147029,1,0,0:0:0:0:
192,192,147075,128,0,147169:0:0:0:0:
320,192,147122,128,0,147216:0:0:0:0:
64,192,147216,128,0,147310:0:0:0:0:
192,192,147263,128,0,147357:0:0:0:0:
320,192,147310,128,0,147404:0:0:0:0:
192,192,147404,128,0,147591:0:0:0:0:
448,192,147404,128,0,147497:0:0:0:0:
64,192,147404,128,0,147497:0:0:0:0:
320,192,147497,128,0,147685:0:0:0:0:
448,192,147591,128,0,147779:0:0:0:0:
64,192,147685,1,0,0:0:0:0:
192,192,147779,128,0,147872:0:0:0:0:
64,192,147825,128,0,147966:0:0:0:0:
320,192,147966,128,0,148060:0:0:0:0:
448,192,147966,128,0,148060:0:0:0:0:
192,192,148060,128,0,148154:0:0:0:0:
320,192,148154,128,0,148388:0:0:0:0:
448,192,148154,128,0,148247:0:0:0:0:
64,192,148200,128,0,148294:0:0:0:0:
192,192,148247,128,0,148341:0:0:0:0:
448,192,148341,128,0,148482:0:0:0:0:
192,192,148435,128,0,148529:0:0:0:0:
64,192,148529,128,0,148810:0:0:0:0:
320,192,148575,128,0,148669:0:0:0:0:
192,192,148622,128,0,148716:0:0:0:0:
448,192,148716,128,0,148810:0:0:0:0:
320,192,148763,128,0,148857:0:0:0:0:
192,192,148810,128,0,148904:0:0:0:0:
320,192,148904,128,0,148997:0:0:0:0:
64,192,148904,128,0,149091:0:0:0:0:
448,192,148904,128,0,148997:0:0:0:0:
192,192,148997,128,0,149138:0:0:0:0:
448,192,149091,128,0,149185:0:0:0:0:
320,192,149138,128,0,149232:0:0:0:0:
64,192,149185,128,0,149279:0:0:0:0:
448,192,149279,128,0,149372:0:0:0:0:
320,192,149325,128,0,149419:0:0:0:0:
192,192,149372,128,0,149466:0:0:0:0:
448,192,149466,128,0,149560:0:0:0:0:
64,192,149466,128,0,149560:0:0:0:0:
320,192,149560,128,0,149654:0:0:0:0:
192,192,149654,128,0,149747:0:0:0:0:
64,192,149654,128,0,149747:0:0:0:0:
320,192,149700,128,0,149818:0:0:0:0:
448,192,149747,128,0,149888:0:0:0:0:
64,192,149841,128,0,149966:0:0:0:0:
192,192,149841,128,0,149935:0:0:0:0:
320,192,149935,128,0,150029:0:0:0:0:
64,192,150029,128,0,150216:0:0:0:0:
192,192,150029,128,0,150091:0:0:0:0:
448,192,150029,128,0,150154:0:0:0:0:
320,192,150091,128,0,150185:0:0:0:0:
192,192,150154,128,0,150279:0:0:0:0:
448,192,150216,128,0,150310:0:0:0:0:
320,192,150279,128,0,150341:0:0:0:0:
64,192,150341,128,0,150404:0:0:0:0:
192,192,150404,128,0,150466:0:0:0:0:
320,192,150404,128,0,150497:0:0:0:0:
448,192,150404,128,0,150529:0:0:0:0:
64,192,150466,128,0,150560:0:0:0:0:
192,192,150529,128,0,150622:0:0:0:0:
320,192,150591,128,0,150685:0:0:0:0:
448,192,150654,128,0,150747:0:0:0:0:
192,192,150716,128,0,150810:0:0:0:0:
64,192,150779,128,0,150872:0:0:0:0:
448,192,150841,128,0,150935:0:0:0:0:
320,192,150904,128,0,150997:0:0:0:0:
192,192,150966,128,0,151029:0:0:0:0:
64,192,150966,128,0,151060:0:0:0:0:
448,192,151029,128,0,151091:0:0:0:0:
320,192,151091,128,0,151154:0:0:0:0:
64,192,151154,128,0,151279:0:0:0:0:
192,192,151154,128,0,151216:0:0:0:0:
448,192,151154,128,0,151247:0:0:0:0:
320,192,151216,128,0,151310:0:0:0:0:
192,192,151279,128,0,151372:0:0:0:0:
448,192,151341,128,0,151435:0:0:0:0:
320,192,151404,128,0,151497:0:0:0:0:
64,192,151466,128,0,151560:0:0:0:0:
448,192,151529,128,0,151622:0:0:0:0:
192,192,151591,128,0,151685:0:0:0:0:
320,192,151654,128,0,151747:0:0:0:0:
64,192,151716,128,0,151779:0:0:0:0:
448,192,151716,128,0,151810:0:0:0:0:
192,192,151779,128,0,151841:0:0:0:0:
320,192,151841,128,0,151904:0:0:0:0:
192,192,151904,128,0,152029:0:0:0:0:
448,192,151904,128,0,151966:0:0:0:0:
64,192,151904,128,0,151997:0:0:0:0:
320,192,151966,128,0,152060:0:0:0:0:
448,192,152029,128,0,152122:0:0:0:0:
64,192,152091,128,0,152185:0:0:0:0:
320,192,152154,128,0,152247:0:0:0:0:
192,192,152216,128,0,152310:0:0:0:0:
64,192,152279,128,0,152372:0:0:0:0:
448,192,152341,128,0,152435:0:0:0:0:
320,192,152404,128,0,152497:0:0:0:0:
64,192,152466,128,0,152529:0:0:0:0:
192,192,152466,128,0,152560:0:0:0:0:
448,192,152529,128,0,152591:0:0:0:0:
320,192,152591,128,0,152654:0:0:0:0:
192,192,152654,128,0,152747:0:0:0:0:
448,192,152654,128,0,152779:0:0:0:0:
64,192,152654,128,0,152716:0:0:0:0:
320,192,152716,128,0,152966:0:0:0:0:
64,192,152779,128,0,152872:0:0:0:0:
192,192,152841,128,0,152935:0:0:0:0:
448,192,152904,128,0,153029:0:0:0:0:
64,192,152966,128,0,153029:0:0:0:0:
192,192,153029,128,0,153216:0:0:0:0:
320,192,153029,128,0,153154:0:0:0:0:
448,192,153091,128,0,153185:0:0:0:0:
64,192,153154,128,0,153279:0:0:0:0:
320,192,153216,128,0,153310:0:0:0:0:
448,192,153279,128,0,153341:0:0:0:0:
192,192,153341,128,0,153404:0:0:0:0:
320,192,153404,128,0,153466:0:0:0:0:
448,192,153404,128,0,153497:0:0:0:0:
64,192,153404,128,0,153529:0:0:0:0:
192,192,153466,128,0,153560:0:0:0:0:
320,192,153529,128,0,153622:0:0:0:0:
448,192,153591,128,0,153685:0:0:0:0:
64,192,153654,128,0,153747:0:0:0:0:
320,192,153716,128,0,153810:0:0:0:0:
192,192,153779,128,0,153872:0:0:0:0:
64,192,153841,128,0,153935:0:0:0:0:
448,192,153904,128,0,153997:0:0:0:0:
320,192,153966,128,0,154060:0:0:0:0:
192,192,153966,128,0,154029:0:0:0:0:
64,192,154029,128,0,154091:0:0:0:0:
448,192,154091,128,0,154154:0:0:0:0:
320,192,154154,128,0,154216:0:0:0:0:
192,192,154154,128,0,154247:0:0:0:0:
64,192,154154,128,0,154279:0:0:0:0:
448,192,154216,128,0,154310:0:0:0:0:
320,192,154279,128,0,154372:0:0:0:0:
192,192,154341,128,0,154435:0:0:0:0:
64,192,154341,128,0,154404:0:0:0:0:
448,192,154404,128,0,154497:0:0:0:0:
320,192,154466,128,0,154560:0:0:0:0:
64,192,154529,128,0,154622:0:0:0:0:
448,192,154591,128,0,154685:0:0:0:0:
192,192,154654,128,0,154747:0:0:0:0:
320,192,154716,128,0,154779:0:0:0:0:
64,192,154716,128,0,154810:0:0:0:0:
448,192,154779,128,0,154841:0:0:0:0:
192,192,154841,128,0,154904:0:0:0:0:
320,192,154904,128,0,154966:0:0:0:0:
64,192,154904,128,0,155029:0:0:0:0:
448,192,154904,128,0,154997:0:0:0:0:
192,192,154966,128,0,155060:0:0:0:0:
320,192,155029,128,0,155122:0:0:0:0:
448,192,155091,128,0,155185:0:0:0:0:
192,192,155154,128,0,155247:0:0:0:0:
64,192,155216,128,0,155310:0:0:0:0:
320,192,155279,128,0,155372:0:0:0:0:
192,192,155341,128,0,155435:0:0:0:0:
448,192,155404,128,0,155497:0:0:0:0:
320,192,155466,128,0,155560:0:0:0:0:
64,192,155466,128,0,155529:0:0:0:0:
192,192,155529,128,0,155591:0:0:0:0:
448,192,155591,128,0,155654:0:0:0:0:
320,192,155654,128,0,155747:0:0:0:0:
64,192,155654,128,0,155716:0:0:0:0:
192,192,155654,128,0,155779:0:0:0:0:
448,192,155716,128,0,155966:0:0:0:0:
64,192,155779,128,0,155872:0:0:0:0:
320,192,155841,128,0,155935:0:0:0:0:
192,192,155904,128,0,156029:0:0:0:0:
64,192,155966,128,0,156029:0:0:0:0:
448,192,156029,128,0,156216:0:0:0:0:
320,192,156029,128,0,156154:0:0:0:0:
192,192,156091,128,0,156185:0:0:0:0:
64,192,156154,128,0,156279:0:0:0:0:
320,192,156216,128,0,156310:0:0:0:0:
192,192,156279,128,0,156341:0:0:0:0:
448,192,156341,128,0,156404:0:0:0:0:
320,192,156404,128,0,156466:0:0:0:0:
192,192,156404,128,0,156497:0:0:0:0:
64,192,156404,128,0,156529:0:0:0:0:
448,192,156466,128,0,156560:0:0:0:0:
320,192,156529,128,0,156622:0:0:0:0:
192,192,156591,128,0,156685:0:0:0:0:
64,192,156654,128,0,156747:0:0:0:0:
320,192,156716,128,0,156810:0:0:0:0:
448,192,156779,128,0,156872:0:0:0:0:
64,192,156841,128,0,156935:0:0:0:0:
192,192,156904,128,0,156997:0:0:0:0:
320,192,156966,128,0,157029:0:0:0:0:
448,192,156966,128,0,157060:0:0:0:0:
64,192,157029,128,0,157091:0:0:0:0:
192,192,157091,128,0,157154:0:0:0:0:
448,192,157154,128,0,157279:0:0:0:0:
320,192,157154,128,0,157216:0:0:0:0:
64,192,157154,128,0,157247:0:0:0:0:
192,192,157216,128,0,157310:0:0:0:0:
320,192,157279,128,0,157372:0:0:0:0:
64,192,157341,128,0,157435:0:0:0:0:
192,192,157404,128,0,157497:0:0:0:0:
448,192,157466,128,0,157560:0:0:0:0:
64,192,157529,128,0,157622:0:0:0:0:
320,192,157591,128,0,157685:0:0:0:0:
192,192,157654,128,0,157747:0:0:0:0:
448,192,157716,128,0,157779:0:0:0:0:
64,192,157716,128,0,157810:0:0:0:0:
320,192,157779,128,0,157841:0:0:0:0:
192,192,157841,128,0,157904:0:0:0:0:
320,192,157904,128,0,158029:0:0:0:0:
64,192,157904,128,0,157966:0:0:0:0:
448,192,157904,128,0,157997:0:0:0:0:
192,192,157966,128,0,158060:0:0:0:0:
64,192,158029,128,0,158122:0:0:0:0:
448,192,158091,128,0,158185:0:0:0:0:
192,192,158154,128,0,158247:0:0:0:0:
320,192,158216,128,0,158310:0:0:0:0:
448,192,158279,128,0,158372:0:0:0:0:
64,192,158341,128,0,158435:0:0:0:0:
192,192,158404,128,0,158497:0:0:0:0:
448,192,158466,128,0,158529:0:0:0:0:
320,192,158466,128,0,158560:0:0:0:0:
64,192,158529,128,0,158591:0:0:0:0:
192,192,158591,128,0,158654:0:0:0:0:
320,192,158654,128,0,158747:0:0:0:0:
64,192,158654,128,0,158779:0:0:0:0:
448,192,158654,128,0,158716:0:0:0:0:
192,192,158716,128,0,158966:0:0:0:0:
448,192,158779,128,0,158872:0:0:0:0:
320,192,158841,128,0,158935:0:0:0:0:
64,192,158904,128,0,159029:0:0:0:0:
448,192,158966,128,0,159029:0:0:0:0:
320,192,159029,128,0,159216:0:0:0:0:
192,192,159029,128,0,159154:0:0:0:0:
64,192,159091,128,0,159185:0:0:0:0:
448,192,159154,128,0,159279:0:0:0:0:
192,192,159216,128,0,159310:0:0:0:0:
64,192,159279,128,0,159341:0:0:0:0:
320,192,159341,128,0,159404:0:0:0:0:
192,192,159404,128,0,159466:0:0:0:0:
64,192,159404,128,0,159497:0:0:0:0:
448,192,159404,128,0,159529:0:0:0:0:
320,192,159466,128,0,159560:0:0:0:0:
192,192,159529,128,0,159622:0:0:0:0:
64,192,159591,128,0,159685:0:0:0:0:
448,192,159654,128,0,159747:0:0:0:0:
192,192,159716,128,0,159810:0:0:0:0:
320,192,159779,128,0,159872:0:0:0:0:
448,192,159841,128,0,159935:0:0:0:0:
64,192,159904,128,0,159997:0:0:0:0:
192,192,159966,128,0,160060:0:0:0:0:
320,192,159966,128,0,160029:0:0:0:0:
448,192,160029,128,0,160091:0:0:0:0:
64,192,160091,128,0,160154:0:0:0:0:
192,192,160154,128,0,160216:0:0:0:0:
320,192,160154,128,0,160247:0:0:0:0:
448,192,160154,128,0,160279:0:0:0:0:
64,192,160216,128,0,160310:0:0:0:0:
192,192,160279,128,0,160372:0:0:0:0:
320,192,160341,128,0,160435:0:0:0:0:
448,192,160341,128,0,160404:0:0:0:0:
64,192,160404,128,0,160497:0:0:0:0:
192,192,160466,128,0,160560:0:0:0:0:
448,192,160529,128,0,160622:0:0:0:0:
64,192,160591,128,0,160685:0:0:0:0:
320,192,160654,128,0,160747:0:0:0:0:
192,192,160716,128,0,160779:0:0:0:0:
448,192,160716,128,0,160810:0:0:0:0:
64,192,160779,128,0,160841:0:0:0:0:
320,192,160841,128,0,160904:0:0:0:0:
192,192,160904,128,0,160966:0:0:0:0:
448,192,160904,128,0,161029:0:0:0:0:
64,192,160904,128,0,160997:0:0:0:0:
320,192,160966,128,0,161060:0:0:0:0:
192,192,161029,128,0,161122:0:0:0:0:
64,192,161091,128,0,161185:0:0:0:0:
320,192,161154,128,0,161247:0:0:0:0:
448,192,161216,128,0,161310:0:0:0:0:
192,192,161279,128,0,161372:0:0:0:0:
320,192,161341,128,0,161435:0:0:0:0:
64,192,161404,128,0,161497:0:0:0:0:
192,192,161466,128,0,161560:0:0:0:0:
448,192,161466,128,0,161529:0:0:0:0:
320,192,161529,128,0,161591:0:0:0:0:
64,192,161591,128,0,161654:0:0:0:0:
192,192,161654,128,0,161747:0:0:0:0:
448,192,161654,128,0,161716:0:0:0:0:
320,192,161654,128,0,161779:0:0:0:0:
64,192,161716,128,0,161966:0:0:0:0:
448,192,161779,128,0,161872:0:0:0:0:
192,192,161841,128,0,161935:0:0:0:0:
320,192,161904,128,0,161966:0:0:0:0:
448,192,161966,128,0,162029:0:0:0:0:
64,192,162029,128,0,162279:0:0:0:0:
192,192,162029,128,0,162091:0:0:0:0:
320,192,162029,128,0,162154:0:0:0:0:
448,192,162091,128,0,162216:0:0:0:0:
192,192,162154,128,0,162341:0:0:0:0:
320,192,162216,128,0,162341:0:0:0:0:
448,192,162279,128,0,162341:0:0:0:0:
64,192,162341,128,0,162404:0:0:0:0:
192,192,162404,128,0,162466:0:0:0:0:
320,192,162404,128,0,162529:0:0:0:0:
448,192,162404,128,0,162591:0:0:0:0:
64,192,162466,128,0,162591:0:0:0:0:
192,192,162529,128,0,162654:0:0:0:0:
320,192,162591,128,0,162716:0:0:0:0:
448,192,162654,128,0,162779:0:0:0:0:
192,192,162716,128,0,162841:0:0:0:0:
64,192,162779,128,0,162904:0:0:0:0:
320,192,162841,128,0,162966:0:0:0:0:
192,192,162904,128,0,163029:0:0:0:0:
448,192,162966,128,0,163029:0:0:0:0:
64,192,162966,128,0,163091:0:0:0:0:
320,192,163029,128,0,163091:0:0:0:0:
192,192,163091,128,0,163154:0:0:0:0:
320,192,163154,128,0,163341:0:0:0:0:
448,192,163154,128,0,163216:0:0:0:0:
64,192,163154,128,0,163279:0:0:0:0:
192,192,163216,128,0,163341:0:0:0:0:
448,192,163279,128,0,163404:0:0:0:0:
64,192,163341,128,0,163466:0:0:0:0:
192,192,163404,128,0,163529:0:0:0:0:
320,192,163466,128,0,163591:0:0:0:0:
448,192,163529,128,0,163654:0:0:0:0:
64,192,163591,128,0,163716:0:0:0:0:
320,192,163654,128,0,163779:0:0:0:0:
192,192,163716,128,0,163779:0:0:0:0:
448,192,163716,128,0,163841:0:0:0:0:
64,192,163779,128,0,163841:0:0:0:0:
320,192,163841,128,0,163904:0:0:0:0:
448,192,163904,128,0,164091:0:0:0:0:
192,192,163904,128,0,163966:0:0:0:0:
64,192,163904,128,0,164029:0:0:0:0:
320,192,163966,128,0,164091:0:0:0:0:
192,192,164029,128,0,164154:0:0:0:0:
64,192,164091,128,0,164216:0:0:0:0:
448,192,164154,128,0,164279:0:0:0:0:
192,192,164216,128,0,164341:0:0:0:0:
64,192,164279,128,0,164404:0:0:0:0:
448,192,164341,128,0,164466:0:0:0:0:
320,192,164404,128,0,164529:0:0:0:0:
64,192,164466,128,0,164529:0:0:0:0:
192,192,164466,128,0,164591:0:0:0:0:
448,192,164529,128,0,164591:0:0:0:0:
320,192,164591,128,0,164654:0:0:0:0:
192,192,164654,128,0,164779:0:0:0:0:
448,192,164654,128,0,164841:0:0:0:0:
64,192,164654,128,0,164716:0:0:0:0:
320,192,164716,128,0,164841:0:0:0:0:
64,192,164779,128,0,164904:0:0:0:0:
192,192,164841,128,0,164966:0:0:0:0:
448,192,164904,128,0,165029:0:0:0:0:
64,192,164966,128,0,165091:0:0:0:0:
320,192,165029,128,0,165154:0:0:0:0:
192,192,165029,128,0,165216:0:0:0:0:
448,192,165091,128,0,165216:0:0:0:0:
64,192,165154,128,0,165279:0:0:0:0:
320,192,165216,128,0,165279:0:0:0:0:
192,192,165279,128,0,165341:0:0:0:0:
64,192,165341,128,0,165404:0:0:0:0:
448,192,165404,128,0,165529:0:0:0:0:
320,192,165404,128,0,165466:0:0:0:0:
192,192,165404,128,0,165591:0:0:0:0:
64,192,165466,128,0,165591:0:0:0:0:
320,192,165529,128,0,165654:0:0:0:0:
448,192,165591,128,0,165716:0:0:0:0:
192,192,165654,128,0,165779:0:0:0:0:
320,192,165716,128,0,165841:0:0:0:0:
64,192,165779,128,0,165904:0:0:0:0:
192,192,165841,128,0,165966:0:0:0:0:
320,192,165904,128,0,166029:0:0:0:0:
448,192,165966,128,0,166091:0:0:0:0:
64,192,165966,128,0,166029:0:0:0:0:
192,192,166029,128,0,166091:0:0:0:0:
320,192,166091,128,0,166154:0:0:0:0:
448,192,166154,128,0,166279:0:0:0:0:
64,192,166154,128,0,166216:0:0:0:0:
192,192,166154,128,0,166279:0:0:0:0:
320,192,166216,128,0,166341:0:0:0:0:
64,192,166279,128,0,166404:0:0:0:0:
192,192,166341,128,0,166466:0:0:0:0:
448,192,166341,128,0,166404:0:0:0:0:
320,192,166404,128,0,166560:0:0:0:0:
64,192,166466,128,0,166591:0:0:0:0:
448,192,166529,128,0,166654:0:0:0:0:
192,192,166575,128,0,166700:0:0:0:0:
320,192,166622,128,0,166747:0:0:0:0:
64,192,166716,128,0,166794:0:0:0:0:
448,192,166716,128,0,166841:0:0:0:0:
192,192,166763,128,0,166841:0:0:0:0:
320,192,166810,128,0,166904:0:0:0:0:
64,192,166904,128,0,166966:0:0:0:0:
192,192,166904,128,0,167029:0:0:0:0:
448,192,166904,128,0,167091:0:0:0:0:
320,192,166966,128,0,167091:0:0:0:0:
64,192,167029,128,0,167154:0:0:0:0:
192,192,167091,128,0,167216:0:0:0:0:
448,192,167154,128,0,167279:0:0:0:0:
320,192,167216,128,0,167341:0:0:0:0:
64,192,167279,128,0,167404:0:0:0:0:
448,192,167341,128,0,167466:0:0:0:0:
192,192,167404,128,0,167529:0:0:0:0:
64,192,167466,128,0,167591:0:0:0:0:
320,192,167466,128,0,167529:0:0:0:0:
448,192,167529,128,0,167591:0:0:0:0:
192,192,167591,128,0,167654:0:0:0:0:
320,192,167654,128,0,167716:0:0:0:0:
64,192,167654,128,0,167779:0:0:0:0:
448,192,167654,128,0,167841:0:0:0:0:
192,192,167716,128,0,167841:0:0:0:0:
320,192,167779,128,0,167904:0:0:0:0:
64,192,167841,128,0,167966:0:0:0:0:
448,192,167904,128,0,168029:0:0:0:0:
192,192,167966,128,0,168091:0:0:0:0:
320,192,168029,128,0,168154:0:0:0:0:
64,192,168029,128,0,168216:0:0:0:0:
448,192,168091,128,0,168216:0:0:0:0:
192,192,168154,128,0,168279:0:0:0:0:
320,192,168216,128,0,168341:0:0:0:0:
64,192,168279,128,0,168341:0:0:0:0:
192,192,168341,128,0,168404:0:0:0:0:
448,192,168404,128,0,168466:0:0:0:0:
320,192,168404,128,0,168529:0:0:0:0:
64,192,168404,128,0,168591:0:0:0:0:
192,192,168466,128,0,168591:0:0:0:0:
448,192,168529,128,0,168654:0:0:0:0:
320,192,168591,128,0,168716:0:0:0:0:
64,192,168654,128,0,168779:0:0:0:0:
192,192,168716,128,0,168841:0:0:0:0:
448,192,168779,128,0,168904:0:0:0:0:
64,192,168841,128,0,168966:0:0:0:0:
320,192,168904,128,0,169029:0:0:0:0:
448,192,168966,128,0,169091:0:0:0:0:
192,192,168966,128,0,169029:0:0:0:0:
64,192,169029,128,0,169091:0:0:0:0:
320,192,169091,128,0,169154:0:0:0:0:
192,192,169154,128,0,169216:0:0:0:0:
64,192,169154,128,0,169341:0:0:0:0:
448,192,169154,128,0,169279:0:0:0:0:
320,192,169216,128,0,169341:0:0:0:0:
192,192,169279,128,0,169404:0:0:0:0:
448,192,169341,128,0,169466:0:0:0:0:
320,192,169404,128,0,169529:0:0:0:0:
64,192,169466,128,0,169591:0:0:0:0:
192,192,169529,128,0,169654:0:0:0:0:
448,192,169591,128,0,169716:0:0:0:0:
64,192,169654,128,0,169779:0:0:0:0:
192,192,169716,128,0,169841:0:0:0:0:
320,192,169716,128,0,169779:0:0:0:0:
448,192,169779,128,0,169841:0:0:0:0:
64,192,169841,128,0,169904:0:0:0:0:
192,192,169904,128,0,170029:0:0:0:0:
448,192,169904,128,0,170091:0:0:0:0:
320,192,169904,128,0,169966:0:0:0:0:
64,192,169966,128,0,170029:0:0:0:0:
320,192,170029,128,0,170154:0:0:0:0:
192,192,170091,128,0,170216:0:0:0:0:
64,192,170154,128,0,170279:0:0:0:0:
448,192,170216,128,0,170341:0:0:0:0:
320,192,170279,128,0,170404:0:0:0:0:
64,192,170341,128,0,170466:0:0:0:0:
192,192,170404,128,0,170529:0:0:0:0:
320,192,170466,128,0,170591:0:0:0:0:
448,192,170466,128,0,170529:0:0:0:0:
64,192,170529,128,0,170591:0:0:0:0:
192,192,170591,128,0,170654:0:0:0:0:
320,192,170654,128,0,170779:0:0:0:0:
64,192,170654,128,0,170841:0:0:0:0:
448,192,170654,128,0,170716:0:0:0:0:
192,192,170716,128,0,170841:0:0:0:0:
448,192,170779,128,0,170904:0:0:0:0:
320,192,170841,128,0,170966:0:0:0:0:
192,192,170904,128,0,171029:0:0:0:0:
448,192,170966,128,0,171091:0:0:0:0:
320,192,171029,128,0,171279:0:0:0:0:
64,192,171029,128,0,171154:0:0:0:0:
192,192,171091,128,0,171216:0:0:0:0:
448,192,171154,128,0,171341:0:0:0:0:
64,192,171216,128,0,171341:0:0:0:0:
192,192,171279,128,0,171341:0:0:0:0:
320,192,171341,128,0,171404:0:0:0:0:
448,192,171404,128,0,171529:0:0:0:0:
64,192,171404,128,0,171466:0:0:0:0:
192,192,171404,128,0,171591:0:0:0:0:
320,192,171466,128,0,171716:0:0:0:0:
64,192,171529,128,0,171654:0:0:0:0:
448,192,171591,128,0,171841:0:0:0:0:
192,192,171654,128,0,171779:0:0:0:0:
64,192,171716,128,0,171904:0:0:0:0:
320,192,171779,128,0,171904:0:0:0:0:
192,192,171841,128,0,171966:0:0:0:0:
448,192,171904,128,0,172029:0:0:0:0:
64,192,171966,128,0,172091:0:0:0:0:
320,192,171966,128,0,172091:0:0:0:0:
192,192,172029,128,0,172091:0:0:0:0:
448,192,172091,128,0,172154:0:0:0:0:
192,192,172154,128,0,172279:0:0:0:0:
64,192,172154,128,0,172216:0:0:0:0:
320,192,172154,128,0,172279:0:0:0:0:
448,192,172216,128,0,172341:0:0:0:0:
64,192,172279,128,0,172404:0:0:0:0:
320,192,172341,128,0,172591:0:0:0:0:
192,192,172341,128,0,172466:0:0:0:0:
448,192,172404,128,0,172529:0:0:0:0:
64,192,172466,128,0,172654:0:0:0:0:
192,192,172529,128,0,172654:0:0:0:0:
448,192,172591,128,0,172716:0:0:0:0:
320,192,172654,128,0,172779:0:0:0:0:
192,192,172716,128,0,172841:0:0:0:0:
64,192,172716,128,0,172841:0:0:0:0:
448,192,172779,128,0,172841:0:0:0:0:
320,192,172841,128,0,172904:0:0:0:0:
192,192,172904,128,0,172966:0:0:0:0:
64,192,172904,128,0,173029:0:0:0:0:
448,192,172904,128,0,173091:0:0:0:0:
320,192,172966,128,0,173154:0:0:0:0:
192,192,173029,128,0,173271:0:0:0:0:
64,192,173091,128,0,173216:0:0:0:0:
448,192,173154,128,0,173372:0:0:0:0:
320,192,173216,128,0,173318:0:0:0:0:
64,192,173279,128,0,173411:0:0:0:0:
192,192,173325,128,0,173411:0:0:0:0:
320,192,173372,128,0,173458:0:0:0:0:
448,192,173419,128,0,173505:0:0:0:0:
64,192,173466,128,0,173599:0:0:0:0:
192,192,173466,128,0,173552:0:0:0:0:
320,192,173513,128,0,173599:0:0:0:0:
448,192,173560,128,0,173599:0:0:0:0:
192,192,173607,128,0,173654:0:0:0:0:
64,192,173654,128,0,173700:0:0:0:0:
320,192,173654,128,0,173794:0:0:0:0:
448,192,173654,128,0,173747:0:0:0:0:
192,192,173700,128,0,173888:0:0:0:0:
64,192,173747,128,0,173841:0:0:0:0:
448,192,173794,128,0,173982:0:0:0:0:
320,192,173841,128,0,173935:0:0:0:0:
64,192,173888,128,0,173982:0:0:0:0:
192,192,173935,128,0,173982:0:0:0:0:
320,192,173982,128,0,174029:0:0:0:0:
448,192,174029,128,0,174216:0:0:0:0:
64,192,174029,128,0,174404:0:0:0:0:
192,192,174029,128,0,174310:0:0:0:0:
320,192,179279,132,0,179654:0:0:0:0:
192,192,179654,5,0,0:0:0:0:
448,192,179654,1,0,0:0:0:0:
64,192,179747,1,0,0:0:0:0:
64,192,179841,1,0,0:0:0:0:
320,192,179841,1,0,0:0:0:0:
320,192,179935,1,0,0:0:0:0:
448,192,180029,1,0,0:0:0:0:
192,192,180029,1,0,0:0:0:0:
64,192,180029,1,0,0:0:0:0:
320,192,180122,1,0,0:0:0:0:
448,192,180216,1,0,0:0:0:0:
192,192,180310,1,0,0:0:0:0:
320,192,180404,1,0,0:0:0:0:
64,192,180497,1,0,0:0:0:0:
320,192,180603,1,0,0:0:0:0:
192,192,180700,1,0,0:0:0:0:
64,192,180810,1,0,0:0:0:0:
320,192,180919,1,0,0:0:0:0:
192,192,181029,1,0,0:0:0:0:
448,192,181138,1,0,0:0:0:0:
320,192,181247,1,0,0:0:0:0:
448,192,181357,1,0,0:0:0:0:
192,192,181466,1,0,0:0:0:0:
320,192,181575,1,0,0:0:0:0:
64,192,181669,1,0,0:0:0:0:
192,192,181763,1,0,0:0:0:0:
448,192,181857,1,0,0:0:0:0:
192,192,181935,1,0,0:0:0:0:
320,192,182013,1,0,0:0:0:0:
64,192,182091,1,0,0:0:0:0:
320,192,182154,1,0,0:0:0:0:
192,192,182225,1,0,0:0:0:0:
448,192,182294,1,0,0:0:0:0:
192,192,182357,1,0,0:0:0:0:
64,192,182419,1,0,0:0:0:0:
320,192,182482,1,0,0:0:0:0:
192,192,182544,1,0,0:0:0:0:
448,192,182595,1,0,0:0:0:0:
64,192,182654,1,0,0:0:0:0:
320,192,182700,1,0,0:0:0:0:
192,192,182747,1,0,0:0:0:0:
64,192,182818,1,0,0:0:0:0:
320,192,182872,1,0,0:0:0:0:
448,192,182935,1,0,0:0:0:0:
192,192,182997,1,0,0:0:0:0:
320,192,183060,128,0,183107:0:0:0:0:
64,192,183134,128,0,183193:0:0:0:0:
448,192,183193,128,0,183263:0:0:0:0:
192,192,183263,128,0,183357:0:0:0:0:
320,192,183357,128,0,183474:0:0:0:0:
64,192,183450,128,0,183591:0:0:0:0:
448,192,183544,128,0,183779:0:0:0:0:
192,192,183638,128,0,184060:0:0:0:0:
320,192,183779,128,0,184247:0:0:0:0:
64,192,183919,128,0,184529:0:0:0:0:
448,192,184154,128,0,184529:0:0:0:0:
192,192,184341,128,0,184529:0:0:0:0:
320,192,184435,128,0,184529:0:0:0:0:
64,192,185279,1,0,0:0:0:0:
448,192,185341,1,0,0:0:0:0:
320,192,185404,1,0,0:0:0:0:
192,192,185466,1,0,0:0:0:0:
448,192,185529,1,0,0:0:0:0:
64,192,185591,1,0,0:0:0:0:
320,192,185654,1,0,0:0:0:0:
192,192,185716,128,0,185841:0:0:0:0:
448,192,185779,128,0,185966:0:0:0:0:
320,192,185841,128,0,185966:0:0:0:0:
64,192,185904,128,0,185966:0:0:0:0:
192,192,185966,128,0,186029:0:0:0:0:
64,192,186029,128,0,186075:0:0:0:0:
320,192,186029,128,0,186099:0:0:0:0:
448,192,186029,128,0,186122:0:0:0:0:
192,192,186122,128,0,186169:0:0:0:0:
64,192,186169,128,0,186239:0:0:0:0:
320,192,186216,128,0,186310:0:0:0:0:
448,192,186263,128,0,186357:0:0:0:0:
192,192,186310,128,0,186404:0:0:0:0:
320,192,186357,128,0,186474:0:0:0:0:
448,192,186404,128,0,186638:0:0:0:0:
64,192,186450,128,0,186544:0:0:0:0:
192,192,186497,128,0,186591:0:0:0:0:
320,192,186544,128,0,186732:0:0:0:0:
64,192,186591,128,0,186685:0:0:0:0:
192,192,186638,128,0,186825:0:0:0:0:
448,192,186685,128,0,186779:0:0:0:0:
64,192,186732,128,0,186966:0:0:0:0:
320,192,186779,128,0,186872:0:0:0:0:
448,192,186825,128,0,186919:0:0:0:0:
192,192,186872,128,0,187013:0:0:0:0:
320,192,186919,128,0,187060:0:0:0:0:
448,192,186966,128,0,187200:0:0:0:0:
64,192,187013,128,0,187107:0:0:0:0:
192,192,187060,128,0,187154:0:0:0:0:
320,192,187107,128,0,187247:0:0:0:0:
64,192,187154,128,0,187271:0:0:0:0:
192,192,187200,128,0,187341:0:0:0:0:
448,192,187247,128,0,187341:0:0:0:0:
320,192,187294,128,0,187388:0:0:0:0:
64,192,187341,128,0,187411:0:0:0:0:
448,192,187388,128,0,187458:0:0:0:0:
192,192,187435,128,0,187505:0:0:0:0:
64,192,187482,128,0,187552:0:0:0:0:
448,192,187529,128,0,187599:0:0:0:0:
320,192,187575,128,0,187622:0:0:0:0:
192,192,187622,1,0,0:0:0:0:
448,192,187716,1,0,0:0:0:0:
320,192,187810,1,0,0:0:0:0:
64,192,187904,1,0,0:0:0:0:
64,192,187997,1,0,0:0:0:0:
320,192,188091,1,0,0:0:0:0:
192,192,188185,1,0,0:0:0:0:
448,192,188279,1,0,0:0:0:0:
320,192,188372,1,0,0:0:0:0:
320,192,188466,1,0,0:0:0:0:
64,192,188560,1,0,0:0:0:0:
448,192,188654,1,0,0:0:0:0:
192,192,188747,1,0,0:0:0:0:
320,192,188841,128,0,188966:0:0:0:0:
448,192,188904,128,0,188966:0:0:0:0:
192,192,188966,128,0,189029:0:0:0:0:
448,192,189029,128,0,189099:0:0:0:0:
64,192,189029,128,0,189075:0:0:0:0:
320,192,189029,128,0,189122:0:0:0:0:
192,192,189122,128,0,189169:0:0:0:0:
64,192,189169,128,0,189239:0:0:0:0:
448,192,189216,128,0,189286:0:0:0:0:
320,192,189263,128,0,189333:0:0:0:0:
192,192,189310,128,0,189427:0:0:0:0:
448,192,189357,128,0,189427:0:0:0:0:
320,192,189404,128,0,189568:0:0:0:0:
64,192,189450,128,0,189521:0:0:0:0:
448,192,189497,128,0,189708:0:0:0:0:
192,192,189544,128,0,189614:0:0:0:0:
64,192,189591,128,0,189661:0:0:0:0:
320,192,189638,128,0,189755:0:0:0:0:
192,192,189685,128,0,189802:0:0:0:0:
64,192,189732,128,0,189943:0:0:0:0:
448,192,189779,128,0,189849:0:0:0:0:
320,192,189825,128,0,189896:0:0:0:0:
192,192,189872,128,0,190048:0:0:0:0:
448,192,189919,128,0,189989:0:0:0:0:
320,192,189966,128,0,190142:0:0:0:0:
64,192,190013,128,0,190095:0:0:0:0:
448,192,190060,128,0,190189:0:0:0:0:
192,192,190107,128,0,190247:0:0:0:0:
64,192,190154,128,0,190341:0:0:0:0:
320,192,190200,128,0,190294:0:0:0:0:
448,192,190247,128,0,190435:0:0:0:0:
192,192,190294,128,0,190388:0:0:0:0:
320,192,190341,128,0,190482:0:0:0:0:
64,192,190388,128,0,190529:0:0:0:0:
192,192,190435,128,0,190552:0:0:0:0:
448,192,190482,128,0,190552:0:0:0:0:
320,192,190529,128,0,190575:0:0:0:0:
64,192,190622,1,0,0:0:0:0:
192,192,190716,1,0,0:0:0:0:
448,192,190810,1,0,0:0:0:0:
320,192,190904,1,0,0:0:0:0:
320,192,190997,1,0,0:0:0:0:
64,192,191091,1,0,0:0:0:0:
448,192,191185,1,0,0:0:0:0:
192,192,191279,1,0,0:0:0:0:
64,192,191372,1,0,0:0:0:0:
64,192,191466,1,0,0:0:0:0:
320,192,191560,1,0,0:0:0:0:
448,192,191654,1,0,0:0:0:0:
448,192,191747,1,0,0:0:0:0:
192,192,191841,128,0,191966:0:0:0:0:
64,192,191904,128,0,191966:0:0:0:0:
448,192,191966,128,0,192029:0:0:0:0:
64,192,192029,128,0,192099:0:0:0:0:
320,192,192029,128,0,192075:0:0:0:0:
192,192,192029,128,0,192122:0:0:0:0:
448,192,192122,128,0,192169:0:0:0:0:
320,192,192169,128,0,192263:0:0:0:0:
64,192,192216,128,0,192310:0:0:0:0:
192,192,192263,128,0,192415:0:0:0:0:
448,192,192310,128,0,192462:0:0:0:0:
64,192,192357,128,0,192556:0:0:0:0:
320,192,192404,128,0,192509:0:0:0:0:
192,192,192450,128,0,192650:0:0:0:0:
448,192,192497,128,0,192603:0:0:0:0:
320,192,192544,128,0,192696:0:0:0:0:
64,192,192591,128,0,192743:0:0:0:0:
448,192,192638,128,0,192837:0:0:0:0:
192,192,192685,128,0,192790:0:0:0:0:
320,192,192732,128,0,192931:0:0:0:0:
64,192,192779,128,0,192884:0:0:0:0:
192,192,192825,128,0,192978:0:0:0:0:
448,192,192872,128,0,193025:0:0:0:0:
64,192,192919,128,0,193107:0:0:0:0:
320,192,192966,128,0,193060:0:0:0:0:
192,192,193013,128,0,193200:0:0:0:0:
448,192,193060,128,0,193154:0:0:0:0:
320,192,193107,128,0,193236:0:0:0:0:
64,192,193154,128,0,193271:0:0:0:0:
448,192,193200,128,0,193271:0:0:0:0:
192,192,193247,128,0,193318:0:0:0:0:
320,192,193294,128,0,193364:0:0:0:0:
64,192,193341,128,0,193388:0:0:0:0:
320,192,193435,1,0,0:0:0:0:
192,192,193482,128,0,193591:0:0:0:0:
448,192,193529,128,0,193575:0:0:0:0:
64,192,193560,128,0,193607:0:0:0:0:
320,192,193622,1,0,0:0:0:0:
192,192,193716,1,0,0:0:0:0:
192,192,193810,1,0,0:0:0:0:
64,192,193904,1,0,0:0:0:0:
448,192,193997,1,0,0:0:0:0:
448,192,194091,1,0,0:0:0:0:
192,192,194185,1,0,0:0:0:0:
320,192,194279,1,0,0:0:0:0:
320,192,194372,1,0,0:0:0:0:
448,192,194466,1,0,0:0:0:0:
192,192,194560,1,0,0:0:0:0:
64,192,194654,1,0,0:0:0:0:
64,192,194747,1,0,0:0:0:0:
448,192,194841,128,0,194966:0:0:0:0:
320,192,194904,128,0,194966:0:0:0:0:
64,192,194966,128,0,195029:0:0:0:0:
448,192,195029,128,0,195099:0:0:0:0:
320,192,195029,128,0,195122:0:0:0:0:
192,192,195029,128,0,195075:0:0:0:0:
64,192,195122,128,0,195169:0:0:0:0:
192,192,195169,128,0,195239:0:0:0:0:
448,192,195216,128,0,195286:0:0:0:0:
320,192,195263,128,0,195357:0:0:0:0:
64,192,195310,128,0,195380:0:0:0:0:
448,192,195357,128,0,195497:0:0:0:0:
192,192,195404,128,0,195544:0:0:0:0:
64,192,195450,128,0,195732:0:0:0:0:
320,192,195497,128,0,195591:0:0:0:0:
448,192,195544,128,0,195638:0:0:0:0:
192,192,195591,128,0,195685:0:0:0:0:
320,192,195638,128,0,195779:0:0:0:0:
448,192,195685,128,0,195931:0:0:0:0:
192,192,195732,128,0,195825:0:0:0:0:
64,192,195779,128,0,195884:0:0:0:0:
320,192,195825,128,0,195978:0:0:0:0:
192,192,195872,128,0,196071:0:0:0:0:
64,192,195919,128,0,196025:0:0:0:0:
448,192,195966,128,0,196118:0:0:0:0:
320,192,196013,128,0,196118:0:0:0:0:
64,192,196060,128,0,196154:0:0:0:0:
192,192,196107,128,0,196177:0:0:0:0:
320,192,196154,128,0,196247:0:0:0:0:
448,192,196154,128,0,196200:0:0:0:0:
64,192,196247,128,0,196341:0:0:0:0:
320,192,196318,128,0,196364:0:0:0:0:
448,192,196341,128,0,196388:0:0:0:0:
192,192,196411,128,0,196458:0:0:0:0:
320,192,196482,128,0,196529:0:0:0:0:
192,192,196529,128,0,196619:0:0:0:0:
448,192,196529,128,0,196574:0:0:0:0:
64,192,196529,128,0,196597:0:0:0:0:
320,192,196619,128,0,196801:0:0:0:0:
64,192,196710,128,0,197256:0:0:0:0:
448,192,196710,1,0,0:0:0:0:
192,192,196801,1,0,0:0:0:0:
320,192,196892,1,0,0:0:0:0:
448,192,196983,1,0,0:0:0:0:
320,192,197074,1,0,0:0:0:0:
192,192,197165,1,0,0:0:0:0:
448,192,197256,1,0,0:0:0:0:
320,192,197256,1,0,0:0:0:0:
192,192,197341,128,0,197513:0:0:0:0:
448,192,197427,128,0,197941:0:0:0:0:
64,192,197427,1,0,0:0:0:0:
320,192,197513,1,0,0:0:0:0:
192,192,197598,1,0,0:0:0:0:
64,192,197684,1,0,0:0:0:0:
192,192,197770,1,0,0:0:0:0:
320,192,197856,1,0,0:0:0:0:
192,192,197941,1,0,0:0:0:0:
64,192,197941,1,0,0:0:0:0:
448,192,198020,128,0,198179:0:0:0:0:
64,192,198099,128,0,198576:0:0:0:0:
320,192,198099,1,0,0:0:0:0:
192,192,198179,1,0,0:0:0:0:
448,192,198258,1,0,0:0:0:0:
320,192,198337,1,0,0:0:0:0:
192,192,198417,1,0,0:0:0:0:
320,192,198496,1,0,0:0:0:0:
192,192,198575,1,0,0:0:0:0:
448,192,198575,1,0,0:0:0:0:
64,192,198649,128,0,198797:0:0:0:0:
448,192,198723,128,0,199167:0:0:0:0:
192,192,198723,1,0,0:0:0:0:
320,192,198797,1,0,0:0:0:0:
64,192,198871,1,0,0:0:0:0:
192,192,198945,1,0,0:0:0:0:
320,192,199019,1,0,0:0:0:0:
192,192,199093,1,0,0:0:0:0:
64,192,199167,1,0,0:0:0:0:
320,192,199167,1,0,0:0:0:0:
192,192,199237,128,0,199659:0:0:0:0:
448,192,199307,1,0,0:0:0:0:
320,192,199307,1,0,0:0:0:0:
64,192,199378,1,0,0:0:0:0:
320,192,199448,1,0,0:0:0:0:
448,192,199448,1,0,0:0:0:0:
64,192,199519,1,0,0:0:0:0:
320,192,199589,1,0,0:0:0:0:
448,192,199589,1,0,0:0:0:0:
64,192,199659,1,0,0:0:0:0:
192,192,199730,1,0,0:0:0:0:
448,192,199730,1,0,0:0:0:0:
320,192,199796,128,0,200263:0:0:0:0:
64,192,199863,1,0,0:0:0:0:
192,192,199863,1,0,0:0:0:0:
448,192,199930,1,0,0:0:0:0:
64,192,199996,1,0,0:0:0:0:
192,192,199996,1,0,0:0:0:0:
448,192,200063,1,0,0:0:0:0:
64,192,200130,1,0,0:0:0:0:
192,192,200130,1,0,0:0:0:0:
448,192,200196,1,0,0:0:0:0:
192,192,200263,1,0,0:0:0:0:
64,192,200263,1,0,0:0:0:0:
448,192,200325,1,0,0:0:0:0:
320,192,200325,1,0,0:0:0:0:
192,192,200388,1,0,0:0:0:0:
64,192,200388,1,0,0:0:0:0:
320,192,200450,1,0,0:0:0:0:
448,192,200450,1,0,0:0:0:0:
192,192,200513,1,0,0:0:0:0:
64,192,200513,1,0,0:0:0:0:
320,192,200575,1,0,0:0:0:0:
448,192,200575,1,0,0:0:0:0:
64,192,200638,1,0,0:0:0:0:
192,192,200638,1,0,0:0:0:0:
320,192,200700,1,0,0:0:0:0:
448,192,200700,1,0,0:0:0:0:
64,192,200763,1,0,0:0:0:0:
192,192,200793,1,0,0:0:0:0:
448,192,200823,1,0,0:0:0:0:
320,192,200853,1,0,0:0:0:0:
64,192,200883,1,0,0:0:0:0:
192,192,200913,1,0,0:0:0:0:
448,192,200943,1,0,0:0:0:0:
64,192,200973,1,0,0:0:0:0:
320,192,201003,1,0,0:0:0:0:
448,192,201033,1,0,0:0:0:0:
192,192,201063,1,0,0:0:0:0:
64,192,201093,1,0,0:0:0:0:
320,192,201123,1,0,0:0:0:0:
192,192,201153,1,0,0:0:0:0:
448,192,201183,1,0,0:0:0:0:
320,192,201213,1,0,0:0:0:0:
192,192,201243,1,0,0:0:0:0:
64,192,201243,1,0,0:0:0:0:
448,192,201361,1,0,0:0:0:0:
64,192,201361,1,0,0:0:0:0:
320,192,201480,1,0,0:0:0:0:
448,192,201480,1,0,0:0:0:0:
320,192,201598,1,0,0:0:0:0:
64,192,201598,1,0,0:0:0:0:
192,192,201717,1,0,0:0:0:0:
448,192,201717,1,0,0:0:0:0:
64,192,201835,1,0,0:0:0:0:
320,192,201954,1,0,0:0:0:0:
64,192,201954,1,0,0:0:0:0:
448,192,202191,128,0,202659:0:0:0:0:
320,192,202191,128,0,202425:0:0:0:0:
64,192,202191,128,0,202308:0:0:0:0:
192,192,202308,1,0,0:0:0:0:
64,192,202425,1,0,0:0:0:0:
192,192,202483,1,0,0:0:0:0:
320,192,202542,1,0,0:0:0:0:
64,192,202659,128,0,202718:0:0:0:0:
192,192,202659,128,0,202718:0:0:0:0:
320,192,202659,128,0,202718:0:0:0:0:
192,192,202776,1,0,0:0:0:0:
64,192,202894,1,0,0:0:0:0:
320,192,202894,1,0,0:0:0:0:
448,192,202894,1,0,0:0:0:0:
192,192,202952,1,0,0:0:0:0:
448,192,203011,1,0,0:0:0:0:
192,192,203069,1,0,0:0:0:0:
320,192,203128,1,0,0:0:0:0:
64,192,203187,1,0,0:0:0:0:
320,192,203245,1,0,0:0:0:0:
64,192,203304,1,0,0:0:0:0:
192,192,203362,1,0,0:0:0:0:
448,192,203421,1,0,0:0:0:0:
192,192,203480,1,0,0:0:0:0:
448,192,203538,1,0,0:0:0:0:
64,192,203597,1,0,0:0:0:0:
320,192,203655,1,0,0:0:0:0:
64,192,203714,1,0,0:0:0:0:
320,192,203773,1,0,0:0:0:0:
192,192,203831,1,0,0:0:0:0:
448,192,203890,1,0,0:0:0:0:
320,192,203948,1,0,0:0:0:0:
64,192,203948,1,0,0:0:0:0:
192,192,203948,1,0,0:0:0:0:
448,192,204066,128,0,204300:0:0:0:0:
320,192,204066,128,0,204124:0:0:0:0:
64,192,204066,128,0,204124:0:0:0:0:
192,192,204183,128,0,204300:0:0:0:0:
320,192,204241,128,0,204300:0:0:0:0:
64,192,204300,1,0,0:0:0:0:
192,192,204358,1,0,0:0:0:0:
448,192,204417,1,0,0:0:0:0:
320,192,204476,1,0,0:0:0:0:
192,192,204534,1,0,0:0:0:0:
64,192,204534,128,0,204651:0:0:0:0:
448,192,204534,1,0,0:0:0:0:
320,192,204651,1,0,0:0:0:0:
64,192,204709,128,0,204944:0:0:0:0:
448,192,204768,1,0,0:0:0:0:
192,192,204826,128,0,204944:0:0:0:0:
320,192,204885,128,0,205002:0:0:0:0:
192,192,205002,128,0,205061:0:0:0:0:
448,192,205002,128,0,205061:0:0:0:0:
64,192,205002,128,0,205061:0:0:0:0:
448,192,205119,1,0,0:0:0:0:
64,192,205237,1,0,0:0:0:0:
192,192,205237,1,0,0:0:0:0:
320,192,205237,1,0,0:0:0:0:
64,192,205295,128,0,205530:0:0:0:0:
320,192,205588,1,0,0:0:0:0:
448,192,205588,1,0,0:0:0:0:
192,192,205588,1,0,0:0:0:0:
448,192,205647,128,0,205881:0:0:0:0:
64,192,205705,128,0,205881:0:0:0:0:
192,192,205940,1,0,0:0:0:0:
64,192,205940,1,0,0:0:0:0:
320,192,205940,1,0,0:0:0:0:
448,192,206018,1,0,0:0:0:0:
192,192,206057,1,0,0:0:0:0:
320,192,206096,1,0,0:0:0:0:
64,192,206135,1,0,0:0:0:0:
448,192,206174,1,0,0:0:0:0:
192,192,206174,1,0,0:0:0:0:
448,192,206291,1,0,0:0:0:0:
192,192,206291,1,0,0:0:0:0:
64,192,206409,128,0,206877:0:0:0:0:
192,192,206409,128,0,206643:0:0:0:0:
448,192,206409,128,0,206526:0:0:0:0:
320,192,206526,1,0,0:0:0:0:
448,192,206643,1,0,0:0:0:0:
320,192,206701,1,0,0:0:0:0:
192,192,206760,1,0,0:0:0:0:
192,192,206877,128,0,206936:0:0:0:0:
448,192,206877,128,0,206936:0:0:0:0:
320,192,206877,128,0,206936:0:0:0:0:
320,192,206994,1,0,0:0:0:0:
448,192,207112,1,0,0:0:0:0:
192,192,207112,1,0,0:0:0:0:
64,192,207112,1,0,0:0:0:0:
320,192,207170,1,0,0:0:0:0:
64,192,207229,1,0,0:0:0:0:
320,192,207287,1,0,0:0:0:0:
192,192,207346,1,0,0:0:0:0:
448,192,207405,1,0,0:0:0:0:
192,192,207463,1,0,0:0:0:0:
448,192,207522,1,0,0:0:0:0:
320,192,207580,1,0,0:0:0:0:
64,192,207639,1,0,0:0:0:0:
320,192,207698,1,0,0:0:0:0:
64,192,207756,1,0,0:0:0:0:
448,192,207815,1,0,0:0:0:0:
192,192,207873,1,0,0:0:0:0:
448,192,207932,1,0,0:0:0:0:
192,192,207991,1,0,0:0:0:0:
320,192,208049,1,0,0:0:0:0:
64,192,208108,1,0,0:0:0:0:
448,192,208166,1,0,0:0:0:0:
192,192,208166,1,0,0:0:0:0:
320,192,208166,1,0,0:0:0:0:
192,192,208284,128,0,208342:0:0:0:0:
448,192,208284,128,0,208342:0:0:0:0:
64,192,208284,128,0,208342:0:0:0:0:
320,192,208401,1,0,0:0:0:0:
448,192,208518,1,0,0:0:0:0:
192,192,208518,1,0,0:0:0:0:
320,192,208576,1,0,0:0:0:0:
64,192,208635,1,0,0:0:0:0:
192,192,208664,1,0,0:0:0:0:
320,192,208694,1,0,0:0:0:0:
192,192,208753,1,0,0:0:0:0:
64,192,208753,1,0,0:0:0:0:
448,192,208753,1,0,0:0:0:0:
320,192,208870,128,0,208928:0:0:0:0:
64,192,208899,128,0,208958:0:0:0:0:
448,192,208987,128,0,209045:0:0:0:0:
192,192,209016,128,0,209075:0:0:0:0:
320,192,209104,1,0,0:0:0:0:
64,192,209104,1,0,0:0:0:0:
448,192,209104,1,0,0:0:0:0:
192,192,209221,128,0,209280:0:0:0:0:
448,192,209251,128,0,209309:0:0:0:0:
64,192,209338,128,0,209397:0:0:0:0:
320,192,209368,128,0,209426:0:0:0:0:
64,192,209456,1,0,0:0:0:0:
192,192,209456,1,0,0:0:0:0:
448,192,209456,1,0,0:0:0:0:
320,192,209573,1,0,0:0:0:0:
192,192,209631,1,0,0:0:0:0:
320,192,209690,1,0,0:0:0:0:
192,192,209749,1,0,0:0:0:0:
448,192,209807,1,0,0:0:0:0:
64,192,209807,1,0,0:0:0:0:
320,192,209807,1,0,0:0:0:0:
192,192,209924,1,0,0:0:0:0:
448,192,209924,1,0,0:0:0:0:
64,192,209983,1,0,0:0:0:0:
448,192,210042,128,0,210100:0:0:0:0:
320,192,210071,128,0,210115:0:0:0:0:
192,192,210100,1,0,0:0:0:0:
448,192,210159,128,0,210627:0:0:0:0:
320,192,210159,128,0,210393:0:0:0:0:
64,192,210159,128,0,210276:0:0:0:0:
192,192,210276,1,0,0:0:0:0:
64,192,210393,128,0,210510:0:0:0:0:
192,192,210451,128,0,210569:0:0:0:0:
320,192,210510,128,0,210569:0:0:0:0:
320,192,210627,128,0,210686:0:0:0:0:
64,192,210627,128,0,210686:0:0:0:0:
192,192,210627,128,0,210686:0:0:0:0:
64,192,210744,1,0,0:0:0:0:
192,192,210862,1,0,0:0:0:0:
320,192,210862,1,0,0:0:0:0:
448,192,210862,1,0,0:0:0:0:
64,192,210920,1,0,0:0:0:0:
192,192,210979,1,0,0:0:0:0:
64,192,211037,1,0,0:0:0:0:
320,192,211096,1,0,0:0:0:0:
192,192,211155,1,0,0:0:0:0:
320,192,211213,1,0,0:0:0:0:
192,192,211272,1,0,0:0:0:0:
448,192,211330,1,0,0:0:0:0:
320,192,211389,1,0,0:0:0:0:
448,192,211448,1,0,0:0:0:0:
320,192,211506,1,0,0:0:0:0:
64,192,211565,1,0,0:0:0:0:
448,192,211623,1,0,0:0:0:0:
64,192,211682,1,0,0:0:0:0:
448,192,211741,1,0,0:0:0:0:
192,192,211799,1,0,0:0:0:0:
64,192,211858,1,0,0:0:0:0:
320,192,211916,1,0,0:0:0:0:
448,192,211916,1,0,0:0:0:0:
192,192,211916,1,0,0:0:0:0:
448,192,212034,128,0,212268:0:0:0:0:
320,192,212034,128,0,212092:0:0:0:0:
64,192,212034,128,0,212092:0:0:0:0:
192,192,212121,128,0,212268:0:0:0:0:
320,192,212209,128,0,212268:0:0:0:0:
64,192,212268,1,0,0:0:0:0:
192,192,212326,1,0,0:0:0:0:
448,192,212385,1,0,0:0:0:0:
320,192,212444,1,0,0:0:0:0:
448,192,212502,1,0,0:0:0:0:
192,192,212503,1,0,0:0:0:0:
64,192,212503,128,0,212620:0:0:0:0:
320,192,212620,1,0,0:0:0:0:
64,192,212678,128,0,212913:0:0:0:0:
448,192,212737,1,0,0:0:0:0:
192,192,212795,128,0,212913:0:0:0:0:
320,192,212854,128,0,212971:0:0:0:0:
192,192,212971,128,0,213030:0:0:0:0:
64,192,212971,128,0,213030:0:0:0:0:
448,192,212971,128,0,213030:0:0:0:0:
448,192,213088,1,0,0:0:0:0:
64,192,213206,1,0,0:0:0:0:
192,192,213206,1,0,0:0:0:0:
320,192,213206,1,0,0:0:0:0:
64,192,213264,128,0,213499:0:0:0:0:
320,192,213557,1,0,0:0:0:0:
448,192,213557,1,0,0:0:0:0:
192,192,213557,1,0,0:0:0:0:
320,192,213616,128,0,213850:0:0:0:0:
64,192,213674,128,0,213850:0:0:0:0:
192,192,213909,1,0,0:0:0:0:
64,192,213909,1,0,0:0:0:0:
448,192,213909,1,0,0:0:0:0:
192,192,213967,128,0,214114:0:0:0:0:
320,192,214026,128,0,214085:0:0:0:0:
448,192,214114,128,0,214260:0:0:0:0:
320,192,214143,128,0,214231:0:0:0:0:
192,192,214260,1,0,0:0:0:0:
64,192,214260,1,0,0:0:0:0:
320,192,214338,1,0,0:0:0:0:
448,192,214378,1,0,0:0:0:0:
192,192,214417,1,0,0:0:0:0:
320,192,214456,1,0,0:0:0:0:
64,192,214495,1,0,0:0:0:0:
192,192,214534,1,0,0:0:0:0:
448,192,214573,1,0,0:0:0:0:
64,192,214612,1,0,0:0:0:0:
320,192,214651,1,0,0:0:0:0:
448,192,214690,1,0,0:0:0:0:
192,192,214729,1,0,0:0:0:0:
320,192,214768,1,0,0:0:0:0:
64,192,214807,1,0,0:0:0:0:
192,192,214846,1,0,0:0:0:0:
192,192,215081,1,0,0:0:0:0:
64,192,215120,1,0,0:0:0:0:
448,192,215198,1,0,0:0:0:0:
320,192,215237,1,0,0:0:0:0:
64,192,215316,128,0,215784:0:0:0:0:
192,192,215316,128,0,215550:0:0:0:0:
448,192,215316,128,0,215433:0:0:0:0:
320,192,215433,1,0,0:0:0:0:
448,192,215550,1,0,0:0:0:0:
320,192,215608,1,0,0:0:0:0:
192,192,215667,1,0,0:0:0:0:
448,192,215784,128,0,215843:0:0:0:0:
320,192,215784,128,0,215843:0:0:0:0:
192,192,215784,128,0,215843:0:0:0:0:
448,192,215901,1,0,0:0:0:0:
64,192,216019,1,0,0:0:0:0:
192,192,216019,1,0,0:0:0:0:
320,192,216019,1,0,0:0:0:0:
448,192,216077,1,0,0:0:0:0:
320,192,216136,1,0,0:0:0:0:
448,192,216194,1,0,0:0:0:0:
192,192,216253,1,0,0:0:0:0:
320,192,216312,1,0,0:0:0:0:
192,192,216370,1,0,0:0:0:0:
320,192,216429,1,0,0:0:0:0:
64,192,216487,1,0,0:0:0:0:
192,192,216546,1,0,0:0:0:0:
64,192,216605,1,0,0:0:0:0:
192,192,216663,1,0,0:0:0:0:
448,192,216722,1,0,0:0:0:0:
64,192,216780,1,0,0:0:0:0:
448,192,216839,1,0,0:0:0:0:
64,192,216898,1,0,0:0:0:0:
320,192,216956,1,0,0:0:0:0:
448,192,217015,1,0,0:0:0:0:
320,192,217073,1,0,0:0:0:0:
64,192,217073,1,0,0:0:0:0:
192,192,217073,1,0,0:0:0:0:
192,192,217191,128,0,217249:0:0:0:0:
448,192,217191,128,0,217249:0:0:0:0:
64,192,217191,128,0,217249:0:0:0:0:
320,192,217308,1,0,0:0:0:0:
448,192,217425,1,0,0:0:0:0:
192,192,217483,1,0,0:0:0:0:
320,192,217542,1,0,0:0:0:0:
64,192,217571,1,0,0:0:0:0:
448,192,217601,1,0,0:0:0:0:
320,192,217659,1,0,0:0:0:0:
64,192,217659,1,0,0:0:0:0:
192,192,217659,1,0,0:0:0:0:
320,192,217776,128,0,217834:0:0:0:0:
448,192,217805,128,0,217864:0:0:0:0:
64,192,217893,128,0,217951:0:0:0:0:
192,192,217922,128,0,217981:0:0:0:0:
320,192,218010,1,0,0:0:0:0:
448,192,218010,1,0,0:0:0:0:
64,192,218010,1,0,0:0:0:0:
192,192,218127,128,0,218186:0:0:0:0:
64,192,218157,128,0,218215:0:0:0:0:
448,192,218244,128,0,218303:0:0:0:0:
320,192,218274,128,0,218332:0:0:0:0:
448,192,218362,1,0,0:0:0:0:
64,192,218362,1,0,0:0:0:0:
192,192,218362,1,0,0:0:0:0:
320,192,218479,1,0,0:0:0:0:
192,192,218537,1,0,0:0:0:0:
320,192,218596,1,0,0:0:0:0:
192,192,218655,1,0,0:0:0:0:
320,192,218713,1,0,0:0:0:0:
448,192,218713,1,0,0:0:0:0:
64,192,218713,1,0,0:0:0:0:
64,192,218830,1,0,0:0:0:0:
448,192,218830,1,0,0:0:0:0:
320,192,218889,1,0,0:0:0:0:
64,192,218948,128,0,219006:0:0:0:0:
192,192,218977,128,0,219021:0:0:0:0:
320,192,219006,1,0,0:0:0:0:
64,192,219066,1,0,0:0:0:0:
192,192,219066,1,0,0:0:0:0:
448,192,219183,128,0,219476:0:0:0:0:
320,192,219300,128,0,219476:0:0:0:0:
192,192,219417,128,0,219534:0:0:0:0:
448,192,219534,128,0,219769:0:0:0:0:
320,192,219534,128,0,219593:0:0:0:0:
64,192,219534,128,0,219710:0:0:0:0:
192,192,219593,128,0,219651:0:0:0:0:
320,192,219651,128,0,219710:0:0:0:0:
192,192,219710,128,0,219769:0:0:0:0:
320,192,219769,128,0,219827:0:0:0:0:
448,192,219827,128,0,219886:0:0:0:0:
64,192,219886,1,0,0:0:0:0:
192,192,219886,1,0,0:0:0:0:
320,192,219974,128,0,220062:0:0:0:0:
448,192,220003,128,0,220179:0:0:0:0:
64,192,220062,128,0,220120:0:0:0:0:
192,192,220120,128,0,220179:0:0:0:0:
448,192,220237,1,0,0:0:0:0:
320,192,220237,1,0,0:0:0:0:
64,192,220325,128,0,220384:0:0:0:0:
192,192,220355,128,0,220472:0:0:0:0:
64,192,220472,128,0,220511:0:0:0:0:
320,192,220472,128,0,220511:0:0:0:0:
448,192,220472,128,0,220511:0:0:0:0:
192,192,220589,1,0,0:0:0:0:
64,192,220648,1,0,0:0:0:0:
320,192,220706,1,0,0:0:0:0:
192,192,220765,1,0,0:0:0:0:
448,192,220823,1,0,0:0:0:0:
320,192,220882,1,0,0:0:0:0:
192,192,220941,1,0,0:0:0:0:
64,192,220941,1,0,0:0:0:0:
448,192,220999,128,0,221087:0:0:0:0:
320,192,221175,128,0,221351:0:0:0:0:
64,192,221175,128,0,221409:0:0:0:0:
192,192,221204,128,0,221351:0:0:0:0:
320,192,221409,128,0,221448:0:0:0:0:
448,192,221409,128,0,221448:0:0:0:0:
192,192,221409,128,0,221448:0:0:0:0:
64,192,221526,1,0,0:0:0:0:
448,192,221585,1,0,0:0:0:0:
192,192,221644,1,0,0:0:0:0:
448,192,221702,1,0,0:0:0:0:
192,192,221761,1,0,0:0:0:0:
64,192,221761,1,0,0:0:0:0:
320,192,221849,128,0,221937:0:0:0:0:
448,192,221878,128,0,221995:0:0:0:0:
192,192,221937,128,0,222054:0:0:0:0:
64,192,221995,128,0,222112:0:0:0:0:
448,192,222112,1,0,0:0:0:0:
320,192,222112,1,0,0:0:0:0:
192,192,222200,128,0,222259:0:0:0:0:
320,192,222230,128,0,222347:0:0:0:0:
448,192,222347,128,0,222386:0:0:0:0:
192,192,222347,128,0,222386:0:0:0:0:
64,192,222347,128,0,222386:0:0:0:0:
320,192,222425,128,0,222503:0:0:0:0:
64,192,222464,128,0,222581:0:0:0:0:
192,192,222542,128,0,222757:0:0:0:0:
320,192,222581,1,0,0:0:0:0:
448,192,222581,1,0,0:0:0:0:
64,192,222640,128,0,222816:0:0:0:0:
320,192,222698,1,0,0:0:0:0:
448,192,222698,1,0,0:0:0:0:
448,192,222816,128,0,222874:0:0:0:0:
320,192,222816,128,0,222933:0:0:0:0:
192,192,222816,128,0,222991:0:0:0:0:
64,192,222874,128,0,223167:0:0:0:0:
448,192,222933,128,0,223108:0:0:0:0:
320,192,222991,128,0,223050:0:0:0:0:
192,192,223050,128,0,223108:0:0:0:0:
320,192,223108,128,0,223167:0:0:0:0:
192,192,223167,128,0,223226:0:0:0:0:
64,192,223226,128,0,223284:0:0:0:0:
192,192,223284,128,0,223323:0:0:0:0:
320,192,223284,128,0,223323:0:0:0:0:
448,192,223284,128,0,223323:0:0:0:0:
64,192,223401,1,0,0:0:0:0:
320,192,223460,1,0,0:0:0:0:
64,192,223519,1,0,0:0:0:0:
320,192,223577,1,0,0:0:0:0:
192,192,223636,1,0,0:0:0:0:
64,192,223636,1,0,0:0:0:0:
448,192,223724,128,0,223812:0:0:0:0:
320,192,223753,128,0,223929:0:0:0:0:
64,192,223812,128,0,223870:0:0:0:0:
192,192,223870,128,0,223929:0:0:0:0:
320,192,223987,1,0,0:0:0:0:
448,192,223987,1,0,0:0:0:0:
64,192,224075,128,0,224163:0:0:0:0:
448,192,224105,128,0,224222:0:0:0:0:
192,192,224222,128,0,224261:0:0:0:0:
320,192,224222,128,0,224261:0:0:0:0:
64,192,224222,128,0,224261:0:0:0:0:
448,192,224339,1,0,0:0:0:0:
192,192,224398,1,0,0:0:0:0:
448,192,224456,1,0,0:0:0:0:
64,192,224515,1,0,0:0:0:0:
320,192,224573,1,0,0:0:0:0:
448,192,224573,1,0,0:0:0:0:
64,192,224632,1,0,0:0:0:0:
192,192,224691,1,0,0:0:0:0:
320,192,224749,1,0,0:0:0:0:
192,192,224808,1,0,0:0:0:0:
320,192,224866,1,0,0:0:0:0:
64,192,224925,128,0,225042:0:0:0:0:
192,192,224925,128,0,224983:0:0:0:0:
448,192,224983,1,0,0:0:0:0:
320,192,225042,1,0,0:0:0:0:
192,192,225101,1,0,0:0:0:0:
64,192,225159,128,0,225198:0:0:0:0:
320,192,225159,128,0,225276:0:0:0:0:
448,192,225159,128,0,225218:0:0:0:0:
192,192,225218,1,0,0:0:0:0:
448,192,225276,1,0,0:0:0:0:
64,192,225335,1,0,0:0:0:0:
320,192,225394,128,0,225511:0:0:0:0:
192,192,225394,128,0,225452:0:0:0:0:
448,192,225452,1,0,0:0:0:0:
64,192,225511,1,0,0:0:0:0:
192,192,225511,1,0,0:0:0:0:
448,192,225628,128,0,225862:0:0:0:0:
320,192,225657,128,0,225862:0:0:0:0:
64,192,225687,128,0,225804:0:0:0:0:
64,192,225862,1,0,0:0:0:0:
192,192,225862,128,0,225980:0:0:0:0:
320,192,225950,128,0,226097:0:0:0:0:
448,192,226097,128,0,226136:0:0:0:0:
192,192,226097,128,0,226136:0:0:0:0:
64,192,226097,128,0,226136:0:0:0:0:
320,192,226175,128,0,226273:0:0:0:0:
64,192,226214,128,0,226390:0:0:0:0:
192,192,226214,1,0,0:0:0:0:
320,192,226331,1,0,0:0:0:0:
448,192,226331,128,0,226507:0:0:0:0:
64,192,226448,1,0,0:0:0:0:
192,192,226448,128,0,226566:0:0:0:0:
320,192,226566,128,0,226624:0:0:0:0:
448,192,226566,128,0,226741:0:0:0:0:
64,192,226566,128,0,226683:0:0:0:0:
192,192,226624,128,0,226800:0:0:0:0:
320,192,226683,128,0,226858:0:0:0:0:
64,192,226741,128,0,226858:0:0:0:0:
448,192,226800,128,0,226917:0:0:0:0:
192,192,226858,128,0,226917:0:0:0:0:
320,192,226917,128,0,226976:0:0:0:0:
448,192,226976,128,0,227034:0:0:0:0:
64,192,227034,128,0,227073:0:0:0:0:
192,192,227034,128,0,227073:0:0:0:0:
320,192,227034,128,0,227073:0:0:0:0:
448,192,227151,1,0,0:0:0:0:
64,192,227210,1,0,0:0:0:0:
448,192,227269,1,0,0:0:0:0:
64,192,227327,1,0,0:0:0:0:
320,192,227386,1,0,0:0:0:0:
448,192,227386,1,0,0:0:0:0:
192,192,227474,128,0,227562:0:0:0:0:
64,192,227503,128,0,227679:0:0:0:0:
448,192,227562,128,0,227620:0:0:0:0:
320,192,227620,128,0,227679:0:0:0:0:
64,192,227737,1,0,0:0:0:0:
192,192,227737,1,0,0:0:0:0:
448,192,227825,128,0,227884:0:0:0:0:
320,192,227855,128,0,227972:0:0:0:0:
448,192,227972,128,0,228011:0:0:0:0:
192,192,227972,128,0,228011:0:0:0:0:
64,192,227972,128,0,228011:0:0:0:0:
320,192,228089,1,0,0:0:0:0:
448,192,228148,1,0,0:0:0:0:
192,192,228206,1,0,0:0:0:0:
320,192,228265,1,0,0:0:0:0:
64,192,228323,1,0,0:0:0:0:
192,192,228382,1,0,0:0:0:0:
320,192,228441,1,0,0:0:0:0:
448,192,228441,1,0,0:0:0:0:
64,192,228499,128,0,228587:0:0:0:0:
192,192,228675,128,0,228851:0:0:0:0:
448,192,228675,128,0,228909:0:0:0:0:
320,192,228704,128,0,228851:0:0:0:0:
192,192,228909,128,0,228948:0:0:0:0:
64,192,228909,128,0,228948:0:0:0:0:
320,192,228909,128,0,228948:0:0:0:0:
448,192,229026,128,0,229144:0:0:0:0:
64,192,229085,1,0,0:0:0:0:
320,192,229144,1,0,0:0:0:0:
64,192,229202,1,0,0:0:0:0:
320,192,229261,1,0,0:0:0:0:
448,192,229261,1,0,0:0:0:0:
192,192,229349,128,0,229437:0:0:0:0:
64,192,229378,128,0,229495:0:0:0:0:
448,192,229437,128,0,229554:0:0:0:0:
320,192,229495,128,0,229612:0:0:0:0:
64,192,229612,1,0,0:0:0:0:
192,192,229612,1,0,0:0:0:0:
448,192,229700,128,0,229759:0:0:0:0:
192,192,229730,128,0,229847:0:0:0:0:
64,192,229847,128,0,229886:0:0:0:0:
320,192,229847,128,0,229886:0:0:0:0:
448,192,229847,128,0,229886:0:0:0:0:
192,192,229925,128,0,230003:0:0:0:0:
320,192,229964,128,0,230081:0:0:0:0:
448,192,230042,128,0,230237:0:0:0:0:
192,192,230081,1,0,0:0:0:0:
64,192,230081,1,0,0:0:0:0:
320,192,230140,128,0,230316:0:0:0:0:
192,192,230198,1,0,0:0:0:0:
64,192,230198,1,0,0:0:0:0:
192,192,230316,128,0,230374:0:0:0:0:
64,192,230316,128,0,230491:0:0:0:0:
448,192,230316,128,0,230433:0:0:0:0:
320,192,230374,128,0,230550:0:0:0:0:
192,192,230433,128,0,230608:0:0:0:0:
448,192,230491,128,0,230608:0:0:0:0:
64,192,230550,128,0,230667:0:0:0:0:
320,192,230608,128,0,230667:0:0:0:0:
192,192,230667,128,0,230726:0:0:0:0:
64,192,230726,128,0,230784:0:0:0:0:
192,192,230784,128,0,230823:0:0:0:0:
448,192,230784,128,0,230823:0:0:0:0:
320,192,230784,128,0,230823:0:0:0:0:
64,192,230901,1,0,0:0:0:0:
448,192,230960,1,0,0:0:0:0:
64,192,231019,1,0,0:0:0:0:
448,192,231077,1,0,0:0:0:0:
192,192,231136,1,0,0:0:0:0:
64,192,231136,1,0,0:0:0:0:
320,192,231224,128,0,231312:0:0:0:0:
448,192,231253,128,0,231429:0:0:0:0:
192,192,231312,128,0,231370:0:0:0:0:
64,192,231370,128,0,231429:0:0:0:0:
320,192,231487,128,0,231663:0:0:0:0:
448,192,231487,128,0,231546:0:0:0:0:
64,192,231575,128,0,231663:0:0:0:0:
192,192,231605,128,0,231722:0:0:0:0:
448,192,231722,128,0,231780:0:0:0:0:
64,192,231780,128,0,231839:0:0:0:0:
320,192,231839,1,0,0:0:0:0:
448,192,231839,1,0,0:0:0:0:
192,192,231898,1,0,0:0:0:0:
320,192,231956,1,0,0:0:0:0:
64,192,232015,1,0,0:0:0:0:
192,192,232073,1,0,0:0:0:0:
448,192,232132,1,0,0:0:0:0:
192,192,232191,1,0,0:0:0:0:
64,192,232191,1,0,0:0:0:0:
320,192,232308,1,0,0:0:0:0:
64,192,232366,1,0,0:0:0:0:
448,192,232425,128,0,232542:0:0:0:0:
320,192,232425,128,0,232483:0:0:0:0:
192,192,232454,128,0,232601:0:0:0:0:
64,192,232483,128,0,232601:0:0:0:0:
320,192,232659,128,0,232718:0:0:0:0:
64,192,232659,128,0,232776:0:0:0:0:
192,192,232659,128,0,232698:0:0:0:0:
448,192,232718,1,0,0:0:0:0:
192,192,232776,1,0,0:0:0:0:
320,192,232835,1,0,0:0:0:0:
192,192,232894,128,0,233011:0:0:0:0:
64,192,232894,128,0,232952:0:0:0:0:
320,192,232952,1,0,0:0:0:0:
448,192,233011,1,0,0:0:0:0:
64,192,233011,1,0,0:0:0:0:
320,192,233128,128,0,233362:0:0:0:0:
448,192,233157,128,0,233362:0:0:0:0:
192,192,233187,128,0,233304:0:0:0:0:
192,192,233362,1,0,0:0:0:0:
64,192,233362,128,0,233480:0:0:0:0:
448,192,233450,128,0,233597:0:0:0:0:
320,192,233597,128,0,233636:0:0:0:0:
192,192,233597,128,0,233636:0:0:0:0:
64,192,233597,128,0,233636:0:0:0:0:
448,192,233675,128,0,233773:0:0:0:0:
192,192,233714,128,0,233890:0:0:0:0:
64,192,233714,1,0,0:0:0:0:
448,192,233831,1,0,0:0:0:0:
320,192,233831,128,0,234007:0:0:0:0:
192,192,233948,1,0,0:0:0:0:
64,192,233948,128,0,234066:0:0:0:0:
448,192,234066,1,0,0:0:0:0:
320,192,234066,1,0,0:0:0:0:
64,192,234183,128,0,234476:0:0:0:0:
192,192,234300,128,0,234476:0:0:0:0:
320,192,234417,128,0,234534:0:0:0:0:
64,192,234534,128,0,234769:0:0:0:0:
192,192,234534,128,0,234593:0:0:0:0:
448,192,234534,128,0,234710:0:0:0:0:
320,192,234593,128,0,234651:0:0:0:0:
192,192,234651,128,0,234710:0:0:0:0:
320,192,234710,128,0,234769:0:0:0:0:
192,192,234769,128,0,234827:0:0:0:0:
64,192,234827,128,0,234886:0:0:0:0:
448,192,234886,1,0,0:0:0:0:
320,192,234886,1,0,0:0:0:0:
192,192,235003,128,0,235062:0:0:0:0:
448,192,235032,128,0,235237:0:0:0:0:
64,192,235120,128,0,235179:0:0:0:0:
320,192,235149,128,0,235237:0:0:0:0:
192,192,235237,1,0,0:0:0:0:
64,192,235237,1,0,0:0:0:0:
448,192,235355,128,0,235413:0:0:0:0:
320,192,235384,128,0,235472:0:0:0:0:
448,192,235472,128,0,235511:0:0:0:0:
192,192,235472,128,0,235511:0:0:0:0:
64,192,235472,128,0,235511:0:0:0:0:
320,192,235589,128,0,235648:0:0:0:0:
192,192,235618,128,0,235706:0:0:0:0:
64,192,235648,1,0,0:0:0:0:
448,192,235706,128,0,235765:0:0:0:0:
320,192,235735,128,0,235794:0:0:0:0:
192,192,235765,1,0,0:0:0:0:
448,192,235823,128,0,235882:0:0:0:0:
320,192,235853,128,0,235941:0:0:0:0:
64,192,235882,1,0,0:0:0:0:
192,192,235941,1,0,0:0:0:0:
448,192,235941,1,0,0:0:0:0:
64,192,236058,128,0,236116:0:0:0:0:
320,192,236087,128,0,236175:0:0:0:0:
448,192,236175,128,0,236351:0:0:0:0:
192,192,236204,128,0,236351:0:0:0:0:
320,192,236233,128,0,236351:0:0:0:0:
64,192,236292,128,0,236409:0:0:0:0:
192,192,236409,128,0,236448:0:0:0:0:
320,192,236409,128,0,236448:0:0:0:0:
448,192,236409,128,0,236448:0:0:0:0:
64,192,236526,128,0,236585:0:0:0:0:
192,192,236556,128,0,236614:0:0:0:0:
448,192,236585,1,0,0:0:0:0:
64,192,236644,128,0,236702:0:0:0:0:
192,192,236673,128,0,236761:0:0:0:0:
320,192,236702,1,0,0:0:0:0:
448,192,236761,1,0,0:0:0:0:
64,192,236761,1,0,0:0:0:0:
192,192,236878,128,0,236937:0:0:0:0:
320,192,236907,128,0,237112:0:0:0:0:
64,192,236995,128,0,237054:0:0:0:0:
448,192,237024,128,0,237112:0:0:0:0:
192,192,237112,1,0,0:0:0:0:
64,192,237112,1,0,0:0:0:0:
320,192,237230,128,0,237288:0:0:0:0:
192,192,237259,128,0,237347:0:0:0:0:
64,192,237347,128,0,237386:0:0:0:0:
320,192,237347,128,0,237386:0:0:0:0:
448,192,237347,128,0,237386:0:0:0:0:
192,192,237425,128,0,237503:0:0:0:0:
448,192,237464,128,0,237523:0:0:0:0:
320,192,237493,128,0,237757:0:0:0:0:
192,192,237581,1,0,0:0:0:0:
64,192,237581,128,0,237640:0:0:0:0:
448,192,237610,128,0,237669:0:0:0:0:
192,192,237698,1,0,0:0:0:0:
64,192,237698,128,0,237757:0:0:0:0:
448,192,237728,128,0,237816:0:0:0:0:
64,192,237816,128,0,237874:0:0:0:0:
192,192,237816,128,0,237933:0:0:0:0:
320,192,237816,128,0,237991:0:0:0:0:
448,192,237874,128,0,238167:0:0:0:0:
64,192,237933,128,0,238108:0:0:0:0:
192,192,237991,128,0,238050:0:0:0:0:
320,192,238050,128,0,238108:0:0:0:0:
192,192,238108,128,0,238167:0:0:0:0:
320,192,238167,128,0,238226:0:0:0:0:
448,192,238226,128,0,238284:0:0:0:0:
64,192,238284,128,0,238323:0:0:0:0:
320,192,238284,128,0,238323:0:0:0:0:
192,192,238284,128,0,238323:0:0:0:0:
448,192,238401,128,0,238460:0:0:0:0:
192,192,238460,1,0,0:0:0:0:
320,192,238519,128,0,238577:0:0:0:0:
448,192,238548,128,0,238636:0:0:0:0:
192,192,238577,1,0,0:0:0:0:
320,192,238636,1,0,0:0:0:0:
64,192,238636,1,0,0:0:0:0:
192,192,238753,128,0,238812:0:0:0:0:
448,192,238782,128,0,238987:0:0:0:0:
64,192,238870,128,0,238929:0:0:0:0:
320,192,238899,128,0,238987:0:0:0:0:
192,192,238987,1,0,0:0:0:0:
64,192,238987,1,0,0:0:0:0:
448,192,239105,128,0,239163:0:0:0:0:
320,192,239134,128,0,239222:0:0:0:0:
448,192,239222,128,0,239261:0:0:0:0:
192,192,239222,128,0,239261:0:0:0:0:
64,192,239222,128,0,239261:0:0:0:0:
320,192,239339,128,0,239398:0:0:0:0:
448,192,239368,128,0,239427:0:0:0:0:
64,192,239398,1,0,0:0:0:0:
320,192,239456,128,0,239515:0:0:0:0:
448,192,239485,128,0,239573:0:0:0:0:
64,192,239515,1,0,0:0:0:0:
192,192,239573,1,0,0:0:0:0:
320,192,239573,1,0,0:0:0:0:
448,192,239632,1,0,0:0:0:0:
64,192,239691,128,0,239749:0:0:0:0:
192,192,239720,128,0,239778:0:0:0:0:
320,192,239749,1,0,0:0:0:0:
64,192,239808,128,0,239866:0:0:0:0:
192,192,239837,128,0,239896:0:0:0:0:
448,192,239866,1,0,0:0:0:0:
64,192,239925,128,0,239983:0:0:0:0:
192,192,239954,128,0,240013:0:0:0:0:
320,192,239983,1,0,0:0:0:0:
64,192,240042,128,0,240101:0:0:0:0:
192,192,240071,128,0,240115:0:0:0:0:
448,192,240101,1,0,0:0:0:0:
64,192,240159,128,0,240198:0:0:0:0:
192,192,240159,128,0,240198:0:0:0:0:
320,192,240159,128,0,240198:0:0:0:0:
448,192,240218,1,0,0:0:0:0:
320,192,240276,128,0,240335:0:0:0:0:
192,192,240306,128,0,240394:0:0:0:0:
64,192,240335,1,0,0:0:0:0:
448,192,240394,128,0,240452:0:0:0:0:
320,192,240423,128,0,240511:0:0:0:0:
192,192,240452,1,0,0:0:0:0:
64,192,240511,1,0,0:0:0:0:
448,192,240511,1,0,0:0:0:0:
192,192,240628,128,0,240687:0:0:0:0:
448,192,240657,128,0,240862:0:0:0:0:
64,192,240745,128,0,240804:0:0:0:0:
320,192,240745,128,0,240862:0:0:0:0:
192,192,240862,1,0,0:0:0:0:
64,192,240862,1,0,0:0:0:0:
448,192,240980,128,0,241038:0:0:0:0:
192,192,241009,128,0,241097:0:0:0:0:
448,192,241097,128,0,241136:0:0:0:0:
320,192,241097,128,0,241136:0:0:0:0:
64,192,241097,128,0,241136:0:0:0:0:
320,192,241214,128,0,241273:0:0:0:0:
192,192,241214,1,0,0:0:0:0:
448,192,241243,128,0,241331:0:0:0:0:
192,192,241331,128,0,241390:0:0:0:0:
64,192,241331,1,0,0:0:0:0:
320,192,241360,128,0,241448:0:0:0:0:
448,192,241448,1,0,0:0:0:0:
64,192,241448,128,0,241507:0:0:0:0:
192,192,241478,128,0,241566:0:0:0:0:
320,192,241566,128,0,241624:0:0:0:0:
448,192,241566,128,0,241741:0:0:0:0:
64,192,241566,128,0,241683:0:0:0:0:
192,192,241624,128,0,241800:0:0:0:0:
320,192,241683,128,0,241858:0:0:0:0:
64,192,241741,128,0,241858:0:0:0:0:
448,192,241800,128,0,241917:0:0:0:0:
192,192,241858,128,0,241917:0:0:0:0:
320,192,241917,128,0,241976:0:0:0:0:
448,192,241976,128,0,242034:0:0:0:0:
64,192,242034,128,0,242073:0:0:0:0:
192,192,242034,128,0,242073:0:0:0:0:
320,192,242034,128,0,242073:0:0:0:0:
448,192,242151,128,0,242210:0:0:0:0:
64,192,242210,1,0,0:0:0:0:
192,192,242269,128,0,242327:0:0:0:0:
320,192,242298,128,0,242386:0:0:0:0:
64,192,242327,1,0,0:0:0:0:
192,192,242386,1,0,0:0:0:0:
448,192,242386,1,0,0:0:0:0:
320,192,242503,128,0,242562:0:0:0:0:
64,192,242532,128,0,242737:0:0:0:0:
448,192,242620,128,0,242679:0:0:0:0:
192,192,242649,128,0,242737:0:0:0:0:
320,192,242737,1,0,0:0:0:0:
448,192,242737,1,0,0:0:0:0:
64,192,242855,128,0,242913:0:0:0:0:
192,192,242884,128,0,242972:0:0:0:0:
64,192,242972,128,0,243011:0:0:0:0:
320,192,242972,128,0,243011:0:0:0:0:
448,192,242972,128,0,243011:0:0:0:0:
192,192,243089,128,0,243148:0:0:0:0:
320,192,243118,128,0,243206:0:0:0:0:
448,192,243148,1,0,0:0:0:0:
64,192,243206,128,0,243265:0:0:0:0:
192,192,243235,128,0,243294:0:0:0:0:
320,192,243265,1,0,0:0:0:0:
64,192,243323,128,0,243382:0:0:0:0:
192,192,243353,128,0,243441:0:0:0:0:
448,192,243382,1,0,0:0:0:0:
320,192,243441,1,0,0:0:0:0:
64,192,243441,1,0,0:0:0:0:
448,192,243558,128,0,243616:0:0:0:0:
192,192,243587,128,0,243675:0:0:0:0:
64,192,243675,128,0,243851:0:0:0:0:
320,192,243704,128,0,243851:0:0:0:0:
192,192,243733,128,0,243851:0:0:0:0:
448,192,243792,128,0,243909:0:0:0:0:
320,192,243909,128,0,243948:0:0:0:0:
192,192,243909,128,0,243948:0:0:0:0:
64,192,243909,128,0,243948:0:0:0:0:
448,192,244026,128,0,244085:0:0:0:0:
320,192,244056,128,0,244114:0:0:0:0:
64,192,244085,1,0,0:0:0:0:
448,192,244144,128,0,244202:0:0:0:0:
320,192,244173,128,0,244261:0:0:0:0:
192,192,244202,1,0,0:0:0:0:
64,192,244261,1,0,0:0:0:0:
448,192,244261,1,0,0:0:0:0:
320,192,244378,128,0,244437:0:0:0:0:
192,192,244407,128,0,244612:0:0:0:0:
448,192,244495,128,0,244554:0:0:0:0:
64,192,244524,128,0,244612:0:0:0:0:
320,192,244612,1,0,0:0:0:0:
448,192,244612,1,0,0:0:0:0:
64,192,244730,128,0,244788:0:0:0:0:
192,192,244759,128,0,244847:0:0:0:0:
64,192,244847,128,0,244886:0:0:0:0:
320,192,244847,128,0,244886:0:0:0:0:
448,192,244847,128,0,244886:0:0:0:0:
192,192,244925,128,0,245003:0:0:0:0:
320,192,244964,128,0,245023:0:0:0:0:
448,192,244993,128,0,245257:0:0:0:0:
192,192,245081,1,0,0:0:0:0:
64,192,245081,128,0,245140:0:0:0:0:
320,192,245110,128,0,245169:0:0:0:0:
192,192,245198,1,0,0:0:0:0:
64,192,245198,128,0,245257:0:0:0:0:
320,192,245228,128,0,245316:0:0:0:0:
448,192,245316,128,0,245433:0:0:0:0:
64,192,245316,128,0,245491:0:0:0:0:
192,192,245316,128,0,245374:0:0:0:0:
320,192,245374,128,0,245550:0:0:0:0:
192,192,245433,128,0,245608:0:0:0:0:
448,192,245491,128,0,245608:0:0:0:0:
64,192,245550,128,0,245667:0:0:0:0:
320,192,245608,128,0,245667:0:0:0:0:
192,192,245667,128,0,245726:0:0:0:0:
64,192,245726,128,0,245784:0:0:0:0:
448,192,245784,128,0,245823:0:0:0:0:
192,192,245784,128,0,245823:0:0:0:0:
320,192,245784,128,0,245823:0:0:0:0:
64,192,245901,128,0,245960:0:0:0:0:
320,192,245960,1,0,0:0:0:0:
192,192,246019,128,0,246077:0:0:0:0:
64,192,246048,128,0,246136:0:0:0:0:
320,192,246077,1,0,0:0:0:0:
192,192,246136,1,0,0:0:0:0:
448,192,246136,1,0,0:0:0:0:
320,192,246253,128,0,246312:0:0:0:0:
64,192,246282,128,0,246487:0:0:0:0:
448,192,246370,128,0,246429:0:0:0:0:
192,192,246399,128,0,246487:0:0:0:0:
448,192,246487,128,0,246605:0:0:0:0:
320,192,246487,128,0,246546:0:0:0:0:
64,192,246605,128,0,246663:0:0:0:0:
320,192,246634,128,0,246839:0:0:0:0:
192,192,246722,128,0,246780:0:0:0:0:
448,192,246751,128,0,246839:0:0:0:0:
192,192,246839,1,0,0:0:0:0:
64,192,246839,1,0,0:0:0:0:
320,192,246956,128,0,247015:0:0:0:0:
448,192,246985,128,0,247044:0:0:0:0:
64,192,247015,1,0,0:0:0:0:
320,192,247073,128,0,247132:0:0:0:0:
448,192,247103,128,0,247191:0:0:0:0:
64,192,247132,1,0,0:0:0:0:
192,192,247191,1,0,0:0:0:0:
320,192,247191,1,0,0:0:0:0:
448,192,247308,128,0,247366:0:0:0:0:
192,192,247337,128,0,247425:0:0:0:0:
64,192,247366,1,0,0:0:0:0:
320,192,247425,1,0,0:0:0:0:
448,192,247425,1,0,0:0:0:0:
192,192,247542,128,0,247601:0:0:0:0:
64,192,247571,128,0,247615:0:0:0:0:
320,192,247601,1,0,0:0:0:0:
192,192,247659,128,0,247698:0:0:0:0:
64,192,247659,128,0,247698:0:0:0:0:
448,192,247659,128,0,247698:0:0:0:0:
320,192,247776,128,0,247835:0:0:0:0:
192,192,247806,128,0,247894:0:0:0:0:
64,192,247835,1,0,0:0:0:0:
448,192,247894,128,0,247952:0:0:0:0:
320,192,247923,128,0,248011:0:0:0:0:
192,192,247952,1,0,0:0:0:0:
64,192,248011,1,0,0:0:0:0:
448,192,248011,1,0,0:0:0:0:
320,192,248128,128,0,248187:0:0:0:0:
64,192,248157,128,0,248362:0:0:0:0:
448,192,248245,128,0,248304:0:0:0:0:
192,192,248274,128,0,248362:0:0:0:0:
320,192,248362,1,0,0:0:0:0:
448,192,248362,1,0,0:0:0:0:
64,192,248480,128,0,248538:0:0:0:0:
320,192,248509,128,0,248597:0:0:0:0:
64,192,248597,128,0,248636:0:0:0:0:
192,192,248597,128,0,248636:0:0:0:0:
448,192,248597,128,0,248636:0:0:0:0:
192,192,248714,128,0,248773:0:0:0:0:
320,192,248714,1,0,0:0:0:0:
64,192,248743,128,0,248831:0:0:0:0:
320,192,248831,128,0,248890:0:0:0:0:
448,192,248831,1,0,0:0:0:0:
192,192,248860,128,0,248948:0:0:0:0:
64,192,248948,1,0,0:0:0:0:
448,192,248948,128,0,249007:0:0:0:0:
320,192,248978,128,0,249066:0:0:0:0:
448,192,249066,128,0,249183:0:0:0:0:
192,192,249066,128,0,249241:0:0:0:0:
64,192,249066,128,0,249300:0:0:0:0:
320,192,251878,132,0,252816:0:0:0:0:
448,192,252816,1,0,0:0:0:0:
64,192,252816,1,0,0:0:0:0:
192,192,252816,1,0,0:0:0:0:
192,192,253079,128,0,253167:0:0:0:0:
448,192,253226,1,0,0:0:0:0:
320,192,253255,1,0,0:0:0:0:
192,192,253343,128,0,253548:0:0:0:0:
448,192,253431,128,0,253577:0:0:0:0:
320,192,253636,1,0,0:0:0:0:
448,192,253665,1,0,0:0:0:0:
64,192,253694,128,0,253782:0:0:0:0:
320,192,253782,128,0,253841:0:0:0:0:
192,192,253841,128,0,253899:0:0:0:0:
448,192,253943,1,0,0:0:0:0:
64,192,254046,1,0,0:0:0:0:
320,192,254105,1,0,0:0:0:0:
192,192,254134,128,0,254192:0:0:0:0:
64,192,254222,128,0,254310:0:0:0:0:
448,192,254310,1,0,0:0:0:0:
192,192,254354,1,0,0:0:0:0:
320,192,254398,1,0,0:0:0:0:
64,192,254456,128,0,254632:0:0:0:0:
192,192,254515,128,0,254632:0:0:0:0:
448,192,254573,128,0,254632:0:0:0:0:
448,192,254691,1,0,0:0:0:0:
192,192,254691,1,0,0:0:0:0:
64,192,254691,1,0,0:0:0:0:
320,192,254769,1,0,0:0:0:0:
192,192,254847,1,0,0:0:0:0:
64,192,254925,128,0,255003:0:0:0:0:
448,192,254925,128,0,254983:0:0:0:0:
320,192,254964,128,0,255023:0:0:0:0:
192,192,255042,128,0,255120:0:0:0:0:
64,192,255081,128,0,255140:0:0:0:0:
320,192,255159,128,0,255237:0:0:0:0:
448,192,255198,128,0,255257:0:0:0:0:
192,192,255276,128,0,255335:0:0:0:0:
64,192,255394,1,0,0:0:0:0:
448,192,255433,1,0,0:0:0:0:
320,192,255511,1,0,0:0:0:0:
64,192,255530,1,0,0:0:0:0:
192,192,255628,128,0,255706:0:0:0:0:
448,192,255628,128,0,255667:0:0:0:0:
320,192,255628,128,0,255687:0:0:0:0:
448,192,255745,1,0,0:0:0:0:
320,192,255862,1,0,0:0:0:0:
192,192,255862,1,0,0:0:0:0:
64,192,255862,1,0,0:0:0:0:
64,192,255980,1,0,0:0:0:0:
192,192,256097,1,0,0:0:0:0:
320,192,256097,1,0,0:0:0:0:
448,192,256097,1,0,0:0:0:0:
448,192,256214,1,0,0:0:0:0:
320,192,256331,1,0,0:0:0:0:
192,192,256331,1,0,0:0:0:0:
64,192,256331,1,0,0:0:0:0:
64,192,256448,1,0,0:0:0:0:
192,192,256566,1,0,0:0:0:0:
320,192,256566,1,0,0:0:0:0:
448,192,256566,1,0,0:0:0:0:
320,192,256683,1,0,0:0:0:0:
192,192,256800,1,0,0:0:0:0:
64,192,256800,1,0,0:0:0:0:
448,192,256800,1,0,0:0:0:0:
192,192,256917,1,0,0:0:0:0:
448,192,257034,1,0,0:0:0:0:
320,192,257034,1,0,0:0:0:0:
64,192,257034,1,0,0:0:0:0:
320,192,257151,1,0,0:0:0:0:
192,192,257269,1,0,0:0:0:0:
64,192,257269,1,0,0:0:0:0:
448,192,257269,1,0,0:0:0:0:
192,192,257386,128,0,257562:0:0:0:0:
448,192,257503,1,0,0:0:0:0:
64,192,257503,128,0,257581:0:0:0:0:
320,192,257503,128,0,257542:0:0:0:0:
448,192,257620,1,0,0:0:0:0:
320,192,257737,1,0,0:0:0:0:
192,192,257737,1,0,0:0:0:0:
64,192,257737,1,0,0:0:0:0:
64,192,257855,1,0,0:0:0:0:
192,192,257972,1,0,0:0:0:0:
448,192,257972,1,0,0:0:0:0:
320,192,257972,1,0,0:0:0:0:
448,192,258089,1,0,0:0:0:0:
320,192,258206,1,0,0:0:0:0:
192,192,258206,1,0,0:0:0:0:
64,192,258206,1,0,0:0:0:0:
64,192,258323,1,0,0:0:0:0:
448,192,258441,1,0,0:0:0:0:
320,192,258441,1,0,0:0:0:0:
192,192,258441,1,0,0:0:0:0:
64,192,258558,1,0,0:0:0:0:
320,192,258558,1,0,0:0:0:0:
192,192,258675,1,0,0:0:0:0:
64,192,258675,1,0,0:0:0:0:
448,192,258675,1,0,0:0:0:0:
192,192,258792,1,0,0:0:0:0:
320,192,258792,1,0,0:0:0:0:
448,192,258909,1,0,0:0:0:0:
320,192,258909,1,0,0:0:0:0:
64,192,258909,1,0,0:0:0:0:
192,192,259026,1,0,0:0:0:0:
448,192,259026,1,0,0:0:0:0:
320,192,259144,1,0,0:0:0:0:
192,192,259144,1,0,0:0:0:0:
64,192,259144,1,0,0:0:0:0:
64,192,259261,1,0,0:0:0:0:
320,192,259261,1,0,0:0:0:0:
192,192,259378,128,0,259458:0:0:0:0:
448,192,259378,128,0,259418:0:0:0:0:
320,192,259378,128,0,259438:0:0:0:0:
64,192,259438,1,0,0:0:0:0:
448,192,259498,1,0,0:0:0:0:
320,192,259498,1,0,0:0:0:0:
192,192,259558,1,0,0:0:0:0:
448,192,259618,1,0,0:0:0:0:
320,192,259618,1,0,0:0:0:0:
192,192,259678,1,0,0:0:0:0:
448,192,259738,1,0,0:0:0:0:
64,192,259738,1,0,0:0:0:0:
320,192,259738,1,0,0:0:0:0:
192,192,259803,1,0,0:0:0:0:
448,192,259868,1,0,0:0:0:0:
64,192,259868,1,0,0:0:0:0:
320,192,259933,1,0,0:0:0:0:
448,192,259998,1,0,0:0:0:0:
64,192,259998,1,0,0:0:0:0:
320,192,260064,1,0,0:0:0:0:
448,192,260129,1,0,0:0:0:0:
64,192,260129,1,0,0:0:0:0:
192,192,260129,1,0,0:0:0:0:
320,192,260198,1,0,0:0:0:0:
64,192,260268,1,0,0:0:0:0:
192,192,260268,1,0,0:0:0:0:
320,192,260338,1,0,0:0:0:0:
192,192,260408,1,0,0:0:0:0:
64,192,260408,1,0,0:0:0:0:
320,192,260477,1,0,0:0:0:0:
192,192,260547,1,0,0:0:0:0:
64,192,260547,1,0,0:0:0:0:
448,192,260547,1,0,0:0:0:0:
320,192,260623,1,0,0:0:0:0:
64,192,260700,1,0,0:0:0:0:
448,192,260700,1,0,0:0:0:0:
192,192,260777,1,0,0:0:0:0:
64,192,260854,1,0,0:0:0:0:
448,192,260854,1,0,0:0:0:0:
192,192,260931,1,0,0:0:0:0:
320,192,261008,1,0,0:0:0:0:
448,192,261008,1,0,0:0:0:0:
64,192,261008,1,0,0:0:0:0:
320,192,261089,1,0,0:0:0:0:
64,192,261170,1,0,0:0:0:0:
192,192,261170,1,0,0:0:0:0:
448,192,261251,1,0,0:0:0:0:
320,192,261251,1,0,0:0:0:0:
448,192,261332,1,0,0:0:0:0:
64,192,261332,1,0,0:0:0:0:
192,192,261332,1,0,0:0:0:0:
64,192,261413,1,0,0:0:0:0:
320,192,261494,1,0,0:0:0:0:
448,192,261494,1,0,0:0:0:0:
320,192,261575,1,0,0:0:0:0:
448,192,261656,1,0,0:0:0:0:
192,192,261656,1,0,0:0:0:0:
64,192,261656,1,0,0:0:0:0:
320,192,261818,1,0,0:0:0:0:
448,192,261818,1,0,0:0:0:0:
64,192,261899,1,0,0:0:0:0:
192,192,261899,1,0,0:0:0:0:
448,192,261980,1,0,0:0:0:0:
320,192,261980,1,0,0:0:0:0:
448,192,262062,1,0,0:0:0:0:
64,192,262062,1,0,0:0:0:0:
64,192,262143,1,0,0:0:0:0:
192,192,262143,1,0,0:0:0:0:
64,192,262224,1,0,0:0:0:0:
192,192,262224,1,0,0:0:0:0:
448,192,262305,1,0,0:0:0:0:
320,192,262305,1,0,0:0:0:0:
64,192,262386,1,0,0:0:0:0:
192,192,262386,1,0,0:0:0:0:
448,192,262467,1,0,0:0:0:0:
320,192,262467,1,0,0:0:0:0:
448,192,262548,1,0,0:0:0:0:
320,192,262548,1,0,0:0:0:0:
448,192,262629,128,0,262953:0:0:0:0:
64,192,262629,128,0,262953:0:0:0:0:
192,192,262953,1,0,0:0:0:0:
320,192,262953,1,0,0:0:0:0:
192,192,263277,128,0,263520:0:0:0:0:
320,192,263277,128,0,263601:0:0:0:0:
448,192,263277,128,0,263358:0:0:0:0:
64,192,263277,128,0,263358:0:0:0:0:
448,192,263439,128,0,263520:0:0:0:0:
64,192,263439,128,0,263520:0:0:0:0:
448,192,263601,1,0,0:0:0:0:
64,192,263601,1,0,0:0:0:0:
192,192,263601,1,0,0:0:0:0:
320,192,263682,1,0,0:0:0:0:
448,192,263763,1,0,0:0:0:0:
64,192,263763,1,0,0:0:0:0:
192,192,263844,1,0,0:0:0:0:
448,192,263925,1,0,0:0:0:0:
64,192,263925,1,0,0:0:0:0:
192,192,264006,1,0,0:0:0:0:
320,192,264087,1,0,0:0:0:0:
448,192,264087,1,0,0:0:0:0:
320,192,264168,1,0,0:0:0:0:
448,192,264168,1,0,0:0:0:0:
64,192,264249,1,0,0:0:0:0:
448,192,264249,1,0,0:0:0:0:
192,192,264249,1,0,0:0:0:0:
320,192,264331,1,0,0:0:0:0:
64,192,264412,1,0,0:0:0:0:
192,192,264412,1,0,0:0:0:0:
448,192,264493,1,0,0:0:0:0:
192,192,264574,1,0,0:0:0:0:
64,192,264574,1,0,0:0:0:0:
448,192,264655,1,0,0:0:0:0:
320,192,264736,1,0,0:0:0:0:
320,192,264817,1,0,0:0:0:0:
64,192,264898,1,0,0:0:0:0:
192,192,264898,1,0,0:0:0:0:
448,192,264898,1,0,0:0:0:0:
192,192,264979,1,0,0:0:0:0:
320,192,265060,1,0,0:0:0:0:
448,192,265060,1,0,0:0:0:0:
320,192,265141,1,0,0:0:0:0:
448,192,265141,1,0,0:0:0:0:
64,192,265222,1,0,0:0:0:0:
320,192,265304,1,0,0:0:0:0:
64,192,265385,1,0,0:0:0:0:
192,192,265385,1,0,0:0:0:0:
448,192,265466,1,0,0:0:0:0:
192,192,265547,1,0,0:0:0:0:
64,192,265547,1,0,0:0:0:0:
320,192,265601,1,0,0:0:0:0:
448,192,265655,1,0,0:0:0:0:
64,192,265709,1,0,0:0:0:0:
192,192,265749,1,0,0:0:0:0:
320,192,265790,1,0,0:0:0:0:
192,192,265831,1,0,0:0:0:0:
448,192,265871,1,0,0:0:0:0:
320,192,265912,1,0,0:0:0:0:
64,192,265952,1,0,0:0:0:0:
448,192,265993,1,0,0:0:0:0:
192,192,266033,1,0,0:0:0:0:
320,192,266087,1,0,0:0:0:0:
192,192,266141,1,0,0:0:0:0:
64,192,266195,1,0,0:0:0:0:
320,192,266195,1,0,0:0:0:0:
448,192,266195,1,0,0:0:0:0:
192,192,266277,1,0,0:0:0:0:
448,192,266358,1,0,0:0:0:0:
320,192,266358,1,0,0:0:0:0:
64,192,266439,1,0,0:0:0:0:
448,192,266520,1,0,0:0:0:0:
320,192,266520,1,0,0:0:0:0:
192,192,266601,1,0,0:0:0:0:
64,192,266682,1,0,0:0:0:0:
320,192,266682,1,0,0:0:0:0:
64,192,266763,1,0,0:0:0:0:
320,192,266763,1,0,0:0:0:0:
448,192,266844,1,0,0:0:0:0:
192,192,266844,1,0,0:0:0:0:
64,192,266844,1,0,0:0:0:0:
320,192,266925,1,0,0:0:0:0:
192,192,267006,1,0,0:0:0:0:
448,192,267006,1,0,0:0:0:0:
64,192,267087,1,0,0:0:0:0:
192,192,267168,1,0,0:0:0:0:
448,192,267168,1,0,0:0:0:0:
320,192,267249,1,0,0:0:0:0:
192,192,267331,1,0,0:0:0:0:
192,192,267412,1,0,0:0:0:0:
320,192,267493,1,0,0:0:0:0:
448,192,267493,1,0,0:0:0:0:
64,192,267493,1,0,0:0:0:0:
320,192,267574,1,0,0:0:0:0:
192,192,267655,1,0,0:0:0:0:
64,192,267655,1,0,0:0:0:0:
448,192,267736,1,0,0:0:0:0:
192,192,267817,1,0,0:0:0:0:
64,192,267817,1,0,0:0:0:0:
320,192,267898,1,0,0:0:0:0:
448,192,267898,1,0,0:0:0:0:
64,192,267898,1,0,0:0:0:0:
192,192,267979,1,0,0:0:0:0:
320,192,268060,1,0,0:0:0:0:
448,192,268060,1,0,0:0:0:0:
448,192,268141,1,0,0:0:0:0:
64,192,268141,1,0,0:0:0:0:
192,192,268141,1,0,0:0:0:0:
320,192,268222,1,0,0:0:0:0:
448,192,268304,1,0,0:0:0:0:
64,192,268304,1,0,0:0:0:0:
192,192,268385,1,0,0:0:0:0:
448,192,268466,128,0,268547:0:0:0:0:
64,192,268466,128,0,268547:0:0:0:0:
192,192,268466,128,0,268790:0:0:0:0:
320,192,268466,128,0,268709:0:0:0:0:
448,192,268628,128,0,268709:0:0:0:0:
64,192,268628,128,0,268709:0:0:0:0:
448,192,268790,1,0,0:0:0:0:
320,192,268790,1,0,0:0:0:0:
64,192,268790,1,0,0:0:0:0:
192,192,268871,1,0,0:0:0:0:
320,192,268952,1,0,0:0:0:0:
64,192,268952,1,0,0:0:0:0:
448,192,269033,1,0,0:0:0:0:
320,192,269114,1,0,0:0:0:0:
64,192,269114,1,0,0:0:0:0:
192,192,269195,1,0,0:0:0:0:
320,192,269277,1,0,0:0:0:0:
448,192,269277,1,0,0:0:0:0:
320,192,269358,1,0,0:0:0:0:
448,192,269358,1,0,0:0:0:0:
320,192,269439,1,0,0:0:0:0:
192,192,269439,1,0,0:0:0:0:
64,192,269439,1,0,0:0:0:0:
448,192,269520,1,0,0:0:0:0:
64,192,269601,1,0,0:0:0:0:
192,192,269601,1,0,0:0:0:0:
320,192,269655,1,0,0:0:0:0:
64,192,269709,1,0,0:0:0:0:
320,192,269763,1,0,0:0:0:0:
448,192,269763,1,0,0:0:0:0:
192,192,269817,1,0,0:0:0:0:
64,192,269871,1,0,0:0:0:0:
448,192,269925,1,0,0:0:0:0:
192,192,269979,1,0,0:0:0:0:
448,192,270033,1,0,0:0:0:0:
320,192,270087,1,0,0:0:0:0:
192,192,270087,1,0,0:0:0:0:
64,192,270087,1,0,0:0:0:0:
448,192,270168,1,0,0:0:0:0:
192,192,270249,1,0,0:0:0:0:
64,192,270249,1,0,0:0:0:0:
192,192,270331,1,0,0:0:0:0:
64,192,270331,1,0,0:0:0:0:
448,192,270412,1,0,0:0:0:0:
64,192,270493,1,0,0:0:0:0:
448,192,270574,1,0,0:0:0:0:
320,192,270574,1,0,0:0:0:0:
192,192,270655,1,0,0:0:0:0:
448,192,270736,1,0,0:0:0:0:
320,192,270736,1,0,0:0:0:0:
64,192,270736,1,0,0:0:0:0:
192,192,270817,1,0,0:0:0:0:
320,192,270898,1,0,0:0:0:0:
64,192,270898,1,0,0:0:0:0:
448,192,270979,1,0,0:0:0:0:
192,192,271060,1,0,0:0:0:0:
320,192,271060,1,0,0:0:0:0:
64,192,271141,1,0,0:0:0:0:
448,192,271222,1,0,0:0:0:0:
448,192,271304,1,0,0:0:0:0:
192,192,271385,1,0,0:0:0:0:
64,192,271385,1,0,0:0:0:0:
320,192,271385,1,0,0:0:0:0:
448,192,271466,128,0,271628:0:0:0:0:
64,192,271547,1,0,0:0:0:0:
192,192,271547,128,0,271628:0:0:0:0:
320,192,271628,128,0,271790:0:0:0:0:
448,192,271709,128,0,271790:0:0:0:0:
192,192,271709,1,0,0:0:0:0:
64,192,271790,1,0,0:0:0:0:
320,192,271871,128,0,271952:0:0:0:0:
448,192,271871,1,0,0:0:0:0:
64,192,271952,1,0,0:0:0:0:
192,192,271952,128,0,272033:0:0:0:0:
448,192,272033,1,0,0:0:0:0:
64,192,272033,1,0,0:0:0:0:
320,192,272033,1,0,0:0:0:0:
192,192,272114,1,0,0:0:0:0:
448,192,272195,1,0,0:0:0:0:
64,192,272195,1,0,0:0:0:0:
320,192,272249,1,0,0:0:0:0:
192,192,272304,1,0,0:0:0:0:
448,192,272358,1,0,0:0:0:0:
320,192,272358,1,0,0:0:0:0:
64,192,272412,1,0,0:0:0:0:
192,192,272466,1,0,0:0:0:0:
448,192,272520,1,0,0:0:0:0:
192,192,272560,1,0,0:0:0:0:
320,192,272601,1,0,0:0:0:0:
64,192,272641,1,0,0:0:0:0:
320,192,272682,1,0,0:0:0:0:
448,192,272722,1,0,0:0:0:0:
192,192,272763,1,0,0:0:0:0:
64,192,272804,1,0,0:0:0:0:
448,192,272844,1,0,0:0:0:0:
320,192,272898,1,0,0:0:0:0:
192,192,272952,1,0,0:0:0:0:
320,192,273006,1,0,0:0:0:0:
448,192,273006,1,0,0:0:0:0:
320,192,273087,1,0,0:0:0:0:
192,192,273087,1,0,0:0:0:0:
64,192,273087,1,0,0:0:0:0:
448,192,273168,1,0,0:0:0:0:
192,192,273249,1,0,0:0:0:0:
64,192,273249,1,0,0:0:0:0:
320,192,273331,1,0,0:0:0:0:
448,192,273331,1,0,0:0:0:0:
64,192,273331,128,0,273412:0:0:0:0:
192,192,273412,128,0,273493:0:0:0:0:
64,192,273493,1,0,0:0:0:0:
320,192,273493,128,0,273574:0:0:0:0:
448,192,273574,1,0,0:0:0:0:
320,192,273655,128,0,273736:0:0:0:0:
448,192,273655,128,0,273979:0:0:0:0:
192,192,273655,128,0,273898:0:0:0:0:
64,192,273655,128,0,273736:0:0:0:0:
320,192,273817,128,0,273898:0:0:0:0:
64,192,273817,128,0,273898:0:0:0:0:
320,192,273979,1,0,0:0:0:0:
64,192,273979,1,0,0:0:0:0:
192,192,273979,1,0,0:0:0:0:
448,192,274060,1,0,0:0:0:0:
320,192,274141,1,0,0:0:0:0:
64,192,274141,1,0,0:0:0:0:
192,192,274222,1,0,0:0:0:0:
320,192,274304,1,0,0:0:0:0:
64,192,274304,1,0,0:0:0:0:
448,192,274385,1,0,0:0:0:0:
192,192,274466,1,0,0:0:0:0:
64,192,274466,1,0,0:0:0:0:
192,192,274547,1,0,0:0:0:0:
64,192,274547,1,0,0:0:0:0:
448,192,274628,1,0,0:0:0:0:
192,192,274628,1,0,0:0:0:0:
320,192,274628,1,0,0:0:0:0:
64,192,274709,1,0,0:0:0:0:
448,192,274790,1,0,0:0:0:0:
320,192,274790,1,0,0:0:0:0:
192,192,274871,1,0,0:0:0:0:
64,192,274952,1,0,0:0:0:0:
448,192,274952,1,0,0:0:0:0:
320,192,275033,1,0,0:0:0:0:
192,192,275114,1,0,0:0:0:0:
192,192,275195,1,0,0:0:0:0:
448,192,275277,1,0,0:0:0:0:
320,192,275277,1,0,0:0:0:0:
64,192,275277,1,0,0:0:0:0:
320,192,275358,1,0,0:0:0:0:
192,192,275439,1,0,0:0:0:0:
64,192,275439,1,0,0:0:0:0:
192,192,275520,1,0,0:0:0:0:
64,192,275520,1,0,0:0:0:0:
448,192,275601,1,0,0:0:0:0:
64,192,275682,1,0,0:0:0:0:
448,192,275763,1,0,0:0:0:0:
320,192,275763,1,0,0:0:0:0:
192,192,275844,1,0,0:0:0:0:
320,192,275925,1,0,0:0:0:0:
448,192,275925,1,0,0:0:0:0:
64,192,275979,1,0,0:0:0:0:
192,192,276033,1,0,0:0:0:0:
448,192,276087,1,0,0:0:0:0:
320,192,276128,1,0,0:0:0:0:
64,192,276168,1,0,0:0:0:0:
320,192,276209,1,0,0:0:0:0:
192,192,276249,1,0,0:0:0:0:
448,192,276290,1,0,0:0:0:0:
64,192,276331,1,0,0:0:0:0:
320,192,276371,1,0,0:0:0:0:
64,192,276412,1,0,0:0:0:0:
192,192,276466,1,0,0:0:0:0:
448,192,276520,1,0,0:0:0:0:
320,192,276574,1,0,0:0:0:0:
192,192,276574,1,0,0:0:0:0:
64,192,276574,1,0,0:0:0:0:
448,192,276655,1,0,0:0:0:0:
192,192,276736,1,0,0:0:0:0:
64,192,276736,1,0,0:0:0:0:
320,192,276817,1,0,0:0:0:0:
192,192,276898,1,0,0:0:0:0:
64,192,276898,1,0,0:0:0:0:
448,192,276979,1,0,0:0:0:0:
320,192,277060,1,0,0:0:0:0:
64,192,277060,1,0,0:0:0:0:
320,192,277141,1,0,0:0:0:0:
64,192,277141,1,0,0:0:0:0:
320,192,277222,1,0,0:0:0:0:
192,192,277222,1,0,0:0:0:0:
448,192,277222,1,0,0:0:0:0:
64,192,277304,1,0,0:0:0:0:
192,192,277385,1,0,0:0:0:0:
448,192,277385,1,0,0:0:0:0:
320,192,277466,1,0,0:0:0:0:
448,192,277547,1,0,0:0:0:0:
192,192,277547,1,0,0:0:0:0:
64,192,277628,1,0,0:0:0:0:
448,192,277709,1,0,0:0:0:0:
448,192,277790,1,0,0:0:0:0:
192,192,277871,1,0,0:0:0:0:
64,192,277871,1,0,0:0:0:0:
320,192,277871,1,0,0:0:0:0:
192,192,277952,1,0,0:0:0:0:
320,192,278033,1,0,0:0:0:0:
448,192,278033,1,0,0:0:0:0:
64,192,278114,1,0,0:0:0:0:
320,192,278195,1,0,0:0:0:0:
448,192,278195,1,0,0:0:0:0:
192,192,278277,1,0,0:0:0:0:
64,192,278277,1,0,0:0:0:0:
448,192,278277,1,0,0:0:0:0:
320,192,278358,1,0,0:0:0:0:
192,192,278439,1,0,0:0:0:0:
64,192,278439,1,0,0:0:0:0:
64,192,278520,1,0,0:0:0:0:
448,192,278520,1,0,0:0:0:0:
320,192,278520,1,0,0:0:0:0:
192,192,278601,1,0,0:0:0:0:
320,192,278682,1,0,0:0:0:0:
448,192,278682,1,0,0:0:0:0:
64,192,278763,1,0,0:0:0:0:
64,192,278844,128,0,279168:0:0:0:0:
320,192,278844,128,0,279006:0:0:0:0:
448,192,278844,128,0,279006:0:0:0:0:
192,192,278844,128,0,278925:0:0:0:0:
192,192,279006,128,0,279087:0:0:0:0:
320,192,279087,1,0,0:0:0:0:
448,192,279087,1,0,0:0:0:0:
192,192,279168,1,0,0:0:0:0:
448,192,279168,1,0,0:0:0:0:
320,192,279168,1,0,0:0:0:0:
64,192,279249,1,0,0:0:0:0:
192,192,279331,1,0,0:0:0:0:
320,192,279331,1,0,0:0:0:0:
448,192,279412,1,0,0:0:0:0:
320,192,279493,1,0,0:0:0:0:
192,192,279493,1,0,0:0:0:0:
64,192,279574,1,0,0:0:0:0:
448,192,279655,1,0,0:0:0:0:
320,192,279655,1,0,0:0:0:0:
320,192,279736,1,0,0:0:0:0:
448,192,279736,1,0,0:0:0:0:
448,192,279817,1,0,0:0:0:0:
64,192,279817,1,0,0:0:0:0:
192,192,279858,1,0,0:0:0:0:
320,192,279898,1,0,0:0:0:0:
192,192,279979,1,0,0:0:0:0:
64,192,279979,1,0,0:0:0:0:
448,192,280020,1,0,0:0:0:0:
320,192,280060,1,0,0:0:0:0:
64,192,280141,1,0,0:0:0:0:
448,192,280222,1,0,0:0:0:0:
192,192,280222,1,0,0:0:0:0:
320,192,280304,1,0,0:0:0:0:
64,192,280385,1,0,0:0:0:0:
192,192,280385,1,0,0:0:0:0:
448,192,280466,1,0,0:0:0:0:
320,192,280466,1,0,0:0:0:0:
64,192,280466,1,0,0:0:0:0:
192,192,280547,1,0,0:0:0:0:
320,192,280628,1,0,0:0:0:0:
448,192,280628,1,0,0:0:0:0:
64,192,280709,1,0,0:0:0:0:
192,192,280790,1,0,0:0:0:0:
448,192,280790,1,0,0:0:0:0:
448,192,280871,1,0,0:0:0:0:
320,192,280871,1,0,0:0:0:0:
64,192,280871,1,0,0:0:0:0:
192,192,280952,1,0,0:0:0:0:
320,192,281033,1,0,0:0:0:0:
448,192,281033,1,0,0:0:0:0:
448,192,281114,1,0,0:0:0:0:
192,192,281114,1,0,0:0:0:0:
64,192,281114,1,0,0:0:0:0:
320,192,281195,1,0,0:0:0:0:
64,192,281277,1,0,0:0:0:0:
192,192,281277,1,0,0:0:0:0:
320,192,281358,1,0,0:0:0:0:
448,192,281439,1,0,0:0:0:0:
64,192,281439,1,0,0:0:0:0:
192,192,281493,1,0,0:0:0:0:
448,192,281547,1,0,0:0:0:0:
320,192,281601,1,0,0:0:0:0:
192,192,281682,1,0,0:0:0:0:
64,192,281682,1,0,0:0:0:0:
448,192,281763,1,0,0:0:0:0:
64,192,281763,1,0,0:0:0:0:
320,192,281763,128,0,281844:0:0:0:0:
192,192,281844,128,0,281925:0:0:0:0:
448,192,281925,1,0,0:0:0:0:
64,192,281925,128,0,282006:0:0:0:0:
320,192,282006,128,0,282087:0:0:0:0:
192,192,282087,1,0,0:0:0:0:
64,192,282087,1,0,0:0:0:0:
448,192,282168,128,0,282331:0:0:0:0:
64,192,282249,1,0,0:0:0:0:
320,192,282249,128,0,282331:0:0:0:0:
192,192,282331,1,0,0:0:0:0:
64,192,282331,128,0,282412:0:0:0:0:
192,192,282412,1,0,0:0:0:0:
320,192,282412,1,0,0:0:0:0:
448,192,282412,128,0,282493:0:0:0:0:
64,192,282493,128,0,282574:0:0:0:0:
448,192,282574,1,0,0:0:0:0:
320,192,282574,128,0,282655:0:0:0:0:
192,192,282655,128,0,282817:0:0:0:0:
320,192,282736,128,0,282898:0:0:0:0:
64,192,282817,1,0,0:0:0:0:
448,192,282817,128,0,282979:0:0:0:0:
192,192,282898,128,0,282979:0:0:0:0:
64,192,282979,1,0,0:0:0:0:
320,192,282979,128,0,283060:0:0:0:0:
448,192,283060,1,0,0:0:0:0:
192,192,283060,1,0,0:0:0:0:
64,192,283060,128,0,283222:0:0:0:0:
320,192,283141,128,0,283222:0:0:0:0:
448,192,283222,1,0,0:0:0:0:
192,192,283222,128,0,283385:0:0:0:0:
64,192,283304,128,0,283466:0:0:0:0:
448,192,283385,1,0,0:0:0:0:
320,192,283385,128,0,283547:0:0:0:0:
448,192,283466,1,0,0:0:0:0:
192,192,283466,128,0,283628:0:0:0:0:
64,192,283547,128,0,283628:0:0:0:0:
320,192,283628,1,0,0:0:0:0:
448,192,283628,128,0,283709:0:0:0:0:
64,192,283709,1,0,0:0:0:0:
192,192,283709,1,0,0:0:0:0:
320,192,283709,128,0,283871:0:0:0:0:
448,192,283790,128,0,283871:0:0:0:0:
64,192,283871,128,0,283952:0:0:0:0:
192,192,283871,128,0,283952:0:0:0:0:
320,192,283952,1,0,0:0:0:0:
448,192,283952,1,0,0:0:0:0:
448,192,284033,128,0,284358:0:0:0:0:
320,192,284033,128,0,284277:0:0:0:0:
192,192,284033,128,0,284114:0:0:0:0:
64,192,284033,128,0,284114:0:0:0:0:
64,192,284195,128,0,284277:0:0:0:0:
192,192,284195,128,0,284277:0:0:0:0:
320,192,284358,1,0,0:0:0:0:
192,192,284358,1,0,0:0:0:0:
64,192,284358,1,0,0:0:0:0:
448,192,284439,1,0,0:0:0:0:
320,192,284520,1,0,0:0:0:0:
64,192,284520,1,0,0:0:0:0:
192,192,284601,1,0,0:0:0:0:
320,192,284682,1,0,0:0:0:0:
64,192,284682,1,0,0:0:0:0:
320,192,284763,1,0,0:0:0:0:
448,192,284763,1,0,0:0:0:0:
64,192,284844,1,0,0:0:0:0:
192,192,284844,1,0,0:0:0:0:
192,192,284925,1,0,0:0:0:0:
64,192,284925,1,0,0:0:0:0:
64,192,285006,1,0,0:0:0:0:
320,192,285006,1,0,0:0:0:0:
448,192,285006,1,0,0:0:0:0:
192,192,285087,1,0,0:0:0:0:
448,192,285168,1,0,0:0:0:0:
320,192,285168,1,0,0:0:0:0:
64,192,285249,1,0,0:0:0:0:
320,192,285249,1,0,0:0:0:0:
192,192,285331,1,0,0:0:0:0:
448,192,285331,1,0,0:0:0:0:
448,192,285412,1,0,0:0:0:0:
64,192,285412,1,0,0:0:0:0:
64,192,285493,1,0,0:0:0:0:
320,192,285493,1,0,0:0:0:0:
320,192,285574,1,0,0:0:0:0:
192,192,285574,1,0,0:0:0:0:
448,192,285655,1,0,0:0:0:0:
192,192,285655,1,0,0:0:0:0:
64,192,285655,1,0,0:0:0:0:
448,192,285736,1,0,0:0:0:0:
320,192,285736,1,0,0:0:0:0:
64,192,285817,1,0,0:0:0:0:
192,192,285817,1,0,0:0:0:0:
64,192,285898,1,0,0:0:0:0:
192,192,285898,1,0,0:0:0:0:
448,192,285979,1,0,0:0:0:0:
320,192,285979,1,0,0:0:0:0:
448,192,286060,1,0,0:0:0:0:
64,192,286141,1,0,0:0:0:0:
320,192,286141,1,0,0:0:0:0:
192,192,286222,1,0,0:0:0:0:
448,192,286304,1,0,0:0:0:0:
320,192,286304,1,0,0:0:0:0:
192,192,286358,1,0,0:0:0:0:
64,192,286412,1,0,0:0:0:0:
448,192,286466,1,0,0:0:0:0:
320,192,286506,1,0,0:0:0:0:
192,192,286547,1,0,0:0:0:0:
320,192,286587,1,0,0:0:0:0:
64,192,286628,1,0,0:0:0:0:
192,192,286668,1,0,0:0:0:0:
448,192,286709,1,0,0:0:0:0:
64,192,286749,1,0,0:0:0:0:
320,192,286790,1,0,0:0:0:0:
192,192,286844,1,0,0:0:0:0:
320,192,286898,1,0,0:0:0:0:
448,192,286952,1,0,0:0:0:0:
64,192,286952,1,0,0:0:0:0:
192,192,286952,1,0,0:0:0:0:
320,192,287033,1,0,0:0:0:0:
64,192,287114,1,0,0:0:0:0:
448,192,287114,1,0,0:0:0:0:
192,192,287195,1,0,0:0:0:0:
64,192,287277,1,0,0:0:0:0:
448,192,287277,1,0,0:0:0:0:
320,192,287358,1,0,0:0:0:0:
448,192,287358,1,0,0:0:0:0:
64,192,287439,1,0,0:0:0:0:
192,192,287439,1,0,0:0:0:0:
64,192,287520,1,0,0:0:0:0:
192,192,287520,1,0,0:0:0:0:
320,192,287601,1,0,0:0:0:0:
448,192,287601,1,0,0:0:0:0:
64,192,287601,1,0,0:0:0:0:
192,192,287682,1,0,0:0:0:0:
448,192,287763,1,0,0:0:0:0:
320,192,287763,1,0,0:0:0:0:
320,192,287844,1,0,0:0:0:0:
64,192,287844,1,0,0:0:0:0:
192,192,287925,1,0,0:0:0:0:
448,192,287925,1,0,0:0:0:0:
192,192,288006,1,0,0:0:0:0:
320,192,288006,1,0,0:0:0:0:
64,192,288087,1,0,0:0:0:0:
320,192,288087,1,0,0:0:0:0:
64,192,288168,1,0,0:0:0:0:
448,192,288168,1,0,0:0:0:0:
192,192,288249,1,0,0:0:0:0:
448,192,288249,1,0,0:0:0:0:
320,192,288249,1,0,0:0:0:0:
192,192,288331,1,0,0:0:0:0:
64,192,288331,1,0,0:0:0:0:
64,192,288412,1,0,0:0:0:0:
320,192,288412,1,0,0:0:0:0:
448,192,288493,1,0,0:0:0:0:
320,192,288493,1,0,0:0:0:0:
64,192,288574,1,0,0:0:0:0:
192,192,288574,1,0,0:0:0:0:
64,192,288655,1,0,0:0:0:0:
448,192,288655,1,0,0:0:0:0:
320,192,288655,1,0,0:0:0:0:
192,192,288736,1,0,0:0:0:0:
320,192,288817,1,0,0:0:0:0:
64,192,288817,1,0,0:0:0:0:
320,192,288898,1,0,0:0:0:0:
448,192,288898,1,0,0:0:0:0:
192,192,288898,1,0,0:0:0:0:
64,192,288979,1,0,0:0:0:0:
448,192,289060,1,0,0:0:0:0:
192,192,289060,1,0,0:0:0:0:
320,192,289141,1,0,0:0:0:0:
192,192,289222,128,0,289466:0:0:0:0:
448,192,289222,128,0,289304:0:0:0:0:
64,192,289222,128,0,289547:0:0:0:0:
320,192,289385,128,0,289466:0:0:0:0:
448,192,289385,128,0,289466:0:0:0:0:
192,192,289547,1,0,0:0:0:0:
320,192,289547,1,0,0:0:0:0:
448,192,289547,1,0,0:0:0:0:
64,192,289628,1,0,0:0:0:0:
192,192,289709,1,0,0:0:0:0:
448,192,289709,1,0,0:0:0:0:
320,192,289790,1,0,0:0:0:0:
448,192,289871,1,0,0:0:0:0:
192,192,289871,1,0,0:0:0:0:
192,192,289952,1,0,0:0:0:0:
64,192,289952,1,0,0:0:0:0:
320,192,290033,1,0,0:0:0:0:
448,192,290033,1,0,0:0:0:0:
320,192,290114,1,0,0:0:0:0:
448,192,290114,1,0,0:0:0:0:
448,192,290195,1,0,0:0:0:0:
192,192,290195,1,0,0:0:0:0:
64,192,290195,1,0,0:0:0:0:
320,192,290277,1,0,0:0:0:0:
448,192,290358,1,0,0:0:0:0:
64,192,290358,1,0,0:0:0:0:
64,192,290439,1,0,0:0:0:0:
192,192,290439,1,0,0:0:0:0:
320,192,290520,1,0,0:0:0:0:
448,192,290520,1,0,0:0:0:0:
448,192,290601,1,0,0:0:0:0:
192,192,290601,1,0,0:0:0:0:
320,192,290682,1,0,0:0:0:0:
192,192,290682,1,0,0:0:0:0:
320,192,290763,1,0,0:0:0:0:
64,192,290763,1,0,0:0:0:0:
192,192,290844,1,0,0:0:0:0:
64,192,290844,1,0,0:0:0:0:
448,192,290844,1,0,0:0:0:0:
320,192,290925,1,0,0:0:0:0:
448,192,290925,1,0,0:0:0:0:
192,192,291006,1,0,0:0:0:0:
64,192,291006,1,0,0:0:0:0:
192,192,291087,1,0,0:0:0:0:
64,192,291087,1,0,0:0:0:0:
320,192,291168,1,0,0:0:0:0:
448,192,291168,1,0,0:0:0:0:
320,192,291249,1,0,0:0:0:0:
64,192,291331,1,0,0:0:0:0:
448,192,291331,1,0,0:0:0:0:
192,192,291412,1,0,0:0:0:0:
320,192,291493,1,0,0:0:0:0:
448,192,291493,1,0,0:0:0:0:
64,192,291493,1,0,0:0:0:0:
192,192,291574,1,0,0:0:0:0:
448,192,291655,1,0,0:0:0:0:
320,192,291655,1,0,0:0:0:0:
64,192,291736,1,0,0:0:0:0:
448,192,291817,1,0,0:0:0:0:
320,192,291817,1,0,0:0:0:0:
64,192,291898,1,0,0:0:0:0:
192,192,291979,1,0,0:0:0:0:
192,192,292060,1,0,0:0:0:0:
320,192,292141,1,0,0:0:0:0:
448,192,292141,1,0,0:0:0:0:
64,192,292141,1,0,0:0:0:0:
192,192,292222,1,0,0:0:0:0:
64,192,292304,1,0,0:0:0:0:
448,192,292304,1,0,0:0:0:0:
320,192,292385,1,0,0:0:0:0:
64,192,292466,1,0,0:0:0:0:
448,192,292466,1,0,0:0:0:0:
192,192,292547,1,0,0:0:0:0:
64,192,292547,1,0,0:0:0:0:
320,192,292628,1,0,0:0:0:0:
448,192,292628,1,0,0:0:0:0:
320,192,292709,1,0,0:0:0:0:
448,192,292709,1,0,0:0:0:0:
192,192,292790,1,0,0:0:0:0:
64,192,292790,1,0,0:0:0:0:
320,192,292790,1,0,0:0:0:0:
448,192,292871,1,0,0:0:0:0:
192,192,292871,1,0,0:0:0:0:
320,192,292952,1,0,0:0:0:0:
64,192,292952,1,0,0:0:0:0:
448,192,293006,1,0,0:0:0:0:
192,192,293060,1,0,0:0:0:0:
320,192,293114,1,0,0:0:0:0:
448,192,293114,1,0,0:0:0:0:
64,192,293168,1,0,0:0:0:0:
192,192,293222,1,0,0:0:0:0:
448,192,293277,1,0,0:0:0:0:
192,192,293317,1,0,0:0:0:0:
320,192,293358,1,0,0:0:0:0:
64,192,293398,1,0,0:0:0:0:
320,192,293439,1,0,0:0:0:0:
448,192,293479,1,0,0:0:0:0:
192,192,293520,1,0,0:0:0:0:
64,192,293560,1,0,0:0:0:0:
448,192,293601,1,0,0:0:0:0:
320,192,293655,1,0,0:0:0:0:
192,192,293709,1,0,0:0:0:0:
64,192,293763,1,0,0:0:0:0:
448,192,293763,1,0,0:0:0:0:
320,192,293844,1,0,0:0:0:0:
192,192,293844,1,0,0:0:0:0:
448,192,293844,1,0,0:0:0:0:
64,192,293925,1,0,0:0:0:0:
320,192,294006,1,0,0:0:0:0:
448,192,294006,1,0,0:0:0:0:
448,192,294087,1,0,0:0:0:0:
192,192,294087,1,0,0:0:0:0:
64,192,294087,1,0,0:0:0:0:
320,192,294168,1,0,0:0:0:0:
192,192,294249,1,0,0:0:0:0:
64,192,294249,1,0,0:0:0:0:
448,192,294331,1,0,0:0:0:0:
320,192,294412,128,0,294493:0:0:0:0:
64,192,294412,128,0,294493:0:0:0:0:
448,192,294412,128,0,294655:0:0:0:0:
192,192,294412,128,0,294736:0:0:0:0:
64,192,294574,128,0,294655:0:0:0:0:
320,192,294574,128,0,294655:0:0:0:0:
320,192,294736,1,0,0:0:0:0:
448,192,294736,1,0,0:0:0:0:
64,192,294736,1,0,0:0:0:0:
192,192,294817,1,0,0:0:0:0:
320,192,294898,1,0,0:0:0:0:
64,192,294898,1,0,0:0:0:0:
448,192,294979,1,0,0:0:0:0:
320,192,295060,1,0,0:0:0:0:
64,192,295060,1,0,0:0:0:0:
192,192,295141,1,0,0:0:0:0:
64,192,295141,1,0,0:0:0:0:
320,192,295222,1,0,0:0:0:0:
448,192,295222,1,0,0:0:0:0:
320,192,295304,1,0,0:0:0:0:
448,192,295304,1,0,0:0:0:0:
192,192,295385,1,0,0:0:0:0:
64,192,295385,1,0,0:0:0:0:
448,192,295385,1,0,0:0:0:0:
320,192,295466,1,0,0:0:0:0:
64,192,295547,1,0,0:0:0:0:
192,192,295547,1,0,0:0:0:0:
448,192,295628,1,0,0:0:0:0:
192,192,295628,1,0,0:0:0:0:
320,192,295709,1,0,0:0:0:0:
64,192,295709,1,0,0:0:0:0:
64,192,295790,1,0,0:0:0:0:
448,192,295790,1,0,0:0:0:0:
448,192,295871,1,0,0:0:0:0:
192,192,295871,1,0,0:0:0:0:
192,192,295952,1,0,0:0:0:0:
320,192,295952,1,0,0:0:0:0:
320,192,296033,1,0,0:0:0:0:
448,192,296033,1,0,0:0:0:0:
64,192,296033,1,0,0:0:0:0:
192,192,296114,1,0,0:0:0:0:
64,192,296114,1,0,0:0:0:0:
320,192,296195,1,0,0:0:0:0:
448,192,296195,1,0,0:0:0:0:
448,192,296276,1,0,0:0:0:0:
320,192,296276,1,0,0:0:0:0:
192,192,296358,1,0,0:0:0:0:
64,192,296358,1,0,0:0:0:0:
448,192,296358,1,0,0:0:0:0:
64,192,296439,1,0,0:0:0:0:
448,192,296520,1,0,0:0:0:0:
320,192,296520,1,0,0:0:0:0:
192,192,296601,1,0,0:0:0:0:
448,192,296682,1,0,0:0:0:0:
320,192,296682,1,0,0:0:0:0:
64,192,296736,1,0,0:0:0:0:
192,192,296790,1,0,0:0:0:0:
448,192,296844,1,0,0:0:0:0:
320,192,296885,1,0,0:0:0:0:
64,192,296925,1,0,0:0:0:0:
320,192,296966,1,0,0:0:0:0:
192,192,297006,1,0,0:0:0:0:
448,192,297047,1,0,0:0:0:0:
64,192,297087,1,0,0:0:0:0:
320,192,297128,1,0,0:0:0:0:
64,192,297168,1,0,0:0:0:0:
192,192,297222,1,0,0:0:0:0:
448,192,297276,1,0,0:0:0:0:
64,192,297331,1,0,0:0:0:0:
192,192,297331,1,0,0:0:0:0:
320,192,297331,1,0,0:0:0:0:
448,192,297412,1,0,0:0:0:0:
192,192,297493,1,0,0:0:0:0:
64,192,297493,1,0,0:0:0:0:
320,192,297574,1,0,0:0:0:0:
192,192,297655,1,0,0:0:0:0:
448,192,297655,1,0,0:0:0:0:
448,192,297736,1,0,0:0:0:0:
320,192,297736,1,0,0:0:0:0:
64,192,297817,1,0,0:0:0:0:
192,192,297817,1,0,0:0:0:0:
192,192,297898,1,0,0:0:0:0:
64,192,297898,1,0,0:0:0:0:
320,192,297979,1,0,0:0:0:0:
448,192,297979,1,0,0:0:0:0:
64,192,297979,1,0,0:0:0:0:
192,192,298060,1,0,0:0:0:0:
320,192,298141,1,0,0:0:0:0:
448,192,298141,1,0,0:0:0:0:
320,192,298222,1,0,0:0:0:0:
64,192,298222,1,0,0:0:0:0:
192,192,298304,1,0,0:0:0:0:
448,192,298304,1,0,0:0:0:0:
192,192,298385,1,0,0:0:0:0:
320,192,298385,1,0,0:0:0:0:
320,192,298466,1,0,0:0:0:0:
64,192,298466,1,0,0:0:0:0:
64,192,298547,1,0,0:0:0:0:
448,192,298547,1,0,0:0:0:0:
192,192,298628,1,0,0:0:0:0:
320,192,298628,1,0,0:0:0:0:
448,192,298628,1,0,0:0:0:0:
64,192,298709,1,0,0:0:0:0:
192,192,298709,1,0,0:0:0:0:
320,192,298790,1,0,0:0:0:0:
448,192,298790,1,0,0:0:0:0:
448,192,298871,1,0,0:0:0:0:
64,192,298871,1,0,0:0:0:0:
192,192,298952,1,0,0:0:0:0:
320,192,298952,1,0,0:0:0:0:
192,192,299033,1,0,0:0:0:0:
64,192,299033,1,0,0:0:0:0:
448,192,299033,1,0,0:0:0:0:
320,192,299114,1,0,0:0:0:0:
448,192,299195,1,0,0:0:0:0:
64,192,299195,1,0,0:0:0:0:
320,192,299276,1,0,0:0:0:0:
448,192,299276,1,0,0:0:0:0:
192,192,299276,1,0,0:0:0:0:
64,192,299358,1,0,0:0:0:0:
192,192,299439,1,0,0:0:0:0:
320,192,299439,1,0,0:0:0:0:
448,192,299520,1,0,0:0:0:0:
192,192,299601,128,0,299763:0:0:0:0:
64,192,299601,128,0,299763:0:0:0:0:
320,192,299601,128,0,299925:0:0:0:0:
448,192,299763,128,0,299844:0:0:0:0:
192,192,299844,1,0,0:0:0:0:
64,192,299844,1,0,0:0:0:0:
448,192,299925,1,0,0:0:0:0:
192,192,299925,1,0,0:0:0:0:
64,192,299925,1,0,0:0:0:0:
320,192,300006,1,0,0:0:0:0:
448,192,300087,1,0,0:0:0:0:
64,192,300087,1,0,0:0:0:0:
192,192,300168,1,0,0:0:0:0:
448,192,300249,1,0,0:0:0:0:
64,192,300249,1,0,0:0:0:0:
448,192,300331,1,0,0:0:0:0:
320,192,300331,1,0,0:0:0:0:
192,192,300412,1,0,0:0:0:0:
64,192,300412,1,0,0:0:0:0:
192,192,300493,1,0,0:0:0:0:
64,192,300493,1,0,0:0:0:0:
448,192,300574,1,0,0:0:0:0:
320,192,300574,1,0,0:0:0:0:
192,192,300574,1,0,0:0:0:0:
64,192,300655,1,0,0:0:0:0:
448,192,300736,1,0,0:0:0:0:
192,192,300736,1,0,0:0:0:0:
320,192,300817,1,0,0:0:0:0:
448,192,300817,1,0,0:0:0:0:
64,192,300898,1,0,0:0:0:0:
320,192,300898,1,0,0:0:0:0:
448,192,300979,1,0,0:0:0:0:
192,192,300979,1,0,0:0:0:0:
64,192,301060,1,0,0:0:0:0:
192,192,301060,1,0,0:0:0:0:
448,192,301141,1,0,0:0:0:0:
320,192,301141,1,0,0:0:0:0:
64,192,301222,1,0,0:0:0:0:
448,192,301222,1,0,0:0:0:0:
192,192,301222,1,0,0:0:0:0:
320,192,301304,1,0,0:0:0:0:
64,192,301304,1,0,0:0:0:0:
448,192,301385,1,0,0:0:0:0:
192,192,301385,1,0,0:0:0:0:
320,192,301466,1,0,0:0:0:0:
448,192,301466,1,0,0:0:0:0:
192,192,301547,1,0,0:0:0:0:
64,192,301547,1,0,0:0:0:0:
320,192,301628,1,0,0:0:0:0:
448,192,301628,1,0,0:0:0:0:
64,192,301628,1,0,0:0:0:0:
192,192,301709,1,0,0:0:0:0:
320,192,301790,1,0,0:0:0:0:
448,192,301790,1,0,0:0:0:0:
448,192,301871,1,0,0:0:0:0:
192,192,301871,1,0,0:0:0:0:
64,192,301871,1,0,0:0:0:0:
320,192,301952,1,0,0:0:0:0:
192,192,302033,1,0,0:0:0:0:
64,192,302033,1,0,0:0:0:0:
448,192,302114,1,0,0:0:0:0:
192,192,302195,1,0,0:0:0:0:
320,192,302195,1,0,0:0:0:0:
64,192,302276,1,0,0:0:0:0:
448,192,302358,1,0,0:0:0:0:
448,192,302439,1,0,0:0:0:0:
192,192,302439,1,0,0:0:0:0:
320,192,302520,1,0,0:0:0:0:
192,192,302520,1,0,0:0:0:0:
64,192,302520,1,0,0:0:0:0:
448,192,302601,1,0,0:0:0:0:
64,192,302682,1,0,0:0:0:0:
320,192,302682,1,0,0:0:0:0:
192,192,302763,1,0,0:0:0:0:
320,192,302844,1,0,0:0:0:0:
64,192,302844,1,0,0:0:0:0:
320,192,302925,1,0,0:0:0:0:
448,192,302925,1,0,0:0:0:0:
192,192,303006,1,0,0:0:0:0:
64,192,303006,1,0,0:0:0:0:
192,192,303087,1,0,0:0:0:0:
64,192,303087,1,0,0:0:0:0:
320,192,303168,1,0,0:0:0:0:
448,192,303168,1,0,0:0:0:0:
192,192,303168,1,0,0:0:0:0:
64,192,303249,1,0,0:0:0:0:
448,192,303331,1,0,0:0:0:0:
320,192,303331,1,0,0:0:0:0:
448,192,303412,1,0,0:0:0:0:
192,192,303412,1,0,0:0:0:0:
192,192,303493,1,0,0:0:0:0:
64,192,303493,1,0,0:0:0:0:
320,192,303574,1,0,0:0:0:0:
448,192,303574,1,0,0:0:0:0:
64,192,303655,1,0,0:0:0:0:
320,192,303655,1,0,0:0:0:0:
192,192,303736,1,0,0:0:0:0:
448,192,303736,1,0,0:0:0:0:
192,192,303817,1,0,0:0:0:0:
64,192,303817,1,0,0:0:0:0:
320,192,303817,1,0,0:0:0:0:
448,192,303898,1,0,0:0:0:0:
320,192,303898,1,0,0:0:0:0:
64,192,303979,1,0,0:0:0:0:
192,192,303979,1,0,0:0:0:0:
64,192,304060,1,0,0:0:0:0:
448,192,304060,1,0,0:0:0:0:
320,192,304141,1,0,0:0:0:0:
192,192,304141,1,0,0:0:0:0:
320,192,304222,1,0,0:0:0:0:
192,192,304222,1,0,0:0:0:0:
448,192,304304,1,0,0:0:0:0:
192,192,304385,1,0,0:0:0:0:
64,192,304385,1,0,0:0:0:0:
64,192,304466,1,0,0:0:0:0:
320,192,304466,1,0,0:0:0:0:
448,192,304466,1,0,0:0:0:0:
192,192,304547,1,0,0:0:0:0:
448,192,304628,1,0,0:0:0:0:
64,192,304628,1,0,0:0:0:0:
448,192,304709,1,0,0:0:0:0:
64,192,304709,1,0,0:0:0:0:
192,192,304790,128,0,305036:0:0:0:0:
320,192,304790,128,0,304954:0:0:0:0:
448,192,304790,128,0,304872:0:0:0:0:
320,192,305036,128,0,305118:0:0:0:0:
64,192,305447,1,0,0:0:0:0:
448,192,306105,1,0,0:0:0:0:
320,192,306105,1,0,0:0:0:0:
192,192,306757,1,0,0:0:0:0:
64,192,307409,1,0,0:0:0:0:
448,192,307409,1,0,0:0:0:0:
320,192,307898,1,0,0:0:0:0:
192,192,308722,1,0,0:0:0:0:
448,192,310047,1,0,0:0:0:0:
64,192,310710,1,0,0:0:0:0:
320,192,311373,1,0,0:0:0:0:
448,192,311373,1,0,0:0:0:0:
192,192,312038,1,0,0:0:0:0:
448,192,312704,1,0,0:0:0:0:
64,192,312704,1,0,0:0:0:0:
320,192,313373,1,0,0:0:0:0:
64,192,313708,1,0,0:0:0:0:
192,192,314043,1,0,0:0:0:0:
448,192,314378,1,0,0:0:0:0:
64,192,314712,1,0,0:0:0:0:
320,192,315047,1,0,0:0:0:0:
64,192,315382,1,0,0:0:0:0:
192,192,315382,1,0,0:0:0:0:
448,192,316751,1,0,0:0:0:0:
192,192,316751,1,0,0:0:0:0:
64,192,318120,1,0,0:0:0:0:
320,192,318462,1,0,0:0:0:0:
192,192,318804,1,0,0:0:0:0:
448,192,319146,1,0,0:0:0:0:
320,192,319489,1,0,0:0:0:0:
64,192,319489,1,0,0:0:0:0:
448,192,319831,1,0,0:0:0:0:
192,192,320173,1,0,0:0:0:0:
448,192,320858,1,0,0:0:0:0:
64,192,321200,1,0,0:0:0:0:
448,192,322911,1,0,0:0:0:0:
192,192,322911,1,0,0:0:0:0:
64,192,323596,1,0,0:0:0:0:
320,192,323625,1,0,0:0:0:0:
448,192,324109,128,0,324452:0:0:0:0:
64,192,324281,128,0,324965:0:0:0:0:
320,192,324623,128,0,325992:0:0:0:0:
192,192,324965,128,0,325478:0:0:0:0:
448,192,325307,128,0,326334:0:0:0:0:
64,192,325650,128,0,326334:0:0:0:0:
192,192,325992,128,0,326334:0:0:0:0:
64,192,326449,128,0,326625:0:0:0:0:
448,192,326449,128,0,326625:0:0:0:0:
192,192,326449,128,0,327507:0:0:0:0:
448,192,326978,128,0,327860:0:0:0:0:
320,192,327154,1,0,0:0:0:0:
64,192,327507,128,0,328390:0:0:0:0:
320,192,327860,128,0,328919:0:0:0:0:
192,192,327860,1,0,0:0:0:0:
192,192,328390,128,0,329272:0:0:0:0:
448,192,328919,128,0,332096:0:0:0:0:
320,192,329272,128,0,332801:0:0:0:0:
64,192,329272,1,0,0:0:0:0:
192,192,330684,1,0,0:0:0:0:
64,192,331390,1,0,0:0:0:0:
64,192,332096,1,0,0:0:0:0:
192,192,332801,128,0,333507:0:0:0:0:
448,192,332801,1,0,0:0:0:0:
64,192,333507,128,0,334919:0:0:0:0:
320,192,333507,1,0,0:0:0:0:
448,192,334213,128,0,334919:0:0:0:0:
192,192,334919,128,0,335978:0:0:0:0:
320,192,334919,1,0,0:0:0:0:
448,192,335449,128,0,336331:0:0:0:0:
64,192,335978,128,0,336860:0:0:0:0:
320,192,336331,128,0,337390:0:0:0:0:
448,192,336860,128,0,337743:0:0:0:0:
192,192,337390,128,0,339331:0:0:0:0:
64,192,337743,128,0,341272:0:0:0:0:
320,192,337743,1,0,0:0:0:0:
448,192,339154,1,0,0:0:0:0:
320,192,339331,128,0,341978:0:0:0:0:
192,192,340566,1,0,0:0:0:0:
192,192,341978,1,0,0:0:0:0:
448,192,341978,128,0,343390:0:0:0:0:
64,192,342684,128,0,343390:0:0:0:0:
192,192,343390,128,0,344449:0:0:0:0:
320,192,343390,1,0,0:0:0:0:
448,192,343919,128,0,344801:0:0:0:0:
320,192,344096,1,0,0:0:0:0:
64,192,344449,128,0,345331:0:0:0:0:
320,192,344801,128,0,345860:0:0:0:0:
192,192,344801,1,0,0:0:0:0:
192,192,345331,128,0,346213:0:0:0:0:
448,192,345860,128,0,349037:0:0:0:0:
320,192,346213,128,0,347625:0:0:0:0:
64,192,346213,1,0,0:0:0:0:
192,192,347625,1,0,0:0:0:0:
64,192,347625,128,0,350449:0:0:0:0:
320,192,349037,1,0,0:0:0:0:
192,192,350449,128,0,351860:0:0:0:0:
448,192,350449,1,0,0:0:0:0:
64,192,351154,128,0,351860:0:0:0:0:
320,192,351860,128,0,352919:0:0:0:0:
448,192,351860,1,0,0:0:0:0:
448,192,352390,128,0,353272:0:0:0:0:
64,192,352919,128,0,353801:0:0:0:0:
320,192,353272,128,0,354331:0:0:0:0:
192,192,353272,1,0,0:0:0:0:
192,192,353801,128,0,354684:0:0:0:0:
448,192,354331,128,0,358831:0:0:0:0:
64,192,354684,128,0,360243:0:0:0:0:
320,192,354684,1,0,0:0:0:0:
192,192,356096,128,0,360243:0:0:0:0:
320,192,357507,1,0,0:0:0:0:
320,192,358919,128,0,360243:0:0:0:0:
448,192,358919,1,0,0:0:0:0:
448,192,360331,128,0,361037:0:0:0:0:
64,192,360331,128,0,360684:0:0:0:0:
320,192,360507,128,0,360860:0:0:0:0:
192,192,360684,128,0,361213:0:0:0:0:
64,192,360860,128,0,361390:0:0:0:0:
320,192,361037,128,0,361213:0:0:0:0:
448,192,361213,128,0,361390:0:0:0:0:
192,192,361390,128,0,361566:0:0:0:0:
64,192,361566,128,0,361743:0:0:0:0:
448,192,361743,128,0,362272:0:0:0:0:
320,192,361743,128,0,362096:0:0:0:0:
192,192,361919,128,0,362449:0:0:0:0:
64,192,362096,128,0,362801:0:0:0:0:
320,192,362272,128,0,362625:0:0:0:0:
448,192,362449,128,0,362625:0:0:0:0:
192,192,362625,128,0,362801:0:0:0:0:
320,192,362801,128,0,362978:0:0:0:0:
64,192,362978,128,0,363154:0:0:0:0:
192,192,363154,128,0,363684:0:0:0:0:
448,192,363154,128,0,363507:0:0:0:0:
320,192,363331,128,0,363860:0:0:0:0:
64,192,363507,128,0,364037:0:0:0:0:
448,192,363684,128,0,364213:0:0:0:0:
192,192,363860,128,0,364213:0:0:0:0:
320,192,364037,128,0,364390:0:0:0:0:
64,192,364213,128,0,364566:0:0:0:0:
192,192,364390,128,0,364566:0:0:0:0:
448,192,364566,128,0,365096:0:0:0:0:
320,192,364566,128,0,364919:0:0:0:0:
64,192,364743,128,0,365449:0:0:0:0:
192,192,364919,128,0,365272:0:0:0:0:
320,192,365096,128,0,365625:0:0:0:0:
448,192,365272,128,0,365449:0:0:0:0:
192,192,365449,128,0,365625:0:0:0:0:
64,192,365625,128,0,365801:0:0:0:0:
320,192,365801,128,0,365978:0:0:0:0:
192,192,365978,128,0,366331:0:0:0:0:
64,192,365978,128,0,366507:0:0:0:0:
448,192,366154,128,0,367037:0:0:0:0:
320,192,366331,128,0,366684:0:0:0:0:
192,192,366507,128,0,366860:0:0:0:0:
64,192,366684,128,0,366860:0:0:0:0:
320,192,366860,128,0,367037:0:0:0:0:
192,192,367037,128,0,367213:0:0:0:0:
448,192,367213,128,0,367390:0:0:0:0:
320,192,367390,128,0,367919:0:0:0:0:
64,192,367390,128,0,367743:0:0:0:0:
192,192,367566,128,0,368096:0:0:0:0:
448,192,367743,128,0,368272:0:0:0:0:
64,192,367919,128,0,368449:0:0:0:0:
320,192,368096,128,0,368449:0:0:0:0:
192,192,368272,128,0,368625:0:0:0:0:
448,192,368449,128,0,368801:0:0:0:0:
320,192,368625,128,0,368801:0:0:0:0:
64,192,368801,128,0,369507:0:0:0:0:
192,192,368801,128,0,369154:0:0:0:0:
448,192,368978,128,0,369331:0:0:0:0:
320,192,369154,128,0,369684:0:0:0:0:
192,192,369331,128,0,369860:0:0:0:0:
448,192,369507,128,0,369684:0:0:0:0:
64,192,369684,128,0,369860:0:0:0:0:
320,192,369860,128,0,370037:0:0:0:0:
192,192,370037,128,0,370213:0:0:0:0:
448,192,370213,128,0,370566:0:0:0:0:
64,192,370213,128,0,370743:0:0:0:0:
320,192,370390,128,0,370919:0:0:0:0:
192,192,370566,128,0,371272:0:0:0:0:
448,192,370743,128,0,371096:0:0:0:0:
64,192,370919,128,0,371096:0:0:0:0:
320,192,371096,128,0,371272:0:0:0:0:
448,192,371272,128,0,371449:0:0:0:0:
192,192,371449,128,0,371625:0:0:0:0:
64,192,371625,128,0,372199:0:0:0:0:
448,192,371625,128,0,372022:0:0:0:0:
320,192,371801,128,0,372375:0:0:0:0:
192,192,371978,128,0,372551:0:0:0:0:
448,192,372154,128,0,372772:0:0:0:0:
64,192,372331,128,0,372728:0:0:0:0:
320,192,372507,128,0,372904:0:0:0:0:
192,192,372684,128,0,373037:0:0:0:0:
64,192,372860,128,0,373037:0:0:0:0:
448,192,373037,128,0,373787:0:0:0:0:
320,192,373037,128,0,373434:0:0:0:0:
64,192,373213,128,0,373610:0:0:0:0:
192,192,373390,128,0,373963:0:0:0:0:
320,192,373566,128,0,374140:0:0:0:0:
64,192,373743,128,0,374029:0:0:0:0:
448,192,373919,128,0,374206:0:0:0:0:
192,192,374096,128,0,374316:0:0:0:0:
320,192,374272,128,0,374449:0:0:0:0:
192,192,374449,128,0,374890:0:0:0:0:
64,192,374449,128,0,375066:0:0:0:0:
448,192,374625,128,0,375596:0:0:0:0:
320,192,374801,128,0,375243:0:0:0:0:
192,192,374978,128,0,375419:0:0:0:0:
64,192,375154,128,0,375596:0:0:0:0:
320,192,375331,128,0,375684:0:0:0:0:
192,192,375507,128,0,375772:0:0:0:0:
448,192,375684,128,0,375860:0:0:0:0:
320,192,375860,128,0,376478:0:0:0:0:
64,192,375860,128,0,376301:0:0:0:0:
192,192,376037,128,0,376831:0:0:0:0:
448,192,376213,128,0,376478:0:0:0:0:
64,192,376390,128,0,376654:0:0:0:0:
320,192,376566,128,0,376654:0:0:0:0:
448,192,376566,128,0,376831:0:0:0:0:
320,192,376743,128,0,377154:0:0:0:0:
64,192,376743,128,0,377007:0:0:0:0:
448,192,376919,128,0,377154:0:0:0:0:
192,192,376919,128,0,377007:0:0:0:0:
192,192,377096,128,0,377233:0:0:0:0:
64,192,377096,128,0,377154:0:0:0:0:
448,192,377233,128,0,377585:0:0:0:0:
64,192,377233,128,0,377409:0:0:0:0:
320,192,377233,128,0,377938:0:0:0:0:
320,192,378997,1,0,0:0:0:0:
192,192,379041,128,0,379130:0:0:0:0:
448,192,379174,1,0,0:0:0:0:
64,192,379218,1,0,0:0:0:0:
320,192,379262,128,0,379350:0:0:0:0:
192,192,379350,1,0,0:0:0:0:
64,192,379394,1,0,0:0:0:0:
448,192,379438,128,0,379527:0:0:0:0:
320,192,379483,128,0,379571:0:0:0:0:
192,192,379527,128,0,379615:0:0:0:0:
64,192,380056,128,0,380203:0:0:0:0:
320,192,380056,1,0,0:0:0:0:
448,192,380056,1,0,0:0:0:0:
192,192,380144,128,0,380232:0:0:0:0:
320,192,380173,128,0,380291:0:0:0:0:
448,192,380203,128,0,380467:0:0:0:0:
192,192,380291,128,0,380379:0:0:0:0:
64,192,380320,128,0,380408:0:0:0:0:
320,192,380408,128,0,380497:0:0:0:0:
192,192,380438,128,0,380526:0:0:0:0:
64,192,380467,128,0,380585:0:0:0:0:
448,192,380526,128,0,380644:0:0:0:0:
192,192,380585,128,0,380673:0:0:0:0:
320,192,380614,128,0,380703:0:0:0:0:
64,192,380673,128,0,380761:0:0:0:0:
448,192,380761,1,0,0:0:0:0:
192,192,380761,1,0,0:0:0:0:
320,192,380761,1,0,0:0:0:0:
64,192,380850,1,0,0:0:0:0:
192,192,380938,1,0,0:0:0:0:
448,192,380982,1,0,0:0:0:0:
64,192,381026,1,0,0:0:0:0:
320,192,381070,1,0,0:0:0:0:
192,192,381136,1,0,0:0:0:0:
448,192,381203,1,0,0:0:0:0:
192,192,381291,1,0,0:0:0:0:
320,192,381335,1,0,0:0:0:0:
64,192,381379,128,0,381467:0:0:0:0:
192,192,381467,128,0,381614:0:0:0:0:
320,192,381467,1,0,0:0:0:0:
448,192,381467,1,0,0:0:0:0:
64,192,381556,128,0,381644:0:0:0:0:
448,192,381585,128,0,381703:0:0:0:0:
320,192,381614,128,0,381879:0:0:0:0:
64,192,381703,128,0,381791:0:0:0:0:
192,192,381732,128,0,381820:0:0:0:0:
448,192,381820,128,0,381908:0:0:0:0:
64,192,381850,128,0,381938:0:0:0:0:
192,192,381879,128,0,381997:0:0:0:0:
320,192,381938,128,0,382056:0:0:0:0:
64,192,381997,128,0,382085:0:0:0:0:
448,192,382026,128,0,382114:0:0:0:0:
192,192,382085,128,0,382173:0:0:0:0:
64,192,382173,1,0,0:0:0:0:
320,192,382173,1,0,0:0:0:0:
448,192,382173,1,0,0:0:0:0:
192,192,382261,1,0,0:0:0:0:
448,192,382350,1,0,0:0:0:0:
64,192,382394,1,0,0:0:0:0:
320,192,382438,1,0,0:0:0:0:
192,192,382526,128,0,382614:0:0:0:0:
320,192,382570,128,0,382703:0:0:0:0:
320,192,382791,128,0,382879:0:0:0:0:
448,192,382879,1,0,0:0:0:0:
64,192,382879,128,0,383026:0:0:0:0:
192,192,382879,1,0,0:0:0:0:
320,192,382967,128,0,383056:0:0:0:0:
448,192,382997,128,0,383114:0:0:0:0:
192,192,383026,128,0,383291:0:0:0:0:
320,192,383114,128,0,383203:0:0:0:0:
64,192,383144,128,0,383232:0:0:0:0:
448,192,383232,128,0,383320:0:0:0:0:
320,192,383261,128,0,383350:0:0:0:0:
64,192,383291,128,0,383408:0:0:0:0:
192,192,383350,128,0,383467:0:0:0:0:
320,192,383408,128,0,383497:0:0:0:0:
448,192,383438,128,0,383526:0:0:0:0:
64,192,383497,128,0,383585:0:0:0:0:
320,192,383585,1,0,0:0:0:0:
192,192,383585,1,0,0:0:0:0:
448,192,383585,1,0,0:0:0:0:
64,192,383673,1,0,0:0:0:0:
320,192,383761,1,0,0:0:0:0:
192,192,383806,1,0,0:0:0:0:
448,192,383850,1,0,0:0:0:0:
64,192,383916,128,0,383982:0:0:0:0:
320,192,383960,128,0,384026:0:0:0:0:
192,192,384048,128,0,384114:0:0:0:0:
448,192,384158,128,0,384225:0:0:0:0:
320,192,384291,1,0,0:0:0:0:
192,192,384291,128,0,384438:0:0:0:0:
64,192,384291,1,0,0:0:0:0:
448,192,384379,128,0,384467:0:0:0:0:
320,192,384408,128,0,384526:0:0:0:0:
64,192,384438,128,0,384703:0:0:0:0:
448,192,384526,128,0,384614:0:0:0:0:
192,192,384556,128,0,384644:0:0:0:0:
320,192,384644,128,0,384732:0:0:0:0:
448,192,384673,128,0,384761:0:0:0:0:
192,192,384703,128,0,384820:0:0:0:0:
64,192,384761,128,0,384879:0:0:0:0:
448,192,384820,128,0,384908:0:0:0:0:
320,192,384850,128,0,384938:0:0:0:0:
192,192,384908,128,0,384997:0:0:0:0:
320,192,384997,1,0,0:0:0:0:
64,192,384997,1,0,0:0:0:0:
448,192,384997,1,0,0:0:0:0:
192,192,385085,1,0,0:0:0:0:
64,192,385173,1,0,0:0:0:0:
448,192,385306,1,0,0:0:0:0:
192,192,385350,128,0,385438:0:0:0:0:
64,192,385526,1,0,0:0:0:0:
320,192,385570,128,0,385658:0:0:0:0:
64,192,385703,1,0,0:0:0:0:
192,192,385703,1,0,0:0:0:0:
448,192,385703,128,0,385850:0:0:0:0:
320,192,385791,128,0,385879:0:0:0:0:
192,192,385820,128,0,385938:0:0:0:0:
64,192,385850,128,0,386114:0:0:0:0:
320,192,385938,128,0,386026:0:0:0:0:
448,192,385967,128,0,386056:0:0:0:0:
192,192,386056,128,0,386144:0:0:0:0:
320,192,386085,128,0,386173:0:0:0:0:
448,192,386114,128,0,386232:0:0:0:0:
64,192,386173,128,0,386291:0:0:0:0:
320,192,386232,128,0,386320:0:0:0:0:
192,192,386261,128,0,386350:0:0:0:0:
448,192,386320,128,0,386408:0:0:0:0:
192,192,386408,1,0,0:0:0:0:
320,192,386408,1,0,0:0:0:0:
64,192,386408,1,0,0:0:0:0:
448,192,386497,1,0,0:0:0:0:
192,192,386541,1,0,0:0:0:0:
320,192,386629,1,0,0:0:0:0:
64,192,386673,1,0,0:0:0:0:
192,192,386739,1,0,0:0:0:0:
448,192,386783,1,0,0:0:0:0:
64,192,386850,1,0,0:0:0:0:
320,192,386916,1,0,0:0:0:0:
192,192,386982,128,0,387048:0:0:0:0:
448,192,387026,128,0,387114:0:0:0:0:
320,192,387114,128,0,387261:0:0:0:0:
192,192,387114,1,0,0:0:0:0:
64,192,387114,1,0,0:0:0:0:
448,192,387203,128,0,387291:0:0:0:0:
64,192,387232,128,0,387350:0:0:0:0:
192,192,387261,128,0,387526:0:0:0:0:
448,192,387350,128,0,387438:0:0:0:0:
320,192,387379,128,0,387467:0:0:0:0:
64,192,387467,128,0,387556:0:0:0:0:
448,192,387497,128,0,387585:0:0:0:0:
320,192,387526,128,0,387644:0:0:0:0:
192,192,387585,128,0,387703:0:0:0:0:
448,192,387644,128,0,387732:0:0:0:0:
64,192,387673,128,0,387761:0:0:0:0:
320,192,387732,128,0,387820:0:0:0:0:
448,192,387820,1,0,0:0:0:0:
192,192,387820,1,0,0:0:0:0:
64,192,387820,1,0,0:0:0:0:
320,192,387908,1,0,0:0:0:0:
64,192,387997,1,0,0:0:0:0:
448,192,388041,1,0,0:0:0:0:
192,192,388085,1,0,0:0:0:0:
320,192,388173,128,0,388261:0:0:0:0:
192,192,388217,128,0,388350:0:0:0:0:
192,192,388438,128,0,388526:0:0:0:0:
64,192,388526,1,0,0:0:0:0:
448,192,388526,128,0,388673:0:0:0:0:
320,192,388526,1,0,0:0:0:0:
192,192,388614,128,0,388703:0:0:0:0:
64,192,388644,128,0,388761:0:0:0:0:
320,192,388673,128,0,388938:0:0:0:0:
192,192,388761,128,0,388850:0:0:0:0:
448,192,388791,128,0,388879:0:0:0:0:
64,192,388879,128,0,388967:0:0:0:0:
192,192,388908,128,0,388997:0:0:0:0:
448,192,388938,128,0,389056:0:0:0:0:
320,192,388997,128,0,389114:0:0:0:0:
192,192,389056,128,0,389144:0:0:0:0:
64,192,389085,128,0,389173:0:0:0:0:
448,192,389144,128,0,389232:0:0:0:0:
192,192,389232,1,0,0:0:0:0:
320,192,389232,1,0,0:0:0:0:
64,192,389232,1,0,0:0:0:0:
448,192,389320,1,0,0:0:0:0:
192,192,389408,1,0,0:0:0:0:
320,192,389453,1,0,0:0:0:0:
64,192,389497,1,0,0:0:0:0:
448,192,389563,128,0,389629:0:0:0:0:
192,192,389607,128,0,389673:0:0:0:0:
320,192,389695,128,0,389761:0:0:0:0:
64,192,389806,128,0,389872:0:0:0:0:
320,192,389938,128,0,390026:0:0:0:0:
448,192,389938,128,0,390114:0:0:0:0:
192,192,389938,1,0,0:0:0:0:
64,192,390114,1,0,0:0:0:0:
192,192,390158,1,0,0:0:0:0:
448,192,390247,1,0,0:0:0:0:
320,192,390335,1,0,0:0:0:0:
448,192,390423,1,0,0:0:0:0:
64,192,390467,128,0,390644:0:0:0:0:
192,192,390511,1,0,0:0:0:0:
320,192,390600,1,0,0:0:0:0:
448,192,390644,1,0,0:0:0:0:
192,192,390688,1,0,0:0:0:0:
320,192,390798,1,0,0:0:0:0:
64,192,390864,1,0,0:0:0:0:
192,192,390931,1,0,0:0:0:0:
448,192,390997,128,0,391173:0:0:0:0:
320,192,391041,128,0,391085:0:0:0:0:
64,192,391129,128,0,391195:0:0:0:0:
192,192,391173,128,0,391217:0:0:0:0:
320,192,391261,128,0,391328:0:0:0:0:
448,192,391306,128,0,391350:0:0:0:0:
64,192,391350,128,0,391436:0:0:0:0:
192,192,391350,128,0,391610:0:0:0:0:
320,192,391436,128,0,391566:0:0:0:0:
64,192,391610,128,0,391696:0:0:0:0:
64,192,391870,128,0,391956:0:0:0:0:
320,192,392043,128,0,392130:0:0:0:0:
320,192,392303,128,0,392390:0:0:0:0:
320,192,392563,128,0,392679:0:0:0:0:
448,192,392621,128,0,392679:0:0:0:0:
192,192,392679,128,0,392737:0:0:0:0:
64,192,392737,1,0,0:0:0:0:
320,192,392737,1,0,0:0:0:0:
448,192,392737,1,0,0:0:0:0:
192,192,392821,128,0,392864:0:0:0:0:
64,192,392864,128,0,392906:0:0:0:0:
320,192,392906,128,0,392970:0:0:0:0:
448,192,392948,128,0,393012:0:0:0:0:
192,192,392991,128,0,393075:0:0:0:0:
320,192,393033,128,0,393118:0:0:0:0:
448,192,393075,128,0,393245:0:0:0:0:
64,192,393075,128,0,393160:0:0:0:0:
192,192,393118,128,0,393203:0:0:0:0:
320,192,393160,128,0,393330:0:0:0:0:
64,192,393203,128,0,393287:0:0:0:0:
192,192,393245,128,0,393414:0:0:0:0:
448,192,393287,128,0,393372:0:0:0:0:
64,192,393330,128,0,393542:0:0:0:0:
320,192,393372,128,0,393457:0:0:0:0:
448,192,393414,128,0,393499:0:0:0:0:
192,192,393457,128,0,393584:0:0:0:0:
320,192,393499,128,0,393626:0:0:0:0:
448,192,393542,128,0,393711:0:0:0:0:
64,192,393584,128,0,393669:0:0:0:0:
192,192,393626,128,0,393711:0:0:0:0:
320,192,393669,128,0,393753:0:0:0:0:
64,192,393711,128,0,393796:0:0:0:0:
448,192,393753,128,0,393866:0:0:0:0:
192,192,393753,128,0,393838:0:0:0:0:
320,192,393838,128,0,393895:0:0:0:0:
192,192,393923,128,0,394008:0:0:0:0:
64,192,393923,128,0,394036:0:0:0:0:
448,192,394008,128,0,394092:0:0:0:0:
320,192,394008,128,0,394050:0:0:0:0:
64,192,394092,1,0,0:0:0:0:
192,192,394092,128,0,394174:0:0:0:0:
192,192,394340,128,0,394423:0:0:0:0:
192,192,394589,128,0,394672:0:0:0:0:
448,192,394754,128,0,394837:0:0:0:0:
448,192,395003,128,0,395086:0:0:0:0:
448,192,395252,128,0,395362:0:0:0:0:
320,192,395307,128,0,395362:0:0:0:0:
64,192,395362,128,0,395417:0:0:0:0:
192,192,395417,1,0,0:0:0:0:
320,192,395417,1,0,0:0:0:0:
448,192,395417,1,0,0:0:0:0:
64,192,395497,128,0,395557:0:0:0:0:
192,192,395537,128,0,395597:0:0:0:0:
448,192,395577,128,0,395657:0:0:0:0:
320,192,395617,128,0,395697:0:0:0:0:
64,192,395657,128,0,395737:0:0:0:0:
192,192,395697,128,0,395777:0:0:0:0:
320,192,395737,128,0,395818:0:0:0:0:
448,192,395737,128,0,395938:0:0:0:0:
64,192,395777,128,0,395858:0:0:0:0:
192,192,395818,128,0,395898:0:0:0:0:
320,192,395858,128,0,396018:0:0:0:0:
64,192,395898,128,0,395978:0:0:0:0:
192,192,395938,128,0,396098:0:0:0:0:
448,192,395978,128,0,396058:0:0:0:0:
64,192,396018,128,0,396179:0:0:0:0:
320,192,396058,128,0,396179:0:0:0:0:
448,192,396098,128,0,396179:0:0:0:0:
192,192,396138,128,0,396219:0:0:0:0:
64,192,396219,128,0,396312:0:0:0:0:
448,192,396219,128,0,396285:0:0:0:0:
320,192,396219,128,0,396299:0:0:0:0:
192,192,396299,128,0,396339:0:0:0:0:
192,192,396379,128,0,396459:0:0:0:0:
320,192,396379,128,0,396473:0:0:0:0:
448,192,396379,128,0,396486:0:0:0:0:
64,192,396459,128,0,396499:0:0:0:0:
320,192,396539,128,0,396660:0:0:0:0:
192,192,396539,128,0,396646:0:0:0:0:
64,192,396539,128,0,396633:0:0:0:0:
448,192,396620,128,0,396660:0:0:0:0:
64,192,396700,128,0,396936:0:0:0:0:
320,192,396700,128,0,396778:0:0:0:0:
192,192,396778,128,0,396897:0:0:0:0:
448,192,396857,1,0,0:0:0:0:
320,192,396936,1,0,0:0:0:0:
448,192,397015,1,0,0:0:0:0:
64,192,397094,1,0,0:0:0:0:
448,192,397173,1,0,0:0:0:0:
64,192,397252,1,0,0:0:0:0:
320,192,397331,1,0,0:0:0:0:
64,192,397410,1,0,0:0:0:0:
320,192,397489,1,0,0:0:0:0:
64,192,397568,1,0,0:0:0:0:
448,192,397647,1,0,0:0:0:0:
192,192,397726,1,0,0:0:0:0:
448,192,397805,1,0,0:0:0:0:
192,192,397884,1,0,0:0:0:0:
320,192,397963,1,0,0:0:0:0:
448,192,398042,1,0,0:0:0:0:
320,192,398121,1,0,0:0:0:0:
448,192,398200,1,0,0:0:0:0:
64,192,398278,1,0,0:0:0:0:
192,192,398357,1,0,0:0:0:0:
64,192,398436,1,0,0:0:0:0:
192,192,398515,1,0,0:0:0:0:
448,192,398594,1,0,0:0:0:0:
64,192,398673,1,0,0:0:0:0:
448,192,398752,1,0,0:0:0:0:
64,192,398831,1,0,0:0:0:0:
320,192,398910,1,0,0:0:0:0:
192,192,398989,1,0,0:0:0:0:
320,192,399068,1,0,0:0:0:0:
192,192,399147,1,0,0:0:0:0:
320,192,399226,1,0,0:0:0:0:
448,192,399226,1,0,0:0:0:0:
192,192,399305,1,0,0:0:0:0:
448,192,399384,1,0,0:0:0:0:
192,192,399463,1,0,0:0:0:0:
448,192,399542,1,0,0:0:0:0:
64,192,399542,1,0,0:0:0:0:
320,192,399621,1,0,0:0:0:0:
64,192,399700,1,0,0:0:0:0:
320,192,399778,1,0,0:0:0:0:
64,192,399857,1,0,0:0:0:0:
192,192,399857,1,0,0:0:0:0:
448,192,399936,1,0,0:0:0:0:
192,192,400015,1,0,0:0:0:0:
448,192,400094,1,0,0:0:0:0:
192,192,400173,1,0,0:0:0:0:
320,192,400173,1,0,0:0:0:0:
64,192,400252,1,0,0:0:0:0:
320,192,400331,1,0,0:0:0:0:
64,192,400410,1,0,0:0:0:0:
448,192,400489,1,0,0:0:0:0:
320,192,400489,1,0,0:0:0:0:
192,192,400552,1,0,0:0:0:0:
448,192,400615,5,0,0:0:0:0:
64,192,400678,1,0,0:0:0:0:
320,192,400742,1,0,0:0:0:0:
64,192,400805,1,0,0:0:0:0:
192,192,400805,1,0,0:0:0:0:
448,192,400857,1,0,0:0:0:0:
320,192,400910,1,0,0:0:0:0:
192,192,400963,1,0,0:0:0:0:
448,192,401015,1,0,0:0:0:0:
64,192,401068,1,0,0:0:0:0:
448,192,401121,1,0,0:0:0:0:
320,192,401121,1,0,0:0:0:0:
192,192,401166,1,0,0:0:0:0:
64,192,401211,1,0,0:0:0:0:
320,192,401256,1,0,0:0:0:0:
192,192,401301,1,0,0:0:0:0:
448,192,401346,1,0,0:0:0:0:
320,192,401391,1,0,0:0:0:0:
64,192,401436,1,0,0:0:0:0:
192,192,401436,1,0,0:0:0:0:
320,192,401476,1,0,0:0:0:0:
448,192,401515,1,0,0:0:0:0:
64,192,401555,1,0,0:0:0:0:
192,192,401594,1,0,0:0:0:0:
448,192,401634,1,0,0:0:0:0:
320,192,401673,1,0,0:0:0:0:
192,192,401713,1,0,0:0:0:0:
448,192,401752,5,0,0:0:0:0:
64,192,401752,1,0,0:0:0:0:
192,192,401910,1,0,0:0:0:0:
320,192,401910,1,0,0:0:0:0:
192,192,401989,1,0,0:0:0:0:
320,192,401989,1,0,0:0:0:0:
64,192,402068,128,0,402304:0:0:0:0:
320,192,402068,128,0,402304:0:0:0:0:
448,192,402068,128,0,402146:0:0:0:0:
192,192,402146,128,0,402304:0:0:0:0:
448,192,402225,128,0,402383:0:0:0:0:
64,192,402383,1,0,0:0:0:0:
192,192,402383,1,0,0:0:0:0:
320,192,402383,1,0,0:0:0:0:
448,192,402462,1,0,0:0:0:0:
320,192,402541,1,0,0:0:0:0:
64,192,402541,1,0,0:0:0:0:
192,192,402620,1,0,0:0:0:0:
320,192,402620,1,0,0:0:0:0:
448,192,402699,1,0,0:0:0:0:
64,192,402699,1,0,0:0:0:0:
192,192,402699,1,0,0:0:0:0:
320,192,402778,1,0,0:0:0:0:
192,192,402857,1,0,0:0:0:0:
64,192,402857,1,0,0:0:0:0:
64,192,402936,1,0,0:0:0:0:
192,192,402936,1,0,0:0:0:0:
64,192,403015,1,0,0:0:0:0:
320,192,403015,1,0,0:0:0:0:
448,192,403015,1,0,0:0:0:0:
192,192,403094,1,0,0:0:0:0:
320,192,403173,1,0,0:0:0:0:
448,192,403173,1,0,0:0:0:0:
320,192,403252,1,0,0:0:0:0:
448,192,403252,1,0,0:0:0:0:
320,192,403331,1,0,0:0:0:0:
64,192,403331,1,0,0:0:0:0:
192,192,403331,1,0,0:0:0:0:
448,192,403410,1,0,0:0:0:0:
320,192,403489,1,0,0:0:0:0:
64,192,403489,1,0,0:0:0:0:
320,192,403568,1,0,0:0:0:0:
64,192,403568,1,0,0:0:0:0:
448,192,403646,1,0,0:0:0:0:
192,192,403646,1,0,0:0:0:0:
320,192,403646,1,0,0:0:0:0:
64,192,403725,1,0,0:0:0:0:
192,192,403804,1,0,0:0:0:0:
448,192,403804,1,0,0:0:0:0:
448,192,403883,1,0,0:0:0:0:
192,192,403883,1,0,0:0:0:0:
64,192,403962,1,0,0:0:0:0:
320,192,403962,1,0,0:0:0:0:
192,192,403962,1,0,0:0:0:0:
448,192,404041,1,0,0:0:0:0:
192,192,404120,1,0,0:0:0:0:
64,192,404120,1,0,0:0:0:0:
448,192,404199,1,0,0:0:0:0:
192,192,404199,1,0,0:0:0:0:
448,192,404278,1,0,0:0:0:0:
64,192,404278,1,0,0:0:0:0:
320,192,404278,1,0,0:0:0:0:
320,192,404357,1,0,0:0:0:0:
64,192,404436,1,0,0:0:0:0:
448,192,404436,1,0,0:0:0:0:
192,192,404436,1,0,0:0:0:0:
192,192,404515,1,0,0:0:0:0:
64,192,404594,128,0,404831:0:0:0:0:
448,192,404594,128,0,404831:0:0:0:0:
320,192,404594,128,0,404673:0:0:0:0:
192,192,404673,128,0,404831:0:0:0:0:
320,192,404752,128,0,404910:0:0:0:0:
64,192,404910,1,0,0:0:0:0:
192,192,404910,1,0,0:0:0:0:
448,192,404910,1,0,0:0:0:0:
320,192,404989,1,0,0:0:0:0:
64,192,405068,1,0,0:0:0:0:
192,192,405068,1,0,0:0:0:0:
192,192,405146,1,0,0:0:0:0:
320,192,405146,1,0,0:0:0:0:
64,192,405225,1,0,0:0:0:0:
448,192,405225,1,0,0:0:0:0:
320,192,405225,1,0,0:0:0:0:
192,192,405304,1,0,0:0:0:0:
320,192,405383,1,0,0:0:0:0:
448,192,405383,1,0,0:0:0:0:
448,192,405462,1,0,0:0:0:0:
320,192,405462,1,0,0:0:0:0:
448,192,405541,1,0,0:0:0:0:
192,192,405541,1,0,0:0:0:0:
64,192,405541,1,0,0:0:0:0:
320,192,405620,1,0,0:0:0:0:
192,192,405699,1,0,0:0:0:0:
64,192,405699,1,0,0:0:0:0:
192,192,405778,1,0,0:0:0:0:
64,192,405778,1,0,0:0:0:0:
192,192,405857,1,0,0:0:0:0:
448,192,405857,1,0,0:0:0:0:
320,192,405857,1,0,0:0:0:0:
64,192,405936,1,0,0:0:0:0:
192,192,406015,1,0,0:0:0:0:
448,192,406015,1,0,0:0:0:0:
192,192,406094,1,0,0:0:0:0:
448,192,406094,1,0,0:0:0:0:
64,192,406173,1,0,0:0:0:0:
320,192,406173,1,0,0:0:0:0:
192,192,406173,1,0,0:0:0:0:
448,192,406252,1,0,0:0:0:0:
320,192,406331,1,0,0:0:0:0:
64,192,406331,1,0,0:0:0:0:
64,192,406410,1,0,0:0:0:0:
320,192,406410,1,0,0:0:0:0:
448,192,406489,1,0,0:0:0:0:
192,192,406489,1,0,0:0:0:0:
320,192,406489,1,0,0:0:0:0:
64,192,406646,1,0,0:0:0:0:
192,192,406646,1,0,0:0:0:0:
448,192,406646,1,0,0:0:0:0:
192,192,406725,1,0,0:0:0:0:
64,192,406725,1,0,0:0:0:0:
448,192,406725,1,0,0:0:0:0:
448,192,406804,128,0,406857:0:0:0:0:
64,192,406804,128,0,406857:0:0:0:0:
320,192,406804,128,0,406857:0:0:0:0:
192,192,406962,128,0,407068:0:0:0:0:
320,192,406962,128,0,407068:0:0:0:0:
64,192,406962,128,0,407068:0:0:0:0:
448,192,407120,128,0,407357:0:0:0:0:
320,192,407120,128,0,407199:0:0:0:0:
192,192,407120,128,0,407357:0:0:0:0:
64,192,407199,128,0,407357:0:0:0:0:
320,192,407278,128,0,407436:0:0:0:0:
448,192,407436,1,0,0:0:0:0:
192,192,407436,1,0,0:0:0:0:
64,192,407436,1,0,0:0:0:0:
320,192,407515,1,0,0:0:0:0:
192,192,407594,1,0,0:0:0:0:
448,192,407594,1,0,0:0:0:0:
64,192,407673,1,0,0:0:0:0:
192,192,407673,1,0,0:0:0:0:
448,192,407752,1,0,0:0:0:0:
64,192,407752,1,0,0:0:0:0:
320,192,407752,1,0,0:0:0:0:
192,192,407831,1,0,0:0:0:0:
320,192,407910,1,0,0:0:0:0:
448,192,407910,1,0,0:0:0:0:
320,192,407989,1,0,0:0:0:0:
64,192,407989,1,0,0:0:0:0:
448,192,408068,1,0,0:0:0:0:
64,192,408068,1,0,0:0:0:0:
192,192,408068,1,0,0:0:0:0:
192,192,408146,1,0,0:0:0:0:
448,192,408225,1,0,0:0:0:0:
64,192,408225,1,0,0:0:0:0:
320,192,408225,1,0,0:0:0:0:
320,192,408304,1,0,0:0:0:0:
448,192,408383,1,0,0:0:0:0:
64,192,408383,1,0,0:0:0:0:
192,192,408383,1,0,0:0:0:0:
320,192,408462,1,0,0:0:0:0:
192,192,408541,1,0,0:0:0:0:
64,192,408541,1,0,0:0:0:0:
448,192,408620,1,0,0:0:0:0:
64,192,408620,1,0,0:0:0:0:
192,192,408699,1,0,0:0:0:0:
448,192,408699,1,0,0:0:0:0:
320,192,408699,1,0,0:0:0:0:
64,192,408778,1,0,0:0:0:0:
192,192,408857,1,0,0:0:0:0:
320,192,408857,1,0,0:0:0:0:
448,192,408936,1,0,0:0:0:0:
320,192,408936,1,0,0:0:0:0:
448,192,409015,1,0,0:0:0:0:
192,192,409015,1,0,0:0:0:0:
64,192,409015,1,0,0:0:0:0:
320,192,409094,1,0,0:0:0:0:
192,192,409173,1,0,0:0:0:0:
448,192,409173,1,0,0:0:0:0:
192,192,409252,1,0,0:0:0:0:
64,192,409252,1,0,0:0:0:0:
448,192,409331,1,0,0:0:0:0:
320,192,409331,1,0,0:0:0:0:
64,192,409331,1,0,0:0:0:0:
320,192,409410,1,0,0:0:0:0:
192,192,409489,128,0,409541:0:0:0:0:
64,192,409489,128,0,409541:0:0:0:0:
448,192,409489,128,0,409541:0:0:0:0:
320,192,409568,1,0,0:0:0:0:
448,192,409646,128,0,409883:0:0:0:0:
64,192,409646,128,0,409883:0:0:0:0:
192,192,409646,128,0,409725:0:0:0:0:
320,192,409725,128,0,409883:0:0:0:0:
192,192,409804,128,0,409962:0:0:0:0:
64,192,409962,1,0,0:0:0:0:
448,192,409962,1,0,0:0:0:0:
320,192,409962,1,0,0:0:0:0:
192,192,410041,1,0,0:0:0:0:
448,192,410120,1,0,0:0:0:0:
320,192,410120,1,0,0:0:0:0:
448,192,410199,1,0,0:0:0:0:
64,192,410199,1,0,0:0:0:0:
320,192,410278,1,0,0:0:0:0:
64,192,410278,1,0,0:0:0:0:
192,192,410278,1,0,0:0:0:0:
320,192,410357,1,0,0:0:0:0:
192,192,410436,1,0,0:0:0:0:
448,192,410436,1,0,0:0:0:0:
64,192,410436,1,0,0:0:0:0:
192,192,410515,1,0,0:0:0:0:
448,192,410594,1,0,0:0:0:0:
320,192,410594,1,0,0:0:0:0:
64,192,410594,1,0,0:0:0:0:
448,192,410673,1,0,0:0:0:0:
320,192,410752,1,0,0:0:0:0:
192,192,410752,1,0,0:0:0:0:
64,192,410752,1,0,0:0:0:0:
64,192,410831,1,0,0:0:0:0:
448,192,410910,1,0,0:0:0:0:
320,192,410910,1,0,0:0:0:0:
448,192,410989,1,0,0:0:0:0:
320,192,410989,1,0,0:0:0:0:
64,192,411068,1,0,0:0:0:0:
192,192,411068,1,0,0:0:0:0:
64,192,411146,1,0,0:0:0:0:
192,192,411146,1,0,0:0:0:0:
64,192,411225,128,0,411278:0:0:0:0:
448,192,411225,128,0,411278:0:0:0:0:
320,192,411225,128,0,411278:0:0:0:0:
192,192,411383,128,0,411489:0:0:0:0:
320,192,411383,128,0,411489:0:0:0:0:
64,192,411383,128,0,411489:0:0:0:0:
448,192,411541,1,0,0:0:0:0:
192,192,411581,1,0,0:0:0:0:
448,192,411620,1,0,0:0:0:0:
192,192,411660,1,0,0:0:0:0:
448,192,411699,128,0,411778:0:0:0:0:
64,192,411857,1,0,0:0:0:0:
320,192,411857,1,0,0:0:0:0:
64,192,412015,1,0,0:0:0:0:
320,192,412015,1,0,0:0:0:0:
64,192,412094,1,0,0:0:0:0:
320,192,412094,1,0,0:0:0:0:
192,192,412173,1,0,0:0:0:0:
320,192,412173,128,0,412252:0:0:0:0:
448,192,412173,128,0,412331:0:0:0:0:
192,192,412252,1,0,0:0:0:0:
64,192,412331,1,0,0:0:0:0:
448,192,412410,1,0,0:0:0:0:
320,192,412489,1,0,0:0:0:0:
192,192,412489,128,0,412568:0:0:0:0:
64,192,412489,128,0,412646:0:0:0:0:
320,192,412568,1,0,0:0:0:0:
448,192,412646,1,0,0:0:0:0:
192,192,412725,1,0,0:0:0:0:
64,192,412804,1,0,0:0:0:0:
320,192,412804,128,0,412883:0:0:0:0:
448,192,412804,128,0,412962:0:0:0:0:
64,192,412883,1,0,0:0:0:0:
192,192,412962,1,0,0:0:0:0:
320,192,412962,128,0,413041:0:0:0:0:
64,192,413120,128,0,413199:0:0:0:0:
192,192,413120,128,0,413278:0:0:0:0:
448,192,413120,1,0,0:0:0:0:
448,192,413199,1,0,0:0:0:0:
320,192,413278,128,0,413357:0:0:0:0:
64,192,413278,128,0,413357:0:0:0:0:
192,192,413357,128,0,413436:0:0:0:0:
64,192,413436,1,0,0:0:0:0:
448,192,413436,128,0,413515:0:0:0:0:
320,192,413436,128,0,413594:0:0:0:0:
64,192,413515,1,0,0:0:0:0:
192,192,413594,1,0,0:0:0:0:
448,192,413673,1,0,0:0:0:0:
320,192,413752,1,0,0:0:0:0:
64,192,413752,128,0,413831:0:0:0:0:
192,192,413752,128,0,413910:0:0:0:0:
320,192,413831,1,0,0:0:0:0:
448,192,413910,1,0,0:0:0:0:
64,192,413989,1,0,0:0:0:0:
448,192,414068,128,0,414225:0:0:0:0:
320,192,414068,128,0,414146:0:0:0:0:
192,192,414068,1,0,0:0:0:0:
192,192,414146,1,0,0:0:0:0:
64,192,414225,128,0,414304:0:0:0:0:
320,192,414225,128,0,414304:0:0:0:0:
192,192,414383,128,0,414462:0:0:0:0:
64,192,414383,128,0,414541:0:0:0:0:
448,192,414383,1,0,0:0:0:0:
448,192,414462,128,0,414620:0:0:0:0:
192,192,414541,128,0,414620:0:0:0:0:
320,192,414620,128,0,414699:0:0:0:0:
448,192,414699,1,0,0:0:0:0:
192,192,414699,128,0,414778:0:0:0:0:
64,192,414699,128,0,414857:0:0:0:0:
448,192,414778,1,0,0:0:0:0:
320,192,414857,1,0,0:0:0:0:
64,192,414936,1,0,0:0:0:0:
192,192,415015,1,0,0:0:0:0:
320,192,415015,128,0,415094:0:0:0:0:
448,192,415015,128,0,415173:0:0:0:0:
192,192,415094,1,0,0:0:0:0:
64,192,415173,1,0,0:0:0:0:
320,192,415252,1,0,0:0:0:0:
448,192,415331,1,0,0:0:0:0:
192,192,415331,128,0,415410:0:0:0:0:
64,192,415331,128,0,415489:0:0:0:0:
448,192,415410,1,0,0:0:0:0:
192,192,415489,128,0,415568:0:0:0:0:
320,192,415489,128,0,415568:0:0:0:0:
320,192,415646,128,0,415725:0:0:0:0:
448,192,415646,128,0,415804:0:0:0:0:
64,192,415646,1,0,0:0:0:0:
64,192,415725,1,0,0:0:0:0:
320,192,415804,128,0,415883:0:0:0:0:
192,192,415804,1,0,0:0:0:0:
448,192,415962,1,0,0:0:0:0:
64,192,415962,128,0,416041:0:0:0:0:
192,192,415962,128,0,416120:0:0:0:0:
448,192,416041,1,0,0:0:0:0:
320,192,416120,1,0,0:0:0:0:
64,192,416199,1,0,0:0:0:0:
192,192,416278,1,0,0:0:0:0:
448,192,416278,128,0,416357:0:0:0:0:
320,192,416278,128,0,416436:0:0:0:0:
192,192,416357,1,0,0:0:0:0:
64,192,416436,1,0,0:0:0:0:
448,192,416515,1,0,0:0:0:0:
64,192,416594,128,0,416752:0:0:0:0:
192,192,416594,128,0,416673:0:0:0:0:
320,192,416594,1,0,0:0:0:0:
320,192,416673,1,0,0:0:0:0:
192,192,416752,128,0,416831:0:0:0:0:
448,192,416752,128,0,416831:0:0:0:0:
320,192,416831,128,0,416910:0:0:0:0:
192,192,416910,128,0,416989:0:0:0:0:
448,192,416910,1,0,0:0:0:0:
64,192,416910,128,0,416989:0:0:0:0:
320,192,416989,1,0,0:0:0:0:
448,192,417068,1,0,0:0:0:0:
192,192,417068,1,0,0:0:0:0:
64,192,417225,128,0,417304:0:0:0:0:
192,192,417225,128,0,417462:0:0:0:0:
320,192,417225,128,0,417383:0:0:0:0:
448,192,417304,128,0,417462:0:0:0:0:
64,192,417383,128,0,417541:0:0:0:0:
320,192,417462,1,0,0:0:0:0:
192,192,417541,1,0,0:0:0:0:
320,192,417541,1,0,0:0:0:0:
448,192,417541,1,0,0:0:0:0:
64,192,417620,1,0,0:0:0:0:
320,192,417699,1,0,0:0:0:0:
448,192,417699,1,0,0:0:0:0:
320,192,417778,1,0,0:0:0:0:
192,192,417857,1,0,0:0:0:0:
64,192,417857,1,0,0:0:0:0:
448,192,417857,1,0,0:0:0:0:
320,192,417936,1,0,0:0:0:0:
192,192,418015,1,0,0:0:0:0:
64,192,418015,1,0,0:0:0:0:
192,192,418094,1,0,0:0:0:0:
64,192,418173,1,0,0:0:0:0:
320,192,418173,1,0,0:0:0:0:
448,192,418173,1,0,0:0:0:0:
192,192,418252,1,0,0:0:0:0:
320,192,418331,1,0,0:0:0:0:
64,192,418331,1,0,0:0:0:0:
64,192,418410,1,0,0:0:0:0:
192,192,418489,1,0,0:0:0:0:
448,192,418489,1,0,0:0:0:0:
320,192,418489,1,0,0:0:0:0:
64,192,418568,1,0,0:0:0:0:
448,192,418646,1,0,0:0:0:0:
192,192,418646,1,0,0:0:0:0:
448,192,418725,1,0,0:0:0:0:
192,192,418804,1,0,0:0:0:0:
320,192,418804,1,0,0:0:0:0:
64,192,418804,1,0,0:0:0:0:
448,192,418883,1,0,0:0:0:0:
192,192,418962,1,0,0:0:0:0:
64,192,418962,1,0,0:0:0:0:
192,192,419041,1,0,0:0:0:0:
320,192,419120,1,0,0:0:0:0:
64,192,419120,1,0,0:0:0:0:
448,192,419120,1,0,0:0:0:0:
192,192,419199,1,0,0:0:0:0:
64,192,419278,1,0,0:0:0:0:
320,192,419278,1,0,0:0:0:0:
320,192,419357,1,0,0:0:0:0:
192,192,419436,1,0,0:0:0:0:
64,192,419436,1,0,0:0:0:0:
448,192,419436,1,0,0:0:0:0:
320,192,419515,1,0,0:0:0:0:
64,192,419594,1,0,0:0:0:0:
448,192,419594,1,0,0:0:0:0:
64,192,419673,1,0,0:0:0:0:
320,192,419752,128,0,419989:0:0:0:0:
192,192,419752,128,0,419910:0:0:0:0:
448,192,419752,128,0,419831:0:0:0:0:
64,192,419831,128,0,419989:0:0:0:0:
448,192,419910,128,0,420068:0:0:0:0:
192,192,419989,1,0,0:0:0:0:
320,192,420068,1,0,0:0:0:0:
192,192,420068,1,0,0:0:0:0:
64,192,420068,1,0,0:0:0:0:
448,192,420146,1,0,0:0:0:0:
320,192,420225,1,0,0:0:0:0:
64,192,420225,1,0,0:0:0:0:
448,192,420304,1,0,0:0:0:0:
192,192,420304,1,0,0:0:0:0:
64,192,420383,1,0,0:0:0:0:
192,192,420383,1,0,0:0:0:0:
320,192,420383,1,0,0:0:0:0:
448,192,420462,1,0,0:0:0:0:
64,192,420541,1,0,0:0:0:0:
192,192,420541,1,0,0:0:0:0:
320,192,420620,1,0,0:0:0:0:
448,192,420620,1,0,0:0:0:0:
448,192,420699,1,0,0:0:0:0:
320,192,420699,1,0,0:0:0:0:
192,192,420699,1,0,0:0:0:0:
64,192,420778,1,0,0:0:0:0:
448,192,420857,1,0,0:0:0:0:
192,192,420857,1,0,0:0:0:0:
320,192,420936,1,0,0:0:0:0:
64,192,420936,1,0,0:0:0:0:
64,192,421015,1,0,0:0:0:0:
320,192,421015,1,0,0:0:0:0:
448,192,421015,1,0,0:0:0:0:
192,192,421094,5,0,0:0:0:0:
320,192,421173,1,0,0:0:0:0:
448,192,421173,1,0,0:0:0:0:
192,192,421252,1,0,0:0:0:0:
64,192,421252,1,0,0:0:0:0:
448,192,421331,1,0,0:0:0:0:
64,192,421331,1,0,0:0:0:0:
192,192,421331,1,0,0:0:0:0:
320,192,421410,1,0,0:0:0:0:
64,192,421489,1,0,0:0:0:0:
192,192,421489,1,0,0:0:0:0:
320,192,421568,1,0,0:0:0:0:
448,192,421568,1,0,0:0:0:0:
64,192,421646,1,0,0:0:0:0:
448,192,421646,1,0,0:0:0:0:
320,192,421646,1,0,0:0:0:0:
192,192,421725,1,0,0:0:0:0:
320,192,421804,1,0,0:0:0:0:
64,192,421804,1,0,0:0:0:0:
192,192,421883,1,0,0:0:0:0:
448,192,421883,1,0,0:0:0:0:
448,192,421962,1,0,0:0:0:0:
320,192,421962,1,0,0:0:0:0:
192,192,421962,1,0,0:0:0:0:
64,192,422041,128,0,422199:0:0:0:0:
192,192,422120,128,0,422239:0:0:0:0:
320,192,422199,128,0,422278:0:0:0:0:
448,192,422278,5,0,0:0:0:0:
64,192,422278,1,0,0:0:0:0:
192,192,422436,1,0,0:0:0:0:
320,192,422436,1,0,0:0:0:0:
192,192,422515,1,0,0:0:0:0:
320,192,422515,1,0,0:0:0:0:
64,192,422594,128,0,422830:0:0:0:0:
320,192,422594,128,0,422830:0:0:0:0:
448,192,422594,128,0,422672:0:0:0:0:
192,192,422672,128,0,422830:0:0:0:0:
448,192,422751,128,0,422909:0:0:0:0:
64,192,422909,1,0,0:0:0:0:
192,192,422909,1,0,0:0:0:0:
320,192,422909,1,0,0:0:0:0:
448,192,422988,1,0,0:0:0:0:
320,192,423067,1,0,0:0:0:0:
64,192,423067,1,0,0:0:0:0:
192,192,423146,1,0,0:0:0:0:
320,192,423146,1,0,0:0:0:0:
448,192,423225,1,0,0:0:0:0:
64,192,423225,1,0,0:0:0:0:
192,192,423225,1,0,0:0:0:0:
320,192,423304,1,0,0:0:0:0:
192,192,423383,1,0,0:0:0:0:
64,192,423383,1,0,0:0:0:0:
64,192,423462,1,0,0:0:0:0:
192,192,423462,1,0,0:0:0:0:
64,192,423541,1,0,0:0:0:0:
320,192,423541,1,0,0:0:0:0:
448,192,423541,1,0,0:0:0:0:
192,192,423620,1,0,0:0:0:0:
320,192,423699,1,0,0:0:0:0:
448,192,423699,1,0,0:0:0:0:
320,192,423778,1,0,0:0:0:0:
448,192,423778,1,0,0:0:0:0:
320,192,423857,1,0,0:0:0:0:
64,192,423857,1,0,0:0:0:0:
192,192,423857,1,0,0:0:0:0:
448,192,423936,1,0,0:0:0:0:
320,192,424015,1,0,0:0:0:0:
64,192,424015,1,0,0:0:0:0:
320,192,424094,1,0,0:0:0:0:
64,192,424094,1,0,0:0:0:0:
448,192,424172,1,0,0:0:0:0:
192,192,424172,1,0,0:0:0:0:
320,192,424172,1,0,0:0:0:0:
64,192,424251,1,0,0:0:0:0:
192,192,424330,1,0,0:0:0:0:
448,192,424330,1,0,0:0:0:0:
448,192,424409,1,0,0:0:0:0:
192,192,424409,1,0,0:0:0:0:
64,192,424488,1,0,0:0:0:0:
320,192,424488,1,0,0:0:0:0:
192,192,424488,1,0,0:0:0:0:
448,192,424567,1,0,0:0:0:0:
192,192,424646,1,0,0:0:0:0:
64,192,424646,1,0,0:0:0:0:
448,192,424725,1,0,0:0:0:0:
192,192,424725,1,0,0:0:0:0:
448,192,424804,1,0,0:0:0:0:
64,192,424804,1,0,0:0:0:0:
320,192,424804,1,0,0:0:0:0:
320,192,424883,1,0,0:0:0:0:
64,192,424962,1,0,0:0:0:0:
448,192,424962,1,0,0:0:0:0:
192,192,424962,1,0,0:0:0:0:
192,192,425041,1,0,0:0:0:0:
64,192,425120,128,0,425357:0:0:0:0:
448,192,425120,128,0,425357:0:0:0:0:
320,192,425120,128,0,425199:0:0:0:0:
192,192,425199,128,0,425357:0:0:0:0:
320,192,425278,128,0,425436:0:0:0:0:
64,192,425436,1,0,0:0:0:0:
192,192,425436,1,0,0:0:0:0:
448,192,425436,1,0,0:0:0:0:
320,192,425515,1,0,0:0:0:0:
64,192,425594,1,0,0:0:0:0:
192,192,425594,1,0,0:0:0:0:
192,192,425672,1,0,0:0:0:0:
320,192,425672,1,0,0:0:0:0:
64,192,425751,1,0,0:0:0:0:
448,192,425751,1,0,0:0:0:0:
320,192,425751,1,0,0:0:0:0:
192,192,425830,1,0,0:0:0:0:
320,192,425909,1,0,0:0:0:0:
448,192,425909,1,0,0:0:0:0:
448,192,425988,1,0,0:0:0:0:
320,192,425988,1,0,0:0:0:0:
448,192,426067,1,0,0:0:0:0:
192,192,426067,1,0,0:0:0:0:
64,192,426067,1,0,0:0:0:0:
320,192,426146,1,0,0:0:0:0:
192,192,426225,1,0,0:0:0:0:
64,192,426225,1,0,0:0:0:0:
192,192,426304,1,0,0:0:0:0:
64,192,426304,1,0,0:0:0:0:
192,192,426383,1,0,0:0:0:0:
448,192,426383,1,0,0:0:0:0:
320,192,426383,1,0,0:0:0:0:
64,192,426462,1,0,0:0:0:0:
192,192,426541,1,0,0:0:0:0:
448,192,426541,1,0,0:0:0:0:
192,192,426620,1,0,0:0:0:0:
448,192,426620,1,0,0:0:0:0:
64,192,426699,1,0,0:0:0:0:
320,192,426699,1,0,0:0:0:0:
192,192,426699,1,0,0:0:0:0:
448,192,426778,1,0,0:0:0:0:
320,192,426857,1,0,0:0:0:0:
64,192,426857,1,0,0:0:0:0:
64,192,426936,1,0,0:0:0:0:
320,192,426936,1,0,0:0:0:0:
448,192,427015,1,0,0:0:0:0:
192,192,427015,1,0,0:0:0:0:
320,192,427015,1,0,0:0:0:0:
64,192,427172,1,0,0:0:0:0:
192,192,427172,1,0,0:0:0:0:
448,192,427172,1,0,0:0:0:0:
192,192,427251,1,0,0:0:0:0:
64,192,427251,1,0,0:0:0:0:
448,192,427251,1,0,0:0:0:0:
448,192,427330,128,0,427383:0:0:0:0:
64,192,427330,128,0,427383:0:0:0:0:
320,192,427330,128,0,427383:0:0:0:0:
192,192,427488,128,0,427594:0:0:0:0:
320,192,427488,128,0,427594:0:0:0:0:
64,192,427488,128,0,427594:0:0:0:0:
448,192,427646,128,0,427883:0:0:0:0:
320,192,427646,128,0,427725:0:0:0:0:
192,192,427646,128,0,427883:0:0:0:0:
64,192,427725,128,0,427883:0:0:0:0:
320,192,427804,128,0,427962:0:0:0:0:
448,192,427962,1,0,0:0:0:0:
192,192,427962,1,0,0:0:0:0:
64,192,427962,1,0,0:0:0:0:
320,192,428041,1,0,0:0:0:0:
192,192,428120,1,0,0:0:0:0:
448,192,428120,1,0,0:0:0:0:
64,192,428199,1,0,0:0:0:0:
192,192,428199,1,0,0:0:0:0:
448,192,428278,1,0,0:0:0:0:
64,192,428278,1,0,0:0:0:0:
320,192,428278,1,0,0:0:0:0:
192,192,428357,1,0,0:0:0:0:
320,192,428436,1,0,0:0:0:0:
448,192,428436,1,0,0:0:0:0:
320,192,428515,1,0,0:0:0:0:
64,192,428515,1,0,0:0:0:0:
448,192,428594,1,0,0:0:0:0:
64,192,428594,1,0,0:0:0:0:
192,192,428594,1,0,0:0:0:0:
192,192,428672,1,0,0:0:0:0:
448,192,428751,1,0,0:0:0:0:
64,192,428751,1,0,0:0:0:0:
320,192,428751,1,0,0:0:0:0:
320,192,428830,1,0,0:0:0:0:
448,192,428909,1,0,0:0:0:0:
64,192,428909,1,0,0:0:0:0:
192,192,428909,1,0,0:0:0:0:
320,192,428988,1,0,0:0:0:0:
192,192,429067,1,0,0:0:0:0:
64,192,429067,1,0,0:0:0:0:
448,192,429146,1,0,0:0:0:0:
64,192,429146,1,0,0:0:0:0:
192,192,429225,1,0,0:0:0:0:
448,192,429225,1,0,0:0:0:0:
320,192,429225,1,0,0:0:0:0:
64,192,429304,1,0,0:0:0:0:
192,192,429383,1,0,0:0:0:0:
320,192,429383,1,0,0:0:0:0:
448,192,429462,1,0,0:0:0:0:
320,192,429462,1,0,0:0:0:0:
448,192,429541,1,0,0:0:0:0:
192,192,429541,1,0,0:0:0:0:
64,192,429541,1,0,0:0:0:0:
320,192,429620,1,0,0:0:0:0:
192,192,429699,1,0,0:0:0:0:
448,192,429699,1,0,0:0:0:0:
192,192,429778,1,0,0:0:0:0:
64,192,429778,1,0,0:0:0:0:
448,192,429857,1,0,0:0:0:0:
320,192,429857,1,0,0:0:0:0:
64,192,429857,1,0,0:0:0:0:
320,192,429936,1,0,0:0:0:0:
192,192,430015,128,0,430067:0:0:0:0:
64,192,430015,128,0,430067:0:0:0:0:
448,192,430015,128,0,430067:0:0:0:0:
320,192,430094,1,0,0:0:0:0:
448,192,430172,128,0,430409:0:0:0:0:
64,192,430172,128,0,430409:0:0:0:0:
192,192,430172,128,0,430251:0:0:0:0:
320,192,430251,128,0,430409:0:0:0:0:
192,192,430330,128,0,430488:0:0:0:0:
64,192,430488,1,0,0:0:0:0:
448,192,430488,1,0,0:0:0:0:
320,192,430488,1,0,0:0:0:0:
192,192,430567,1,0,0:0:0:0:
320,192,430646,1,0,0:0:0:0:
448,192,430646,1,0,0:0:0:0:
448,192,430725,1,0,0:0:0:0:
64,192,430725,1,0,0:0:0:0:
320,192,430804,1,0,0:0:0:0:
192,192,430804,1,0,0:0:0:0:
64,192,430804,1,0,0:0:0:0:
320,192,430883,1,0,0:0:0:0:
192,192,430962,1,0,0:0:0:0:
448,192,430962,1,0,0:0:0:0:
64,192,430962,1,0,0:0:0:0:
192,192,431041,1,0,0:0:0:0:
448,192,431120,1,0,0:0:0:0:
320,192,431120,1,0,0:0:0:0:
64,192,431120,1,0,0:0:0:0:
448,192,431199,1,0,0:0:0:0:
320,192,431278,1,0,0:0:0:0:
192,192,431278,1,0,0:0:0:0:
64,192,431278,1,0,0:0:0:0:
64,192,431357,1,0,0:0:0:0:
448,192,431436,1,0,0:0:0:0:
320,192,431436,1,0,0:0:0:0:
448,192,431515,1,0,0:0:0:0:
320,192,431515,1,0,0:0:0:0:
64,192,431594,1,0,0:0:0:0:
192,192,431594,1,0,0:0:0:0:
64,192,431672,1,0,0:0:0:0:
192,192,431672,1,0,0:0:0:0:
64,192,431751,128,0,431804:0:0:0:0:
448,192,431751,128,0,431804:0:0:0:0:
320,192,431751,128,0,431804:0:0:0:0:
192,192,431909,128,0,432015:0:0:0:0:
320,192,431909,128,0,432015:0:0:0:0:
64,192,431909,128,0,432015:0:0:0:0:
64,192,432067,128,0,432462:0:0:0:0:
192,192,432067,128,0,432120:0:0:0:0:
448,192,432067,128,0,432120:0:0:0:0:
320,192,432146,1,0,0:0:0:0:
192,192,432225,1,0,0:0:0:0:
320,192,432304,1,0,0:0:0:0:
448,192,432383,128,0,432501:0:0:0:0:
192,192,432541,1,0,0:0:0:0:
320,192,432620,1,0,0:0:0:0:
448,192,432699,1,0,0:0:0:0:
192,192,432738,1,0,0:0:0:0:
448,192,432778,1,0,0:0:0:0:
192,192,432817,1,0,0:0:0:0:
448,192,432857,128,0,432936:0:0:0:0:
64,192,433015,1,0,0:0:0:0:
320,192,433054,1,0,0:0:0:0:
64,192,433094,1,0,0:0:0:0:
320,192,433133,1,0,0:0:0:0:
64,192,433172,1,0,0:0:0:0:
448,192,433330,1,0,0:0:0:0:
64,192,433330,1,0,0:0:0:0:
192,192,433369,1,0,0:0:0:0:
448,192,433408,1,0,0:0:0:0:
64,192,433448,1,0,0:0:0:0:
320,192,433487,1,0,0:0:0:0:
192,192,433527,1,0,0:0:0:0:
448,192,433566,1,0,0:0:0:0:
192,192,433606,1,0,0:0:0:0:
320,192,433645,1,0,0:0:0:0:
64,192,433685,1,0,0:0:0:0:
192,192,433724,1,0,0:0:0:0:
448,192,433764,1,0,0:0:0:0:
320,192,433803,1,0,0:0:0:0:
64,192,433843,1,0,0:0:0:0:
320,192,433882,1,0,0:0:0:0:
192,192,433922,1,0,0:0:0:0:
448,192,433961,1,0,0:0:0:0:
64,192,434001,1,0,0:0:0:0:
448,192,434040,1,0,0:0:0:0:
320,192,434080,1,0,0:0:0:0:
192,192,434119,1,0,0:0:0:0:
448,192,434158,1,0,0:0:0:0:
64,192,434198,1,0,0:0:0:0:
320,192,434237,1,0,0:0:0:0:
64,192,434277,1,0,0:0:0:0:
192,192,434316,1,0,0:0:0:0:
448,192,434356,1,0,0:0:0:0:
320,192,434395,1,0,0:0:0:0:
192,192,434435,1,0,0:0:0:0:
448,192,434474,1,0,0:0:0:0:
192,192,434514,1,0,0:0:0:0:
64,192,434553,1,0,0:0:0:0:
320,192,434593,1,0,0:0:0:0:
192,192,434632,1,0,0:0:0:0:
320,192,434672,1,0,0:0:0:0:
448,192,434711,1,0,0:0:0:0:
64,192,434751,1,0,0:0:0:0:
192,192,434790,1,0,0:0:0:0:
320,192,434830,1,0,0:0:0:0:
448,192,434869,1,0,0:0:0:0:
64,192,434908,1,0,0:0:0:0:
192,192,434908,1,0,0:0:0:0:
64,192,434987,1,0,0:0:0:0:
320,192,434987,1,0,0:0:0:0:
192,192,435066,1,0,0:0:0:0:
448,192,435066,1,0,0:0:0:0:
320,192,435145,1,0,0:0:0:0:
448,192,435145,1,0,0:0:0:0:
64,192,435224,1,0,0:0:0:0:
192,192,435224,1,0,0:0:0:0:
320,192,435264,1,0,0:0:0:0:
64,192,435303,1,0,0:0:0:0:
448,192,435303,1,0,0:0:0:0:
64,192,435382,1,0,0:0:0:0:
320,192,435461,1,0,0:0:0:0:
448,192,435461,1,0,0:0:0:0:
192,192,435501,1,0,0:0:0:0:
448,192,435540,1,0,0:0:0:0:
64,192,435540,1,0,0:0:0:0:
448,192,435619,1,0,0:0:0:0:
64,192,435698,1,0,0:0:0:0:
192,192,435724,1,0,0:0:0:0:
448,192,435751,1,0,0:0:0:0:
320,192,435777,1,0,0:0:0:0:
64,192,435803,1,0,0:0:0:0:
192,192,435830,1,0,0:0:0:0:
448,192,435856,1,0,0:0:0:0:
64,192,435895,1,0,0:0:0:0:
320,192,435935,1,0,0:0:0:0:
448,192,435974,1,0,0:0:0:0:
192,192,436014,1,0,0:0:0:0:
320,192,436053,1,0,0:0:0:0:
64,192,436093,1,0,0:0:0:0:
448,192,436132,1,0,0:0:0:0:
64,192,436172,1,0,0:0:0:0:
320,192,436211,1,0,0:0:0:0:
192,192,436251,1,0,0:0:0:0:
64,192,436290,1,0,0:0:0:0:
448,192,436330,1,0,0:0:0:0:
192,192,436369,1,0,0:0:0:0:
448,192,436408,1,0,0:0:0:0:
320,192,436448,1,0,0:0:0:0:
192,192,436487,1,0,0:0:0:0:
448,192,436527,1,0,0:0:0:0:
192,192,436566,1,0,0:0:0:0:
64,192,436606,1,0,0:0:0:0:
320,192,436645,1,0,0:0:0:0:
448,192,436685,1,0,0:0:0:0:
64,192,436724,1,0,0:0:0:0:
320,192,436764,1,0,0:0:0:0:
64,192,436803,1,0,0:0:0:0:
192,192,436843,1,0,0:0:0:0:
448,192,436882,1,0,0:0:0:0:
64,192,436922,1,0,0:0:0:0:
320,192,436961,1,0,0:0:0:0:
192,192,437001,1,0,0:0:0:0:
320,192,437040,1,0,0:0:0:0:
64,192,437080,1,0,0:0:0:0:
448,192,437119,1,0,0:0:0:0:
192,192,437158,1,0,0:0:0:0:
448,192,437198,1,0,0:0:0:0:
320,192,437237,1,0,0:0:0:0:
64,192,437277,1,0,0:0:0:0:
448,192,437316,1,0,0:0:0:0:
192,192,437356,1,0,0:0:0:0:
320,192,437395,1,0,0:0:0:0:
448,192,437435,1,0,0:0:0:0:
64,192,437435,1,0,0:0:0:0:
192,192,437514,1,0,0:0:0:0:
64,192,437514,1,0,0:0:0:0:
320,192,437593,1,0,0:0:0:0:
448,192,437593,1,0,0:0:0:0:
192,192,437672,1,0,0:0:0:0:
320,192,437672,1,0,0:0:0:0:
64,192,437751,1,0,0:0:0:0:
192,192,437751,1,0,0:0:0:0:
448,192,437790,1,0,0:0:0:0:
320,192,437830,1,0,0:0:0:0:
64,192,437830,1,0,0:0:0:0:
64,192,437908,1,0,0:0:0:0:
448,192,437987,1,0,0:0:0:0:
320,192,437987,1,0,0:0:0:0:
64,192,438027,1,0,0:0:0:0:
192,192,438066,1,0,0:0:0:0:
448,192,438066,1,0,0:0:0:0:
320,192,438224,1,0,0:0:0:0:
192,192,438224,1,0,0:0:0:0:
64,192,438382,1,0,0:0:0:0:
448,192,438382,1,0,0:0:0:0:
320,192,438422,1,0,0:0:0:0:
64,192,438461,1,0,0:0:0:0:
448,192,438501,1,0,0:0:0:0:
192,192,438540,1,0,0:0:0:0:
320,192,438580,1,0,0:0:0:0:
64,192,438619,1,0,0:0:0:0:
320,192,438658,1,0,0:0:0:0:
192,192,438698,1,0,0:0:0:0:
448,192,438737,1,0,0:0:0:0:
320,192,438777,1,0,0:0:0:0:
64,192,438816,1,0,0:0:0:0:
192,192,438856,1,0,0:0:0:0:
448,192,438895,1,0,0:0:0:0:
192,192,438935,1,0,0:0:0:0:
320,192,438974,1,0,0:0:0:0:
64,192,439014,1,0,0:0:0:0:
448,192,439053,1,0,0:0:0:0:
64,192,439093,1,0,0:0:0:0:
192,192,439132,1,0,0:0:0:0:
320,192,439172,1,0,0:0:0:0:
64,192,439211,1,0,0:0:0:0:
448,192,439251,1,0,0:0:0:0:
192,192,439290,1,0,0:0:0:0:
448,192,439330,1,0,0:0:0:0:
320,192,439369,1,0,0:0:0:0:
64,192,439408,1,0,0:0:0:0:
192,192,439448,1,0,0:0:0:0:
320,192,439487,1,0,0:0:0:0:
64,192,439527,1,0,0:0:0:0:
320,192,439566,1,0,0:0:0:0:
448,192,439606,1,0,0:0:0:0:
192,192,439645,1,0,0:0:0:0:
320,192,439685,1,0,0:0:0:0:
192,192,439724,1,0,0:0:0:0:
64,192,439764,1,0,0:0:0:0:
448,192,439803,1,0,0:0:0:0:
320,192,439843,1,0,0:0:0:0:
192,192,439882,1,0,0:0:0:0:
64,192,439922,1,0,0:0:0:0:
448,192,439961,1,0,0:0:0:0:
320,192,439961,1,0,0:0:0:0:
448,192,440040,1,0,0:0:0:0:
192,192,440040,1,0,0:0:0:0:
320,192,440119,1,0,0:0:0:0:
64,192,440119,1,0,0:0:0:0:
192,192,440198,1,0,0:0:0:0:
64,192,440198,1,0,0:0:0:0:
448,192,440277,1,0,0:0:0:0:
320,192,440277,1,0,0:0:0:0:
192,192,440316,1,0,0:0:0:0:
448,192,440356,1,0,0:0:0:0:
64,192,440356,1,0,0:0:0:0:
448,192,440435,1,0,0:0:0:0:
192,192,440514,1,0,0:0:0:0:
64,192,440514,1,0,0:0:0:0:
320,192,440553,1,0,0:0:0:0:
64,192,440593,1,0,0:0:0:0:
448,192,440593,1,0,0:0:0:0:
64,192,440672,1,0,0:0:0:0:
448,192,440751,1,0,0:0:0:0:
320,192,440777,1,0,0:0:0:0:
64,192,440803,1,0,0:0:0:0:
192,192,440830,1,0,0:0:0:0:
448,192,440856,1,0,0:0:0:0:
320,192,440882,1,0,0:0:0:0:
64,192,440908,1,0,0:0:0:0:
448,192,440948,1,0,0:0:0:0:
192,192,440987,1,0,0:0:0:0:
64,192,441027,1,0,0:0:0:0:
320,192,441066,1,0,0:0:0:0:
192,192,441106,1,0,0:0:0:0:
448,192,441145,1,0,0:0:0:0:
64,192,441185,1,0,0:0:0:0:
448,192,441224,1,0,0:0:0:0:
192,192,441264,1,0,0:0:0:0:
320,192,441303,1,0,0:0:0:0:
448,192,441343,1,0,0:0:0:0:
64,192,441382,1,0,0:0:0:0:
320,192,441422,1,0,0:0:0:0:
64,192,441461,1,0,0:0:0:0:
192,192,441501,1,0,0:0:0:0:
320,192,441540,1,0,0:0:0:0:
64,192,441580,1,0,0:0:0:0:
320,192,441619,1,0,0:0:0:0:
448,192,441658,1,0,0:0:0:0:
192,192,441698,1,0,0:0:0:0:
64,192,441737,1,0,0:0:0:0:
320,192,441777,1,0,0:0:0:0:
192,192,441816,1,0,0:0:0:0:
448,192,441856,1,0,0:0:0:0:
64,192,441856,1,0,0:0:0:0:
448,192,441935,1,0,0:0:0:0:
320,192,441935,1,0,0:0:0:0:
192,192,442014,1,0,0:0:0:0:
64,192,442014,1,0,0:0:0:0:
320,192,442093,1,0,0:0:0:0:
192,192,442093,1,0,0:0:0:0:
448,192,442172,1,0,0:0:0:0:
320,192,442172,1,0,0:0:0:0:
64,192,442211,1,0,0:0:0:0:
448,192,442251,1,0,0:0:0:0:
64,192,442290,1,0,0:0:0:0:
320,192,442330,1,0,0:0:0:0:
64,192,442408,1,0,0:0:0:0:
192,192,442408,1,0,0:0:0:0:
448,192,442448,1,0,0:0:0:0:
192,192,442487,1,0,0:0:0:0:
448,192,442527,1,0,0:0:0:0:
64,192,442566,1,0,0:0:0:0:
320,192,442645,1,0,0:0:0:0:
448,192,442645,1,0,0:0:0:0:
64,192,442685,1,0,0:0:0:0:
192,192,442724,1,0,0:0:0:0:
320,192,442764,1,0,0:0:0:0:
64,192,442803,1,0,0:0:0:0:
192,192,442803,1,0,0:0:0:0:
448,192,442843,1,0,0:0:0:0:
64,192,442882,1,0,0:0:0:0:
448,192,442922,1,0,0:0:0:0:
192,192,442961,1,0,0:0:0:0:
320,192,443040,1,0,0:0:0:0:
448,192,443040,1,0,0:0:0:0:
64,192,443080,1,0,0:0:0:0:
320,192,443119,1,0,0:0:0:0:
64,192,443158,1,0,0:0:0:0:
448,192,443198,1,0,0:0:0:0:
192,192,443277,1,0,0:0:0:0:
64,192,443277,1,0,0:0:0:0:
448,192,443316,1,0,0:0:0:0:
320,192,443356,1,0,0:0:0:0:
192,192,443395,1,0,0:0:0:0:
320,192,443435,128,0,443514:0:0:0:0:
448,192,443435,128,0,443593:0:0:0:0:
64,192,443814,128,0,443877:0:0:0:0:
320,192,443877,128,0,443940:0:0:0:0:
192,192,443940,128,0,444003:0:0:0:0:
448,192,444003,128,0,444066:0:0:0:0:
192,192,444066,128,0,444145:0:0:0:0:
64,192,444066,128,0,444224:0:0:0:0:
320,192,444193,128,0,444256:0:0:0:0:
192,192,444343,128,0,444406:0:0:0:0:
448,192,444408,128,0,444471:0:0:0:0:
64,192,444566,128,0,444629:0:0:0:0:
320,192,444698,128,0,447139:0:0:0:0:
192,192,444698,128,0,447874:0:0:0:0:
448,192,444698,128,0,445403:0:0:0:0:
64,192,444698,128,0,445403:0:0:0:0:
320,192,448050,128,0,451050:0:0:0:0:
192,192,450168,128,0,453168:0:0:0:0:
448,192,451227,128,0,455992:0:0:0:0:
64,192,453168,128,0,457050:0:0:0:0:
192,192,453815,1,0,0:0:0:0:
320,192,455639,128,0,460050:0:0:0:0:
192,192,456698,128,0,457756:0:0:0:0:
448,192,457403,128,0,458815:0:0:0:0:
64,192,457933,128,0,458815:0:0:0:0:
192,192,458286,128,0,461462:0:0:0:0:
320,192,460227,1,0,0:0:0:0:
64,192,460933,1,0,0:0:0:0:
192,192,461639,1,0,0:0:0:0:
448,192,461683,1,0,0:0:0:0:
64,192,463050,1,0,0:0:0:0:
192,192,463080,1,0,0:0:0:0:
192,192,464374,1,0,0:0:0:0:
320,192,464418,1,0,0:0:0:0:
448,192,464462,1,0,0:0:0:0:
64,192,466227,1,0,0:0:0:0:
192,192,466933,1,0,0:0:0:0:
320,192,467286,1,0,0:0:0:0:
64,192,467286,1,0,0:0:0:0:
448,192,468698,1,0,0:0:0:0:
64,192,470021,128,0,470638:0:0:0:0:
448,192,470087,1,0,0:0:0:0:
192,192,470109,128,0,471167:0:0:0:0:
320,192,470682,128,0,471520:0:0:0:0:
64,192,471256,128,0,472138:0:0:0:0:
192,192,471609,128,0,472491:0:0:0:0:
448,192,472138,128,0,472932:0:0:0:0:
192,192,472579,128,0,472667:0:0:0:0:
320,192,472623,128,0,474344:0:0:0:0:
64,192,473020,128,0,474917:0:0:0:0:
192,192,474410,128,0,475336:0:0:0:0:
448,192,474949,128,0,475756:0:0:0:0:
64,192,475381,128,0,476307:0:0:0:0:
320,192,475866,128,0,476748:0:0:0:0:
192,192,476329,128,0,477167:0:0:0:0:
448,192,476836,128,0,477741:0:0:0:0:
320,192,477211,128,0,478138:0:0:0:0:
64,192,477741,128,0,478579:0:0:0:0:
320,192,478226,128,0,478314:0:0:0:0:
192,192,478248,128,0,479903:0:0:0:0:
320,192,478645,128,0,480697:0:0:0:0:
192,192,479991,128,0,480079:0:0:0:0:
448,192,480035,128,0,481403:0:0:0:0:
64,192,480829,128,0,481403:0:0:0:0:
192,192,481359,128,0,481667:0:0:0:0:
320,192,481403,128,0,482197:0:0:0:0:
448,192,481579,1,0,0:0:0:0:
64,192,481756,1,0,0:0:0:0:
192,192,481932,1,0,0:0:0:0:
448,192,481976,128,0,482726:0:0:0:0:
64,192,482109,1,0,0:0:0:0:
320,192,482285,1,0,0:0:0:0:
192,192,482417,128,0,483079:0:0:0:0:
64,192,482461,1,0,0:0:0:0:
320,192,482638,1,0,0:0:0:0:
64,192,482814,128,0,483609:0:0:0:0:
448,192,482814,1,0,0:0:0:0:
320,192,482991,1,0,0:0:0:0:
448,192,483167,1,0,0:0:0:0:
192,192,483344,1,0,0:0:0:0:
320,192,483432,128,0,484138:0:0:0:0:
448,192,483520,1,0,0:0:0:0:
64,192,483697,1,0,0:0:0:0:
448,192,483873,1,0,0:0:0:0:
192,192,483932,128,0,484844:0:0:0:0:
64,192,484050,1,0,0:0:0:0:
320,192,484226,1,0,0:0:0:0:
448,192,484314,128,0,485550:0:0:0:0:
64,192,484403,1,0,0:0:0:0:
320,192,484579,1,0,0:0:0:0:
64,192,484756,1,0,0:0:0:0:
192,192,484932,1,0,0:0:0:0:
320,192,485109,1,0,0:0:0:0:
64,192,485285,1,0,0:0:0:0:
192,192,485373,128,0,485550:0:0:0:0:
320,192,485461,128,0,485903:0:0:0:0:
448,192,485638,1,0,0:0:0:0:
64,192,485682,128,0,486432:0:0:0:0:
192,192,485814,1,0,0:0:0:0:
448,192,485991,1,0,0:0:0:0:
320,192,486167,1,0,0:0:0:0:
192,192,486314,128,0,487050:0:0:0:0:
448,192,486344,1,0,0:0:0:0:
64,192,486520,1,0,0:0:0:0:
320,192,486697,1,0,0:0:0:0:
448,192,486741,128,0,487314:0:0:0:0:
64,192,486873,1,0,0:0:0:0:
320,192,487050,1,0,0:0:0:0:
192,192,487138,128,0,487844:0:0:0:0:
64,192,487226,1,0,0:0:0:0:
320,192,487403,1,0,0:0:0:0:
448,192,487579,1,0,0:0:0:0:
64,192,487667,128,0,488373:0:0:0:0:
320,192,487756,1,0,0:0:0:0:
192,192,487932,1,0,0:0:0:0:
320,192,488109,1,0,0:0:0:0:
448,192,488197,128,0,488726:0:0:0:0:
192,192,488285,1,0,0:0:0:0:
64,192,488461,1,0,0:0:0:0:
320,192,488528,128,0,489211:0:0:0:0:
192,192,488638,1,0,0:0:0:0:
448,192,488814,1,0,0:0:0:0:
64,192,488991,1,0,0:0:0:0:
192,192,489123,128,0,489256:0:0:0:0:
448,192,489167,1,0,0:0:0:0:
192,192,489344,128,0,489785:0:0:0:0:
448,192,489520,1,0,0:0:0:0:
64,192,489564,128,0,491903:0:0:0:0:
320,192,489697,1,0,0:0:0:0:
192,192,489873,1,0,0:0:0:0:
448,192,489961,128,0,491903:0:0:0:0:
320,192,490050,1,0,0:0:0:0:
192,192,490226,128,0,490314:0:0:0:0:
320,192,490403,1,0,0:0:0:0:
192,192,490579,128,0,490711:0:0:0:0:
320,192,490756,1,0,0:0:0:0:
192,192,490932,128,0,491109:0:0:0:0:
320,192,491109,1,0,0:0:0:0:
320,192,491285,128,0,491726:0:0:0:0:
192,192,491461,1,0,0:0:0:0:
192,192,491638,128,0,491991:0:0:0:0:
320,192,491814,128,0,491991:0:0:0:0:
448,192,491991,128,0,492609:0:0:0:0:
64,192,491991,128,0,492609:0:0:0:0:
192,192,492344,5,0,0:0:0:0:
320,192,492432,1,0,0:0:0:0:
192,192,492520,1,0,0:0:0:0:
320,192,492609,1,0,0:0:0:0:
448,192,492697,128,0,493050:0:0:0:0:
192,192,492697,128,0,493226:0:0:0:0:
64,192,492697,128,0,493932:0:0:0:0:
320,192,492697,128,0,492873:0:0:0:0:
320,192,493050,1,0,0:0:0:0:
320,192,493226,128,0,493756:0:0:0:0:
448,192,493226,128,0,493579:0:0:0:0:
192,192,493579,1,0,0:0:0:0:
448,192,493756,128,0,494109:0:0:0:0:
192,192,493756,128,0,493932:0:0:0:0:
320,192,493932,1,0,0:0:0:0:
192,192,494109,128,0,494638:0:0:0:0:
64,192,494109,128,0,494461:0:0:0:0:
320,192,494109,128,0,495167:0:0:0:0:
448,192,494285,1,0,0:0:0:0:
448,192,494461,1,0,0:0:0:0:
448,192,494638,128,0,494991:0:0:0:0:
64,192,494638,128,0,495344:0:0:0:0:
192,192,494814,1,0,0:0:0:0:
192,192,494991,1,0,0:0:0:0:
192,192,495167,128,0,495520:0:0:0:0:
448,192,495167,128,0,495344:0:0:0:0:
320,192,495344,1,0,0:0:0:0:
320,192,495520,128,0,496403:0:0:0:0:
448,192,495520,128,0,496756:0:0:0:0:
64,192,495520,128,0,495873:0:0:0:0:
192,192,495873,1,0,0:0:0:0:
64,192,496050,1,0,0:0:0:0:
192,192,496050,128,0,496756:0:0:0:0:
64,192,496403,1,0,0:0:0:0:
64,192,496579,128,0,496756:0:0:0:0:
320,192,496579,1,0,0:0:0:0:
320,192,496756,1,0,0:0:0:0:
192,192,496844,1,0,0:0:0:0:
448,192,496932,128,0,497461:0:0:0:0:
64,192,496932,128,0,497814:0:0:0:0:
320,192,496932,128,0,497285:0:0:0:0:
192,192,497285,1,0,0:0:0:0:
192,192,497461,128,0,497814:0:0:0:0:
320,192,497461,128,0,498167:0:0:0:0:
448,192,497638,1,0,0:0:0:0:
448,192,497814,1,0,0:0:0:0:
192,192,497991,128,0,498167:0:0:0:0:
64,192,497991,128,0,498344:0:0:0:0:
448,192,498167,1,0,0:0:0:0:
192,192,498344,128,0,498697:0:0:0:0:
320,192,498344,128,0,498873:0:0:0:0:
448,192,498344,128,0,499226:0:0:0:0:
64,192,498697,1,0,0:0:0:0:
64,192,498873,128,0,499579:0:0:0:0:
192,192,498873,128,0,499403:0:0:0:0:
320,192,499226,1,0,0:0:0:0:
448,192,499403,128,0,499579:0:0:0:0:
320,192,499403,128,0,499756:0:0:0:0:
192,192,499579,1,0,0:0:0:0:
448,192,499756,128,0,500109:0:0:0:0:
64,192,499756,128,0,500285:0:0:0:0:
192,192,499756,128,0,500814:0:0:0:0:
320,192,499932,1,0,0:0:0:0:
320,192,500109,1,0,0:0:0:0:
448,192,500285,128,0,500991:0:0:0:0:
320,192,500285,128,0,500638:0:0:0:0:
64,192,500461,1,0,0:0:0:0:
64,192,500638,1,0,0:0:0:0:
64,192,500814,128,0,500991:0:0:0:0:
320,192,500814,128,0,501167:0:0:0:0:
192,192,500991,1,0,0:0:0:0:
192,192,501167,128,0,502579:0:0:0:0:
448,192,501167,128,0,501520:0:0:0:0:
64,192,501167,128,0,502050:0:0:0:0:
320,192,501520,1,0,0:0:0:0:
320,192,501697,128,0,502403:0:0:0:0:
448,192,501697,1,0,0:0:0:0:
448,192,502050,1,0,0:0:0:0:
448,192,502226,128,0,502403:0:0:0:0:
64,192,502226,1,0,0:0:0:0:
64,192,502403,1,0,0:0:0:0:
448,192,502579,128,0,503109:0:0:0:0:
64,192,502579,128,0,503638:0:0:0:0:
320,192,502579,128,0,503285:0:0:0:0:
192,192,502756,1,0,0:0:0:0:
192,192,503109,1,0,0:0:0:0:
448,192,503285,128,0,503814:0:0:0:0:
192,192,503285,128,0,503461:0:0:0:0:
320,192,503461,128,0,503814:0:0:0:0:
192,192,503638,128,0,503814:0:0:0:0:
64,192,503814,1,0,0:0:0:0:
448,192,503991,128,0,504344:0:0:0:0:
192,192,503991,128,0,504520:0:0:0:0:
64,192,503991,128,0,505226:0:0:0:0:
320,192,503991,128,0,504167:0:0:0:0:
320,192,504344,1,0,0:0:0:0:
320,192,504520,128,0,505050:0:0:0:0:
448,192,504520,128,0,504873:0:0:0:0:
192,192,504873,1,0,0:0:0:0:
448,192,505050,128,0,505403:0:0:0:0:
192,192,505050,128,0,505226:0:0:0:0:
320,192,505226,1,0,0:0:0:0:
192,192,505403,128,0,505932:0:0:0:0:
64,192,505403,128,0,505756:0:0:0:0:
320,192,505403,128,0,506461:0:0:0:0:
448,192,505579,1,0,0:0:0:0:
448,192,505756,1,0,0:0:0:0:
448,192,505932,128,0,506285:0:0:0:0:
64,192,505932,128,0,506638:0:0:0:0:
192,192,506109,1,0,0:0:0:0:
192,192,506285,1,0,0:0:0:0:
192,192,506461,128,0,506814:0:0:0:0:
448,192,506461,128,0,506638:0:0:0:0:
320,192,506638,1,0,0:0:0:0:
320,192,506814,128,0,507697:0:0:0:0:
448,192,506814,128,0,508050:0:0:0:0:
64,192,506814,128,0,507167:0:0:0:0:
192,192,507167,1,0,0:0:0:0:
64,192,507344,1,0,0:0:0:0:
192,192,507344,128,0,508226:0:0:0:0:
64,192,507697,1,0,0:0:0:0:
64,192,507873,128,0,508050:0:0:0:0:
320,192,507873,1,0,0:0:0:0:
320,192,508050,1,0,0:0:0:0:
320,192,508226,128,0,508579:0:0:0:0:
64,192,508226,128,0,508932:0:0:0:0:
448,192,508226,128,0,508579:0:0:0:0:
192,192,508579,128,0,509109:0:0:0:0:
448,192,508756,1,0,0:0:0:0:
320,192,508756,128,0,509285:0:0:0:0:
448,192,508932,128,0,509461:0:0:0:0:
64,192,509109,1,0,0:0:0:0:
64,192,509285,128,0,509638:0:0:0:0:
192,192,509285,128,0,509461:0:0:0:0:
320,192,509461,1,0,0:0:0:0:
192,192,509638,128,0,509991:0:0:0:0:
320,192,509638,128,0,510167:0:0:0:0:
448,192,509638,128,0,510520:0:0:0:0:
64,192,509814,1,0,0:0:0:0:
64,192,509991,1,0,0:0:0:0:
64,192,510167,128,0,510873:0:0:0:0:
192,192,510167,128,0,510697:0:0:0:0:
320,192,510520,1,0,0:0:0:0:
448,192,510697,128,0,510873:0:0:0:0:
320,192,510697,128,0,511050:0:0:0:0:
192,192,510873,1,0,0:0:0:0:
448,192,511050,128,0,511403:0:0:0:0:
64,192,511050,128,0,511579:0:0:0:0:
192,192,511050,128,0,512109:0:0:0:0:
320,192,511579,128,0,512285:0:0:0:0:
448,192,511579,128,0,511932:0:0:0:0:
64,192,511756,1,0,0:0:0:0:
64,192,511932,1,0,0:0:0:0:
64,192,512109,128,0,512285:0:0:0:0:
448,192,512109,128,0,512285:0:0:0:0:
192,192,512285,1,0,0:0:0:0:
448,192,512373,1,0,0:0:0:0:
320,192,512461,128,0,512638:0:0:0:0:
192,192,512461,128,0,512814:0:0:0:0:
64,192,512461,128,0,513344:0:0:0:0:
448,192,512638,1,0,0:0:0:0:
320,192,512814,128,0,512991:0:0:0:0:
448,192,512814,128,0,513167:0:0:0:0:
192,192,512991,1,0,0:0:0:0:
192,192,513167,128,0,513520:0:0:0:0:
320,192,513167,128,0,513344:0:0:0:0:
448,192,513344,1,0,0:0:0:0:
64,192,513520,128,0,513697:0:0:0:0:
448,192,513520,128,0,513697:0:0:0:0:
320,192,513520,128,0,513873:0:0:0:0:
192,192,513697,1,0,0:0:0:0:
448,192,513873,128,0,513961:0:0:0:0:
64,192,513873,128,0,513961:0:0:0:0:
192,192,513873,128,0,514050:0:0:0:0:
320,192,513961,128,0,514138:0:0:0:0:
64,192,514050,128,0,514314:0:0:0:0:
448,192,514050,128,0,514138:0:0:0:0:
192,192,514138,128,0,514226:0:0:0:0:
448,192,514226,128,0,514314:0:0:0:0:
320,192,514226,128,0,514403:0:0:0:0:
192,192,514314,128,0,514491:0:0:0:0:
448,192,514403,128,0,514667:0:0:0:0:
64,192,514403,128,0,514491:0:0:0:0:
320,192,514491,128,0,514579:0:0:0:0:
64,192,514579,128,0,514667:0:0:0:0:
192,192,514579,128,0,514756:0:0:0:0:
320,192,514667,128,0,514844:0:0:0:0:
448,192,514756,128,0,514844:0:0:0:0:
64,192,514756,128,0,514932:0:0:0:0:
192,192,514844,128,0,514932:0:0:0:0:
448,192,514932,128,0,515020:0:0:0:0:
320,192,514932,128,0,515020:0:0:0:0:
64,192,515020,128,0,515109:0:0:0:0:
192,192,515020,128,0,515197:0:0:0:0:
320,192,515109,128,0,515197:0:0:0:0:
448,192,515109,128,0,515197:0:0:0:0:
64,192,515197,128,0,515461:0:0:0:0:
192,192,515285,128,0,515638:0:0:0:0:
320,192,515285,128,0,515814:0:0:0:0:
448,192,515285,128,0,516167:0:0:0:0:
64,192,515638,1,0,0:0:0:0:
64,192,515814,128,0,516167:0:0:0:0:
192,192,515814,128,0,516344:0:0:0:0:
320,192,516167,1,0,0:0:0:0:
448,192,516344,128,0,516697:0:0:0:0:
320,192,516344,128,0,516520:0:0:0:0:
64,192,516344,128,0,516520:0:0:0:0:
192,192,516520,1,0,0:0:0:0:
320,192,516697,128,0,517403:0:0:0:0:
192,192,516697,128,0,516873:0:0:0:0:
64,192,516697,128,0,517050:0:0:0:0:
448,192,516873,1,0,0:0:0:0:
448,192,517050,128,0,517579:0:0:0:0:
192,192,517050,128,0,517667:0:0:0:0:
64,192,517226,1,0,0:0:0:0:
64,192,517403,1,0,0:0:0:0:
64,192,517579,128,0,517667:0:0:0:0:
320,192,517579,128,0,517844:0:0:0:0:
448,192,517756,128,0,517844:0:0:0:0:
192,192,517756,128,0,518020:0:0:0:0:
64,192,517932,128,0,518285:0:0:0:0:
320,192,517932,128,0,518020:0:0:0:0:
320,192,518109,128,0,518991:0:0:0:0:
192,192,518109,128,0,518461:0:0:0:0:
448,192,518109,128,0,518285:0:0:0:0:
64,192,518461,128,0,519344:0:0:0:0:
448,192,518461,128,0,519167:0:0:0:0:
192,192,518638,1,0,0:0:0:0:
192,192,518991,1,0,0:0:0:0:
192,192,519167,128,0,519344:0:0:0:0:
320,192,519167,128,0,519344:0:0:0:0:
448,192,519344,1,0,0:0:0:0:
192,192,519432,1,0,0:0:0:0:
448,192,519520,128,0,520403:0:0:0:0:
64,192,519520,128,0,519873:0:0:0:0:
320,192,519520,128,0,520050:0:0:0:0:
192,192,519873,1,0,0:0:0:0:
64,192,520050,128,0,520756:0:0:0:0:
192,192,520050,128,0,520403:0:0:0:0:
320,192,520226,1,0,0:0:0:0:
320,192,520403,1,0,0:0:0:0:
192,192,520579,128,0,520932:0:0:0:0:
448,192,520579,128,0,520756:0:0:0:0:
320,192,520756,1,0,0:0:0:0:
320,192,520932,128,0,521461:0:0:0:0:
448,192,520932,128,0,521814:0:0:0:0:
64,192,520932,128,0,521285:0:0:0:0:
192,192,521285,1,0,0:0:0:0:
64,192,521461,128,0,522167:0:0:0:0:
192,192,521461,128,0,521991:0:0:0:0:
320,192,521814,1,0,0:0:0:0:
448,192,521991,128,0,522167:0:0:0:0:
320,192,521991,128,0,522344:0:0:0:0:
192,192,522167,1,0,0:0:0:0:
448,192,522344,128,0,522697:0:0:0:0:
192,192,522344,128,0,523226:0:0:0:0:
64,192,522344,128,0,522873:0:0:0:0:
320,192,522520,1,0,0:0:0:0:
320,192,522697,1,0,0:0:0:0:
320,192,522873,128,0,523403:0:0:0:0:
448,192,522873,128,0,523579:0:0:0:0:
64,192,523050,1,0,0:0:0:0:
64,192,523226,1,0,0:0:0:0:
64,192,523403,128,0,523579:0:0:0:0:
192,192,523403,128,0,523579:0:0:0:0:
320,192,523579,128,0,523932:0:0:0:0:
448,192,523756,128,0,524638:0:0:0:0:
64,192,523756,128,0,524108:0:0:0:0:
192,192,523756,128,0,524991:0:0:0:0:
320,192,524108,1,0,0:0:0:0:
64,192,524285,1,0,0:0:0:0:
320,192,524285,128,0,524814:0:0:0:0:
64,192,524638,1,0,0:0:0:0:
448,192,524814,128,0,525167:0:0:0:0:
64,192,524814,128,0,524991:0:0:0:0:
320,192,524991,1,0,0:0:0:0:
320,192,525167,128,0,525432:0:0:0:0:
64,192,525167,128,0,525256:0:0:0:0:
192,192,525167,128,0,525344:0:0:0:0:
448,192,525256,128,0,525609:0:0:0:0:
64,192,525344,128,0,525520:0:0:0:0:
192,192,525432,128,0,525609:0:0:0:0:
320,192,525520,128,0,525697:0:0:0:0:
64,192,525609,128,0,525785:0:0:0:0:
448,192,525697,128,0,525873:0:0:0:0:
192,192,525697,128,0,525785:0:0:0:0:
320,192,525785,128,0,525961:0:0:0:0:
64,192,525873,128,0,525961:0:0:0:0:
192,192,525873,128,0,526050:0:0:0:0:
448,192,525961,128,0,526138:0:0:0:0:
320,192,526050,128,0,526138:0:0:0:0:
64,192,526050,128,0,526226:0:0:0:0:
192,192,526138,128,0,526314:0:0:0:0:
448,192,526226,128,0,526403:0:0:0:0:
320,192,526226,128,0,526314:0:0:0:0:
64,192,526314,128,0,526491:0:0:0:0:
320,192,526403,128,0,526491:0:0:0:0:
192,192,526403,128,0,526491:0:0:0:0:
448,192,526491,128,0,526756:0:0:0:0:
192,192,526579,128,0,527109:0:0:0:0:
320,192,526579,128,0,527726:0:0:0:0:
64,192,526579,128,0,526932:0:0:0:0:
448,192,526932,1,0,0:0:0:0:
64,192,527109,128,0,527638:0:0:0:0:
448,192,527109,128,0,527461:0:0:0:0:
192,192,527461,1,0,0:0:0:0:
448,192,527638,128,0,527903:0:0:0:0:
192,192,527638,128,0,527726:0:0:0:0:
320,192,527814,128,0,527903:0:0:0:0:
64,192,527814,128,0,527991:0:0:0:0:
192,192,527991,128,0,528167:0:0:0:0:
320,192,527991,128,0,528344:0:0:0:0:
448,192,527991,128,0,528873:0:0:0:0:
64,192,528167,1,0,0:0:0:0:
64,192,528344,128,0,529226:0:0:0:0:
192,192,528344,128,0,529050:0:0:0:0:
320,192,528520,1,0,0:0:0:0:
320,192,528697,1,0,0:0:0:0:
320,192,528873,1,0,0:0:0:0:
448,192,529050,128,0,529403:0:0:0:0:
320,192,529050,128,0,529226:0:0:0:0:
192,192,529226,1,0,0:0:0:0:
64,192,529403,128,0,529756:0:0:0:0:
320,192,529403,128,0,530285:0:0:0:0:
192,192,529403,128,0,530461:0:0:0:0:
448,192,529756,1,0,0:0:0:0:
64,192,529932,1,0,0:0:0:0:
448,192,529932,128,0,530550:0:0:0:0:
64,192,530285,1,0,0:0:0:0:
64,192,530461,128,0,530726:0:0:0:0:
320,192,530461,128,0,530550:0:0:0:0:
448,192,530638,128,0,530991:0:0:0:0:
192,192,530638,128,0,530726:0:0:0:0:
320,192,530814,128,0,531167:0:0:0:0:
192,192,530814,128,0,530991:0:0:0:0:
64,192,530814,128,0,531167:0:0:0:0:
192,192,531167,128,0,531697:0:0:0:0:
448,192,531167,128,0,532050:0:0:0:0:
64,192,531344,128,0,531873:0:0:0:0:
320,192,531344,1,0,0:0:0:0:
320,192,531520,1,0,0:0:0:0:
320,192,531697,1,0,0:0:0:0:
320,192,531873,128,0,532226:0:0:0:0:
192,192,531873,128,0,532050:0:0:0:0:
64,192,532050,1,0,0:0:0:0:
448,192,532226,128,0,532756:0:0:0:0:
192,192,532226,128,0,533109:0:0:0:0:
64,192,532226,128,0,532579:0:0:0:0:
320,192,532403,1,0,0:0:0:0:
320,192,532579,1,0,0:0:0:0:
320,192,532756,128,0,533285:0:0:0:0:
64,192,532756,128,0,533373:0:0:0:0:
192,192,533285,128,0,533373:0:0:0:0:
448,192,533285,128,0,533550:0:0:0:0:
64,192,533461,128,0,533814:0:0:0:0:
320,192,533461,128,0,533550:0:0:0:0:
320,192,533638,128,0,533814:0:0:0:0:
448,192,533638,128,0,533991:0:0:0:0:
192,192,533638,128,0,534520:0:0:0:0:
64,192,533991,128,0,534697:0:0:0:0:
320,192,533991,128,0,534785:0:0:0:0:
448,192,534167,1,0,0:0:0:0:
448,192,534344,1,0,0:0:0:0:
448,192,534520,1,0,0:0:0:0:
448,192,534697,128,0,534961:0:0:0:0:
192,192,534697,128,0,534785:0:0:0:0:
64,192,534873,128,0,534961:0:0:0:0:
192,192,534873,128,0,534961:0:0:0:0:
320,192,534961,1,0,0:0:0:0:
448,192,535050,128,0,535226:0:0:0:0:
64,192,535050,128,0,535756:0:0:0:0:
192,192,535050,128,0,535403:0:0:0:0:
320,192,535226,1,0,0:0:0:0:
320,192,535403,128,0,535756:0:0:0:0:
448,192,535403,128,0,535579:0:0:0:0:
192,192,535579,1,0,0:0:0:0:
192,192,535756,1,0,0:0:0:0:
448,192,535756,128,0,536109:0:0:0:0:
320,192,535932,1,0,0:0:0:0:
192,192,536109,128,0,536285:0:0:0:0:
320,192,536109,128,0,536285:0:0:0:0:
64,192,536109,128,0,536461:0:0:0:0:
448,192,536285,1,0,0:0:0:0:
192,192,536461,128,0,536550:0:0:0:0:
448,192,536461,128,0,537079:0:0:0:0:
320,192,536461,128,0,536638:0:0:0:0:
192,192,536638,128,0,536814:0:0:0:0:
64,192,536638,128,0,536726:0:0:0:0:
64,192,536814,128,0,536903:0:0:0:0:
320,192,536814,128,0,536991:0:0:0:0:
192,192,536991,128,0,537256:0:0:0:0:
64,192,536991,128,0,537079:0:0:0:0:
64,192,537167,128,0,537256:0:0:0:0:
320,192,537167,128,0,537432:0:0:0:0:
448,192,537167,128,0,537256:0:0:0:0:
192,192,537344,128,0,537520:0:0:0:0:
64,192,537344,128,0,537432:0:0:0:0:
448,192,537344,128,0,537432:0:0:0:0:
448,192,537520,128,0,537609:0:0:0:0:
320,192,537520,128,0,537697:0:0:0:0:
64,192,537520,128,0,537609:0:0:0:0:
192,192,537609,128,0,537785:0:0:0:0:
64,192,537697,128,0,537785:0:0:0:0:
448,192,537697,128,0,537785:0:0:0:0:
320,192,537785,128,0,538314:0:0:0:0:
448,192,537873,128,0,540609:0:0:0:0:
64,192,537873,128,0,543432:0:0:0:0:
192,192,537873,128,0,538844:0:0:0:0:
320,192,538403,1,0,0:0:0:0:
192,192,538932,1,0,0:0:0:0:
320,192,539285,1,0,0:0:0:0:
192,192,539814,1,0,0:0:0:0:
320,192,540344,1,0,0:0:0:0:
192,192,540609,1,0,0:0:0:0:
320,192,540653,1,0,0:0:0:0:
448,192,540697,1,0,0:0:0:0:
448,192,542109,1,0,0:0:0:0:
320,192,542638,1,0,0:0:0:0:
192,192,543167,1,0,0:0:0:0:
64,192,543520,1,0,0:0:0:0:
448,192,543520,1,0,0:0:0:0:
192,192,544050,1,0,0:0:0:0:
64,192,544579,1,0,0:0:0:0:
320,192,544932,1,0,0:0:0:0:
192,192,545461,1,0,0:0:0:0:
448,192,545991,1,0,0:0:0:0:
320,192,546226,1,0,0:0:0:0:
192,192,546285,1,0,0:0:0:0:
64,192,546344,1,0,0:0:0:0:
448,192,546344,1,0,0:0:0:0:
192,192,547756,1,0,0:0:0:0:
448,192,548461,1,0,0:0:0:0:
320,192,549079,1,0,0:0:0:0:
448,192,549167,1,0,0:0:0:0:
64,192,549167,1,0,0:0:0:0:
192,192,549197,1,0,0:0:0:0:
320,192,549226,1,0,0:0:0:0:
448,192,549697,1,0,0:0:0:0:
192,192,550226,1,0,0:0:0:0:
64,192,550579,1,0,0:0:0:0:
192,192,551109,1,0,0:0:0:0:
320,192,551638,1,0,0:0:0:0:
192,192,551903,1,0,0:0:0:0:
320,192,551961,1,0,0:0:0:0:
448,192,551991,1,0,0:0:0:0:
64,192,551991,1,0,0:0:0:0:
192,192,552050,1,0,0:0:0:0:
192,192,553050,1,0,0:0:0:0:
448,192,553226,1,0,0:0:0:0:
192,192,553403,1,0,0:0:0:0:
64,192,553932,1,0,0:0:0:0:
320,192,554461,1,0,0:0:0:0:
192,192,554697,1,0,0:0:0:0:
448,192,554756,1,0,0:0:0:0:
320,192,554814,1,0,0:0:0:0:
64,192,554814,1,0,0:0:0:0:
192,192,554844,1,0,0:0:0:0:
320,192,555344,1,0,0:0:0:0:
192,192,555873,1,0,0:0:0:0:
64,192,556226,1,0,0:0:0:0:
448,192,556756,1,0,0:0:0:0:
192,192,557285,1,0,0:0:0:0:
64,192,557461,1,0,0:0:0:0:
192,192,557520,1,0,0:0:0:0:
320,192,557579,1,0,0:0:0:0:
448,192,557638,1,0,0:0:0:0:
64,192,557638,128,0,559050:0:0:0:0:
192,192,557667,1,0,0:0:0:0:
448,192,559050,128,0,560373:0:0:0:0:
448,192,560461,5,0,0:0:0:0:
