osu file format v14

[General]
AudioFilename: Interlude.mp3
AudioLeadIn: 0
PreviewTime: 6391
Countdown: 0
SampleSet: Normal
StackLeniency: 0.7
Mode: 3
LetterboxInBreaks: 0
SpecialStyle: 0
WidescreenStoryboard: 0

[Editor]
DistanceSpacing: 1.7
BeatDivisor: 12
GridSize: 8
TimelineZoom: 1

[Metadata]
Title:Interlude
TitleUnicode:Interlude
Artist:Delta Sleep
ArtistUnicode:Delta Sleep
Creator:Civilization
Version:Normalem
Source:
Tags:sv alternative post hardcore indie math rock
BeatmapID:1454536
BeatmapSetID:687369

[Difficulty]
HPDrainRate:8
CircleSize:4
OverallDifficulty:8
ApproachRate:5
SliderMultiplier:1.4
SliderTickRate:1

[Events]
//Background and Video events
0,0,"Untitled.png",0,0
//Break Periods
//Storyboard Layer 0 (Background)
//Storyboard Layer 1 (Fail)
//Storyboard Layer 2 (Pass)
//Storyboard Layer 3 (Foreground)
//Storyboard Sound Samples

[TimingPoints]
841,800,4,1,1,40,1,0
841.01,-133.333333333333,4,1,1,40,0,0
6441,-66.6666666666667,4,1,1,40,0,0
6491,-100,4,1,1,40,0,0
7199,800,4,1,1,40,1,0
10399,-33.3333333333333,4,1,1,40,0,0
10432,-142.857142857143,4,1,1,40,0,0
10932,-125,4,1,1,40,0,0
10999,-111.111111111111,4,1,1,40,0,0
11065,-100,4,1,1,40,0,0
11132,-71.4285714285714,4,1,1,40,0,0
11165,-50,4,1,1,40,0,0
11199,-100,4,1,1,40,0,0
11999,800,4,1,1,40,1,0
23199,-20,4,1,1,40,0,0
23232,-250,4,1,1,40,0,0
23599,-200,4,1,1,40,0,0
23732,-166.666666666667,4,1,1,40,0,0
23865,-133.333333333333,4,1,1,40,0,0
23932,-111.111111111111,4,1,1,40,0,0
23999,-100,4,1,1,40,0,0
31199,-133.333333333333,4,1,1,40,0,0

[HitObjects]
64,192,41,5,0,0:0:0:0:
64,192,307,1,0,0:0:0:0:
448,192,441,1,0,0:0:0:0:
448,192,707,1,0,0:0:0:0:
64,192,841,128,0,6307:0:0:0:0:
448,192,1641,128,0,6307:0:0:0:0:
320,192,2441,128,0,6307:0:0:0:0:
448,192,6441,1,0,0:0:0:0:
320,192,6441,1,8,0:0:0:0:
64,192,6441,1,0,0:0:0:0:
192,192,6841,128,0,7199:0:0:0:0:
64,192,7199,1,4,0:0:0:0:
448,192,7199,128,0,7865:0:0:0:0:
448,192,7999,1,8,0:0:0:0:
64,192,7999,128,0,8799:0:0:0:0:
192,192,8799,1,4,0:0:0:0:
320,192,8799,128,0,9065:0:0:0:0:
448,192,9065,1,4,0:0:0:0:
64,192,9065,128,0,9599:0:0:0:0:
320,192,9599,1,8,0:0:0:0:
448,192,9599,128,0,10399:0:0:0:0:
192,192,9999,1,0,0:0:0:0:
320,192,10799,128,0,11199:0:0:0:0:
448,192,11199,1,8,0:0:0:0:
64,192,11199,128,0,11465:0:0:0:0:
320,192,11465,1,4,0:0:0:0:
192,192,11465,1,0,0:0:0:0:
448,192,11599,128,0,11999:0:0:0:0:
192,192,11999,1,4,0:0:0:0:
64,192,11999,1,0,0:0:0:0:
192,192,12265,1,4,0:0:0:0:
448,192,12265,1,0,0:0:0:0:
320,192,12399,128,0,12799:0:0:0:0:
448,192,12799,1,0,0:0:0:0:
64,192,12799,1,8,0:0:0:0:
320,192,13065,1,0,0:0:0:0:
448,192,13199,1,0,0:0:0:0:
64,192,13199,1,4,0:0:0:0:
192,192,13465,1,0,0:0:0:0:
64,192,13599,1,4,0:0:0:0:
448,192,13599,1,0,0:0:0:0:
320,192,13865,1,0,0:0:0:0:
64,192,13999,128,4,14265:0:0:0:0:
448,192,13999,1,0,0:0:0:0:
320,192,14265,128,0,14399:0:0:0:0:
448,192,14399,1,0,0:0:0:0:
64,192,14399,1,8,0:0:0:0:
192,192,14665,1,0,0:0:0:0:
320,192,14665,1,4,0:0:0:0:
64,192,14799,1,0,0:0:0:0:
320,192,15065,1,0,0:0:0:0:
64,192,15199,1,0,0:0:0:0:
448,192,15199,1,0,0:0:0:0:
192,192,15465,1,4,0:0:0:0:
320,192,15465,1,0,0:0:0:0:
448,192,15599,128,0,15999:0:0:0:0:
192,192,15999,1,0,0:0:0:0:
64,192,15999,1,8,0:0:0:0:
320,192,16265,1,0,0:0:0:0:
64,192,16399,1,4,0:0:0:0:
192,192,16399,1,0,0:0:0:0:
448,192,16665,1,0,0:0:0:0:
192,192,16799,1,4,0:0:0:0:
64,192,16799,1,0,0:0:0:0:
320,192,17065,1,0,0:0:0:0:
64,192,17199,128,4,17465:0:0:0:0:
448,192,17199,1,0,0:0:0:0:
192,192,17465,128,0,17599:0:0:0:0:
320,192,17599,1,8,0:0:0:0:
448,192,17599,1,0,0:0:0:0:
64,192,17865,1,4,0:0:0:0:
320,192,17999,128,0,18399:0:0:0:0:
448,192,18399,1,4,0:0:0:0:
64,192,18399,128,0,19199:0:0:0:0:
320,192,19199,1,4,0:0:0:0:
448,192,19199,128,0,19465:0:0:0:0:
64,192,19465,1,0,0:0:0:0:
192,192,19465,128,0,19865:0:0:0:0:
192,192,19999,1,4,0:0:0:0:
320,192,19999,128,0,20665:0:0:0:0:
320,192,20799,1,8,0:0:0:0:
448,192,20799,128,0,21599:0:0:0:0:
192,192,21599,1,4,0:0:0:0:
64,192,21599,128,0,21865:0:0:0:0:
320,192,21865,1,4,0:0:0:0:
448,192,21865,128,0,22399:0:0:0:0:
320,192,22399,1,8,0:0:0:0:
192,192,22399,128,0,23199:0:0:0:0:
64,192,22799,1,0,0:0:0:0:
448,192,23999,1,0,0:0:0:0:
192,192,23999,128,8,24265:0:0:0:0:
320,192,24265,1,4,0:0:0:0:
448,192,24265,1,0,0:0:0:0:
64,192,24399,128,0,24799:0:0:0:0:
448,192,24799,1,4,0:0:0:0:
192,192,24799,1,0,0:0:0:0:
448,192,25065,1,0,0:0:0:0:
64,192,25065,1,4,0:0:0:0:
192,192,25199,128,0,25599:0:0:0:0:
64,192,25599,1,8,0:0:0:0:
320,192,25599,1,0,0:0:0:0:
192,192,25865,1,0,0:0:0:0:
320,192,25999,1,4,0:0:0:0:
64,192,25999,1,0,0:0:0:0:
448,192,26265,1,0,0:0:0:0:
320,192,26399,1,4,0:0:0:0:
64,192,26399,1,0,0:0:0:0:
192,192,26665,1,0,0:0:0:0:
64,192,26799,1,4,0:0:0:0:
320,192,26799,128,0,27065:0:0:0:0:
64,192,27065,128,0,27199:0:0:0:0:
192,192,27199,1,8,0:0:0:0:
448,192,27199,1,0,0:0:0:0:
320,192,27465,1,4,0:0:0:0:
192,192,27599,1,0,0:0:0:0:
448,192,27599,1,0,0:0:0:0:
64,192,27865,1,0,0:0:0:0:
192,192,27999,1,0,0:0:0:0:
448,192,27999,1,0,0:0:0:0:
320,192,28265,1,4,0:0:0:0:
192,192,28399,128,0,28799:0:0:0:0:
320,192,28799,1,0,0:0:0:0:
64,192,28799,1,8,0:0:0:0:
320,192,29065,1,0,0:0:0:0:
448,192,29199,1,4,0:0:0:0:
192,192,29199,1,0,0:0:0:0:
192,192,29465,1,0,0:0:0:0:
64,192,29599,1,4,0:0:0:0:
320,192,29599,1,0,0:0:0:0:
320,192,29865,1,0,0:0:0:0:
448,192,29999,1,4,0:0:0:0:
192,192,29999,128,0,30265:0:0:0:0:
320,192,30265,128,0,30399:0:0:0:0:
448,192,30399,1,0,0:0:0:0:
192,192,30399,1,8,0:0:0:0:
448,192,30665,1,4,0:0:0:0:
192,192,30665,1,0,0:0:0:0:
64,192,30799,1,0,0:0:0:0:
192,192,31065,1,0,0:0:0:0:
320,192,31199,1,4,0:0:0:0:
448,192,31199,128,0,34932:0:0:0:0:
64,192,32065,128,0,34932:0:0:0:0:
192,192,32932,128,0,34932:0:0:0:0:
