osu file format v14

[General]
AudioFilename: Interlude.mp3
AudioLeadIn: 0
PreviewTime: 6391
Countdown: 0
SampleSet: Normal
StackLeniency: 0.7
Mode: 3
LetterboxInBreaks: 0
SpecialStyle: 0
WidescreenStoryboard: 1

[Editor]
DistanceSpacing: 1.7
BeatDivisor: 16
GridSize: 8
TimelineZoom: 1.3

[Metadata]
Title:Interlude
TitleUnicode:Interlude
Artist:Delta Sleep
ArtistUnicode:Delta Sleep
Creator:Civilization
Version:Delirus
Source:
Tags:sv alternative post hardcore indie math rock
BeatmapID:1454484
BeatmapSetID:687369

[Difficulty]
HPDrainRate:9
CircleSize:4
OverallDifficulty:9
ApproachRate:5
SliderMultiplier:1.4
SliderTickRate:1

[Events]
//Background and Video events
0,0,"Untitled.png",0,0
//Break Periods
//Storyboard Layer 0 (Background)
//Storyboard Layer 1 (Fail)
//Storyboard Layer 2 (Pass)
//Storyboard Layer 3 (Foreground)
//Storyboard Sound Samples

[TimingPoints]
841,800,4,1,1,80,1,0
841.01,-133.3333333,4,1,1,80,0,0
6441,-10,4,1,1,80,0,0
6507,-250,4,1,1,80,0,0
6932,-200,4,1,1,80,0,0
6999,-142.8571429,4,1,1,80,0,0
7065,-100,4,1,1,80,0,0
7132,-71.42857143,4,1,1,80,0,0
7165,-50,4,1,1,80,0,0
7199,800,4,1,1,80,1,0
7201,-100,4,1,1,80,0,0
8001,-50,4,1,1,80,0,0
8035,-100,4,1,1,80,0,0
8800,-50,4,1,1,80,0,0
8834,-100,4,1,1,80,0,0
9067,-50,4,1,1,80,0,0
9101,-100,4,1,1,80,0,0
9600,-50,4,1,1,80,0,0
9634,-100,4,1,1,80,0,0
10400,-10,4,1,1,80,0,0
10433,-250,4,1,1,80,0,0
10933,-200,4,1,1,80,0,0
11000,-142.8571429,4,1,1,80,0,0
11066,-100,4,1,1,80,0,0
11134,-71.42857143,4,1,1,80,0,0
11167,-50,4,1,1,80,0,0
11201,-100,4,1,1,80,0,0
11600,-50,4,1,1,80,0,0
11634,-100,4,1,1,80,0,0
11999,800,4,1,1,80,1,0
12000,-50,4,1,1,80,0,0
12034,-100,4,1,1,80,0,0
12400,-133.3333333,4,1,1,80,0,0
12800,-50,4,1,1,80,0,0
12834,-100,4,1,1,80,0,0
13199,-50,4,1,1,80,0,0
13234,-100,4,1,1,80,0,0
13600,-50,4,1,1,80,0,0
13634,-100,4,1,1,80,0,0
14000,-133.3333333,4,1,1,80,0,0
14400,-50,4,1,1,80,0,0
14434,-100,4,1,1,80,0,0
14800,-50,4,1,1,80,0,0
14834,-100,4,1,1,80,0,0
15199,-50,4,1,1,80,0,0
15233,-100,4,1,1,80,0,0
15600,-133.3333333,4,1,1,80,0,0
15999,-50,4,1,1,80,0,0
16033,-100,4,1,1,80,0,0
16400,-50,4,1,1,80,0,0
16434,-100,4,1,1,80,0,0
16800,-50,4,1,1,80,0,0
16834,-100,4,1,1,80,0,0
17199,-133.3333333,4,1,1,80,0,0
17600,-50,4,1,1,80,0,0
17634,-100,4,1,1,80,0,0
17866,-66.66666667,4,1,1,80,0,0
17999,-50,4,1,1,80,0,0
18032,-200,4,1,1,80,0,0
18265,-142.857142857143,4,1,1,80,0,0
18332,-111.111111111111,4,1,1,80,0,0
18399,-50,4,1,1,80,0,0
18433,-100,4,1,1,80,0,0
19199,-50,4,1,1,80,0,0
19233,-100,4,1,1,80,0,0
19999,-50,4,1,1,80,0,0
20033,-100,4,1,1,80,0,0
20799,-50,4,1,1,80,0,0
20833,-100,4,1,1,80,0,0
21599,-50,4,1,1,80,0,0
21633,-100,4,1,1,80,0,0
21867,-50,4,1,1,80,0,0
21901,-100,4,1,1,80,0,0
22400,-50,4,1,1,80,0,0
22434,-100,4,1,1,80,0,0
23200,-10,4,1,1,80,0,0
23233,-250,4,1,1,80,0,0
23866,-133.3333333,4,1,1,80,0,0
24000,-50,4,1,1,80,0,0
24034,-100,4,1,1,80,0,0
24399,-50,4,1,1,80,0,0
24433,-100,4,1,1,80,0,0
24799,-50,4,1,1,80,0,0
24833,-100,4,1,1,80,0,0
25200,-133.3333333,4,1,1,80,0,0
25599,-50,4,1,1,80,0,0
25633,-100,4,1,1,80,0,0
26000,-50,4,1,1,80,0,0
26034,-100,4,1,1,80,0,0
26399,-50,4,1,1,80,0,0
26433,-100,4,1,1,80,0,0
26799,-133.3333333,4,1,1,80,0,0
27067,-100,4,1,1,80,0,0
27200,-50,4,1,1,80,0,0
27233,-100,4,1,1,80,0,0
27599,-50,4,1,1,80,0,0
27633,-100,4,1,1,80,0,0
27999,-50,4,1,1,80,0,0
28034,-100,4,1,1,80,0,0
28399,-133.3333333,4,1,1,80,0,0
28799,-50,4,1,1,80,0,0
28833,-100,4,1,1,80,0,0
29199,-50,4,1,1,80,0,0
29233,-100,4,1,1,80,0,0
29599,-50,4,1,1,80,0,0
29633,-100,4,1,1,80,0,0
29999,-133.3333333,4,1,1,80,0,0
30266,-100,4,1,1,80,0,0
30399,-50,4,1,1,80,0,0
30433,-100,4,1,1,80,0,0
30799,-50,4,1,1,80,0,0
30833,-100,4,1,1,80,0,0
31199,-133.3333333,4,1,1,80,0,0

[HitObjects]
64,192,41,5,0,0:0:0:0:
64,192,174,1,0,0:0:0:0:
192,192,307,1,0,0:0:0:0:
448,192,441,1,0,0:0:0:0:
448,192,574,1,0,0:0:0:0:
320,192,707,1,0,0:0:0:0:
64,192,841,128,0,6307:0:0:0:0:
448,192,1641,128,0,6307:0:0:0:0:
320,192,2441,128,0,6307:0:0:0:0:
320,192,6441,1,8,0:0:0:0:
448,192,6441,1,0,0:0:0:0:
64,192,6441,1,0,0:0:0:0:
192,192,6841,128,0,7199:0:0:0:0:
320,192,7199,128,0,7865:0:0:0:0:
448,192,7199,1,4,0:0:0:0:
64,192,7465,1,0,0:0:0:0:
192,192,7599,1,0,0:0:0:0:
448,192,7865,1,0,0:0:0:0:
64,192,7999,1,8,0:0:0:0:
320,192,7999,128,0,8665:0:0:0:0:
192,192,8265,1,0,0:0:0:0:
448,192,8532,1,0,0:0:0:0:
448,192,8799,128,0,8932:0:0:0:0:
64,192,8799,1,4,0:0:0:0:
320,192,9065,1,4,0:0:0:0:
448,192,9065,128,0,9465:0:0:0:0:
192,192,9199,1,0,0:0:0:0:
64,192,9465,1,0,0:0:0:0:
448,192,9599,1,8,0:0:0:0:
320,192,9599,128,0,10399:0:0:0:0:
192,192,9999,1,0,0:0:0:0:
192,192,10799,128,0,11199:0:0:0:0:
64,192,11199,1,8,0:0:0:0:
448,192,11199,128,0,11465:0:0:0:0:
320,192,11465,1,4,0:0:0:0:
192,192,11465,1,0,0:0:0:0:
64,192,11599,128,0,11999:0:0:0:0:
320,192,11999,1,4,0:0:0:0:
448,192,11999,1,0,0:0:0:0:
192,192,12132,1,0,0:0:0:0:
448,192,12265,1,4,0:0:0:0:
320,192,12265,1,0,0:0:0:0:
64,192,12399,128,0,12799:0:0:0:0:
320,192,12799,1,0,0:0:0:0:
448,192,12799,1,8,0:0:0:0:
192,192,12932,1,0,0:0:0:0:
448,192,13065,1,0,0:0:0:0:
320,192,13199,1,0,0:0:0:0:
448,192,13199,1,4,0:0:0:0:
192,192,13332,1,0,0:0:0:0:
448,192,13465,1,0,0:0:0:0:
320,192,13599,1,0,0:0:0:0:
448,192,13599,1,4,0:0:0:0:
192,192,13732,1,0,0:0:0:0:
448,192,13865,1,0,0:0:0:0:
320,192,13999,1,4,0:0:0:0:
64,192,13999,128,0,14265:0:0:0:0:
448,192,14265,1,0,0:0:0:0:
192,192,14399,1,0,0:0:0:0:
64,192,14399,1,8,0:0:0:0:
320,192,14532,1,0,0:0:0:0:
64,192,14665,1,4,0:0:0:0:
448,192,14665,128,0,15199:0:0:0:0:
64,192,14799,1,0,0:0:0:0:
192,192,14799,1,0,0:0:0:0:
320,192,14932,1,0,0:0:0:0:
64,192,15065,1,0,0:0:0:0:
64,192,15199,1,0,0:0:0:0:
192,192,15199,1,0,0:0:0:0:
320,192,15332,1,0,0:0:0:0:
64,192,15465,1,4,0:0:0:0:
448,192,15599,128,0,15865:0:0:0:0:
320,192,15999,1,0,0:0:0:0:
448,192,15999,1,8,0:0:0:0:
192,192,16132,1,0,0:0:0:0:
448,192,16265,1,0,0:0:0:0:
448,192,16399,1,4,0:0:0:0:
320,192,16399,1,0,0:0:0:0:
192,192,16532,1,0,0:0:0:0:
448,192,16665,1,0,0:0:0:0:
320,192,16799,1,0,0:0:0:0:
448,192,16799,1,4,0:0:0:0:
192,192,16932,1,0,0:0:0:0:
448,192,17065,1,0,0:0:0:0:
64,192,17199,128,0,17465:0:0:0:0:
320,192,17199,1,4,0:0:0:0:
448,192,17465,1,0,0:0:0:0:
64,192,17599,1,0,0:0:0:0:
192,192,17599,1,8,0:0:0:0:
320,192,17732,1,0,0:0:0:0:
64,192,17865,1,4,0:0:0:0:
448,192,17865,128,0,17999:0:0:0:0:
320,192,17999,128,0,18399:0:0:0:0:
192,192,18399,1,4,0:0:0:0:
64,192,18399,128,0,19065:0:0:0:0:
448,192,18665,1,0,0:0:0:0:
192,192,18799,1,0,0:0:0:0:
448,192,19065,1,0,0:0:0:0:
320,192,19199,128,0,19465:0:0:0:0:
64,192,19199,1,4,0:0:0:0:
64,192,19465,128,0,19865:0:0:0:0:
192,192,19732,1,0,0:0:0:0:
64,192,19999,1,4,0:0:0:0:
448,192,19999,128,0,20665:0:0:0:0:
192,192,20265,1,0,0:0:0:0:
320,192,20399,1,0,0:0:0:0:
64,192,20665,1,0,0:0:0:0:
192,192,20799,1,8,0:0:0:0:
448,192,20799,128,0,21465:0:0:0:0:
320,192,21065,1,0,0:0:0:0:
192,192,21332,1,0,0:0:0:0:
320,192,21599,1,4,0:0:0:0:
64,192,21599,128,0,21732:0:0:0:0:
320,192,21865,1,4,0:0:0:0:
64,192,21865,128,0,22399:0:0:0:0:
448,192,21999,1,0,0:0:0:0:
192,192,22265,1,0,0:0:0:0:
320,192,22399,1,8,0:0:0:0:
448,192,22399,128,0,23199:0:0:0:0:
192,192,22799,1,0,0:0:0:0:
64,192,23999,128,0,24399:0:0:0:0:
448,192,23999,1,8,0:0:0:0:
320,192,24265,1,4,0:0:0:0:
192,192,24265,1,0,0:0:0:0:
448,192,24399,128,0,24799:0:0:0:0:
320,192,24799,1,4,0:0:0:0:
64,192,24799,1,0,0:0:0:0:
192,192,24932,1,0,0:0:0:0:
320,192,25065,1,4,0:0:0:0:
64,192,25065,1,0,0:0:0:0:
448,192,25199,128,0,25599:0:0:0:0:
320,192,25599,1,8,0:0:0:0:
64,192,25599,1,0,0:0:0:0:
192,192,25732,1,0,0:0:0:0:
320,192,25865,1,0,0:0:0:0:
320,192,25999,1,4,0:0:0:0:
64,192,25999,1,0,0:0:0:0:
192,192,26132,1,0,0:0:0:0:
320,192,26265,1,0,0:0:0:0:
320,192,26399,1,4,0:0:0:0:
64,192,26399,1,0,0:0:0:0:
192,192,26532,1,0,0:0:0:0:
320,192,26665,1,0,0:0:0:0:
192,192,26799,1,4,0:0:0:0:
448,192,26799,128,0,27065:0:0:0:0:
64,192,27065,1,0,0:0:0:0:
192,192,27199,1,8,0:0:0:0:
448,192,27199,1,0,0:0:0:0:
320,192,27332,1,0,0:0:0:0:
192,192,27465,1,4,0:0:0:0:
64,192,27465,128,0,27599:0:0:0:0:
448,192,27599,1,0,0:0:0:0:
192,192,27599,1,0,0:0:0:0:
320,192,27732,1,0,0:0:0:0:
192,192,27865,1,0,0:0:0:0:
192,192,27999,1,0,0:0:0:0:
448,192,27999,1,0,0:0:0:0:
320,192,28132,1,0,0:0:0:0:
192,192,28265,1,4,0:0:0:0:
64,192,28399,128,0,28665:0:0:0:0:
64,192,28799,1,0,0:0:0:0:
320,192,28799,1,8,0:0:0:0:
192,192,28932,1,0,0:0:0:0:
320,192,29065,1,0,0:0:0:0:
320,192,29199,1,4,0:0:0:0:
64,192,29199,1,0,0:0:0:0:
192,192,29332,1,0,0:0:0:0:
320,192,29465,1,0,0:0:0:0:
320,192,29599,1,4,0:0:0:0:
64,192,29599,1,0,0:0:0:0:
192,192,29732,1,0,0:0:0:0:
320,192,29865,1,0,0:0:0:0:
192,192,29999,1,4,0:0:0:0:
448,192,29999,128,0,30265:0:0:0:0:
64,192,30265,1,0,0:0:0:0:
448,192,30399,1,0,0:0:0:0:
192,192,30399,1,8,0:0:0:0:
320,192,30532,1,0,0:0:0:0:
192,192,30665,1,0,0:0:0:0:
64,192,30665,128,4,31065:0:0:0:0:
192,192,30799,1,0,0:0:0:0:
448,192,30799,1,0,0:0:0:0:
320,192,30932,1,0,0:0:0:0:
192,192,31065,1,0,0:0:0:0:
448,192,31199,128,0,34932:0:0:0:0:
320,192,31199,1,4,0:0:0:0:
64,192,32065,128,0,34932:0:0:0:0:
192,192,32932,128,0,34932:0:0:0:0:
